osu file format v14

[General]
AudioFilename: audio.mp3
AudioLeadIn: 0
PreviewTime: 109948
Countdown: 0
SampleSet: None
StackLeniency: 0.3
Mode: 0
LetterboxInBreaks: 0
WidescreenStoryboard: 1

[Editor]
Bookmarks: 90629
DistanceSpacing: 1.2
BeatDivisor: 4
GridSize: 8
TimelineZoom: 2.9

[Metadata]
Title:Halcyon
TitleUnicode:Halcyon
Artist:xi
ArtistUnicode:xi
Creator:MrMenda
Version:ailv's Extra
Source:BMS
Tags:Celektus MaridiuS ailv Cytus yaspo KnightC0re IceKalt BOF2010 BMS of Fighters 2010 Jory -Jordan-
BeatmapID:1507089
BeatmapSetID:684013

[Difficulty]
HPDrainRate:6.2
CircleSize:4.3
OverallDifficulty:8
ApproachRate:9.1
SliderMultiplier:1.9
SliderTickRate:1

[Events]
//Background and Video events
0,0,"halcyon bg.jpg",0,0
//Break Periods
2,5242,6971
2,7755,9484
2,10268,11997
//Storyboard Layer 0 (Background)
//Storyboard Layer 1 (Fail)
//Storyboard Layer 2 (Pass)
//Storyboard Layer 3 (Foreground)
//Storyboard Sound Samples

[TimingPoints]
3784,628.272251308901,4,2,0,15,1,0
5042,628.272251308901,4,2,0,15,1,0
12581,-142.857142857143,4,2,0,15,0,0
14466,-142.857142857143,4,2,0,15,0,0
15094,628.272251308901,4,2,0,25,1,0
15094,-78.125,4,2,0,25,0,0
17592,-90.9090909090909,4,2,0,25,0,0
21280,628.272251308901,4,2,0,25,1,0
21430,705.882352941176,4,2,0,25,1,0
21959,705.882352941176,4,2,0,25,1,0
22393,923.076923076923,4,2,0,15,1,0
22863,800,4,2,0,30,1,0
22863,-96.1538461538461,4,2,0,30,0,0
23663,857.142857142857,4,2,0,30,1,0
24517,1000,4,2,0,25,1,0
25017,1132.07547169811,4,2,0,25,1,0
25300,967.741935483871,4,2,0,25,1,0
27017,314.13612565445,4,2,0,60,1,0
28273,-100,4,3,0,60,0,0
47121,-100,4,3,0,60,0,0
48064,-333.333333333333,4,3,0,60,0,0
48299,-100,4,3,0,5,0,0
48378,-83.3333333333333,4,3,0,60,0,0
48613,-100,4,3,0,5,0,0
48692,-100,4,3,0,60,0,0
49006,-100,4,3,0,50,0,0
50891,-100,4,3,0,50,0,0
53718,-100,4,1,0,80,0,0
54032,-100,4,3,0,50,0,0
54660,-100,4,3,0,50,0,0
58430,-83.3333333333333,4,2,0,60,0,0
59058,-100,4,3,0,50,0,0
59530,-100,4,3,0,50,0,0
60943,-100,4,3,0,50,0,0
63770,-100,4,3,0,60,0,0
64713,-100,4,3,0,60,0,0
68482,-100,4,3,0,60,0,0
68797,-100,4,3,0,60,0,0
69268,-100,4,3,0,60,0,0
78849,-100,4,3,0,60,0,0
79320,-100,4,3,0,60,0,0
87645,-100,4,3,0,60,0,0
88587,-100,4,3,0,60,0,0
90472,-100,4,3,0,60,0,0
90708,-100,4,3,0,60,0,0
90943,-100,4,3,0,60,0,0
95498,-100,4,3,0,60,0,0
95734,-100,4,3,0,60,0,0
95969,-100,4,3,0,60,0,0
100210,-100,4,3,0,60,0,0
100446,-100,4,1,0,80,0,0
100681,-100,4,1,0,80,0,0
100917,-100,4,1,0,80,0,0
101153,-100,4,1,0,80,0,0
103980,-100,4,1,0,80,0,0
109870,-100,4,1,0,5,0,0
109948,-83.3333333333333,4,3,0,60,0,1
110263,-83.3333333333333,4,3,0,60,0,1
128797,-83.3333333333333,4,3,0,60,0,0
130053,-83.3333333333333,4,3,0,60,0,1
140420,-83.3333333333333,4,3,0,60,0,1
145132,-100,4,2,0,60,0,1
148901,-100,4,3,0,60,0,0
149844,-100,4,3,0,60,0,0
150158,-100,4,2,0,60,0,0
150472,-100,4,3,0,60,0,0
150786,-100,4,3,0,5,0,0

[Colours]
Combo1 : 128,255,255
Combo2 : 128,128,192
Combo3 : 0,255,128

[HitObjects]
256,192,5042,5,6,0:2:0:0:
256,192,7555,5,6,0:2:0:0:
256,192,10068,5,6,0:2:0:0:
256,192,12581,5,6,0:2:0:0:
256,192,12738,12,6,13837,0:2:0:0:
257,304,14151,5,2,0:2:0:0:
257,304,14466,6,0,P|228:296|215:296,1,33.2499989852906,2|2,0:2|0:2,0:0:0:0:
139,263,14780,2,0,P|117:284|111:295,1,33.2499989852906,2|2,0:2|0:2,0:0:0:0:
45,364,15094,6,0,B|-51:203|41:154|109:149|146:215|128:284|68:295|22:266,1,364.8,6|0,1:2|0:0,0:0:0:0:
328,298,16350,2,0,B|240:304|180:227|180:227|176:292|135:355|40:346,1,364.8,2|0,1:2|0:0,0:0:0:0:
366,217,17607,6,0,P|282:217|229:159,1,156.750004783631,6|0,1:2|0:0,0:0:0:0:
92,11,18235,2,0,P|134:84|111:158,1,156.750004783631,0|0,1:0|1:0,0:0:0:0:
52,351,18863,2,0,P|94:278|170:261,1,156.750004783631,6|0,1:2|0:0,0:0:0:0:
230,186,19491,6,0,P|252:221|258:266,1,52.2500015945435,2|0,1:2|1:0,0:0:0:0:
286,347,19806,2,0,P|295:322|311:301,1,52.2500015945435,2|0,1:2|1:0,0:0:0:0:
488,284,20120,6,2,P|478:321|375:313,1,139.333337585449,6|0,1:2|0:0,0:0:0:0:
404,237,20748,2,0,P|397:133|413:80,1,139.333337585449,2|0,1:2|0:0,0:0:0:0:
485,47,21430,2,0,P|509:89|409:121,1,190,6|0,1:2|0:0,0:0:0:0:
343,34,22393,2,0,P|401:14|423:16,1,63.3333333333333
410,123,22863,6,0,B|462:194|406:295|289:260|270:182|270:182|242:220|254:268,1,356.25,6|0,0:2|0:0,0:0:0:0:
262,355,24517,5,2,2:0:0:0:
256,192,24767,12,0,27017,1:0:0:0:
109,245,27645,5,2,1:2:0:0:
272,207,27802,1,2,1:2:0:0:
313,227,27880,1,2,1:2:0:0:
330,271,27959,1,2,1:2:0:0:
314,314,28037,1,2,1:2:0:0:
274,336,28116,1,2,1:2:0:0:
228,326,28194,1,2,1:2:0:0:
202,288,28273,6,0,B|186:123,1,142.5,6|0,1:2|0:0,0:0:0:0:
179,72,28587,2,0,L|226:67,1,47.5,10|0,0:2|0:0,0:0:0:0:
361,141,28744,2,0,L|245:151,1,95,2|0,0:2|0:0,0:0:0:0:
108,244,29058,2,0,P|54:243|35:151,1,142.5,2|2,0:2|0:0,0:0:0:0:
51,98,29373,2,0,L|106:92,1,47.5,10|0,0:2|0:0,0:0:0:0:
271,153,29530,5,0,0:0:0:0:
271,153,29608,1,0,0:0:0:0:
271,153,29687,1,2,0:2:0:0:
305,317,29844,2,0,L|298:254,1,47.5,8|0,0:2|0:0,0:0:0:0:
116,338,30001,2,0,L|107:242,1,95,2|8,0:2|0:2,0:0:0:0:
232,384,30315,2,0,L|225:321,1,47.5,2|0,0:2|0:0,0:0:0:0:
377,116,30472,5,2,1:2:0:0:
381,163,30550,1,2,1:2:0:0:
385,210,30629,1,2,1:2:0:0:
389,257,30707,1,2,1:2:0:0:
393,305,30786,6,0,P|466:299|493:222,1,142.5,2|0,1:2|0:0,0:0:0:0:
484,173,31100,2,0,L|480:126,1,47.5,10|0,0:2|0:0,0:0:0:0:
377,116,31257,2,0,L|387:240,1,95,2|0,0:2|0:0,0:0:0:0:
265,371,31571,2,0,L|254:246,1,95,2|0,0:2|0:0,0:0:0:0:
464,341,31886,2,0,L|456:247,1,95,10|0,0:2|0:0,0:0:0:0:
329,172,32200,1,2,0:2:0:0:
479,125,32357,2,0,L|483:172,1,47.5,8|0,0:2|0:0,0:0:0:0:
332,250,32514,2,0,L|342:379,1,95,2|8,0:2|0:2,0:0:0:0:
167,248,32828,2,0,L|163:201,1,47.5,2|0,1:2|1:0,1:1:0:0:
332,250,32985,1,8,0:2:0:0:
251,383,33142,2,0,L|247:336,1,47.5,2|0,1:2|1:0,0:0:0:0:
162,200,33299,6,0,P|97:187|35:255,1,142.5,0|0,1:0|0:0,0:0:0:0:
33,266,33613,1,8,0:2:0:0:
171,335,33770,1,2,0:2:0:0:
148,340,33848,1,2,0:2:0:0:
125,346,33927,1,2,0:2:0:0:
248,189,34085,1,2,0:2:0:0:
338,377,34242,1,2,1:2:0:0:
485,246,34399,2,0,L|398:260,1,47.5,10|0,0:2|0:0,0:0:0:0:
393,103,34556,5,0,0:0:0:0:
248,189,34713,2,0,L|341:173,1,95,2|8,0:2|0:2,0:0:0:0:
153,120,35027,2,0,L|246:104,1,95,2|8,0:2|0:2,0:0:0:0:
302,18,35341,2,0,L|255:25,1,47.5,0|0,1:0|0:0,0:0:0:0:
170,208,35498,1,2,1:2:0:0:
50,40,35655,1,2,1:2:0:0:
246,104,35812,6,0,P|299:197|275:244,1,142.5,6|0,1:2|0:0,0:0:0:0:
271,253,36126,1,8,0:2:0:0:
118,203,36284,2,0,L|231:184,1,95,10|0,0:2|0:0,0:0:0:0:
0,168,36598,1,10,0:2:0:0:
106,294,36755,1,10,0:2:0:0:
171,113,36833,2,0,L|124:120,1,47.5,0|6,0:0|0:2,0:0:0:0:
8,48,37069,5,0,0:0:0:0:
31,43,37147,1,0,0:0:0:0:
54,39,37226,1,8,0:2:0:0:
171,113,37383,1,0,1:0:0:0:
0,168,37540,1,0,0:0:0:0:
103,295,37697,5,0,1:0:0:0:
274,240,37854,1,2,1:2:0:0:
315,260,37932,1,2,1:2:0:0:
332,304,38011,1,2,1:2:0:0:
316,347,38089,1,2,1:2:0:0:
276,369,38168,1,2,1:2:0:0:
230,359,38246,1,2,1:2:0:0:
203,321,38325,6,0,L|188:154,1,142.5,6|0,0:2|0:0,0:0:0:0:
182,106,38640,2,0,L|230:102,1,47.5,10|0,0:2|0:0,0:0:0:0:
390,188,38797,2,0,L|285:197,1,95,2|0,0:2|0:0,0:0:0:0:
476,189,39111,2,0,L|486:297,1,95,2|0,0:2|0:0,0:0:0:0:
390,188,39425,2,0,L|397:263,1,47.5,10|0,0:2|0:0,0:0:0:0:
390,368,39582,5,0,0:0:0:0:
390,368,39660,1,0,0:0:0:0:
390,368,39739,1,2,0:2:0:0:
321,273,39896,2,0,L|237:264,1,47.5,8|0,0:2|0:0,0:0:0:0:
151,365,40053,2,0,L|257:353,1,95,2|8,0:2|0:2,0:0:0:0:
100,262,40367,2,0,L|52:257,1,47.5,2|0,1:2|0:0,0:0:0:0:
196,260,40524,5,2,1:2:0:0:
191,212,40602,1,2,1:2:0:0:
187,165,40681,1,2,1:2:0:0:
183,118,40759,1,2,1:2:0:0:
179,70,40838,6,0,P|245:38|320:68,1,142.5,6|0,1:2|0:0,0:0:0:0:
344,121,41153,2,0,L|347:168,1,47.5,2|0,0:2|0:0,0:0:0:0:
256,221,41310,2,0,L|248:105,1,95,2|0,0:2|0:0,0:0:0:0:
412,20,41624,2,0,L|415:67,1,47.5,2|0,1:2|0:0,0:0:0:0:
418,114,41781,1,0,0:0:0:0:
182,22,41938,6,0,L|178:69,1,47.5,10|0,0:2|0:0,0:0:0:0:
174,111,42095,1,0,0:0:0:0:
61,58,42252,1,2,1:2:0:0:
61,58,42409,2,0,L|108:62,1,47.5,0|0,0:0|0:0,0:0:0:0:
297,127,42566,2,0,L|250:131,1,47.5,10|0,0:2|0:0,0:0:0:0:
202,135,42723,1,0,1:0:0:0:
13,221,42880,2,0,L|60:225,1,47.5,2|0,1:2|0:0,0:0:0:0:
108,229,43037,1,8,0:2:0:0:
295,264,43195,1,2,1:2:0:0:
247,268,43273,1,2,1:2:0:0:
200,272,43352,6,0,L|191:388,1,95,6|2,1:2|0:2,0:0:0:0:
348,366,43666,2,0,L|340:271,1,95,10|2,0:2|0:0,0:0:0:0:
339,249,43901,1,0,0:0:0:0:
339,249,43980,1,0,0:0:0:0:
192,366,44137,1,2,1:2:0:0:
416,314,44294,2,0,L|353:310,1,47.5,2|0,0:2|0:0,0:0:0:0:
214,190,44451,2,0,L|277:186,1,47.5,10|0,2:2|0:0,2:2:0:0:
291,183,44608,5,0,2:0:0:0:
468,220,44765,2,0,L|370:213,1,95,0|8,1:0|0:2,2:2:0:0:
374,213,45079,1,0,2:0:0:0:
275,111,45236,1,0,1:0:0:0:
434,75,45393,2,0,L|431:131,1,47.5,2|0,1:2|0:0,0:0:0:0:
288,230,45551,2,0,L|292:173,1,47.5,10|0,0:2|0:0,0:0:0:0:
177,1,45708,2,0,L|174:48,1,47.5,6|0,0:2|0:0,0:0:0:0:
169,95,45865,5,0,0:0:0:0:
288,230,46022,1,0,1:0:0:0:
135,304,46179,1,8,0:2:0:0:
16,169,46336,1,0,1:0:0:0:
39,165,46414,1,0,1:0:0:0:
62,161,46493,6,0,L|132:150,3,47.5,0|0|0|0,1:0|1:0|1:0|0:0,0:0:0:0:
234,117,46807,2,0,L|164:106,3,47.5,8|0|0|0,0:2|1:0|1:0|0:0,0:0:0:0:
341,48,47121,5,6,1:2:0:0:
359,91,47199,1,2,2:2:0:0:
360,138,47278,1,2,2:2:0:0:
345,183,47356,1,2,2:2:0:0:
314,219,47435,5,2,2:2:0:0:
280,229,47513,1,2,2:2:0:0:
244,231,47592,1,2,2:2:0:0:
209,224,47670,1,2,2:2:0:0:
177,209,47749,5,2,1:2:0:0:
154,207,47827,1,2,1:2:0:0:
130,208,47906,1,2,1:2:0:0:
107,212,47984,1,2,1:2:0:0:
83,218,48064,6,0,L|88:271,1,42.7499986953736,2|0,0:3|0:0,0:0:0:0:
56,338,48378,6,0,B|130:330|130:330|154:305|154:305|234:298,1,170.999994781494,4|0,0:1|0:0,0:0:0:0:
412,256,48692,6,0,P|437:322|324:339,1,190,6|2,0:1|1:2,0:0:0:0:
215,299,49163,1,0,1:0:0:0:
299,207,49320,1,0,1:0:0:0:
322,204,49398,1,0,0:0:0:0:
342,202,49477,6,0,P|339:261|313:307,1,95,6|0,0:2|0:0,0:0:0:0:
211,325,49791,2,0,P|161:292|134:247,1,95,2|8,1:2|0:2,0:0:0:0:
169,150,50106,2,0,P|221:123|274:122,1,95,2|0,0:2|1:0,0:0:0:0:
256,120,50420,1,0,1:0:0:0:
141,263,50577,2,0,L|24:260,1,95,8|0,0:2|0:0,0:0:0:0:
7,270,50812,1,0,0:0:0:0:
7,270,50891,6,0,P|-7:325|8:382,1,95,2|0,1:2|0:0,0:0:0:0:
140,376,51205,2,0,P|154:321|139:264,1,95,10|0,0:2|0:0,0:0:0:0:
305,135,51519,5,2,1:2:0:0:
342,371,51676,1,0,1:0:0:0:
221,254,51833,1,0,1:0:0:0:
409,220,51990,1,10,0:2:0:0:
231,173,52147,6,0,P|224:126|241:83,1,95,0|0,0:0|1:0,0:0:0:0:
409,220,52462,2,0,P|416:266|399:310,1,95,8|0,0:2|0:0,0:0:0:0:
221,254,52776,1,2,1:2:0:0:
186,244,52854,1,2,1:2:0:0:
151,244,52933,1,2,1:2:0:0:
117,253,53011,1,2,1:2:0:0:
86,271,53090,6,0,L|92:337,1,47.5,2|2,1:2|1:2,0:0:0:0:
231,171,53247,2,0,L|237:103,1,47.5,2|2,1:2|1:2,0:0:0:0:
63,28,53404,2,0,L|72:155,1,95,6|0,1:2|0:0,0:0:0:0:
231,171,53718,6,2,P|308:182|352:115,1,142.5,6|0,0:2|0:0,0:0:0:0:
354,104,54032,1,2,0:2:0:0:
270,58,54189,1,2,0:2:0:0:
458,28,54346,1,2,0:2:0:0:
417,206,54503,1,10,0:2:0:0:
277,65,54660,5,2,2:2:0:0:
277,65,54739,1,2,2:2:0:0:
277,65,54818,2,0,L|277:112,1,47.5,2|2,1:2|2:2,0:0:0:0:
173,269,54975,5,10,2:2:0:0:
173,269,55054,1,2,2:2:0:0:
173,269,55133,2,0,L|172:221,1,47.5,2|2,2:2|2:2,0:0:0:0:
75,69,55289,5,2,1:2:0:0:
75,69,55368,1,2,2:2:0:0:
75,69,55447,2,0,L|74:116,1,47.5,2|2,1:2|2:2,0:0:0:0:
173,269,55603,2,0,L|172:221,1,47.5,10|2,2:2|2:2,0:0:0:0:
277,65,55760,2,0,L|277:112,1,47.5,2|2,2:2|2:2,0:0:0:0:
325,5,55917,5,6,1:2:0:0:
183,126,56074,1,2,0:2:0:0:
350,202,56231,1,10,0:2:0:0:
492,81,56388,1,0,0:0:0:0:
468,77,56466,1,0,0:0:0:0:
445,73,56545,5,2,0:2:0:0:
502,266,56702,1,2,0:2:0:0:
304,210,56859,1,2,0:2:0:0:
327,206,56937,1,2,0:2:0:0:
350,202,57016,5,10,0:2:0:0:
388,384,57174,1,2,0:2:0:0:
248,309,57331,1,0,1:0:0:0:
271,305,57409,1,0,1:0:0:0:
294,301,57488,1,10,1:2:0:0:
163,261,57645,1,2,0:2:0:0:
188,384,57802,2,0,L|177:330,1,47.5,2|2,2:2|2:2,0:0:0:0:
55,199,57959,5,2,2:2:0:0:
37,184,58038,1,2,2:2:0:0:
18,169,58116,1,2,1:2:0:0:
31,219,58194,1,2,2:2:0:0:
41,266,58273,1,2,2:2:0:0:
50,312,58351,1,2,2:2:0:0:
60,359,58430,6,0,B|117:341|117:341|180:350|180:350|251:328,1,170.999994781494,4|0,1:2|0:0,0:0:0:0:
259,175,58744,6,0,P|174:186|183:285,1,190,6|2,0:1|0:2,0:0:0:0:
281,379,59215,1,0,0:0:0:0:
394,275,59373,1,0,0:0:0:0:
374,263,59452,1,0,0:0:0:0:
354,251,59530,6,0,L|241:259,1,95,10|0,0:2|0:0,0:0:0:0:
344,82,59844,2,0,L|407:175,1,95,2|8,1:2|0:2,0:0:0:0:
203,176,60158,2,0,L|252:74,1,95,2|0,0:2|0:0,0:0:0:0:
244,90,60472,1,0,1:0:0:0:
259,257,60629,2,0,P|243:327|220:360,1,95,8|0,0:2|0:0,0:0:0:0:
196,356,60865,1,0,0:0:0:0:
196,356,60943,6,0,L|96:351,1,95,2|0,1:2|0:0,0:0:0:0:
0,239,61257,2,0,L|100:234,1,95,10|0,0:2|0:0,0:0:0:0:
329,145,61571,5,2,0:2:0:0:
196,356,61729,1,0,1:0:0:0:
368,280,61886,1,0,1:0:0:0:
178,215,62043,1,10,0:2:0:0:
432,224,62200,6,0,P|451:297|438:329,1,95,0|0,0:0|1:0,0:0:0:0:
300,375,62514,2,0,P|281:302|294:270,1,95,10|0,0:2|1:0,0:0:0:0:
329,145,62828,5,2,2:2:0:0:
309,174,62906,1,2,2:2:0:0:
282,197,62985,1,2,2:2:0:0:
249,209,63063,1,2,2:2:0:0:
213,210,63142,2,0,L|210:158,1,47.5,2|2,1:2|1:2,0:0:0:0:
100,73,63299,2,0,L|97:120,1,47.5,2|2,1:2|1:2,0:0:0:0:
4,277,63456,2,0,L|-1:182,1,95,6|0,1:2|0:0,0:0:0:0:
104,318,63770,6,2,P|144:271|251:287,1,142.5,6|0,0:2|0:0,0:0:0:0:
252,289,64085,1,2,0:2:0:0:
397,288,64242,1,2,0:2:0:0:
229,194,64399,1,2,0:2:0:0:
259,377,64556,1,10,0:2:0:0:
404,295,64713,5,2,2:2:0:0:
404,295,64791,1,2,2:2:0:0:
404,295,64870,2,0,L|405:355,1,47.5,10|2,2:2|2:2,0:0:0:0:
298,176,65027,5,10,2:2:0:0:
298,176,65105,1,2,2:2:0:0:
298,176,65184,2,0,L|297:116,1,47.5,2|2,2:2|2:2,0:0:0:0:
215,305,65341,5,2,1:2:0:0:
215,305,65419,1,2,2:2:0:0:
215,305,65498,2,0,L|215:352,1,47.5,2|2,1:2|2:2,0:0:0:0:
298,176,65655,2,0,L|297:116,1,47.5,10|2,2:2|2:2,0:0:0:0:
404,295,65812,2,0,L|405:355,1,47.5,2|2,1:2|2:2,0:0:0:0:
299,250,65969,5,6,1:2:0:0:
430,128,66126,1,2,0:2:0:0:
261,57,66284,1,10,0:2:0:0:
130,179,66441,1,0,0:0:0:0:
153,174,66519,1,0,0:0:0:0:
176,169,66598,6,0,L|186:241,1,47.5,2|0,1:2|0:0,0:0:0:0:
85,305,66755,2,0,L|95:233,1,47.5,2|0,1:2|0:0,0:0:0:0:
140,102,66912,5,2,1:2:0:0:
163,97,66990,1,0,0:0:0:0:
186,92,67069,1,2,1:2:0:0:
209,87,67147,1,0,0:0:0:0:
232,82,67226,6,0,L|242:154,1,47.5,2|2,1:2|1:2,0:0:0:0:
331,187,67383,2,0,L|321:259,1,47.5,2|2,1:2|1:2,0:0:0:0:
278,354,67540,5,6,1:1:0:0:
313,349,67618,1,2,1:2:0:0:
348,344,67697,1,0,1:0:0:0:
383,339,67775,1,0,1:0:0:0:
419,334,67854,5,6,0:1:0:0:
425,287,67932,1,2,1:2:0:0:
431,240,68011,1,2,1:2:0:0:
438,193,68089,1,2,1:2:0:0:
444,146,68168,6,0,L|368:134,1,47.5,2|2,1:2|1:2,0:0:0:0:
283,40,68325,2,2,L|359:28,1,47.5,2|2,1:2|1:2,1:1:0:0:
219,142,68482,2,2,L|74:119,1,142.5,2|0,2:2|0:0,2:2:0:0:
36,126,68797,6,0,P|5:195|34:318,1,190,6|0,2:2|2:0,2:2:0:0:
121,365,69268,1,2,0:2:0:0:
186,278,69425,1,2,0:2:0:0:
97,217,69582,1,2,0:2:0:0:
168,139,69739,1,2,0:2:0:0:
191,133,69817,1,2,0:2:0:0:
214,133,69896,1,2,1:2:0:0:
238,137,69974,1,2,0:2:0:0:
258,146,70053,6,0,L|266:210,1,47.5,10|2,0:2|0:2,0:0:0:0:
319,262,70210,2,0,L|311:326,2,47.5,2|2|2,0:2|0:2|1:2,0:0:0:0:
382,201,70446,2,0,L|374:137,2,47.5,2|2|2,0:2|1:2|0:2,0:0:0:0:
484,243,70681,5,10,0:2:0:0:
479,207,70759,1,2,0:2:0:0:
475,172,70838,1,10,0:2:0:0:
470,136,70916,1,2,0:2:0:0:
466,101,70996,6,0,L|371:112,1,95,6|0,0:2|0:0,0:0:0:0:
288,213,71310,2,0,L|382:201,1,95,8|0,0:2|0:0,0:0:0:0:
382,201,71624,1,0,0:0:0:0:
282,34,71781,2,0,L|293:128,1,95,0|0,1:0|0:0,0:0:0:0:
214,225,72095,1,8,0:2:0:0:
142,132,72252,6,0,L|72:130,1,47.5,2|2,2:2|2:2,0:0:0:0:
6,52,72409,2,0,L|76:50,1,47.5,2|2,1:2|2:2,0:0:0:0:
209,72,72566,5,10,2:2:0:0:
225,103,72644,1,2,2:2:0:0:
228,138,72723,1,2,2:2:0:0:
217,172,72801,1,2,2:2:0:0:
194,199,72880,5,2,1:2:0:0:
176,229,72958,1,2,2:2:0:0:
170,264,73037,1,2,1:2:0:0:
174,299,73115,1,2,1:2:0:0:
191,331,73195,6,0,L|268:325,1,47.5,10|2,2:2|2:2,0:0:0:0:
353,238,73352,2,0,L|276:232,1,47.5,10|2,2:2|2:2,0:0:0:0:
474,347,73509,6,0,L|463:209,1,95,6|0,1:2|0:0,0:0:0:0:
361,108,73823,2,0,L|353:202,1,95,8|0,0:2|0:0,0:0:0:0:
353,238,74058,1,0,0:0:0:0:
353,238,74137,1,0,0:0:0:0:
174,163,74294,2,0,L|268:155,1,95,2|0,1:2|0:0,0:0:0:0:
209,79,74608,1,10,0:2:0:0:
114,247,74765,5,0,0:0:0:0:
137,245,74843,1,0,0:0:0:0:
161,243,74922,1,2,1:2:0:0:
139,96,75079,1,10,0:2:0:0:
115,94,75157,1,0,0:0:0:0:
91,92,75236,1,2,0:2:0:0:
67,90,75314,1,2,0:2:0:0:
44,88,75393,6,0,L|47:135,1,47.5,10|0,0:2|0:0,0:0:0:0:
207,229,75551,1,2,1:2:0:0:
216,211,75629,1,2,1:2:0:0:
224,192,75708,2,0,L|221:145,1,47.5,10|0,0:2|0:0,0:0:0:0:
363,89,75865,1,2,0:2:0:0:
372,70,75943,1,2,0:2:0:0:
381,52,76022,6,0,P|452:30|456:145,1,190,6|8,0:2|0:2,0:0:0:0:
405,181,76493,1,0,0:0:0:0:
405,181,76571,1,0,0:0:0:0:
405,181,76650,2,0,L|305:174,1,95,0|0,0:0|1:0,0:0:0:0:
209,91,76964,1,2,2:2:0:0:
209,114,77042,1,2,2:2:0:0:
210,138,77121,1,2,2:2:0:0:
297,31,77278,1,2,0:1:0:0:
310,174,77435,1,0,1:0:0:0:
503,97,77592,5,10,2:2:0:0:
503,97,77671,1,2,2:2:0:0:
503,97,77749,2,0,L|421:90,1,47.5,2|2,1:2|2:2,0:0:0:0:
318,180,77907,5,2,1:2:0:0:
318,180,77986,1,10,2:2:0:0:
318,180,78064,2,0,L|400:173,1,47.5,2|2,1:2|2:2,0:0:0:0:
505,272,78221,5,10,1:2:0:0:
505,272,78300,1,2,1:2:0:0:
505,272,78378,2,0,L|423:265,1,47.5,2|2,1:2|1:2,0:0:0:0:
336,336,78535,6,0,L|180:349,1,142.5,6|0,0:2|0:0,0:0:0:0:
150,337,78849,6,0,P|107:257|150:154,1,190,6|0,0:1|0:0,0:0:0:0:
220,114,79320,1,2,0:2:0:0:
292,196,79477,1,2,0:2:0:0:
235,290,79634,1,10,0:2:0:0:
401,377,79791,6,0,L|396:317,1,47.5,2|2,2:2|2:2,0:0:0:0:
511,253,79948,1,2,1:2:0:0:
479,218,80026,1,2,2:2:0:0:
437,196,80105,1,10,2:2:0:0:
390,191,80183,1,2,2:2:0:0:
344,202,80263,2,0,L|297:208,1,47.5,2|2,2:2|2:2,0:0:0:0:
269,81,80420,5,2,1:2:0:0:
269,81,80499,1,2,2:2:0:0:
269,81,80577,2,0,L|343:72,1,47.5,2|2,1:2|2:2,0:0:0:0:
456,95,80734,5,10,2:2:0:0:
456,95,80812,1,2,2:2:0:0:
456,95,80891,2,0,L|458:55,2,23.75,10|0|2,2:2|0:0|2:2,0:0:0:0:
454,122,81048,6,0,L|460:216,1,95,6|0,1:2|0:0,0:0:0:0:
295,320,81362,1,10,2:2:0:0:
295,320,81519,2,0,L|301:225,1,95,2|2,2:2|2:2,0:0:0:0:
152,267,81833,1,2,1:2:0:0:
152,267,81912,1,2,2:2:0:0:
152,267,81990,2,2,L|220:262,1,47.5,2|2,2:2|2:2,2:2:0:0:
336,148,82147,2,0,L|267:143,1,47.5,10|2,2:2|2:2,0:0:0:0:
437,70,82304,5,2,0:2:0:0:
423,258,82462,1,0,1:0:0:0:
288,144,82619,1,10,0:2:0:0:
480,161,82776,2,0,L|410:155,1,47.5,2|2,2:2|2:2,0:0:0:0:
303,51,82933,5,2,1:2:0:0:
280,58,83011,1,2,2:2:0:0:
256,60,83090,1,2,1:2:0:0:
233,57,83168,1,2,1:2:0:0:
211,49,83247,5,10,2:2:0:0:
189,41,83325,1,2,2:2:0:0:
165,39,83404,1,10,2:2:0:0:
142,42,83482,1,2,2:2:0:0:
118,51,83561,6,0,P|104:112|112:164,1,95,6|0,1:2|0:0,0:0:0:0:
258,268,83875,2,0,P|259:220|246:175,1,95,8|0,0:2|0:0,0:0:0:0:
29,237,84189,5,2,1:2:0:0:
64,242,84267,1,2,2:2:0:0:
99,242,84346,1,2,2:2:0:0:
134,236,84424,1,10,2:2:0:0:
168,224,84503,1,2,1:2:0:0:
233,93,84660,1,10,2:2:0:0:
268,99,84738,1,2,2:2:0:0:
301,110,84817,5,2,1:2:0:0:
369,302,84975,1,8,0:2:0:0:
486,150,85132,2,0,P|408:133|377:138,1,95,8|0,0:2|0:0,0:0:0:0:
259,284,85446,1,2,1:2:0:0:
417,217,85603,1,2,2:2:0:0:
253,115,85760,1,10,2:2:0:0:
276,112,85838,1,2,2:2:0:0:
300,109,85917,1,10,2:2:0:0:
143,192,86074,5,2,1:2:0:0:
168,16,86231,1,0,1:0:0:0:
369,192,86388,5,2,1:2:0:0:
344,16,86545,1,2,1:2:0:0:
143,192,86702,6,0,L|150:131,1,47.5,2|2,1:2|1:2,0:0:0:0:
369,192,86859,2,0,L|363:144,1,47.5,2|2,1:2|1:2,0:0:0:0:
256,176,87016,5,2,1:2:0:0:
256,223,87094,1,0,1:2:0:0:
256,271,87173,1,0,1:2:0:0:
256,318,87251,1,0,1:2:0:0:
256,366,87330,5,4,1:2:0:0:
416,73,87645,6,2,L|439:73,8,23.75,6|2|2|2|2|2|2|2|2,2:2|2:2|2:2|2:2|2:2|2:2|2:2|2:2|2:2,2:2:0:0:
346,123,88116,1,2,2:2:0:0:
323,153,88194,1,2,2:2:0:0:
314,189,88273,1,10,2:2:0:0:
319,227,88351,1,0,0:0:0:0:
339,259,88430,1,0,1:0:0:0:
369,282,88508,1,0,0:0:0:0:
459,313,88587,6,0,P|371:294|280:290,1,142.5,6|0,1:2|0:0,0:0:0:0:
275,299,88901,1,0,1:0:0:0:
153,359,89058,1,0,0:0:0:0:
182,322,89136,1,0,0:0:0:0:
189,276,89215,1,0,1:0:0:0:
34,202,89373,1,0,0:0:0:0:
41,248,89452,1,0,0:0:0:0:
70,284,89530,1,0,1:0:0:0:
136,152,89687,1,0,0:0:0:0:
129,106,89766,1,0,0:0:0:0:
100,70,89844,5,0,1:0:0:0:
34,202,90001,1,0,0:0:0:0:
81,198,90079,1,0,0:0:0:0:
128,194,90158,1,0,1:0:0:0:
300,105,90315,1,0,0:0:0:0:
252,101,90393,1,0,0:0:0:0:
205,97,90472,1,2,1:2:0:0:
339,232,90629,5,0,0:0:0:0:
481,188,90786,1,0,0:0:0:0:
493,237,90865,1,0,0:0:0:0:
482,283,90943,1,2,0:3:0:0:
365,351,91100,6,0,P|289:327|214:329,1,142.5,2|0,1:3|0:0,0:0:0:0:
179,340,91414,1,0,1:0:0:0:
33,288,91571,1,0,0:0:0:0:
39,334,91649,1,0,0:0:0:0:
69,369,91728,1,0,1:0:0:0:
90,217,91886,1,0,0:0:0:0:
45,200,91964,1,0,0:0:0:0:
0,208,92043,1,0,1:0:0:0:
122,301,92200,1,0,0:0:0:0:
160,271,92278,1,0,0:0:0:0:
175,228,92357,5,2,1:2:0:0:
79,157,92514,2,0,L|83:96,1,47.5,2|2,2:2|2:2,0:0:0:0:
189,20,92671,1,2,1:2:0:0:
189,20,92749,1,2,2:2:0:0:
189,20,92828,2,0,L|193:81,1,47.5,2|2,2:2|2:2,0:0:0:0:
297,192,92985,5,2,1:2:0:0:
297,192,93063,1,2,1:2:0:0:
297,192,93142,1,2,1:2:0:0:
339,211,93220,1,2,1:2:0:0:
385,204,93299,1,2,1:2:0:0:
419,172,93377,1,2,1:2:0:0:
429,126,93456,1,2,1:2:0:0:
412,83,93534,1,2,1:2:0:0:
373,56,93613,6,0,B|321:58|321:58|285:73|285:73|205:73,1,142.5,6|0,1:1|0:0,0:0:0:0:
197,59,93927,1,0,1:0:0:0:
91,88,94085,1,0,0:0:0:0:
113,129,94163,1,0,0:0:0:0:
151,155,94242,1,0,1:0:0:0:
224,226,94400,1,0,0:0:0:0:
181,246,94477,1,0,0:0:0:0:
134,246,94557,1,0,1:0:0:0:
38,270,94714,1,0,0:0:0:0:
60,312,94792,1,0,0:0:0:0:
99,339,94871,5,2,1:2:0:0:
318,257,95027,1,2,2:2:0:0:
283,247,95105,1,2,2:2:0:0:
248,246,95184,1,2,1:2:0:0:
214,256,95262,1,2,2:2:0:0:
183,274,95341,1,2,2:2:0:0:
310,384,95498,1,2,1:2:0:0:
469,342,95655,1,0,0:0:0:0:
469,342,95734,1,2,0:2:0:0:
469,342,95812,6,0,L|462:284,1,47.5,0|0,0:0|0:0,0:0:0:0:
372,174,95969,2,0,L|365:221,1,47.5,2|0,0:3|0:0,0:0:0:0:
475,149,96126,2,0,L|462:54,1,95,2|0,1:3|0:0,0:0:0:0:
372,29,96441,5,2,1:2:0:0:
279,122,96598,1,2,2:2:0:0:
279,122,96676,1,0,0:0:0:0:
279,122,96755,2,0,L|281:207,3,47.5,2|2|2|2,1:2|2:2|2:2|2:2,0:0:0:0:
189,17,97069,2,0,L|188:65,1,47.5,2|2,1:2|2:2,0:0:0:0:
126,198,97226,2,0,L|124:113,1,47.5,2|2,2:2|2:2,0:0:0:0:
20,30,97383,6,0,L|22:124,1,95,6|2,1:2|2:2,2:2:0:0:
38,156,97619,1,2,2:2:0:0:
38,156,97697,2,2,L|38:194,6,23.75,2|2|2|2|2|2|2,1:2|2:2|2:2|2:2|2:2|2:2|2:2,2:2:0:0:
18,273,98011,6,0,L|65:271,1,47.5,6|2,1:2|1:2,0:0:0:0:
179,332,98168,2,0,L|132:331,1,47.5,6|2,1:2|1:2,0:0:0:0:
242,216,98325,2,0,L|289:217,1,47.5,6|2,1:2|1:2,0:0:0:0:
360,364,98482,2,0,L|313:363,1,47.5,6|2,1:2|1:2,0:0:0:0:
493,283,98640,5,6,1:1:0:0:
497,271,98718,1,0,0:0:0:0:
500,260,98797,1,0,0:0:0:0:
501,248,98875,1,0,0:0:0:0:
501,236,98954,5,2,1:2:0:0:
493,213,99032,1,0,0:0:0:0:
490,190,99111,1,0,0:0:0:0:
491,166,99189,1,0,0:0:0:0:
498,142,99268,6,0,L|420:137,1,47.5,2|0,1:2|0:0,0:0:0:0:
324,66,99425,2,0,L|402:61,1,47.5,0|0,0:0|0:0,0:0:0:0:
482,124,99582,6,0,L|404:119,1,47.5,2|0,1:2|0:0,0:0:0:0:
308,48,99739,2,0,L|386:43,1,47.5,0|0,0:0|0:0,0:0:0:0:
239,151,99896,5,2,1:1:0:0:
225,0,100053,1,0,0:0:0:0:
30,245,100210,6,2,L|26:168,2,47.5,2|2|2,1:2|2:2|2:2,2:2:0:0:
158,184,100446,2,2,L|162:107,2,47.5,2|2|2,2:2|1:2|2:2,2:2:0:0:
7,108,100681,2,2,L|3:31,2,47.5,2|2|2,2:2|2:2|1:2,2:2:0:0:
135,47,100917,2,2,L|139:-30,2,47.5,2|10|2,2:2|2:2|2:2,2:2:0:0:
160,136,101153,5,10,2:2:0:0:
194,144,101231,1,2,2:2:0:0:
230,146,101310,1,2,2:2:0:0:
265,141,101388,1,2,2:2:0:0:
298,129,101467,6,0,L|385:124,1,47.5,2|0,1:2|0:0,0:0:0:0:
425,21,101624,2,0,L|338:26,1,47.5,0|0,0:0|0:0,0:0:0:0:
475,103,101781,6,0,L|482:185,3,47.5,2|2|2|0,1:2|0:2|0:2|0:0,0:0:0:0:
310,265,102095,2,0,L|313:217,1,47.5,0|0,1:0|0:0,0:0:0:0:
239,0,102252,2,0,L|242:47,1,47.5,2|2,1:2|0:2,0:0:0:0:
168,282,102409,6,0,P|75:286|21:228,1,142.5,10|0,0:2|0:0,0:0:0:0:
20,229,102723,1,10,2:2:0:0:
114,109,102880,2,0,L|117:171,1,47.5,2|2,2:2|2:2,0:0:0:0:
119,195,103037,1,10,2:2:0:0:
25,89,103195,5,10,2:2:0:0:
41,53,103273,1,10,2:2:0:0:
71,27,103352,1,2,1:2:0:0:
108,17,103430,1,2,2:2:0:0:
147,23,103509,1,10,2:2:0:0:
179,45,103587,1,2,2:2:0:0:
199,79,103666,6,0,L|201:133,1,47.5,6|0,2:2|0:0,0:0:0:0:
288,207,103823,2,0,L|290:159,1,47.5,2|0,1:2|0:0,0:0:0:0:
351,59,103980,1,2,1:2:0:0:
385,53,104058,1,0,0:0:0:0:
419,64,104137,1,0,0:0:0:0:
444,89,104215,1,0,0:0:0:0:
455,123,104294,6,0,L|457:177,1,47.5,2|0,1:2|1:0,0:0:0:0:
359,270,104451,2,0,L|361:222,1,47.5,2|0,1:2|0:0,0:0:0:0:
363,191,104608,1,0,1:0:0:0:
478,362,104765,1,2,0:2:0:0:
359,270,104922,6,0,P|299:254|257:269,1,95,6|0,0:2|1:0,0:0:0:0:
136,361,105236,1,2,2:2:0:0:
164,339,105314,1,2,2:2:0:0:
180,308,105393,1,2,1:2:0:0:
183,273,105471,1,2,2:2:0:0:
171,239,105551,6,0,L|114:234,1,47.5,2|2,2:2|2:2,0:0:0:0:
0,156,105708,2,0,L|57:150,1,47.5,2|2,2:2|2:2,0:0:0:0:
152,72,105865,1,2,1:2:0:0:
175,74,105943,1,2,2:2:0:0:
199,76,106022,1,2,2:2:0:0:
222,79,106100,1,2,2:2:0:0:
246,79,106179,5,2,0:2:0:0:
244,73,106257,1,0,0:0:0:0:
243,67,106336,1,0,0:0:0:0:
242,61,106414,1,0,0:0:0:0:
241,55,106493,1,0,0:0:0:0:
240,49,106571,1,0,0:0:0:0:
239,43,106650,1,0,0:0:0:0:
238,38,106728,1,0,0:0:0:0:
238,31,106807,6,2,L|314:36,1,47.5,2|0,0:2|0:0,0:0:0:0:
404,104,106964,2,0,L|328:109,1,47.5,0|0,0:0|0:0,0:0:0:0:
288,178,107121,1,0,0:0:0:0:
481,161,107278,1,0,0:0:0:0:
373,14,107435,5,2,1:2:0:0:
236,108,107592,1,2,1:2:0:0:
221,128,107671,1,2,1:2:0:0:
206,152,107749,2,0,L|212:226,1,47.5,2|2,1:2|1:2,0:0:0:0:
146,348,107907,1,2,1:2:0:0:
131,328,107986,1,2,1:2:0:0:
116,304,108064,2,0,L|122:230,1,47.5,2|2,1:2|1:2,0:0:0:0:
37,128,108221,1,2,1:2:0:0:
22,148,108300,1,2,1:2:0:0:
7,172,108378,2,0,L|13:246,1,47.5,2|2,1:2|1:2,0:0:0:0:
119,166,108535,1,2,1:2:0:0:
115,118,108613,1,2,1:2:0:0:
111,71,108692,5,2,1:2:0:0:
111,71,109634,6,0,B|166:78|217:55|217:55|206:102,1,142.5,0|0,0:0|0:0,0:0:0:0:
153,147,109948,6,0,P|184:236|285:211,1,170.999994781494,6|0,1:2|0:0,0:0:0:0:
321,208,110263,2,0,L|316:151,1,56.9999982604981,6|0,0:1|0:0,0:0:0:0:
403,48,110420,2,0,L|412:161,1,113.999996520996,2|0,0:2|0:0,0:0:0:0:
512,268,110734,2,0,L|341:283,1,170.999994781494,2|2,0:2|0:0,0:0:0:0:
321,208,111048,2,0,L|261:213,1,56.9999982604981,10|0,0:2|0:0,0:0:0:0:
88,85,111205,5,0,0:0:0:0:
88,85,111284,1,0,0:0:0:0:
88,85,111362,1,2,0:2:0:0:
189,220,111519,1,8,0:2:0:0:
298,68,111676,2,0,L|179:77,1,113.999996520996,2|8,0:2|0:2,0:0:0:0:
63,230,111990,2,0,L|122:224,1,56.9999982604981,2|0,0:2|0:0,0:0:0:0:
330,381,112147,5,2,1:2:0:0:
325,324,112225,1,2,1:2:0:0:
320,267,112304,1,2,1:2:0:0:
315,210,112382,1,2,1:2:0:0:
310,153,112462,6,0,P|363:126|475:195,1,170.999994781494,2|0,1:2|0:0,0:0:0:0:
492,232,112776,2,0,L|498:289,1,56.9999982604981,10|0,0:2|0:0,0:0:0:0:
392,339,112933,2,0,L|380:225,1,113.999996520996,2|0,0:2|0:0,0:0:0:0:
254,384,113247,2,0,L|238:205,1,170.999994781494,2|0,0:2|0:0,0:0:0:0:
231,144,113561,2,0,L|172:150,1,56.9999982604981,10|0,0:2|0:0,0:0:0:0:
86,293,113718,6,0,L|145:287,1,56.9999982604981,0|0,0:0|0:0,0:0:0:0:
231,144,113875,1,2,0:2:0:0:
46,216,114032,2,0,L|105:210,1,56.9999982604981,8|0,0:2|0:0,0:0:0:0:
318,248,114189,2,0,L|303:104,1,113.999996520996,2|8,0:2|0:2,0:0:0:0:
137,231,114503,2,0,L|147:349,1,113.999996520996,2|8,1:2|0:2,1:1:0:0:
330,381,114818,2,0,L|324:321,1,56.9999982604981,2|0,1:2|1:0,0:0:0:0:
215,188,114974,6,0,P|162:143|67:173,1,170.999994781494,0|0,1:0|0:0,0:0:0:0:
37,231,115288,1,8,0:2:0:0:
200,344,115445,1,2,0:2:0:0:
173,350,115523,1,2,0:2:0:0:
147,357,115602,1,2,0:2:0:0:
298,201,115760,1,2,0:2:0:0:
376,384,115917,1,2,1:2:0:0:
512,259,116074,2,0,L|425:273,1,56.9999982604981,10|0,0:2|0:0,0:0:0:0:
459,109,116231,5,0,0:0:0:0:
298,201,116388,2,0,L|427:180,1,113.999996520996,2|8,1:2|0:2,0:0:0:0:
244,127,116702,2,0,L|373:106,1,113.999996520996,2|8,0:2|0:2,0:0:0:0:
442,21,117016,2,0,L|385:30,1,56.9999982604981,0|0,1:0|0:0,0:0:0:0:
298,201,117173,1,2,1:2:0:0:
176,37,117330,1,2,1:2:0:0:
24,219,117488,6,0,P|143:214|172:143,1,170.999994781494,6|0,1:2|0:0,0:0:0:0:
174,108,117801,1,8,0:2:0:0:
71,32,117959,2,0,L|81:145,1,113.999996520996,10|0,0:2|0:0,0:0:0:0:
174,339,118273,1,10,0:2:0:0:
0,302,118430,1,10,0:2:0:0:
165,179,118587,2,0,L|160:122,1,56.9999982604981,6|0,0:2|0:0,0:0:0:0:
354,57,118744,5,0,0:0:0:0:
359,84,118822,1,0,0:0:0:0:
364,112,118901,1,8,0:2:0:0:
279,200,119058,1,0,1:0:0:0:
248,5,119215,1,0,0:0:0:0:
448,68,119373,1,0,1:0:0:0:
397,238,119530,5,2,1:2:0:0:
363,283,119608,1,2,1:2:0:0:
313,309,119687,1,2,1:2:0:0:
257,308,119765,1,2,1:2:0:0:
207,282,119844,1,2,1:2:0:0:
174,236,119922,1,2,1:2:0:0:
166,180,120001,6,0,L|184:-26,1,170.999994781494,6|0,0:2|0:0,0:0:0:0:
249,53,120315,2,0,L|243:109,1,56.9999982604981,10|0,0:2|0:0,0:0:0:0:
80,242,120472,2,0,L|90:121,1,113.999996520996,2|0,0:2|0:0,0:0:0:0:
249,53,120786,2,0,P|336:38|417:112,1,170.999994781494,2|0,0:2|0:0,0:0:0:0:
432,150,121100,2,0,L|351:160,1,56.9999982604981,10|0,0:2|0:0,0:0:0:0:
197,129,121257,5,0,0:0:0:0:
197,129,121336,1,0,0:0:0:0:
197,129,121414,1,2,0:2:0:0:
375,156,121571,1,8,0:2:0:0:
214,236,121729,2,0,L|354:222,1,113.999996520996,10|8,0:2|0:2,0:0:0:0:
458,86,122043,2,0,L|401:81,1,56.9999982604981,2|0,1:2|0:0,0:0:0:0:
223,48,122200,5,2,1:2:0:0:
172,22,122278,1,2,1:2:0:0:
116,26,122357,1,2,1:2:0:0:
69,56,122435,1,2,1:2:0:0:
44,107,122514,6,0,B|55:291,1,170.999994781494,6|0,1:2|0:0,0:0:0:0:
59,349,122828,1,2,0:2:0:0:
189,272,122985,2,0,B|185:215,1,56.9999982604981,2|0,0:2|0:0,0:0:0:0:
180,143,123142,1,0,0:0:0:0:
318,359,123299,2,0,B|321:302,1,56.9999982604981,2|0,1:2|0:0,0:0:0:0:
327,230,123456,1,0,0:0:0:0:
444,20,123613,6,0,B|447:76,1,56.9999982604981,10|0,0:2|0:0,0:0:0:0:
453,149,123770,1,0,0:0:0:0:
336,101,123927,2,0,B|333:157,1,56.9999982604981,2|0,1:2|0:0,0:0:0:0:
327,230,124084,1,0,0:0:0:0:
196,9,124242,2,0,B|199:65,1,56.9999982604981,10|0,0:2|0:0,0:0:0:0:
205,138,124399,1,0,1:0:0:0:
88,90,124556,2,0,B|85:146,1,56.9999982604981,2|0,1:2|0:0,0:0:0:0:
79,219,124713,1,8,0:2:0:0:
235,297,124870,5,2,1:2:0:0:
235,297,124948,1,2,1:2:0:0:
235,297,125027,2,0,B|115:303,1,113.999996520996,6|2,1:2|0:2,0:0:0:0:
338,373,125341,2,2,B|331:253,1,113.999996520996,8|0,0:2|0:0,0:0:0:0:
330,228,125576,1,0,0:0:0:0:
330,228,125655,1,0,0:0:0:0:
219,372,125812,1,2,1:2:0:0:
467,314,125969,2,0,L|404:310,1,56.9999982604981,2|0,0:2|0:0,0:0:0:0:
191,213,126126,2,0,L|254:209,1,56.9999982604981,10|0,2:2|0:0,2:2:0:0:
317,202,126283,5,0,2:0:0:0:
501,215,126440,2,0,L|383:206,1,113.999996520996,0|8,1:0|0:2,2:2:0:0:
387,206,126755,1,0,2:0:0:0:
297,91,126911,1,0,1:0:0:0:
435,48,127068,2,0,L|432:104,1,56.9999982604981,2|0,1:2|0:0,0:0:0:0:
287,229,127226,2,0,L|291:172,1,56.9999982604981,10|0,0:2|0:0,0:0:0:0:
160,0,127383,2,0,L|156:57,1,56.9999982604981,6|0,0:2|0:0,0:0:0:0:
149,128,127540,5,0,0:0:0:0:
0,249,127697,1,0,1:0:0:0:
30,99,127854,1,8,0:2:0:0:
137,237,128011,1,0,1:0:0:0:
165,234,128089,1,0,1:0:0:0:
193,231,128168,6,0,L|275:223,3,56.9999982604981,0|0|0|0,1:0|1:0|1:0|0:0,0:0:0:0:
357,142,128482,2,0,L|275:134,3,56.9999982604981,8|0|0|0,0:2|1:0|1:0|0:0,0:0:0:0:
298,31,128797,5,6,1:2:0:0:
337,15,128875,1,2,2:2:0:0:
380,15,128954,1,2,2:2:0:0:
419,31,129032,1,2,2:2:0:0:
450,60,129111,5,2,2:2:0:0:
448,88,129189,1,2,2:2:0:0:
447,116,129268,1,2,2:2:0:0:
445,145,129346,1,2,2:2:0:0:
444,173,129425,5,2,1:2:0:0:
443,170,129503,1,2,1:2:0:0:
443,166,129582,1,2,1:2:0:0:
443,162,129660,1,2,1:2:0:0:
441,157,129739,5,2,0:3:0:0:
392,127,129817,1,0,0:0:0:0:
336,117,129896,1,0,0:0:0:0:
281,129,129974,1,0,0:0:0:0:
234,161,130053,6,0,L|243:291,1,113.999996520996,6|0,0:1|0:0,0:0:0:0:
213,352,130367,2,0,L|209:295,1,56.9999982604981,4|0,0:1|0:0,0:0:0:0:
331,221,130524,2,2,L|327:164,1,56.9999982604981,2|0,0:2|0:0,0:0:0:0:
488,55,130681,1,2,0:2:0:0:
488,55,130760,1,0,0:0:0:0:
488,55,130838,2,0,L|350:38,1,113.999996520996,2|0,0:2|0:0,0:0:0:0:
252,83,131153,2,0,L|175:74,1,56.9999982604981,10|0,0:2|0:0,0:0:0:0:
123,65,131310,1,0,0:0:0:0:
11,195,131467,6,0,L|124:208,1,113.999996520996,2|8,0:2|0:2,0:0:0:0:
205,238,131702,1,0,0:0:0:0:
205,238,131781,2,0,P|216:310|190:371,1,113.999996520996,2|0,0:2|0:0,0:0:0:0:
67,283,132095,2,0,L|139:291,1,56.9999982604981,2|0,1:2|0:0,0:0:0:0:
307,382,132252,5,2,1:2:0:0:
313,325,132330,1,2,1:2:0:0:
320,268,132409,1,2,1:2:0:0:
326,212,132487,1,2,1:2:0:0:
333,155,132566,6,0,P|399:138|491:185,1,170.999994781494,2|0,1:2|0:0,0:0:0:0:
510,254,132880,2,0,L|512:310,1,56.9999982604981,2|0,0:2|0:0,0:0:0:0:
402,368,133037,2,0,L|395:239,1,113.999996520996,2|0,0:2|0:0,0:0:0:0:
258,82,133352,2,0,L|267:268,1,170.999994781494,2|0,1:2|0:0,0:0:0:0:
305,372,133666,2,0,L|302:315,1,56.9999982604981,10|0,0:2|0:0,0:0:0:0:
124,348,133823,5,0,0:0:0:0:
124,348,133901,1,0,0:0:0:0:
124,348,133980,1,2,1:2:0:0:
266,252,134137,1,8,0:2:0:0:
6,155,134294,2,0,L|62:152,1,56.9999982604981,2|0,1:2|0:0,0:0:0:0:
136,145,134451,1,0,0:0:0:0:
277,41,134608,2,0,L|220:38,1,56.9999982604981,2|0,1:2|0:0,0:0:0:0:
147,31,134765,1,8,0:2:0:0:
6,155,134922,2,0,L|62:152,1,56.9999982604981,2|0,1:2|1:0,0:0:0:0:
234,192,135079,6,0,P|276:246|245:338,1,170.999994781494,0|0,1:0|1:0,1:1:0:0:
185,373,135393,1,6,0:2:0:0:
43,323,135551,1,2,0:2:0:0:
58,298,135629,1,2,0:2:0:0:
73,274,135708,2,0,L|129:271,1,56.9999982604981,2|0,0:2|0:0,0:0:0:0:
234,192,135865,2,0,L|177:189,1,56.9999982604981,2|0,0:2|0:0,0:0:0:0:
246,336,136022,2,0,L|302:333,1,56.9999982604981,2|0,0:2|0:0,0:0:0:0:
447,174,136179,2,0,L|390:171,1,56.9999982604981,10|0,0:2|0:0,0:0:0:0:
318,167,136336,5,0,0:0:0:0:
487,273,136493,1,0,1:0:0:0:
492,88,136650,1,8,0:2:0:0:
390,171,136807,2,0,L|447:174,1,56.9999982604981,2|0,0:2|0:0,0:0:0:0:
324,29,136964,1,0,1:0:0:0:
237,170,137121,1,2,0:2:0:0:
252,206,137199,1,0,0:0:0:0:
267,239,137278,2,0,L|400:245,1,113.999996520996,2|0,0:2|0:0,0:0:0:0:
218,140,137592,6,0,P|156:222|180:313,1,170.999994781494,6|0,0:2|0:0,0:0:0:0:
201,345,137907,1,8,0:2:0:0:
323,241,138064,1,6,0:2:0:0:
295,240,138142,1,0,0:0:0:0:
267,239,138221,1,0,0:0:0:0:
340,368,138378,2,0,L|396:365,1,56.9999982604981,2|0,1:2|0:0,0:0:0:0:
505,241,138535,2,0,L|448:238,1,56.9999982604981,2|0,1:2|0:0,0:0:0:0:
303,128,138692,2,0,L|359:125,1,56.9999982604981,6|0,0:2|0:0,0:0:0:0:
431,121,138849,6,0,P|433:53|406:14,1,113.999996520996,0|8,0:0|0:2,0:0:0:0:
217,93,139163,2,0,P|215:161|242:200,1,113.999996520996,8|0,0:2|1:0,0:0:0:0:
456,338,139477,5,2,1:2:0:0:
450,309,139555,1,2,1:2:0:0:
449,281,139634,1,2,1:2:0:0:
450,253,139712,1,2,1:2:0:0:
454,224,139791,5,2,1:2:0:0:
446,168,139869,1,2,1:2:0:0:
409,126,139948,1,0,1:0:0:0:
354,110,140026,1,0,1:0:0:0:
301,128,140106,6,0,L|311:260,1,113.999996520996,6|0,1:2|0:0,0:0:0:0:
229,360,140420,1,10,0:2:0:0:
229,360,140498,1,2,0:2:0:0:
229,360,140577,2,0,L|224:303,1,56.9999982604981,2|2,1:2|0:2,0:0:0:0:
144,179,140734,1,2,0:2:0:0:
144,179,140812,1,2,0:2:0:0:
144,179,140891,2,0,L|139:235,1,56.9999982604981,2|2,1:2|0:2,0:0:0:0:
51,364,141048,1,2,0:2:0:0:
51,364,141126,1,2,0:2:0:0:
51,364,141205,2,0,L|46:307,1,56.9999982604981,10|2,0:2|0:2,0:0:0:0:
3,184,141362,5,2,0:2:0:0:
3,180,141440,1,2,0:2:0:0:
3,176,141519,1,2,1:2:0:0:
3,173,141597,1,2,0:2:0:0:
4,169,141676,1,2,0:2:0:0:
4,166,141754,1,2,0:2:0:0:
4,162,141833,1,2,1:2:0:0:
5,159,141911,1,2,0:2:0:0:
5,155,141990,5,2,0:2:0:0:
42,135,142068,1,2,0:2:0:0:
84,126,142147,1,2,1:2:0:0:
126,130,142225,1,2,0:2:0:0:
166,146,142304,5,10,0:2:0:0:
235,161,142382,1,2,0:2:0:0:
301,138,142461,1,2,0:2:0:0:
346,84,142539,1,2,0:2:0:0:
356,14,142618,5,6,1:2:0:0:
503,95,142776,1,2,1:2:0:0:
503,95,142854,1,2,0:2:0:0:
503,95,142933,2,0,L|425:102,1,56.9999982604981,10|2,0:2|0:2,0:0:0:0:
342,209,143090,1,2,1:2:0:0:
342,209,143168,1,2,0:2:0:0:
342,209,143247,2,0,L|264:202,1,56.9999982604981,2|2,0:2|0:2,0:0:0:0:
149,293,143404,5,2,1:2:0:0:
143,236,143482,1,2,0:2:0:0:
138,179,143561,1,2,0:2:0:0:
133,122,143639,1,2,0:2:0:0:
128,65,143718,6,0,P|68:58|8:80,1,113.999996520996,10|0,0:2|0:0,0:0:0:0:
235,117,144032,2,0,P|242:57|220:-3,1,113.999996520996,2|8,1:2|0:2,0:0:0:0:
181,212,144346,2,0,P|241:219|301:197,1,113.999996520996,2|0,1:2|0:0,0:0:0:0:
74,160,144660,2,0,P|67:220|89:280,1,113.999996520996,2|0,1:2|0:0,0:0:0:0:
189,368,144975,1,2,1:2:0:0:
219,359,145053,1,2,0:2:0:0:
248,352,145132,6,0,L|354:356,1,95,10|0,0:2|0:0,0:0:0:0:
451,245,145446,2,0,L|345:249,1,95,8|0,0:2|0:0,0:0:0:0:
319,254,145681,1,0,0:0:0:0:
319,254,145760,1,0,0:0:0:0:
457,382,145917,6,0,L|454:310,1,47.5,2|0,1:2|0:0,0:0:0:0:
369,128,146074,2,0,L|366:199,1,47.5,2|0,0:2|0:0,0:0:0:0:
248,352,146231,2,0,L|245:280,1,47.5,10|0,0:2|0:0,0:0:0:0:
180,147,146388,6,0,P|126:147|67:166,1,95,0|0,0:0|1:0,0:0:0:0:
15,277,146702,2,0,P|69:277|128:258,1,95,8|0,0:2|0:0,0:0:0:0:
139,259,146937,1,0,0:0:0:0:
139,259,147016,1,0,1:0:0:0:
13,151,147174,6,0,L|17:209,1,47.5,2|0,1:2|0:0,0:0:0:0:
138,384,147331,2,0,L|142:326,1,47.5,10|0,0:2|0:0,0:0:0:0:
252,146,147488,2,0,L|256:204,1,47.5,6|0,0:2|0:0,0:0:0:0:
285,302,147645,6,0,L|419:292,1,95,0|0,1:0|1:0,0:0:0:0:
502,175,147959,2,0,L|367:165,1,95,0|0,1:0|1:0,0:0:0:0:
377,169,148195,1,0,0:0:0:0:
377,169,148273,6,0,L|373:236,3,47.5,0|0|0|0,1:0|0:0|1:0|0:0,0:0:0:0:
301,109,148587,2,0,L|299:74,6,23.75,0|0|0|0|0|0|0,1:0|1:0|1:0|1:0|1:0|1:0|1:0,1:1:0:0:
362,24,148901,5,2,2:2:0:0:
319,4,148979,1,2,2:2:0:0:
272,6,149058,1,2,2:2:0:0:
231,30,149136,1,2,2:2:0:0:
205,69,149215,5,2,2:2:0:0:
181,95,149293,1,2,2:2:0:0:
149,110,149372,1,2,2:2:0:0:
113,111,149450,1,2,2:2:0:0:
80,99,149530,5,2,2:2:0:0:
62,130,149608,1,2,2:2:0:0:
52,164,149687,1,2,2:2:0:0:
51,199,149765,1,2,2:2:0:0:
59,234,149844,5,2,0:3:0:0:
128,274,150158,5,4,0:3:0:0:
202,245,150472,5,6,0:1:0:0:
256,192,150551,12,0,152985,0:0:0:0:
