osu file format v14

[General]
AudioFilename: audio.mp3
AudioLeadIn: 0
PreviewTime: 109948
Countdown: 0
SampleSet: None
StackLeniency: 0.3
Mode: 0
LetterboxInBreaks: 0
WidescreenStoryboard: 1

[Editor]
Bookmarks: 50106,68482,88587,108692,140420,155184
DistanceSpacing: 1.23
BeatDivisor: 4
GridSize: 4
TimelineZoom: 3.4

[Metadata]
Title:Halcyon
TitleUnicode:Halcyon
Artist:xi
ArtistUnicode:xi
Creator:MrMenda
Version:Masterpiece
Source:BMS
Tags:Celektus MaridiuS ailv Cytus yaspo KnightC0re IceKalt BOF2010 BMS of Fighters 2010 Jory -Jordan-
BeatmapID:1488883
BeatmapSetID:684013

[Difficulty]
HPDrainRate:6.5
CircleSize:4.7
OverallDifficulty:9
ApproachRate:9.2
SliderMultiplier:1.8
SliderTickRate:1

[Events]
//Background and Video events
0,0,"halcyon bg.jpg",0,0
//Break Periods
//Storyboard Layer 0 (Background)
//Storyboard Layer 1 (Fail)
//Storyboard Layer 2 (Pass)
//Storyboard Layer 3 (Foreground)
//Storyboard Sound Samples

[TimingPoints]
3784,628.272251308901,4,2,0,15,1,0
4412,-66.6666666666667,4,2,0,15,0,0
5042,628.272251308901,4,2,0,20,1,0
5042,-100,4,2,0,20,0,0
10068,-100,4,2,0,20,0,0
10460,-100,4,2,0,5,0,0
10539,-100,4,2,0,15,0,0
10932,-100,4,2,0,5,0,0
11010,-100,4,2,0,15,0,0
12487,-100,4,2,0,5,0,0
12566,-100,4,2,0,15,0,0
12581,-100,4,2,0,15,0,0
15094,628.272251308901,4,2,0,25,1,0
15094,-100,4,2,0,25,0,0
16350,-200,4,2,0,25,0,0
17607,-100,4,2,0,25,0,0
20120,-100,4,2,0,25,0,0
21280,628.272251308901,4,2,0,25,1,0
21430,705.882352941176,4,2,0,25,1,0
21959,705.882352941176,4,2,0,25,1,0
22393,923.076923076923,4,2,0,25,1,0
22393,-133.333333333333,4,2,0,25,0,0
22863,800,4,2,0,30,1,0
23663,857.142857142857,4,2,0,30,1,0
24517,1000,4,2,0,25,1,0
25017,1132.07547169811,4,2,0,25,1,0
25300,967.741935483871,4,2,0,25,1,0
27017,314.13612565445,4,2,0,60,1,0
28273,-100,4,3,0,60,0,1
47121,-100,4,3,0,60,0,0
48064,-200,4,3,0,60,0,0
48299,-200,4,3,0,5,0,0
48378,-66.6666666666667,4,3,0,60,0,0
48613,-66.6666666666667,4,3,0,5,0,0
48692,-50,4,3,0,60,0,1
49006,-100,4,3,0,50,0,0
50812,-100,4,3,0,5,0,0
50891,-100,4,3,0,50,0,0
53718,-66.6666666666667,4,1,0,80,0,0
53954,-100,4,3,0,5,0,0
54032,-100,4,3,0,50,0,0
58666,-66.6666666666667,4,1,0,5,0,0
58744,-100,4,3,0,50,0,0
58980,-100,4,3,0,5,0,0
59058,-100,4,3,0,50,0,0
59530,-100,4,3,0,50,0,0
60865,-100,4,3,0,5,0,0
60943,-100,4,3,0,50,0,0
63770,-66.6666666666667,4,3,0,60,0,0
64713,-100,4,3,0,60,0,0
68482,-133.333333333333,4,3,0,60,0,0
68797,-66.6666666666667,4,3,0,60,0,0
69268,-100,4,3,0,60,0,0
69975,-95.2380952380952,4,3,0,60,0,0
70132,-90.9090909090909,4,3,0,60,0,0
71310,-100,4,3,0,60,0,0
78849,-66.6666666666667,4,3,0,60,0,0
79320,-100,4,3,0,60,0,0
80027,-95.2380952380952,4,3,0,60,0,0
80184,-95.2380952380952,4,3,0,60,0,0
81048,-100,4,3,0,60,0,0
87645,-66.6666666666667,4,3,0,60,0,0
88587,-100,4,3,0,60,0,0
90472,-100,4,3,0,60,0,0
90629,-100,4,3,0,5,0,0
90708,-100,4,3,0,60,0,0
90865,-100,4,3,0,5,0,0
90943,-100,4,3,0,60,0,0
95498,-100,4,3,0,60,0,0
95655,-100,4,3,0,5,0,0
95734,-100,4,3,0,60,0,0
95891,-100,4,3,0,5,0,0
95969,-100,4,3,0,60,0,0
100210,-125,4,3,0,60,0,0
100446,-111.111111111111,4,1,0,80,0,0
100681,-100,4,1,0,80,0,0
100917,-90.9090909090909,4,1,0,80,0,0
101153,-100,4,1,0,80,0,0
103980,-83.3333333333333,4,1,0,80,0,0
109634,-66.6666666666667,4,3,0,60,0,0
109870,-100,4,1,0,5,0,0
109948,-100,4,3,0,60,0,1
110263,-83.3333333333333,4,3,0,60,0,1
128797,-100,4,3,0,60,0,0
130053,-76.9230769230769,4,3,0,60,0,1
140420,-100,4,3,0,60,0,1
148901,-100,4,3,0,60,0,0
149844,-200,4,3,0,60,0,0
150472,-100,4,3,0,60,0,1
150786,-100,4,3,0,40,0,0
151100,-100,4,3,0,30,0,0
151414,-100,4,3,0,25,0,0
151729,-100,4,3,0,20,0,0
152043,-100,4,3,0,15,0,0
152357,-100,4,3,0,10,0,0
152985,-100,4,3,0,5,0,0

[Colours]
Combo1 : 128,255,255
Combo2 : 128,128,192
Combo3 : 0,255,128

[HitObjects]
216,288,4412,6,0,P|206:250|182:229,1,67.5000025749208,2|0,0:2|0:0,0:0:0:0:
110,268,4726,2,0,P|72:258|51:234,1,67.5000025749208,2|0,0:2|0:0,0:0:0:0:
83,155,5042,2,2,B|148:139|147:187|224:160|224:160|324:104|224:28|156:108|220:148|220:148|279:200|288:276|288:276|328:158|359:208|412:107|342:102,1,720,6|6,0:2|0:2,0:0:0:0:
288,276,7869,5,2,0:2:0:0:
374,248,8026,1,2,0:2:0:0:
307,366,8183,2,0,P|256:370|230:355,2,60,2|2|2,0:2|0:2|0:2,0:0:0:0:
373,292,8811,6,0,P|376:270|374:248,1,45,2|0,0:2|0:0,0:0:0:0:
442,201,9125,2,0,P|438:178|441:156,1,45,2|0,0:2|0:0,0:0:0:0:
477,53,9439,2,0,P|454:56|432:53,1,45,2|0,0:2|0:0,0:0:0:0:
350,99,9753,2,0,P|327:95|305:98,1,45,2|0,0:2|0:0,0:0:0:0:
213,122,10068,6,2,B|181:118|145:162|145:162|134:149|145:124,1,112.5,6|0,0:2|0:0,0:0:0:0:
80,203,10539,2,0,B|92:232|148:241|148:241|142:257|115:260,1,112.5,2|0,0:2|0:0,0:0:0:0:
222,269,11010,6,0,B|236:252|216:199|216:199|233:196|247:206|274:241|292:271|292:271|318:201|405:199|441:251|443:315|395:335|339:324|357:288,2,450,2|6|2,0:2|0:2|0:2,0:0:0:0:
129,322,14466,1,2,0:2:0:0:
155,245,14623,1,2,0:2:0:0:
68,376,14780,1,2,0:2:0:0:
52,296,14937,1,2,0:2:0:0:
68,216,15094,6,0,B|113:155|54:72|54:72|119:145|187:124|223:104,1,315,6|0,1:2|0:0,0:0:0:0:
302,68,16350,2,0,P|254:80|303:89,1,135,2|0,1:2|0:0,0:0:0:0:
301,91,17607,6,0,B|334:120|330:162|330:162|357:146|361:107,1,135,6|0,1:2|0:0,0:0:0:0:
244,155,18235,2,0,B|202:169|168:144|168:144|168:175|200:198,1,135,0|0,1:0|0:0,0:0:0:0:
216,70,18863,2,0,B|224:26|262:9|262:9|235:-5|199:10,1,135,6|0,1:2|0:0,0:0:0:0:
244,155,19491,5,6,1:2:0:0:
303,89,19648,1,4,1:0:0:0:
271,239,19806,5,4,1:0:0:0:
185,221,19963,1,6,1:2:0:0:
362,232,20120,2,2,B|361:273|334:300|334:300|389:281|483:211|468:103,1,315,6|0,1:2|0:0,0:0:0:0:
320,142,21430,2,0,P|379:148|342:73,1,180,6|0,1:2|0:0,0:0:0:0:
221,105,22393,6,0,L|223:160,1,33.7500012874604,2|2,1:2|0:2,0:0:0:0:
305,211,22863,1,6,0:2:0:0:
256,192,23063,12,0,27017,1:0:0:0:
279,354,27331,5,0,0:0:0:0:
57,142,27645,5,2,1:2:0:0:
195,233,27802,1,2,1:2:0:0:
216,194,27880,1,2,1:2:0:0:
221,150,27959,5,2,1:2:0:0:
184,205,28037,1,2,1:2:0:0:
183,271,28116,1,2,1:2:0:0:
219,328,28194,1,2,1:2:0:0:
279,354,28273,6,0,P|324:359|366:344,1,90,6|0,1:2|0:0,0:0:0:0:
471,272,28587,1,10,0:2:0:0:
221,150,28744,2,0,P|178:135|134:141,1,90,2|0,0:2|0:0,0:0:0:0:
384,263,29058,2,0,P|426:277|470:271,1,90,2|0,0:2|0:2,0:0:0:0:
459,100,29373,1,10,0:2:0:0:
453,121,29451,1,0,0:0:0:0:
447,143,29530,1,0,0:0:0:0:
441,165,29608,1,0,0:0:0:0:
435,186,29687,5,2,0:2:0:0:
342,31,29844,1,8,0:2:0:0:
135,231,30001,2,0,P|176:249|225:253,1,90,2|8,0:2|0:2,0:0:0:0:
459,100,30315,1,2,0:2:0:0:
137,138,30472,1,2,1:2:0:0:
93,147,30550,1,2,1:2:0:0:
59,176,30629,1,2,1:2:0:0:
43,218,30707,1,2,1:2:0:0:
49,262,30786,6,0,P|72:300|111:322,1,90,2|2,1:2|0:2,0:0:0:0:
355,341,31100,1,10,0:2:0:0:
260,135,31257,2,0,L|236:221,1,90,2|0,0:2|0:0,0:0:0:0:
342,31,31571,2,0,L|365:117,1,90,2|0,0:2|0:0,0:0:0:0:
439,317,31886,2,0,P|399:338|355:341,1,90,10|0,0:2|0:0,0:0:0:0:
210,307,32200,5,2,0:2:0:0:
365,117,32357,1,8,0:2:0:0:
121,141,32514,1,2,0:2:0:0:
137,157,32592,1,0,0:0:0:0:
155,170,32671,1,8,0:2:0:0:
175,180,32749,1,0,0:0:0:0:
197,186,32828,2,0,P|226:187|257:179,1,45,2|0,1:2|1:0,1:1:0:0:
365,117,32985,1,8,0:2:0:0:
221,12,33142,1,2,1:2:0:0:
210,31,33220,1,0,1:0:0:0:
205,52,33299,6,0,P|204:81|212:112,1,45,0|0,1:0|1:0,0:0:0:0:
263,251,33456,1,0,1:0:0:0:
375,33,33613,1,8,0:2:0:0:
395,189,33770,1,2,0:2:0:0:
395,189,33849,1,2,0:2:0:0:
395,189,33927,5,2,0:2:0:0:
206,96,34085,1,2,0:2:0:0:
497,165,34242,1,2,1:2:0:0:
375,33,34399,1,10,0:2:0:0:
263,251,34556,6,0,P|294:282|336:298,1,90,0|2,0:0|0:2,0:0:0:0:
479,323,34870,1,8,0:2:0:0:
395,189,35027,1,2,0:2:0:0:
240,331,35184,2,0,P|200:353|156:358,1,90,8|0,0:2|1:0,0:0:0:0:
37,374,35498,1,2,1:2:0:0:
137,235,35655,1,2,1:2:0:0:
412,269,35812,6,0,P|412:314|391:353,1,90,6|0,1:2|0:0,0:0:0:0:
240,331,36126,1,8,0:2:0:0:
237,91,36284,2,0,P|276:113|298:152,1,90,10|0,0:2|0:0,0:0:0:0:
391,353,36598,1,10,0:2:0:0:
298,152,36755,1,10,0:2:0:0:
67,324,36912,6,0,P|110:335|154:328,1,90,6|0,0:2|0:0,0:0:0:0:
357,217,37226,1,8,0:2:0:0:
118,245,37383,1,0,1:0:0:0:
174,25,37697,5,0,1:0:0:0:
298,152,37854,1,2,1:2:0:0:
322,190,37932,1,2,1:2:0:0:
357,217,38011,5,2,1:2:0:0:
328,157,38089,1,2,1:2:0:0:
272,123,38168,1,2,1:2:0:0:
204,126,38246,1,2,1:2:0:0:
152,165,38325,6,0,P|126:201|118:245,1,90,6|0,0:2|0:0,0:0:0:0:
167,370,38640,1,10,0:2:0:0:
357,217,38797,2,0,P|410:210|458:218,1,90,2|0,0:2|0:0,0:0:0:0:
256,367,39111,2,0,P|203:374|155:366,1,90,2|0,0:2|0:0,0:0:0:0:
231,196,39425,1,10,0:2:0:0:
231,218,39504,1,0,0:0:0:0:
227,240,39582,1,0,0:0:0:0:
220,261,39661,1,0,0:0:0:0:
210,281,39739,5,2,0:2:0:0:
313,128,39896,1,8,0:2:0:0:
512,343,40053,2,0,P|456:361|406:353,1,90,2|8,0:2|0:2,0:0:0:0:
210,281,40367,1,2,1:2:0:0:
389,178,40524,1,2,1:2:0:0:
404,136,40602,1,2,1:2:0:0:
398,91,40681,1,2,1:2:0:0:
372,55,40759,1,2,1:2:0:0:
332,36,40838,6,0,P|287:37|249:60,1,90,6|0,1:2|0:0,0:0:0:0:
96,240,41153,1,2,0:2:0:0:
389,178,41310,2,0,L|302:154,1,90,2|0,0:2|0:0,0:0:0:0:
512,227,41624,2,0,L|425:250,1,90,2|0,1:2|0:0,0:0:0:0:
118,323,41938,2,0,P|93:265|102:223,1,90,10|0,0:2|0:0,0:0:0:0:
140,93,42252,1,2,1:2:0:0:
227,351,42409,1,0,0:0:0:0:
454,216,42566,1,10,0:2:0:0:
442,234,42644,1,0,0:0:0:0:
425,250,42723,1,0,1:0:0:0:
406,260,42801,1,0,1:0:0:0:
384,266,42880,6,0,P|358:265|330:257,1,45,2|0,1:2|0:0,0:0:0:0:
183,222,43037,1,8,0:2:0:0:
346,53,43195,1,2,1:2:0:0:
364,93,43273,1,2,1:2:0:0:
365,139,43352,6,0,P|364:165|356:193,1,45,6|0,1:2|0:0,0:0:0:0:
321,340,43509,1,2,0:2:0:0:
88,301,43666,2,0,P|116:216|90:132,1,180,10|2,0:2|0:0,0:0:0:0:
28,54,44137,1,2,1:2:0:0:
183,222,44294,1,2,0:2:0:0:
402,168,44451,6,0,P|380:130|349:98,1,90,10|0,2:2|2:0,2:2:0:0:
279,28,44765,1,0,1:0:0:0:
373,265,44922,2,0,P|418:264|462:254,1,90,8|0,0:2|2:0,2:2:0:0:
506,160,45236,1,0,1:0:0:0:
433,360,45393,1,2,1:2:0:0:
433,360,45472,1,0,0:0:0:0:
433,360,45551,1,10,0:2:0:0:
231,293,45708,6,0,P|197:263|182:221,1,90,6|0,0:2|0:0,0:0:0:0:
200,53,46022,1,0,1:0:0:0:
276,212,46179,1,8,0:2:0:0:
399,50,46337,5,0,1:0:0:0:
391,93,46415,1,0,1:0:0:0:
406,135,46494,1,0,1:0:0:0:
433,170,46572,1,0,1:0:0:0:
442,214,46651,1,0,1:0:0:0:
429,257,46729,1,0,0:0:0:0:
398,289,46807,6,0,L|368:307,6,22.5,8|0|0|0|0|0|0,0:2|0:0|1:0|0:0|1:0|0:0|0:0,0:0:0:0:
202,350,47121,5,6,1:2:0:0:
179,276,47199,1,2,2:2:0:0:
216,208,47278,1,2,2:2:0:0:
289,186,47356,1,2,2:2:0:0:
349,227,47435,5,2,2:2:0:0:
297,247,47513,1,2,2:2:0:0:
242,237,47592,1,2,2:2:0:0:
201,201,47670,1,2,2:2:0:0:
186,147,47749,5,2,1:2:0:0:
189,181,47827,1,2,1:2:0:0:
191,215,47906,1,2,1:2:0:0:
194,248,47984,1,2,1:2:0:0:
196,282,48064,6,0,L|203:364,1,67.5,2|0,0:3|0:0,0:0:0:0:
349,227,48378,6,0,P|283:152|186:147,1,202.500007724762,4|0,0:1|0:0,0:0:0:0:
32,301,48692,1,6,0:1:0:0:
32,301,49006,5,2,1:2:0:0:
32,163,49163,1,0,1:0:0:0:
100,312,49320,1,0,1:0:0:0:
169,192,49477,2,0,P|212:183|255:195,1,90,6|0,0:2|0:0,0:0:0:0:
454,322,49791,2,0,P|410:331|367:319,1,90,2|8,1:2|0:2,0:0:0:0:
410,158,50106,2,0,P|422:200|412:244,1,90,2|0,0:2|1:0,0:0:0:0:
255,195,50420,1,0,1:0:0:0:
365,51,50577,2,0,P|305:22|243:42,1,135,8|0,0:2|0:0,0:0:0:0:
228,59,50891,5,2,1:2:0:0:
301,360,51205,5,10,0:2:0:0:
301,360,51519,5,2,1:2:0:0:
430,312,51676,1,0,1:0:0:0:
263,304,51833,1,0,1:0:0:0:
351,197,51990,2,0,L|264:173,1,90,10|0,0:2|0:0,0:0:0:0:
90,125,52304,1,0,1:0:0:0:
141,294,52462,2,0,L|178:212,1,90,8|0,0:2|0:0,0:0:0:0:
232,41,52776,5,2,1:2:0:0:
287,42,52855,1,2,1:2:0:0:
336,69,52933,1,2,1:2:0:0:
367,116,53012,1,2,1:2:0:0:
372,171,53090,5,2,1:2:0:0:
377,192,53168,1,2,1:2:0:0:
387,212,53247,1,2,1:2:0:0:
402,229,53325,1,2,1:2:0:0:
419,241,53404,2,0,P|462:254|505:241,1,90,6|0,1:2|0:0,0:0:0:0:
361,323,53718,6,2,P|297:304|232:322,1,135.000005149842,6|0,0:2|0:0,0:0:0:0:
465,161,54032,1,2,0:2:0:0:
489,323,54189,1,2,0:2:0:0:
406,103,54346,1,2,0:2:0:0:
353,240,54503,1,10,0:2:0:0:
383,23,54660,5,2,2:2:0:0:
361,28,54738,1,2,2:2:0:0:
339,34,54817,1,2,1:2:0:0:
317,40,54896,1,2,2:2:0:0:
285,87,54975,5,10,2:2:0:0:
260,80,55053,1,2,2:2:0:0:
236,73,55132,1,2,2:2:0:0:
212,67,55210,1,2,2:2:0:0:
177,16,55289,5,2,1:2:0:0:
149,24,55367,1,2,2:2:0:0:
123,32,55446,1,2,1:2:0:0:
96,38,55524,1,2,2:2:0:0:
70,47,55603,5,0,0:0:0:0:
64,68,55681,1,0,0:0:0:0:
66,91,55760,1,0,0:0:0:0:
75,111,55838,1,0,0:0:0:0:
90,127,55917,5,6,0:0:0:0:
285,87,56074,1,2,0:2:0:0:
115,228,56231,1,10,0:2:0:0:
177,16,56388,1,0,0:0:0:0:
177,16,56467,1,0,0:0:0:0:
177,16,56545,1,2,0:2:0:0:
200,228,56702,1,2,0:2:0:0:
90,127,56859,1,2,0:2:0:0:
90,127,56938,1,2,0:2:0:0:
90,127,57016,1,10,0:2:0:0:
57,297,57174,6,0,P|67:237|52:192,1,90,2|0,0:2|1:0,0:0:0:0:
51,188,57409,1,0,1:0:0:0:
36,170,57488,1,10,1:2:0:0:
259,234,57645,1,2,0:2:0:0:
336,27,57802,5,2,2:2:0:0:
322,57,57880,1,2,2:2:0:0:
318,90,57959,1,2,2:2:0:0:
323,123,58037,1,2,2:2:0:0:
339,153,58117,5,2,1:2:0:0:
359,193,58195,1,2,2:2:0:0:
365,237,58274,1,2,2:2:0:0:
357,282,58352,1,2,2:2:0:0:
335,320,58430,2,0,P|399:306|459:335,1,135,4|0,1:2|0:0,0:0:0:0:
165,368,58744,5,4,0:0:0:0:
165,368,59058,1,2,0:2:0:0:
277,332,59215,1,0,0:0:0:0:
85,320,59373,1,0,0:0:0:0:
278,259,59530,2,0,P|282:221|279:166,1,90,10|0,0:2|0:0,0:0:0:0:
30,63,59844,2,0,P|19:107|29:156,1,90,2|8,1:2|0:2,0:0:0:0:
204,115,60158,2,0,P|159:103|115:114,1,90,2|0,0:2|0:0,0:0:0:0:
159,193,60472,1,0,1:0:0:0:
278,259,60629,2,0,P|345:269|421:229,1,135,8|0,0:2|0:0,0:0:0:0:
419,225,60943,5,2,1:2:0:0:
25,54,61257,5,10,0:2:0:0:
25,54,61571,5,2,0:2:0:0:
94,173,61728,1,0,1:0:0:0:
78,10,61885,1,0,1:0:0:0:
198,79,62042,2,0,P|239:65|270:33,1,90,10|0,0:2|0:0,0:0:0:0:
78,10,62357,1,0,1:0:0:0:
201,165,62514,2,0,P|233:194|276:205,1,90,10|0,0:2|1:0,0:0:0:0:
464,32,62828,5,2,2:2:0:0:
448,60,62906,1,2,2:2:0:0:
444,93,62985,1,2,2:2:0:0:
453,127,63063,1,2,2:2:0:0:
475,166,63142,5,2,1:2:0:0:
477,211,63220,1,2,1:2:0:0:
459,251,63299,1,2,1:2:0:0:
424,279,63377,1,2,1:2:0:0:
381,294,63456,2,0,P|337:285|294:297,1,90,6|0,1:2|0:0,0:0:0:0:
92,365,63770,6,2,P|157:378|221:360,1,135.000005149842,6|0,0:2|0:0,0:0:0:0:
415,175,64085,1,2,0:2:0:0:
294,297,64242,1,2,0:2:0:0:
493,214,64399,1,2,0:2:0:0:
447,362,64556,1,10,0:2:0:0:
332,214,64713,5,2,2:2:0:0:
324,181,64791,1,2,2:2:0:0:
329,147,64870,1,10,2:2:0:0:
345,118,64948,1,2,2:2:0:0:
392,80,65027,5,10,2:2:0:0:
357,67,65106,1,2,2:2:0:0:
320,68,65184,1,2,2:2:0:0:
286,82,65263,1,2,2:2:0:0:
258,133,65341,5,2,1:2:0:0:
224,147,65420,1,2,2:2:0:0:
187,148,65498,1,2,1:2:0:0:
152,135,65577,1,2,2:2:0:0:
124,109,65655,5,10,2:2:0:0:
117,87,65733,1,2,2:2:0:0:
117,64,65812,1,2,1:2:0:0:
121,43,65890,1,2,2:2:0:0:
131,22,65969,6,0,P|150:4|175:-1,1,45,6|0,1:2|0:0,0:0:0:0:
396,154,66126,1,2,0:2:0:0:
287,64,66284,2,0,P|242:56|199:67,1,90,10|0,0:2|0:0,0:0:0:0:
246,284,66598,5,2,1:2:0:0:
287,64,66755,1,2,1:2:0:0:
416,235,66912,2,0,L|371:223,1,45,2|0,1:2|0:0,0:0:0:0:
207,173,67069,2,0,L|249:184,1,45,2|0,1:2|0:0,0:0:0:0:
494,156,67226,5,2,1:2:0:0:
504,120,67304,1,2,1:2:0:0:
500,83,67383,1,2,1:2:0:0:
479,53,67461,1,2,1:2:0:0:
450,30,67540,1,6,1:1:0:0:
413,22,67618,1,2,1:2:0:0:
375,31,67697,2,0,P|356:40|334:56,1,45,0|0,1:0|1:0,1:1:0:0:
231,243,67854,5,2,1:2:0:0:
249,210,67932,1,2,1:2:0:0:
255,174,68011,1,2,1:2:0:0:
247,138,68089,1,2,1:2:0:0:
224,109,68168,1,6,1:1:0:0:
187,92,68246,1,2,1:2:0:0:
148,91,68325,2,0,P|127:94|101:104,1,45,0|0,1:0|1:0,1:1:0:0:
177,282,68482,6,2,P|206:266|231:243,1,67.5000025749208,2|0,2:2|2:0,2:2:0:0:
410,215,68797,6,0,P|366:100|228:60,1,270.000010299683,6|0,2:2|2:0,2:2:0:0:
44,71,69268,5,2,0:2:0:0:
113,146,69425,1,2,0:2:0:0:
130,12,69582,1,2,0:2:0:0:
182,125,69739,6,0,L|182:173,1,45,2|2,0:2|0:2,0:0:0:0:
113,146,69896,5,2,1:2:0:0:
98,179,69975,2,0,L|110:225,1,47.2499985580445,2|10,0:2|0:2,0:0:0:0:
37,212,70132,5,2,0:2:0:0:
32,254,70211,2,0,L|58:300,1,49.5000015106202,2|2,0:2|0:2,0:0:0:0:
31,365,70367,5,2,1:2:0:0:
78,384,70446,2,0,P|126:354|146:307,1,99.0000030212403,2|2,0:2|0:2,0:0:0:0:
245,187,70681,5,10,0:2:0:0:
310,198,70760,1,2,0:2:0:0:
352,249,70838,1,10,0:2:0:0:
349,315,70917,1,2,0:2:0:0:
304,363,70995,1,6,0:2:0:0:
78,384,71153,1,0,0:0:0:0:
262,278,71310,2,0,P|292:196|243:124,1,180,8|0,0:2|0:0,0:0:0:0:
304,363,71781,2,0,P|260:371|217:357,1,90,0|0,1:0|0:0,0:0:0:0:
19,324,72095,1,8,0:2:0:0:
87,226,72252,5,2,2:2:0:0:
96,183,72331,1,2,2:2:0:0:
86,137,72409,1,2,1:2:0:0:
53,108,72488,1,2,2:2:0:0:
11,95,72566,5,10,2:2:0:0:
43,125,72645,1,2,2:2:0:0:
86,137,72723,1,2,2:2:0:0:
129,125,72802,1,2,2:2:0:0:
162,95,72880,5,2,1:2:0:0:
195,64,72958,1,2,2:2:0:0:
238,52,73037,1,2,1:2:0:0:
281,64,73115,1,2,1:2:0:0:
313,94,73194,5,10,2:2:0:0:
329,158,73273,1,2,2:2:0:0:
297,216,73352,1,10,2:2:0:0:
234,237,73430,1,2,2:2:0:0:
174,210,73509,6,0,P|148:157|156:103,1,90,0|0,0:0|0:0,0:0:0:0:
261,232,73823,2,0,P|204:295|119:281,1,180,8|0,0:2|0:0,0:0:0:0:
265,140,74294,2,0,P|308:151|348:204,1,90,2|0,1:2|0:0,0:0:0:0:
181,183,74608,2,0,P|169:138|195:77,1,90,10|0,0:2|0:0,0:0:0:0:
319,8,74922,5,2,1:2:0:0:
329,30,75000,1,2,0:2:0:0:
330,51,75079,2,0,P|327:76|316:95,1,45,10|0,0:2|0:0,0:0:0:0:
424,62,75236,5,2,0:2:0:0:
420,98,75314,1,2,0:2:0:0:
399,129,75393,1,10,0:2:0:0:
484,172,75551,5,2,1:2:0:0:
458,204,75629,1,2,1:2:0:0:
420,221,75708,2,0,P|390:226|362:221,1,45,10|0,0:2|0:0,0:0:0:0:
473,300,75865,5,2,0:2:0:0:
418,318,75943,1,2,0:2:0:0:
361,306,76022,2,0,P|319:291|277:304,1,90,6|0,0:2|0:0,0:0:0:0:
129,380,76336,2,0,P|170:302|134:223,1,180,8|0,0:2|0:0,0:0:0:0:
50,133,76807,1,0,1:0:0:0:
0,242,76964,1,2,2:2:0:0:
33,285,77043,1,2,2:2:0:0:
87,299,77121,1,2,2:2:0:0:
218,265,77278,2,0,P|228:300|216:357,1,90,0|0,0:0|1:0,0:0:0:0:
134,223,77592,5,10,2:2:0:0:
163,189,77670,1,2,2:2:0:0:
205,173,77749,1,2,1:2:0:0:
249,177,77827,1,2,2:2:0:0:
287,202,77907,5,2,1:2:0:0:
325,226,77986,1,10,2:2:0:0:
369,230,78064,1,2,1:2:0:0:
411,214,78143,1,2,2:2:0:0:
447,172,78221,5,10,1:2:0:0:
400,192,78300,1,2,1:2:0:0:
369,230,78378,1,2,1:2:0:0:
356,278,78457,1,2,1:2:0:0:
369,325,78535,2,0,P|419:379|470:386,1,90,6|0,0:2|0:0,0:0:0:0:
512,104,78849,6,0,B|384:65|384:65|251:103,1,270.000010299683,6|0,0:1|0:0,0:0:0:0:
180,173,79320,2,2,P|219:197|263:203,2,90,2|2|10,0:2|0:2|0:2,0:0:0:0:
131,30,79791,6,0,L|202:36,1,45,2|2,2:2|2:2,0:0:0:0:
58,90,79948,5,2,1:2:0:0:
90,113,80027,2,0,L|173:112,1,47.2499985580445,2|10,2:2|2:2,0:0:0:0:
32,184,80184,5,2,2:2:0:0:
71,208,80263,2,0,L|118:203,1,47.2499985580445,2|2,2:2|2:2,0:0:0:0:
124,289,80420,5,2,1:2:0:0:
169,289,80498,2,0,P|205:254|214:193,1,94.499997116089,2|2,2:2|2:2,0:0:0:0:
111,3,80734,5,10,2:2:0:0:
110,62,80813,1,0,0:0:0:0:
138,113,80891,1,10,2:2:0:0:
185,141,80970,1,2,2:2:0:0:
240,144,81048,2,0,P|279:131|312:93,1,90,6|0,1:2|0:0,0:0:0:0:
403,2,81362,5,10,2:2:0:0:
440,112,81519,1,2,2:2:0:0:
420,139,81597,1,2,2:2:0:0:
392,157,81676,1,2,2:2:0:0:
490,226,81833,5,2,1:2:0:0:
460,252,81911,1,2,2:2:0:0:
420,257,81990,2,2,P|396:259|372:249,1,45,2|2,2:2|2:2,2:2:0:0:
415,338,82147,5,10,2:2:0:0:
372,344,82225,1,2,2:2:0:0:
331,324,82304,2,0,P|302:289|294:239,1,90,2|2,0:2|1:0,0:0:0:0:
286,48,82619,1,10,0:2:0:0:
39,224,82776,5,2,2:2:0:0:
77,229,82854,2,0,L|117:203,1,45,2|2,2:2|1:2,0:0:0:0:
79,329,83011,5,2,2:2:0:0:
115,322,83089,2,0,L|146:286,1,45,2|2,1:2|1:2,0:0:0:0:
218,192,83247,5,10,2:2:0:0:
253,166,83326,1,2,2:2:0:0:
297,158,83404,1,10,2:2:0:0:
340,172,83483,1,2,2:2:0:0:
372,203,83561,6,0,P|383:246|376:290,1,90,6|0,1:2|0:0,0:0:0:0:
200,306,83875,2,0,P|231:274|273:259,1,90,8|0,0:2|0:0,0:0:0:0:
465,233,84189,1,2,1:2:0:0:
481,203,84267,1,2,2:2:0:0:
487,170,84346,1,2,2:2:0:0:
481,137,84424,1,10,2:2:0:0:
464,108,84503,1,2,1:2:0:0:
307,143,84660,5,10,2:2:0:0:
345,165,84738,1,2,2:2:0:0:
390,171,84817,1,2,1:2:0:0:
491,25,84975,1,8,0:2:0:0:
255,64,85132,2,0,P|222:95|211:139,1,90,8|0,0:2|0:0,0:0:0:0:
254,278,85446,5,2,1:2:0:0:
214,298,85524,1,2,2:2:0:0:
169,296,85603,1,2,2:2:0:0:
131,274,85681,1,2,2:2:0:0:
108,236,85760,5,10,2:2:0:0:
148,257,85838,1,2,2:2:0:0:
169,296,85917,1,10,2:2:0:0:
169,341,85995,1,2,2:2:0:0:
148,380,86074,1,2,1:2:0:0:
200,191,86231,5,0,1:0:0:0:
83,326,86388,5,2,1:2:0:0:
67,310,86466,1,2,1:2:0:0:
51,294,86545,1,2,1:2:0:0:
35,278,86623,1,2,1:2:0:0:
19,262,86702,5,2,1:2:0:0:
22,240,86780,1,2,1:2:0:0:
26,217,86859,1,2,1:2:0:0:
30,195,86937,1,2,1:2:0:0:
33,173,87016,2,0,L|41:140,6,22.5,2|0|0|0|0|0|0,1:2|1:2|1:2|1:2|1:2|1:2|1:2,1:1:0:0:
57,78,87331,5,4,1:2:0:0:
57,77,87645,6,2,L|88:89,1,33.7500012874604,6|2,2:2|2:2,2:2:0:0:
112,41,87723,2,2,L|136:63,1,33.7500012874604,2|2,2:2|2:2,2:2:0:0:
178,43,87802,2,2,L|192:73,1,33.7500012874604,2|2,2:2|2:2,2:2:0:0:
231,83,87880,2,2,L|232:116,1,33.7500012874604,2|2,2:2|2:2,2:2:0:0:
250,147,87959,6,2,L|238:178,1,33.7500012874604,2|2,2:2|2:2,2:2:0:0:
305,110,88037,2,2,L|282:135,1,33.7500012874604,2|2,2:2|2:2,2:2:0:0:
371,112,88116,2,2,L|340:126,1,33.7500012874604,2|2,2:2|2:2,2:2:0:0:
424,152,88195,2,2,L|390:154,1,33.7500012874604,2|2,2:2|2:2,2:2:0:0:
443,216,88273,5,10,2:2:0:0:
433,236,88351,1,0,0:0:0:0:
423,256,88430,1,0,1:0:0:0:
412,276,88508,1,0,0:0:0:0:
401,294,88587,6,0,L|354:370,1,90,6|0,1:2|0:0,0:0:0:0:
237,178,88901,2,0,L|190:254,1,90,0|0,1:0|0:0,0:0:0:0:
401,294,89215,1,0,1:0:0:0:
148,331,89373,1,0,0:0:0:0:
354,370,89530,1,0,1:0:0:0:
190,254,89687,1,0,0:0:0:0:
371,111,89844,6,0,P|415:104|459:112,1,90,0|0,1:0|0:0,0:0:0:0:
237,178,90158,2,0,P|192:184|148:177,1,90,0|0,1:0|0:0,0:0:0:0:
148,11,90472,6,0,P|176:45|192:87,1,90,2|0,1:2|0:0,0:0:0:0:
101,109,90708,6,0,P|94:74|113:93,1,90,2|0,0:2|0:0,0:0:0:0:
148,177,90943,5,2,0:3:0:0:
44,179,91100,2,0,P|15:144|0:102,1,90,2|0,1:3|0:0,0:0:0:0:
147,10,91414,2,0,P|176:45|192:87,1,90,0|0,1:0|0:0,0:0:0:0:
88,256,91729,1,0,1:0:0:0:
192,87,91886,1,0,0:0:0:0:
0,102,92043,1,0,1:0:0:0:
148,11,92200,1,0,0:0:0:0:
166,250,92357,5,2,1:2:0:0:
148,291,92435,1,2,2:2:0:0:
114,320,92514,1,2,2:2:0:0:
71,332,92592,1,2,2:2:0:0:
28,323,92671,5,2,1:2:0:0:
63,296,92749,1,2,2:2:0:0:
106,287,92828,1,2,2:2:0:0:
149,298,92906,1,2,2:2:0:0:
183,327,92985,1,2,1:2:0:0:
218,355,93064,1,2,1:2:0:0:
262,365,93142,1,2,1:2:0:0:
304,357,93221,1,2,1:2:0:0:
340,329,93299,5,2,1:2:0:0:
354,311,93377,1,2,1:2:0:0:
364,291,93456,1,2,1:2:0:0:
370,270,93534,1,2,1:2:0:0:
371,247,93613,6,0,P|365:202|340:165,1,90,6|0,1:1|0:0,0:0:0:0:
450,32,93927,2,0,P|456:77|481:114,1,90,0|0,1:0|0:0,0:0:0:0:
371,247,94242,1,0,1:0:0:0:
480,113,94399,1,0,0:0:0:0:
276,232,94556,1,0,1:0:0:0:
480,113,94713,1,0,0:0:0:0:
276,232,94870,5,2,1:2:0:0:
254,193,94949,1,2,2:2:0:0:
253,148,95027,1,2,2:2:0:0:
273,109,95106,1,2,2:2:0:0:
309,82,95184,5,2,1:2:0:0:
287,122,95262,1,2,2:2:0:0:
253,148,95341,1,2,2:2:0:0:
208,155,95419,1,2,2:2:0:0:
159,151,95498,6,0,P|115:108|106:77,1,90,2|0,1:2|0:0,0:0:0:0:
185,45,95734,6,0,P|216:64|184:61,1,90,2|0,0:2|0:0,0:0:0:0:
107,81,95969,5,2,0:3:0:0:
319,248,96126,2,0,P|341:208|340:164,1,90,2|0,1:3|0:0,0:0:0:0:
434,181,96441,1,2,1:2:0:0:
432,136,96519,1,2,2:2:0:0:
409,98,96598,1,2,2:2:0:0:
236,188,96755,5,2,1:2:0:0:
218,229,96833,1,2,2:2:0:0:
220,273,96912,1,2,2:2:0:0:
240,313,96990,1,2,2:2:0:0:
275,341,97069,1,2,1:2:0:0:
319,351,97147,1,2,2:2:0:0:
363,342,97226,1,2,2:2:0:0:
398,315,97304,1,2,2:2:0:0:
419,276,97383,6,0,L|430:242,6,22.5,6|2|2|0|2|0|2,1:2|2:2|2:2|2:0|2:2|2:0|2:2,2:2:0:0:
481,191,97697,6,2,L|470:156,6,22.5,2|2|2|2|2|2|2,1:2|2:2|2:2|2:2|2:2|2:2|2:2,2:2:0:0:
319,247,98011,5,6,1:2:0:0:
275,258,98089,1,2,1:2:0:0:
232,248,98168,1,6,1:2:0:0:
198,218,98246,1,2,1:2:0:0:
182,178,98325,5,6,1:2:0:0:
138,188,98403,1,2,1:2:0:0:
95,178,98482,1,6,1:2:0:0:
61,148,98560,1,2,1:2:0:0:
44,107,98640,5,6,1:1:0:0:
273,162,98797,1,0,0:0:0:0:
136,92,98954,2,0,P|163:56|213:33,1,90,2|0,1:2|0:0,0:0:0:0:
273,162,99268,1,2,1:2:0:0:
143,245,99425,1,0,0:0:0:0:
319,247,99582,1,2,1:2:0:0:
70,357,99739,1,0,0:0:0:0:
319,347,99896,2,0,P|275:339|234:305,1,90,2|0,1:1|0:0,0:0:0:0:
400,288,100210,5,2,1:2:0:0:
434,307,100289,2,2,L|483:310,1,36,2|2,2:2|2:2,2:2:0:0:
360,200,100446,5,2,2:2:0:0:
395,217,100524,2,2,L|435:224,1,40.4999987640381,2|2,1:2|2:2,2:2:0:0:
328,104,100681,5,2,2:2:0:0:
359,126,100760,2,2,L|401:137,1,45,2|2,2:2|1:2,2:2:0:0:
312,8,100917,5,2,2:2:0:0:
342,35,100996,2,2,L|387:51,1,49.5000015106202,10|2,2:2|2:2,2:2:0:0:
328,104,101153,5,10,2:2:0:0:
283,103,101231,1,2,2:2:0:0:
243,83,101310,1,2,2:2:0:0:
217,47,101388,1,2,2:2:0:0:
209,3,101467,1,2,1:2:0:0:
59,318,101781,5,2,1:2:0:0:
102,311,101860,1,2,0:2:0:0:
137,285,101938,2,0,P|170:256|214:251,1,90,2|0,0:2|1:0,0:0:0:0:
388,370,102252,5,2,1:2:0:0:
372,329,102331,1,2,0:2:0:0:
377,285,102409,2,0,P|385:241|367:200,1,90,10|0,0:2|0:0,0:0:0:0:
166,61,102723,5,10,2:2:0:0:
171,82,102801,1,2,2:2:0:0:
177,104,102880,1,2,2:2:0:0:
183,126,102958,1,2,2:2:0:0:
238,152,103038,5,10,2:2:0:0:
231,176,103116,1,2,2:2:0:0:
225,200,103195,1,10,2:2:0:0:
218,224,103273,1,10,2:2:0:0:
158,252,103352,5,2,1:2:0:0:
166,279,103430,1,2,2:2:0:0:
172,305,103509,1,10,2:2:0:0:
180,332,103587,1,2,2:2:0:0:
188,359,103666,5,6,2:2:0:0:
238,152,103823,1,2,1:2:0:0:
422,321,103980,2,0,P|368:321|314:276,1,107.999996704102,2|0,1:2|0:0,0:0:0:0:
398,60,104294,1,2,1:2:0:0:
398,60,104373,1,0,1:0:0:0:
398,60,104451,1,2,1:2:0:0:
393,239,104608,1,0,1:0:0:0:
147,57,104765,1,2,0:2:0:0:
467,148,104922,5,6,0:2:0:0:
228,204,105079,1,0,1:0:0:0:
404,373,105236,5,2,2:2:0:0:
362,357,105314,1,2,2:2:0:0:
331,324,105393,1,2,1:2:0:0:
317,282,105471,1,2,2:2:0:0:
324,237,105551,5,2,2:2:0:0:
327,186,105629,1,2,2:2:0:0:
307,141,105708,1,2,2:2:0:0:
267,110,105786,1,2,2:2:0:0:
218,101,105865,1,2,1:2:0:0:
170,116,105943,1,2,2:2:0:0:
135,152,106022,1,2,2:2:0:0:
121,200,106100,1,2,2:2:0:0:
128,249,106179,1,2,0:2:0:0:
155,290,106257,1,0,0:0:0:0:
197,318,106336,6,0,L|203:359,2,26.9999991760254,0|2|0,0:0|0:2|0:0,0:0:0:0:
294,332,106493,6,0,L|288:373,6,26.9999991760254,0|0|0|0|0|0|0,0:0|0:0|0:0|0:0|0:0|0:0|0:0,0:0:0:0:
222,209,106807,1,2,0:2:0:0:
468,70,106964,1,0,0:0:0:0:
297,5,107121,1,0,0:0:0:0:
413,257,107278,1,0,0:0:0:0:
294,332,107435,5,0,1:2:0:0:
240,328,107513,1,0,1:2:0:0:
194,300,107592,1,0,1:2:0:0:
167,254,107670,1,0,1:2:0:0:
170,199,107749,5,0,1:2:0:0:
157,154,107827,1,0,1:2:0:0:
125,119,107906,1,0,1:2:0:0:
80,104,107984,1,0,1:2:0:0:
37,103,108064,5,0,1:2:0:0:
53,132,108143,1,0,1:2:0:0:
80,151,108221,1,0,1:2:0:0:
113,154,108300,1,0,1:2:0:0:
156,154,108378,5,0,0:0:0:0:
221,135,108456,1,0,0:0:0:0:
283,160,108535,1,0,0:0:0:0:
318,218,108613,1,0,0:0:0:0:
306,284,108692,1,0,0:0:0:0:
154,175,109634,6,0,B|225:175|225:175|286:209|286:209|347:209,1,202.500007724762,0|0,0:0|0:0,0:0:0:0:
430,198,109948,1,6,1:2:0:0:
204,253,110106,1,0,0:0:0:0:
265,21,110263,1,6,0:1:0:0:
405,296,110420,2,0,L|284:285,1,107.999996704102,2|0,0:2|0:0,0:0:0:0:
117,83,110734,2,0,L|237:93,1,107.999996704102,2|0,0:2|0:2,0:0:0:0:
476,240,111048,6,0,P|494:289|483:341,1,107.999996704102,10|0,0:2|0:0,0:0:0:0:
297,286,111362,1,2,0:2:0:0:
451,107,111519,1,8,0:2:0:0:
138,192,111676,2,0,L|109:300,1,107.999996704102,2|8,0:2|0:2,0:0:0:0:
224,91,111990,1,2,0:2:0:0:
25,282,112147,1,2,1:2:0:0:
32,334,112225,1,2,1:2:0:0:
69,373,112304,1,2,1:2:0:0:
121,382,112382,1,2,1:2:0:0:
169,360,112461,5,2,1:2:0:0:
283,217,112619,1,2,0:2:0:0:
482,342,112776,1,10,0:2:0:0:
177,218,112933,2,0,P|229:207|282:216,1,107.999996704102,2|0,0:2|0:0,0:0:0:0:
482,342,113247,2,0,P|429:352|376:343,1,107.999996704102,2|0,0:2|0:0,0:0:0:0:
75,199,113561,6,0,P|78:252|109:296,1,107.999996704102,10|0,0:2|0:0,0:0:0:0:
245,335,113875,1,2,0:2:0:0:
364,77,114032,1,8,0:2:0:0:
398,251,114189,1,2,0:2:0:0:
355,248,114267,1,0,0:0:0:0:
317,236,114346,1,8,0:2:0:0:
282,216,114424,1,0,0:0:0:0:
253,188,114503,1,2,1:2:0:0:
162,81,114660,1,8,0:2:0:0:
364,77,114818,2,0,L|305:82,1,53.9999983520508,2|0,1:2|1:0,0:0:0:0:
66,233,114975,5,0,1:0:0:0:
120,229,115053,1,0,1:0:0:0:
174,224,115132,1,0,1:0:0:0:
228,220,115210,1,0,0:0:0:0:
282,216,115289,1,8,0:2:0:0:
464,195,115446,1,2,0:2:0:0:
440,217,115524,1,2,0:2:0:0:
416,239,115603,1,2,0:2:0:0:
283,302,115760,1,2,0:2:0:0:
364,77,115917,1,2,1:2:0:0:
348,350,116074,6,0,P|304:381|251:379,1,107.999996704102,10|0,0:2|0:0,0:0:0:0:
66,233,116388,1,2,1:2:0:0:
66,233,116545,1,8,0:2:0:0:
309,111,116702,2,0,L|280:219,1,107.999996704102,2|8,0:2|0:2,0:0:0:0:
251,379,117016,1,0,1:0:0:0:
172,159,117174,1,2,1:2:0:0:
460,194,117331,1,2,1:2:0:0:
181,323,117488,6,0,P|229:290|296:302,1,107.999996704102,6|0,1:2|0:0,0:0:0:0:
452,362,117802,1,8,0:2:0:0:
405,109,117959,2,0,P|449:146|455:214,1,107.999996704102,10|0,0:2|0:0,0:0:0:0:
276,292,118273,1,10,0:2:0:0:
452,362,118430,1,10,0:2:0:0:
335,214,118587,2,0,P|289:187|237:193,1,107.999996704102,6|0,0:2|0:0,0:0:0:0:
452,362,118901,1,8,0:2:0:0:
405,109,119058,1,0,1:0:0:0:
405,109,119373,5,0,1:0:0:0:
180,93,119530,1,2,1:2:0:0:
218,128,119608,1,2,1:2:0:0:
267,149,119687,5,2,1:2:0:0:
216,89,119765,1,2,1:2:0:0:
136,64,119844,1,2,1:2:0:0:
62,90,119922,1,2,1:2:0:0:
14,152,120001,6,0,P|-4:201|0:255,1,107.999996704102,6|0,0:2|0:0,0:0:0:0:
172,333,120315,1,10,0:2:0:0:
267,149,120472,6,0,P|316:130|370:134,1,107.999996704102,2|0,0:2|0:0,0:0:0:0:
275,318,120786,2,0,P|225:336|171:332,1,107.999996704102,2|0,0:2|0:0,0:0:0:0:
348,249,121100,5,10,0:2:0:0:
374,243,121178,1,0,0:0:0:0:
401,243,121257,1,0,0:0:0:0:
427,249,121335,1,0,0:0:0:0:
451,261,121414,1,2,0:2:0:0:
275,318,121571,1,8,0:2:0:0:
166,124,121729,6,0,P|219:123|266:148,1,107.999996704102,10|8,0:2|0:2,0:0:0:0:
451,261,122043,1,2,1:2:0:0:
141,208,122200,1,2,1:2:0:0:
96,181,122278,1,2,1:2:0:0:
75,132,122357,1,2,1:2:0:0:
86,80,122435,1,2,1:2:0:0:
124,44,122514,6,0,P|177:34|226:55,1,107.999996704102,6|0,1:2|0:0,0:0:0:0:
451,261,122828,1,2,0:2:0:0:
141,208,122985,2,0,L|255:228,1,107.999996704102,2|0,0:2|0:0,0:0:0:0:
23,326,123299,2,0,L|137:305,1,107.999996704102,2|0,1:2|0:0,0:0:0:0:
441,160,123613,2,0,P|461:208|450:260,1,107.999996704102,10|0,0:2|0:0,0:0:0:0:
372,365,123927,5,2,1:2:0:0:
336,91,124085,1,0,0:0:0:0:
148,200,124242,1,10,0:2:0:0:
169,216,124320,1,0,0:0:0:0:
194,226,124399,1,0,1:0:0:0:
221,229,124477,1,0,1:0:0:0:
246,226,124556,6,0,P|277:221|300:212,1,53.9999983520508,2|0,1:2|0:0,0:0:0:0:
441,160,124713,1,8,0:2:0:0:
290,16,124870,1,2,1:2:0:0:
236,11,124948,1,2,1:2:0:0:
189,36,125027,6,0,P|191:89|220:134,1,107.999996704102,6|2,1:2|0:2,0:0:0:0:
363,302,125341,2,2,B|251:270|251:334|147:302,1,215.999993408203,8|0,0:2|0:0,0:0:0:0:
304,384,125812,1,2,1:2:0:0:
148,200,125969,1,2,0:2:0:0:
465,286,126126,2,0,P|420:306|353:297,1,107.999996704102,10|0,2:2|2:0,2:2:0:0:
148,200,126441,1,0,1:0:0:0:
465,114,126598,2,0,P|420:94|353:103,1,107.999996704102,8|0,0:2|2:0,2:2:0:0:
252,258,126912,1,0,1:0:0:0:
252,258,126990,1,0,1:0:0:0:
252,258,127069,1,2,1:2:0:0:
390,184,127226,1,10,0:2:0:0:
82,134,127383,6,0,P|58:177|70:248,1,107.999996704102,6|0,0:2|0:0,0:0:0:0:
238,352,127697,1,0,1:0:0:0:
138,196,127854,1,8,0:2:0:0:
401,284,128011,1,0,1:0:0:0:
435,270,128090,1,0,1:0:0:0:
462,247,128168,1,0,1:0:0:0:
479,216,128247,1,0,1:0:0:0:
486,181,128325,1,0,1:0:0:0:
480,145,128404,1,0,0:0:0:0:
464,113,128482,2,0,L|454:88,6,26.9999991760254,8|0|0|0|0|0|0,0:2|0:0|1:0|0:0|1:0|0:0|0:0,0:0:0:0:
389,185,128797,5,6,1:2:0:0:
326,230,128875,1,2,2:2:0:0:
253,226,128954,1,2,2:2:0:0:
199,185,129032,1,2,2:2:0:0:
176,125,129111,1,2,2:2:0:0:
189,68,129189,1,2,2:2:0:0:
222,25,129268,1,2,2:2:0:0:
267,5,129346,1,2,2:2:0:0:
316,5,129425,5,2,1:2:0:0:
294,44,129503,1,2,1:2:0:0:
256,67,129582,1,2,1:2:0:0:
211,69,129660,1,2,1:2:0:0:
172,50,129739,6,0,L|133:21,5,30,0|0|0|0|0|0,0:0|0:0|0:0|0:0|0:0|0:0,0:0:0:0:
62,5,130053,6,0,P|70:79|149:121,1,116.999994644165,6|0,0:1|0:0,0:0:0:0:
295,116,130367,1,4,0:1:0:0:
46,203,130524,2,2,P|103:216|160:204,1,116.999994644165,2|2,0:2|0:2,0:0:0:0:
408,117,130838,2,0,P|351:104|294:116,1,116.999994644165,2|0,0:2|0:0,0:0:0:0:
323,319,131153,2,0,L|347:190,1,116.999994644165,10|0,0:2|0:0,0:0:0:0:
376,30,131467,1,2,0:2:0:0:
449,225,131624,1,8,0:2:0:0:
207,297,131781,2,0,L|322:318,1,116.999994644165,10|0,0:2|0:0,0:0:0:0:
454,342,132095,1,2,1:2:0:0:
154,367,132252,5,2,1:2:0:0:
121,319,132330,1,2,1:2:0:0:
125,262,132409,1,2,1:2:0:0:
163,218,132487,1,2,1:2:0:0:
219,207,132566,1,2,1:2:0:0:
399,272,132723,1,0,1:0:0:0:
487,76,132880,1,2,0:2:0:0:
398,272,133037,6,0,P|340:281|283:270,1,116.999994644165,2|0,0:2|0:0,0:0:0:0:
372,74,133352,2,0,P|429:64|486:75,1,116.999994644165,2|0,1:2|0:0,0:0:0:0:
202,314,133666,2,0,P|191:257|218:206,1,116.999994644165,10|0,0:2|0:0,0:0:0:0:
299,102,133980,1,2,1:2:0:0:
375,345,134137,1,8,0:2:0:0:
485,74,134294,1,2,1:2:0:0:
467,114,134372,1,0,0:0:0:0:
459,157,134451,1,0,0:0:0:0:
462,200,134529,1,0,0:0:0:0:
474,242,134608,1,2,1:2:0:0:
512,357,134765,5,0,0:0:0:0:
279,218,134922,2,0,L|357:232,1,58.4999973220826,2|0,1:2|1:0,0:0:0:0:
375,345,135079,1,2,1:2:0:0:
332,337,135158,1,0,1:0:0:0:
289,329,135236,1,0,0:0:0:0:
245,321,135315,1,0,0:0:0:0:
202,314,135393,1,6,0:2:0:0:
13,274,135551,5,2,0:2:0:0:
13,274,135629,1,2,0:2:0:0:
13,274,135708,1,2,0:2:0:0:
202,314,135865,1,2,0:2:0:0:
52,366,136022,1,2,0:2:0:0:
150,164,136179,2,0,P|225:149|297:181,1,116.999994644165,10|0,0:2|0:0,0:0:0:0:
417,188,136493,1,0,1:0:0:0:
388,343,136650,1,8,0:2:0:0:
262,159,136807,2,0,P|286:86|350:40,1,116.999994644165,2|0,0:2|1:0,0:0:0:0:
316,243,137121,5,2,0:2:0:0:
316,243,137200,1,0,0:0:0:0:
316,243,137278,2,0,P|262:259|200:237,1,116.999994644165,2|0,0:2|0:0,0:0:0:0:
110,45,137592,2,0,L|97:190,1,116.999994644165,6|0,0:2|0:0,0:0:0:0:
31,256,137907,1,8,0:2:0:0:
215,0,138064,2,0,L|227:145,1,116.999994644165,6|0,0:2|0:0,0:0:0:0:
31,256,138378,1,2,1:2:0:0:
15,121,138535,1,2,1:2:0:0:
158,310,138692,2,0,P|225:318|292:292,1,116.999994644165,6|0,0:2|0:0,0:0:0:0:
402,115,139006,5,8,0:2:0:0:
223,181,139163,1,8,0:2:0:0:
223,181,139477,1,2,1:2:0:0:
244,142,139555,1,0,0:0:0:0:
249,98,139634,5,2,1:2:0:0:
212,153,139712,1,2,1:2:0:0:
211,219,139791,1,2,1:2:0:0:
247,276,139870,1,2,1:2:0:0:
318,304,139948,1,0,1:0:0:0:
391,283,140027,1,0,1:0:0:0:
437,221,140105,1,6,1:2:0:0:
440,184,140420,5,10,0:2:0:0:
406,187,140498,1,2,0:2:0:0:
372,185,140577,1,2,1:2:0:0:
340,176,140655,1,2,0:2:0:0:
308,132,140734,5,2,0:2:0:0:
278,115,140812,1,2,0:2:0:0:
246,104,140891,1,2,1:2:0:0:
213,99,140969,1,2,0:2:0:0:
170,133,141048,5,2,0:2:0:0:
139,119,141126,1,2,0:2:0:0:
111,101,141205,1,10,0:2:0:0:
86,76,141283,1,2,0:2:0:0:
45,39,141362,5,2,0:2:0:0:
54,72,141440,1,2,0:2:0:0:
63,104,141519,1,2,1:2:0:0:
72,137,141597,1,2,0:2:0:0:
121,159,141676,5,2,0:2:0:0:
112,192,141754,1,2,0:2:0:0:
104,224,141833,1,2,1:2:0:0:
95,257,141911,1,2,0:2:0:0:
47,274,141990,5,2,0:2:0:0:
56,307,142069,1,2,0:2:0:0:
64,339,142146,1,2,1:2:0:0:
73,372,142226,1,2,0:2:0:0:
114,383,142304,6,2,L|171:376,3,45,10|2|2|2,0:2|0:2|0:2|0:2,0:0:0:0:
298,355,142619,5,6,1:2:0:0:
323,317,142697,1,2,0:2:0:0:
334,275,142776,1,2,1:2:0:0:
326,231,142854,1,2,0:2:0:0:
259,206,142933,5,10,0:2:0:0:
235,167,143011,1,2,0:2:0:0:
228,124,143090,1,2,1:2:0:0:
239,80,143168,1,2,0:2:0:0:
223,15,143247,5,2,0:2:0:0:
180,0,143325,1,2,0:2:0:0:
136,3,143404,1,2,1:2:0:0:
95,23,143482,1,2,0:2:0:0:
77,61,143561,5,2,0:2:0:0:
74,106,143639,1,2,0:2:0:0:
93,146,143718,2,0,P|146:180|199:175,1,90,10|0,0:2|0:0,0:0:0:0:
376,73,144032,2,0,P|321:102|299:151,1,90,2|8,1:2|0:2,0:0:0:0:
298,355,144346,2,0,P|300:293|269:249,1,90,2|0,1:2|0:0,0:0:0:0:
213,28,144660,2,0,P|211:90|242:134,1,90,2|0,1:2|0:0,0:0:0:0:
418,237,144975,1,2,1:2:0:0:
418,237,145053,1,2,0:2:0:0:
418,237,145132,2,0,P|366:204|313:209,1,90,10|0,0:2|0:0,0:0:0:0:
135,310,145446,6,0,P|164:213|133:131,1,180,8|0,0:2|0:0,0:0:0:0:
46,223,145917,1,2,1:2:0:0:
256,223,146074,1,2,0:2:0:0:
208,86,146231,2,0,P|167:106|140:140,1,90,10|0,0:2|0:0,0:0:0:0:
256,223,146545,1,0,1:0:0:0:
185,0,146702,2,0,P|103:40|49:108,1,180,8|0,0:2|1:0,0:0:0:0:
31,296,147174,1,2,1:2:0:0:
225,178,147331,1,10,0:2:0:0:
108,208,147488,2,0,P|132:257|194:288,1,90,6|0,0:2|1:0,0:0:0:0:
306,338,147802,5,0,1:0:0:0:
233,88,147959,1,0,1:0:0:0:
198,348,148116,1,0,0:0:0:0:
235,356,148194,1,0,0:0:0:0:
272,353,148273,1,0,0:0:0:0:
306,338,148351,1,0,0:0:0:0:
334,314,148430,1,0,0:0:0:0:
354,282,148508,1,0,0:0:0:0:
363,246,148587,2,0,L|370:220,6,22.5,0|0|0|0|0|0|0,1:0|1:0|1:0|1:0|1:0|1:0|1:0,1:1:0:0:
341,134,148901,5,2,2:2:0:0:
412,133,148979,1,2,2:2:0:0:
468,177,149058,1,2,2:2:0:0:
484,247,149136,1,2,2:2:0:0:
451,311,149215,1,2,2:2:0:0:
385,338,149293,1,2,2:2:0:0:
316,318,149372,1,2,2:2:0:0:
276,258,149450,1,2,2:2:0:0:
280,183,149530,5,2,2:2:0:0:
249,215,149608,1,2,2:2:0:0:
207,230,149687,1,2,2:2:0:0:
162,226,149765,1,2,2:2:0:0:
124,203,149844,6,0,P|97:168|88:117,1,90,2|4,0:3|0:3,0:0:0:0:
465,354,150472,5,6,0:1:0:0:
256,192,150551,12,0,152985,0:0:0:0:
