osu file format v14

[General]
AudioFilename: xi_halcyon_1_04.mp3
AudioLeadIn: 0
PreviewTime: 27645
Countdown: 0
SampleSet: Normal
StackLeniency: 0.7
Mode: 0
LetterboxInBreaks: 0
WidescreenStoryboard: 0

[Editor]
Bookmarks: 51990,56388,69739,73980,76022,77278,111676,121729,139634
DistanceSpacing: 0.8
BeatDivisor: 4
GridSize: 4
TimelineZoom: 2.5

[Metadata]
Title:Halcyon
TitleUnicode:Halcyon
Artist:xi
ArtistUnicode:xi
Creator:Heatherfield
Version:Extra
Source:Cytus
Tags:taka1235 fanzhen0019 bof2010 bms of fighters 2010 renaissance hardcore instrumental electronic video game Arcaea SOUND VOLTEX III GRAVITY WARS SDVX 3 BEMANI CHUNITHM PLUS GROOVE COASTER 2 EX HEAVENLY FESTIVAL Muse Dash TAPSONIC TOP maimai でらっくす DX Deluxe オンゲキ ONGEKI O.N.G.E.K.I. 音撃 STELLIGHTS SEVEN's CODE
BeatmapID:200989
BeatmapSetID:69763

[Difficulty]
HPDrainRate:7
CircleSize:4
OverallDifficulty:8
ApproachRate:9.4
SliderMultiplier:1.8
SliderTickRate:1

[Events]
//Background and Video events
0,0,"JYSB.jpg",0,0
Video,-250,"halcyon.mp4"
//Break Periods
//Storyboard Layer 0 (Background)
//Storyboard Layer 1 (Fail)
//Storyboard Layer 2 (Pass)
//Storyboard Layer 3 (Foreground)
//Storyboard Layer 4 (Overlay)
//Storyboard Sound Samples

[TimingPoints]
24503,628.272251308901,4,1,0,100,1,0
27017,314.13612565445,4,1,0,100,1,0
27331,-200,4,1,0,50,0,0
27645,-100,4,1,0,10,0,0
27802,-100,4,1,0,70,0,0
33770,-100,4,1,0,60,0,0
35812,-100,4,1,0,65,0,0
38325,-100,4,1,0,70,0,0
45865,-100,4,1,0,50,0,0
46179,-100,4,1,0,70,0,0
46336,-100,4,1,0,50,0,0
46807,-100,4,1,0,70,0,0
48064,-50,4,1,0,70,0,0
48378,-117.647058823529,4,1,0,70,0,0
48692,-117.647058823529,4,1,0,55,0,0
53718,-100,4,1,0,70,0,0
57174,-100,4,1,0,60,0,0
57802,-100,4,1,0,50,0,0
58430,-117.647058823529,4,1,0,70,0,0
63770,-100,4,1,0,70,0,0
68797,-100,4,1,1,55,0,0
82304,-100,4,1,0,45,0,0
84189,-100,4,1,0,60,0,0
87645,-100,4,1,0,50,0,0
87959,-100,4,1,0,40,0,0
88273,-100,4,2,0,40,0,0
88587,-133.333333333333,4,1,0,70,0,0
88901,-133.333333333333,4,1,0,50,0,0
89058,-133.333333333333,4,1,0,70,0,0
89530,-133.333333333333,4,1,0,50,0,0
89687,-133.333333333333,4,1,0,70,0,0
90158,-133.333333333333,4,1,0,50,0,0
90315,-133.333333333333,4,1,0,70,0,0
90786,-133.333333333333,4,1,0,50,0,0
90943,-133.333333333333,4,1,0,70,0,0
91414,-133.333333333333,4,1,0,50,0,0
91571,-133.333333333333,4,1,0,70,0,0
92043,-133.333333333333,4,1,0,50,0,0
92200,-133.333333333333,4,1,0,70,0,0
92671,-133.333333333333,4,1,0,50,0,0
92828,-133.333333333333,4,1,0,70,0,0
92985,-133.333333333333,4,1,0,55,0,0
93613,-200,4,1,0,70,0,0
97226,-200,4,2,0,70,0,0
98640,-100,4,1,0,70,0,0
103037,-100,4,2,0,70,0,0
103666,-100,4,1,0,70,0,0
108692,-166.666666666667,4,1,0,40,0,0
109163,-166.666666666667,4,1,0,30,0,0
109634,-50,4,1,0,70,0,0
109948,-100,4,1,0,70,0,0
115446,-100,4,1,0,60,0,0
117488,-100,4,1,0,65,0,0
120001,-100,4,1,0,70,0,0
127540,-100,4,1,0,50,0,0
127854,-100,4,1,0,70,0,0
128011,-100,4,1,0,50,0,0
128325,-100,4,1,0,70,0,0
129739,-50,4,1,0,70,0,1
130053,-100,4,1,0,70,0,0
137592,-100,4,1,0,60,0,0
139634,-100,4,1,0,70,0,0
141362,-100,4,1,0,80,0,0
142619,-100,4,1,0,90,0,0
143718,-100,4,1,0,100,0,0
144975,-100,4,1,1,70,0,0
149844,-50,4,1,0,70,0,0
150158,-100,4,1,0,70,0,0
150472,-100,4,1,0,70,0,1
152985,-100,4,1,0,10,0,0

[Colours]
Combo1 : 252,194,233
Combo2 : 239,239,239
Combo3 : 134,216,255
Combo4 : 248,148,160

[HitObjects]
256,192,24503,12,4,27016,0:0:0:0:
102,133,27331,6,0,L|190:173,1,90,4|0,0:0|0:0,0:0:0:0:
294,128,27802,1,0,0:0:0:0:
300,154,27880,1,0,0:0:0:0:
315,176,27959,1,0,0:0:0:0:
338,188,28037,1,0,0:0:0:0:
365,188,28116,1,0,0:0:0:0:
388,175,28195,1,0,0:0:0:0:
404,153,28273,6,2,L|446:54,1,90,6|0,0:0|0:0,0:0:0:0:
459,242,28587,1,0,0:0:0:0:
459,242,28744,2,2,L|423:324,1,90,2|0,0:0|0:0,0:0:0:0:
288,336,29058,2,0,P|244:292|188:280,1,90,2|0,0:0|0:0,0:0:0:0:
88,64,29373,6,0,L|199:36,1,90,2|0,0:0|0:0,0:0:0:0:
47,185,29687,2,0,L|135:164,1,90,2|0,0:0|0:0,0:0:0:0:
152,272,30001,2,0,L|248:248,1,90,2|0,0:0|0:0,0:0:0:0:
104,368,30315,1,2,0:0:0:0:
304,344,30472,5,0,0:0:0:0:
304,344,30551,1,0,0:0:0:0:
304,344,30629,1,0,0:0:0:0:
304,344,30708,1,0,0:0:0:0:
304,344,30786,5,2,0:0:0:0:
312,256,30943,1,0,0:0:0:0:
368,184,31100,1,0,0:0:0:0:
384,96,31257,2,0,P|402:179|476:198,1,135,2|0,0:0|1:0,0:0:0:0:
501,261,31571,2,0,L|367:279,1,135,2|0,0:0|0:0,0:0:0:0:
333,358,31886,6,0,P|249:339|223:282,1,135,2|0,0:0|1:0,0:0:0:0:
152,336,32200,2,0,L|212:191,1,135,2|0,0:0|1:0,0:0:0:0:
136,184,32514,2,0,L|254:114,1,135,2|0,0:0|1:0,0:0:0:0:
264,64,32828,1,2,0:0:0:0:
418,48,32985,1,0,0:0:0:0:
382,44,33064,1,0,0:0:0:0:
346,40,33142,2,2,L|155:19,1,180,0|0,0:0|0:0,0:0:0:0:
31,101,33613,5,4,0:0:0:0:
27,190,33770,1,0,0:0:0:0:
27,190,33849,1,0,0:0:0:0:
27,190,33927,1,2,0:0:0:0:
101,240,34085,1,2,0:0:0:0:
96,329,34242,1,0,0:0:0:0:
96,329,34399,2,0,L|284:325,1,180,2|0,0:0|0:0,0:0:0:0:
467,218,34870,5,0,0:0:0:0:
467,218,35027,2,0,L|287:221,1,180,2|0,0:0|0:0,0:0:0:0:
184,182,35498,1,2,0:0:0:0:
184,182,35577,1,0,0:0:0:0:
184,182,35655,1,2,0:0:0:0:
415,36,35812,5,4,0:0:0:0:
415,36,35969,1,0,0:0:0:0:
415,36,36048,1,0,0:0:0:0:
415,36,36126,1,0,0:0:0:0:
307,307,36284,5,4,0:0:0:0:
307,307,36441,1,0,0:0:0:0:
307,307,36519,1,0,0:0:0:0:
307,307,36598,1,0,0:0:0:0:
241,33,36755,5,4,0:0:0:0:
479,227,36912,6,0,L|322:214,1,135,4|0,0:0|0:0,0:0:0:0:
325,185,37226,1,0,0:0:0:0:
216,222,37383,1,0,0:0:0:0:
198,236,37462,1,0,0:0:0:0:
175,237,37540,1,0,0:0:0:0:
154,227,37619,1,0,0:0:0:0:
144,207,37697,1,0,0:0:0:0:
45,159,37854,5,0,0:0:0:0:
63,127,37933,1,0,0:0:0:0:
94,109,38011,1,0,0:0:0:0:
127,96,38090,1,0,0:0:0:0:
166,100,38168,1,0,0:0:0:0:
209,88,38247,1,0,0:0:0:0:
239,49,38325,6,0,L|366:12,1,90,6|0,0:0|0:0,0:0:0:0:
489,105,38640,1,0,0:0:0:0:
489,105,38797,2,0,L|402:130,1,90,2|0,0:0|0:0,0:0:0:0:
364,275,39111,2,0,P|320:270|288:240,1,90,2|0,0:0|0:0,0:0:0:0:
168,48,39425,6,0,L|57:20,1,90,2|0,0:0|0:0,0:0:0:0:
207,170,39739,2,0,L|120:149,1,90,2|0,0:0|0:0,0:0:0:0:
104,256,40053,2,0,L|8:232,1,90,2|0,0:0|0:0,0:0:0:0:
152,352,40367,1,2,0:0:0:0:
264,304,40524,5,0,0:0:0:0:
268,280,40603,1,0,0:0:0:0:
272,256,40681,1,0,0:0:0:0:
276,232,40760,1,0,0:0:0:0:
280,212,40838,5,6,0:0:0:0:
364,136,40996,1,0,0:0:0:0:
224,112,41153,1,0,0:0:0:0:
364,136,41310,2,0,P|424:152|380:220,1,135,2|0,0:0|0:0,0:0:0:0:
448,272,41624,2,0,L|298:287,1,135,2|0,0:0|0:0,0:0:0:0:
248,192,41938,6,0,L|206:351,1,135,2|0,0:0|0:0,0:0:0:0:
192,136,42252,2,0,L|150:295,1,135,2|0,0:0|0:0,0:0:0:0:
136,80,42566,2,0,L|94:239,1,135,2|0,0:0|0:0,0:0:0:0:
56,110,42880,2,0,L|80:24,1,90,2|0,0:0|0:0,0:0:0:0:
221,43,43195,5,0,0:0:0:0:
221,43,43273,1,0,0:0:0:0:
221,43,43352,1,2,0:0:0:0:
363,133,43509,1,0,0:0:0:0:
363,133,43666,1,2,0:0:0:0:
363,133,43823,2,0,P|358:227|426:280,1,180,2|0,0:0|0:0,0:0:0:0:
201,293,44294,5,0,0:0:0:0:
201,293,44451,2,2,P|147:243|13:237,1,180,2|0,0:0|0:0,0:0:0:0:
70,129,44922,1,0,0:0:0:0:
70,129,45001,1,0,0:0:0:0:
70,129,45079,1,0,0:0:0:0:
70,129,45236,1,0,0:0:0:0:
207,85,45393,2,0,L|172:42,2,45
345,169,45708,5,0,0:0:0:0:
330,52,45865,1,8,0:0:0:0:
345,169,46022,1,8,0:0:0:0:
460,185,46179,1,0,0:0:0:0:
250,270,46336,5,8,0:0:0:0:
235,153,46493,1,8,0:0:0:0:
250,270,46650,1,0,0:0:0:0:
365,286,46807,1,8,0:0:0:0:
365,286,46886,1,0,0:0:0:0:
365,286,46964,1,0,0:0:0:0:
485,250,47121,5,4,0:0:0:0:
473,220,47200,1,0,0:0:0:0:
449,199,47278,1,0,0:0:0:0:
420,186,47357,1,0,0:0:0:0:
388,182,47435,1,0,0:0:0:0:
356,186,47514,1,0,0:0:0:0:
326,195,47592,1,0,0:0:0:0:
299,212,47671,1,0,0:0:0:0:
267,214,47749,1,0,0:0:0:0:
236,204,47828,1,0,0:0:0:0:
210,185,47907,1,0,0:0:0:0:
190,160,47985,1,0,0:0:0:0:
183,129,48064,6,0,P|152:51|139:182,1,360
58,359,48692,6,0,L|234:327,1,153.000002918243,2|0,0:0|0:0,0:0:0:0:
300,294,49163,1,0,0:0:0:0:
383,347,49320,1,0,0:0:0:0:
466,293,49477,2,0,P|492:241|442:181,1,114.750002188683,2|0,0:0|0:0,0:0:0:0:
497,132,49791,2,0,P|437:152|408:113,1,114.750002188683,2|0,0:0|0:0,0:0:0:0:
340,66,50106,2,0,B|210:76|210:76|178:41,1,153.000002918243,2|0,0:0|0:0,0:0:0:0:
12,70,50577,1,0,0:0:0:0:
12,70,50655,1,0,0:0:0:0:
12,70,50734,1,0,0:0:0:0:
120,127,50891,2,0,L|105:219,1,76.5000014591217
15,324,51205,6,2,P|89:294|156:303,1,114.750002188683,2|0,0:0|0:0,0:0:0:0:
176,304,51519,1,0,0:0:0:0:
271,331,51676,1,2,0:0:0:0:
354,277,51833,1,0,0:0:0:0:
452,289,51990,2,2,B|480:232|480:232|448:142,1,153.000002918243,2|0,0:0|0:0,0:0:0:0:
440,48,52462,1,0,0:0:0:0:
347,84,52619,1,0,0:0:0:0:
240,56,52776,5,2,0:2:0:0:
232,80,52854,1,0,0:2:0:0:
224,104,52933,1,2,0:2:0:0:
216,128,53011,1,0,0:2:0:0:
256,184,53090,1,2,0:2:0:0:
248,208,53168,1,0,0:2:0:0:
240,232,53247,1,2,0:2:0:0:
232,256,53325,1,0,0:2:0:0:
224,280,53404,6,0,L|100:288,1,114.750002188683,2|0,0:2|0:0,0:0:0:0:
80,256,53718,2,0,L|76:313,1,45,2|0,0:0|0:0,0:0:0:0:
18,353,53875,2,0,P|1:313|2:278,1,45,2|0,0:0|0:0,0:0:0:0:
34,156,54032,2,0,L|139:169,1,90,0|2,0:0|0:0,0:0:0:0:
289,32,54346,2,0,B|297:140,1,90,2|0,0:0|0:0,0:0:0:0:
73,310,54660,5,2,0:0:0:0:
97,302,54739,1,0,0:0:0:0:
121,294,54818,1,0,0:0:0:0:
145,286,54896,1,0,0:0:0:0:
169,278,54975,1,2,0:0:0:0:
193,270,55054,1,0,0:0:0:0:
217,262,55131,1,0,0:0:0:0:
241,254,55210,1,0,0:0:0:0:
305,262,55288,5,2,0:0:0:0:
329,270,55368,1,0,0:0:0:0:
353,278,55445,1,0,0:0:0:0:
377,286,55524,1,0,0:0:0:0:
440,288,55603,5,2,0:0:0:0:
448,264,55682,1,0,0:0:0:0:
456,240,55759,1,2,0:0:0:0:
464,216,55839,1,0,0:0:0:0:
472,184,55917,6,0,B|494:112|494:112|471:77,1,90,6|0,0:0|0:0,0:0:0:0:
392,32,56231,1,2,0:0:0:0:
344,200,56388,5,0,0:0:0:0:
344,200,56467,1,0,0:0:0:0:
344,200,56545,2,2,L|325:100,1,90
240,240,56859,1,0,0:0:0:0:
232,272,56938,1,0,0:0:0:0:
224,304,57016,1,2,0:0:0:0:
120,336,57174,2,2,L|24:328,1,90
0,288,57409,1,0,0:0:0:0:
0,288,57488,2,0,P|-4:234|10:195,1,90,0|2,0:0|0:0,0:0:0:0:
217,78,57802,1,0,0:0:0:0:
217,78,57880,1,0,0:0:0:0:
217,78,57959,1,0,0:0:0:0:
217,78,58037,1,0,0:0:0:0:
217,78,58116,1,2,0:0:0:0:
217,78,58195,1,0,0:0:0:0:
217,78,58273,1,2,0:0:0:0:
217,78,58352,1,0,0:0:0:0:
217,78,58430,6,0,P|164:75|119:54,1,76.5000014591217
301,32,58744,2,0,L|325:189,1,153.000002918243,6|0,0:0|0:0,0:0:0:0:
403,253,59215,1,0,0:0:0:0:
250,221,59373,1,0,0:0:0:0:
127,312,59530,6,0,P|69:319|15:286,1,114.750002188683,2|0,0:0|0:0,0:0:0:0:
86,246,59844,2,0,L|71:128,1,114.750002188683,2|0,0:0|0:0,0:0:0:0:
0,72,60158,2,0,P|59:87|166:76,1,153.000002918243,2|0,0:0|0:0,0:0:0:0:
302,34,60629,1,0,0:0:0:0:
302,34,60708,1,0,0:0:0:0:
302,34,60786,1,0,0:0:0:0:
216,131,60943,2,0,L|205:224,1,76.5000014591217
296,311,61257,6,2,P|300:246|362:167,1,153.000002918243,2|0,0:0|0:0,0:0:0:0:
465,116,61729,1,2,0:0:0:0:
390,274,61886,1,0,0:0:0:0:
227,197,62043,2,2,L|76:216,1,153.000002918243,2|0,0:0|0:0,0:0:0:0:
44,328,62514,1,0,0:0:0:0:
0,138,62671,1,0,0:0:0:0:
152,288,62828,5,2,0:2:0:0:
176,280,62907,1,0,0:2:0:0:
200,272,62985,1,0,0:2:0:0:
224,264,63064,1,2,0:2:0:0:
280,312,63142,1,0,0:2:0:0:
304,304,63221,1,0,0:2:0:0:
328,296,63299,1,2,0:2:0:0:
352,288,63378,1,0,0:2:0:0:
376,280,63456,6,0,L|360:136,1,114.750002188683
320,136,63770,2,0,L|375:117,1,45,2|0,0:0|0:0,0:0:0:0:
424,72,63927,2,0,P|406:56|384:51,1,45,2|0,0:0|0:0,0:0:0:0:
290,104,64085,2,0,L|184:91,1,90,0|2,0:0|0:0,0:0:0:0:
412,207,64399,2,0,L|519:185,1,90,2|0,0:0|0:0,0:0:0:0:
438,313,64713,5,2,0:0:0:0:
414,305,64792,1,0,0:0:0:0:
390,297,64871,1,0,0:0:0:0:
366,289,64949,1,0,0:0:0:0:
342,281,65028,1,2,0:0:0:0:
318,273,65107,1,0,0:0:0:0:
294,265,65184,1,0,0:0:0:0:
270,257,65263,1,0,0:0:0:0:
206,265,65341,5,2,0:0:0:0:
182,273,65421,1,0,0:0:0:0:
158,281,65498,1,0,0:0:0:0:
134,289,65577,1,0,0:0:0:0:
72,288,65656,5,2,0:0:0:0:
64,264,65735,1,0,0:0:0:0:
56,240,65812,1,2,0:0:0:0:
48,216,65892,1,0,0:0:0:0:
40,192,65969,5,6,0:0:0:0:
157,107,66126,2,0,L|95:101,1,45
74,60,66284,2,2,L|263:80,1,180,2|0,0:0|0:0,0:0:0:0:
471,195,66755,1,2,0:0:0:0:
407,314,66912,5,0,0:0:0:0:
376,305,66990,1,0,0:0:0:0:
344,309,67069,1,2,0:0:0:0:
314,319,67147,1,0,0:0:0:0:
289,338,67226,5,2,0:0:0:0:
258,343,67304,1,0,0:0:0:0:
229,328,67383,1,0,0:0:0:0:
212,300,67462,1,0,0:0:0:0:
205,269,67540,5,6,0:0:0:0:
187,242,67619,1,0,0:0:0:0:
158,228,67697,1,0,0:0:0:0:
126,227,67776,1,0,0:0:0:0:
88,208,67854,6,0,L|32:208,1,30,2|0,0:0|0:0,0:0:0:0:
92,192,67959,2,0,L|47:157,1,30,0|0,0:0|0:0,0:0:0:0:
104,180,68064,2,0,L|82:127,1,30,2|0,0:0|0:0,0:0:0:0:
120,176,68168,2,0,L|128:120,1,30,0|0,0:0|0:0,0:0:0:0:
136,180,68273,2,0,L|170:135,1,30,2|0,0:0|0:0,0:0:0:0:
147,191,68378,2,0,L|199:169,1,30,0|0,0:0|0:0,0:0:0:0:
168,232,68482,6,2,P|155:314|255:347,1,180,2|4,0:0|0:0,0:0:0:0:
296,312,68954,1,0,0:0:0:0:
436,156,69268,1,0,0:0:0:0:
327,142,69425,1,0,0:0:0:0:
341,35,69582,1,0,0:0:0:0:
448,48,69739,5,2,0:2:0:0:
192,232,69975,1,0,0:2:0:0:
504,232,70210,1,2,0:2:0:0:
240,48,70446,1,2,0:2:0:0:
344,336,70681,1,0,0:2:0:0:
344,336,70760,1,0,0:2:0:0:
344,336,70838,1,0,0:2:0:0:
344,336,70917,2,0,L|384:336,2,22.5,0|0|2,0:2|0:2|0:2,0:2:0:0:
256,336,71153,5,0,0:0:0:0:
256,336,71310,2,0,P|128:336|104:280,1,180,8|0,0:0|0:0,0:0:0:0:
40,248,71781,1,0,0:0:0:0:
128,64,72095,1,0,0:0:0:0:
216,56,72252,1,0,0:0:0:0:
256,136,72409,5,0,0:0:0:0:
274,155,72488,1,0,0:0:0:0:
299,163,72566,1,0,0:0:0:0:
325,157,72645,1,0,0:0:0:0:
347,142,72723,1,0,0:0:0:0:
369,127,72802,1,0,0:0:0:0:
393,115,72880,1,0,0:0:0:0:
419,120,72959,1,0,0:0:0:0:
439,136,73037,1,0,0:0:0:0:
451,160,73116,1,0,0:0:0:0:
447,186,73195,1,0,0:0:0:0:
429,206,73273,1,0,0:0:0:0:
401,203,73352,1,0,0:0:0:0:
379,187,73430,1,0,0:0:0:0:
389,162,73509,6,0,P|425:122|363:68,1,135,0|0,0:0|0:0,0:0:0:0:
309,46,73823,1,8,0:0:0:0:
309,46,73980,2,0,B|250:33|250:33|123:58,1,180
16,136,74451,2,0,B|49:145|49:145|87:215,1,90,0|0,0:0|0:0,0:0:0:0:
103,334,74765,5,0,0:0:0:0:
128,324,74844,1,0,0:0:0:0:
154,318,74922,1,0,0:0:0:0:
180,322,75001,1,0,0:0:0:0:
205,330,75079,1,0,0:0:0:0:
232,331,75158,1,0,0:0:0:0:
254,316,75236,1,0,0:0:0:0:
267,292,75315,1,0,0:0:0:0:
263,265,75393,1,0,0:0:0:0:
236,159,75551,5,0,0:0:0:0:
258,125,75629,1,0,0:0:0:0:
293,104,75708,1,0,0:0:0:0:
333,101,75786,1,0,0:0:0:0:
372,90,75865,1,0,0:0:0:0:
401,62,75943,1,0,0:0:0:0:
440,32,76022,6,0,B|486:84|486:84|505:155,1,135,0|0,0:0|0:0,0:0:0:0:
470,216,76336,1,8,0:0:0:0:
470,216,76493,2,0,B|348:185|348:185|305:233,1,180
226,322,76964,5,2,0:2:0:0:
226,322,77043,1,0,0:2:0:0:
226,322,77121,1,2,0:2:0:0:
111,252,77278,2,0,B|51:233|51:233|12:181,1,90,2|0,0:2|0:0,0:0:0:0:
48,64,77592,5,0,0:2:0:0:
80,88,77671,1,0,0:2:0:0:
112,111,77749,1,2,0:2:0:0:
223,102,77907,1,2,0:2:0:0:
257,109,77985,1,0,0:2:0:0:
355,66,78142,1,0,0:2:0:0:
386,64,78220,1,2,0:2:0:0:
488,132,78378,1,0,0:2:0:0:
432,241,78535,6,0,P|422:298|306:316,2,180,0|8|0,0:0|0:0|0:0,0:0:0:0:
358,207,79320,5,0,0:0:0:0:
280,230,79477,1,0,0:0:0:0:
213,183,79634,1,0,0:0:0:0:
132,185,79791,5,2,0:2:0:0:
360,72,80027,1,0,0:0:0:0:
25,198,80263,1,2,0:2:0:0:
469,75,80498,1,2,0:2:0:0:
221,321,80734,1,0,0:0:0:0:
221,321,80812,1,0,0:0:0:0:
221,321,80891,1,0,0:0:0:0:
221,321,80969,2,0,L|193:344,2,22.5,0|0|2,0:0|0:0|0:2,0:0:0:0:
313,344,81205,1,0,0:0:0:0:
313,344,81362,6,0,P|401:322|444:244,1,180,8|0,0:0|0:0,0:0:0:0:
333,237,81833,1,0,0:0:0:0:
333,237,81990,2,0,P|304:161|338:83,1,135
330,68,82304,5,2,0:0:0:0:
239,60,82462,1,0,0:0:0:0:
149,52,82619,1,2,0:0:0:0:
59,47,82776,2,2,B|24:32|24:32|96:128|96:184|88:272|-32:248|-24:176,1,360,2|0,0:0|0:0,0:0:0:0:
64,360,83561,6,2,B|176:312|141:247|40:248|104:336|112:376|216:384|267:329|305:253,1,360,2|0,0:0|0:0,0:0:0:0:
359,190,84346,1,0,0:0:0:0:
359,190,84425,1,0,0:0:0:0:
359,190,84503,2,0,B|447:230|447:230|490:219,1,135
480,144,84818,2,2,L|450:48,1,90
41,58,85289,5,0,0:0:0:0:
13,145,85446,1,0,0:0:0:0:
256,344,85760,1,0,0:0:0:0:
256,320,85838,1,0,0:0:0:0:
256,296,85917,1,0,0:0:0:0:
256,272,85996,1,0,0:0:0:0:
256,248,86074,6,0,P|200:192|224:96,1,180,2|0,0:0|0:0,0:0:0:0:
256,120,86545,1,0,0:0:0:0:
256,120,86624,1,0,0:0:0:0:
256,120,86702,1,0,0:0:0:0:
368,144,86859,1,0,0:0:0:0:
392,128,86938,1,0,0:0:0:0:
416,112,87016,6,2,P|464:128|472:256,1,180
392,328,87645,6,0,L|385:367,1,22.5,2|0,0:2|0:0,0:0:0:0:
377,324,87723,2,0,L|363:361,1,22.5
363,317,87802,2,0,L|343:351,1,22.5,2|0,0:2|0:0,0:0:0:0:
350,308,87880,2,0,L|324:338,1,22.5
350,308,87959,2,0,L|324:338,1,22.5,2|0,0:2|0:0,0:0:0:0:
339,297,88037,2,0,L|308:322,1,22.5
331,285,88116,2,0,L|296:305,1,22.5
324,271,88195,2,0,L|286:284,1,22.5
320,256,88273,2,0,L|280:262,1,22.5,2|0,0:2|0:0,0:0:0:0:
319,241,88352,2,0,L|279:241,1,22.5
320,226,88430,2,0,L|280:219,1,22.5
324,211,88509,2,0,L|286:197,1,22.5
331,197,88587,6,0,L|414:206,1,67.5000025749208
495,186,88901,2,0,L|489:257,1,67.5000025749208,8|0,0:0|0:0,0:0:0:0:
424,32,89215,1,0,0:0:0:0:
408,128,89373,1,0,0:0:0:0:
312,112,89530,1,8,0:0:0:0:
328,16,89687,1,0,0:0:0:0:
184,96,89844,6,0,L|168:28,2,67.5000025749208,0|0|8,0:0|0:0|0:0,0:0:0:0:
89,118,90315,1,0,0:0:0:0:
89,118,90393,1,0,0:0:0:0:
89,118,90472,1,0,0:0:0:0:
112,213,90629,1,0,0:0:0:0:
206,190,90786,2,0,L|285:205,1,67.5000025749208,8|0,0:0|0:0,0:0:0:0:
432,296,91100,6,0,L|349:305,1,67.5000025749208
268,285,91414,2,0,L|274:356,1,67.5000025749208,8|0,0:0|0:0,0:0:0:0:
339,131,91728,1,0,0:0:0:0:
355,227,91886,1,0,0:0:0:0:
451,211,92043,1,8,0:0:0:0:
435,115,92200,1,0,0:0:0:0:
339,131,92357,6,0,L|276:120,3,33.7500012874604
232,85,92671,2,0,L|169:74,3,33.7500012874604,8|0|0|0,0:0|0:0|0:0|0:0,0:0:0:0:
188,192,92985,1,2,0:0:0:0:
188,192,93064,1,0,0:0:0:0:
188,192,93142,1,0,0:0:0:0:
188,192,93221,1,2,0:0:0:0:
188,192,93299,1,0,0:0:0:0:
188,192,93378,1,0,0:0:0:0:
188,192,93456,1,2,0:0:0:0:
188,192,93535,1,0,0:0:0:0:
188,192,93613,6,0,B|160:238|171:292|171:292|294:254|294:254|330:249|374:283|349:346|306:335,1,360,6|0,0:0|0:0,0:0:0:0:
440,104,95184,5,0,0:0:0:0:
440,104,95263,1,0,0:0:0:0:
440,104,95341,1,0,0:0:0:0:
440,104,95420,1,0,0:0:0:0:
440,104,95498,5,2,0:0:0:0:
304,64,95708,5,0,0:0:0:0:
264,200,95917,5,2,0:0:0:0:
400,248,96126,6,0,B|427:276|429:318|429:318|343:362|226:341,1,270,2|0,0:0|0:0,0:0:0:0:
74,317,97226,5,4,0:0:0:0:
74,317,97383,1,4,0:0:0:0:
438,317,97854,5,4,0:0:0:0:
438,317,98011,5,4,0:0:0:0:
512,40,98247,1,4,0:0:0:0:
228,94,98482,1,4,0:0:0:0:
352,168,98640,6,0,L|416:152,2,45,2|0|0,0:0|0:0|0:0,0:0:0:0:
160,216,98954,2,0,L|96:232,2,45,2|0|0,0:0|0:0|0:0,0:0:0:0:
256,192,99268,5,2,0:0:0:0:
256,192,99425,1,2,0:0:0:0:
256,192,99739,1,0,0:0:0:0:
160,312,99896,5,2,0:0:0:0:
160,312,99975,1,0,0:0:0:0:
160,312,100053,1,0,0:0:0:0:
340,320,100210,6,0,L|403:281,1,45,2|0,0:0|0:0,0:0:0:0:
404,151,100446,2,0,L|387:79,1,45,2|0,0:0|0:0,0:0:0:0:
263,38,100681,2,0,L|189:32,1,45,2|0,0:0|0:0,0:0:0:0:
112,137,100917,2,0,L|83:205,1,45,2|0,0:0|0:0,0:0:0:0:
160,312,101153,6,0,L|216:360,1,45,2|0,0:0|0:0,0:0:0:0:
248,344,101310,2,0,L|264:288,2,45
352,72,101624,6,0,L|296:24,1,45,2|0,0:0|0:0,0:0:0:0:
264,40,101781,2,0,L|248:96,2,45
147,196,102095,6,0,L|112:184,5,30,2|0|0|0|0|0,0:0|0:0|0:0|0:0|0:0|0:0,0:0:0:0:
147,196,102409,2,2,L|344:152,1,180,2|2,0:0|0:0,0:0:0:0:
40,88,103037,5,4,0:0:0:0:
256,352,103273,1,4,0:0:0:0:
472,88,103509,1,4,0:0:0:0:
472,88,103666,6,2,L|344:56,1,90,2|0,0:0|0:0,0:0:0:0:
398,176,103980,2,2,L|270:208,1,90,2|0,0:0|0:0,0:0:0:0:
370,301,104294,1,2,0:0:0:0:
370,301,104451,2,2,P|278:333|168:310,1,180,2|2,0:0|0:0,0:0:0:0:
92,346,104922,6,0,P|106:266|64:147,1,180
56,136,105315,1,0,0:0:0:0:
56,136,105393,1,0,0:0:0:0:
56,136,105472,1,0,0:0:0:0:
56,136,105551,2,2,P|100:55|195:68,1,180
474,44,106179,5,0,0:0:0:0:
442,60,106257,1,0,0:0:0:0:
416,85,106336,1,0,0:0:0:0:
402,118,106414,1,0,0:0:0:0:
416,153,106493,5,0,0:0:0:0:
394,181,106571,1,0,0:0:0:0:
362,198,106650,1,0,0:0:0:0:
326,191,106729,1,0,0:0:0:0:
297,169,106807,5,2,0:0:0:0:
168,114,106964,1,2,0:0:0:0:
168,114,107278,1,0,0:0:0:0:
60,101,107435,5,2,0:0:0:0:
59,141,107514,1,0,0:0:0:0:
78,175,107592,1,0,0:0:0:0:
116,188,107671,1,0,0:0:0:0:
156,192,107749,5,2,0:0:0:0:
182,216,107828,1,0,0:0:0:0:
196,249,107907,1,0,0:0:0:0:
189,284,107985,1,0,0:0:0:0:
202,317,108064,5,2,0:0:0:0:
230,330,108142,1,0,0:0:0:0:
260,322,108221,1,0,0:0:0:0:
282,300,108299,1,0,0:0:0:0:
313,295,108378,5,2,0:0:0:0:
339,310,108456,2,0,L|347:341,4,22.5
363,289,108692,6,0,P|412:262|426:212,1,107.999996704102
444,23,109163,1,2,0:0:0:0:
444,23,109242,1,2,0:0:0:0:
444,23,109320,1,2,0:0:0:0:
444,23,109399,1,2,0:0:0:0:
444,23,109477,1,2,0:0:0:0:
444,23,109556,1,2,0:0:0:0:
444,23,109634,6,0,P|460:137|364:20,1,360,0|2,0:0|0:0,0:0:0:0:
188,112,110106,5,2,0:0:0:0:
87,78,110263,1,0,0:0:0:0:
87,78,110420,2,2,L|51:160,1,90,2|0,0:0|0:0,0:0:0:0:
96,328,110734,2,0,L|140:228,1,90,2|0,0:0|0:0,0:0:0:0:
260,56,111048,6,0,B|280:88|280:88|345:100,1,90,2|0,0:0|0:0,0:0:0:0:
467,211,111362,2,0,L|378:196,1,90,2|0,0:0|0:0,0:0:0:0:
211,210,111676,1,2,0:0:0:0:
296,302,111834,1,0,0:0:0:0:
286,326,111912,1,0,0:0:0:0:
277,351,111990,1,2,0:0:0:0:
176,328,112148,5,0,0:0:0:0:
176,328,112227,1,0,0:0:0:0:
176,328,112305,1,0,0:0:0:0:
176,328,112384,1,0,0:0:0:0:
176,328,112462,5,2,0:0:0:0:
144,236,112619,1,2,0:0:0:0:
68,172,112776,1,0,0:0:0:0:
160,140,112933,2,0,P|171:226|121:230,1,135,2|0,0:0|0:0,0:0:0:0:
176,328,113247,6,0,L|310:310,1,135,2|0,0:0|0:0,0:0:0:0:
402,211,113561,2,0,L|268:229,1,135,2|0,0:0|0:0,0:0:0:0:
152,160,113875,2,0,L|286:142,1,135,2|0,0:0|0:0,0:0:0:0:
368,48,114189,2,0,L|234:66,1,135,2|0,0:0|0:0,0:0:0:0:
176,72,114504,1,2,0:0:0:0:
64,104,114660,1,0,0:0:0:0:
60,139,114739,1,0,0:0:0:0:
56,175,114817,2,2,L|35:365,1,180,2|0,0:0|0:0,0:0:0:0:
152,328,115289,5,4,0:0:0:0:
240,272,115446,1,0,0:0:0:0:
240,272,115525,1,0,0:0:0:0:
240,272,115603,1,2,0:0:0:0:
344,304,115761,1,2,0:0:0:0:
440,256,115918,1,0,0:0:0:0:
440,256,116075,6,2,L|472:56,1,180,2|0,0:0|0:0,0:0:0:0:
320,184,116545,1,0,0:0:0:0:
320,184,116702,2,2,L|348:6,1,180,2|0,0:0|0:0,0:0:0:0:
240,56,117174,1,2,0:0:0:0:
240,56,117253,1,0,0:0:0:0:
240,56,117331,1,2,0:0:0:0:
272,328,117488,5,4,0:0:0:0:
272,328,117645,1,0,0:0:0:0:
272,328,117724,1,0,0:0:0:0:
272,328,117802,1,0,0:0:0:0:
392,176,117960,5,4,0:0:0:0:
392,176,118117,1,0,0:0:0:0:
392,176,118195,1,0,0:0:0:0:
392,176,118274,1,0,0:0:0:0:
120,208,118431,5,4,0:0:0:0:
240,56,118588,6,0,L|83:43,1,135,4|0,0:0|0:0,0:0:0:0:
56,64,118902,1,0,0:0:0:0:
48,168,119059,1,0,0:0:0:0:
66,154,119138,1,0,0:0:0:0:
89,153,119216,1,0,0:0:0:0:
110,163,119295,1,0,0:0:0:0:
120,183,119373,1,0,0:0:0:0:
136,344,119530,5,0,0:0:0:0:
171,337,119609,1,0,0:0:0:0:
202,319,119687,1,0,0:0:0:0:
221,282,119766,1,0,0:0:0:0:
232,245,119844,1,0,0:0:0:0:
262,214,119923,1,0,0:0:0:0:
309,196,120001,6,0,L|436:159,1,90,2|0,0:0|0:0,0:0:0:0:
512,39,120316,1,0,0:0:0:0:
512,39,120473,2,0,L|425:64,1,90,2|0,0:0|0:0,0:0:0:0:
359,208,120786,2,0,L|453:179,1,90,2|0,0:0|0:0,0:0:0:0:
214,33,121100,6,0,B|222:50|222:50|199:127,1,90,2|0,0:0|0:0,0:0:0:0:
50,222,121414,2,0,L|82:126,1,90,2|0,0:0|0:0,0:0:0:0:
250,234,121729,1,2,0:0:0:0:
240,349,121885,1,0,0:0:0:0:
240,349,121964,1,0,0:0:0:0:
240,349,122042,1,2,0:0:0:0:
125,351,122200,5,0,0:0:0:0:
117,328,122279,1,0,0:0:0:0:
109,305,122357,1,0,0:0:0:0:
101,282,122436,1,0,0:0:0:0:
96,262,122514,5,6,0:0:0:0:
134,171,122672,1,0,0:0:0:0:
0,232,122828,1,0,0:0:0:0:
35,133,122985,2,0,P|56:64|112:72,1,135,2|0,0:0|0:0,0:0:0:0:
112,120,123300,2,0,L|274:65,1,135,2|0,0:0|0:0,0:0:0:0:
312,40,123614,6,0,L|294:203,1,135,2|0,0:0|0:0,0:0:0:0:
376,88,123928,2,0,L|358:251,1,135,2|0,0:0|0:0,0:0:0:0:
440,136,124242,2,0,L|422:299,1,135,2|0,0:0|0:0,0:0:0:0:
490,314,124556,2,0,L|501:225,1,90,2|0,0:0|0:0,0:0:0:0:
400,368,124871,5,0,0:0:0:0:
400,368,124949,1,0,0:0:0:0:
400,368,125028,1,2,0:0:0:0:
226,342,125185,1,0,0:0:0:0:
226,342,125342,1,2,0:0:0:0:
226,342,125499,2,2,P|157:323|163:195,1,180,2|0,0:0|0:0,0:0:0:0:
253,190,125970,5,0,0:0:0:0:
253,190,126127,2,2,P|352:224|408:160,1,180,2|0,0:0|0:0,0:0:0:0:
474,60,126598,1,0,0:0:0:0:
474,60,126677,1,0,0:0:0:0:
474,60,126755,1,0,0:0:0:0:
474,60,126912,1,0,0:0:0:0:
357,36,127069,2,0,L|328:144,1,90
167,169,127384,5,0,0:0:0:0:
182,52,127541,1,8,0:0:0:0:
167,169,127698,1,8,0:0:0:0:
52,185,127855,1,0,0:0:0:0:
262,270,128012,5,8,0:0:0:0:
277,153,128169,1,8,0:0:0:0:
262,270,128326,1,0,0:0:0:0:
147,286,128482,1,8,0:0:0:0:
147,286,128561,1,0,0:0:0:0:
147,286,128640,1,0,0:0:0:0:
27,250,128797,5,0,0:0:0:0:
39,220,128876,1,0,0:0:0:0:
63,199,128954,1,0,0:0:0:0:
92,186,129033,1,0,0:0:0:0:
124,182,129111,1,0,0:0:0:0:
156,186,129190,1,0,0:0:0:0:
186,195,129268,1,0,0:0:0:0:
213,212,129347,1,0,0:0:0:0:
245,214,129425,1,0,0:0:0:0:
276,204,129504,1,0,0:0:0:0:
302,185,129583,1,0,0:0:0:0:
322,160,129661,1,0,0:0:0:0:
329,129,129740,6,0,P|360:51|373:182,1,360,0|2,0:0|0:0,0:0:0:0:
359,281,130210,5,2,0:0:0:0:
251,294,130367,1,0,0:0:0:0:
179,212,130524,2,0,B|130:175|69:163|69:163|8:184,1,180,2|2,0:0|0:0,0:0:0:0:
424,56,131153,5,2,0:0:0:0:
48,152,131467,1,2,0:0:0:0:
424,152,131781,1,2,0:0:0:0:
48,248,132095,1,2,0:0:0:0:
48,344,132252,1,0,0:0:0:0:
48,344,132331,1,0,0:0:0:0:
48,344,132409,1,0,0:0:0:0:
48,344,132488,1,0,0:0:0:0:
48,344,132566,5,2,0:0:0:0:
152,328,132723,1,0,0:0:0:0:
256,352,132880,1,0,0:0:0:0:
360,328,133037,5,2,0:0:0:0:
360,32,133352,1,2,0:0:0:0:
224,248,133666,1,2,0:0:0:0:
496,120,133980,1,2,0:0:0:0:
224,104,134294,1,2,0:0:0:0:
480,280,134608,1,2,0:0:0:0:
480,280,134765,5,0,0:0:0:0:
392,344,134922,1,0,0:0:0:0:
360,336,135001,1,0,0:0:0:0:
328,328,135079,1,0,0:0:0:0:
296,320,135158,1,0,0:0:0:0:
264,312,135236,1,0,0:0:0:0:
160,336,135393,1,4,0:0:0:0:
176,216,135551,5,0,0:0:0:0:
168,184,135629,1,0,0:0:0:0:
160,152,135708,1,2,0:0:0:0:
224,40,135865,1,2,0:0:0:0:
48,80,136022,1,0,0:0:0:0:
224,40,136179,6,2,B|277:83|336:88|336:88|392:65,1,180
490,16,136650,1,4,0:0:0:0:
504,184,136807,1,2,0:0:0:0:
412,289,136964,1,0,0:0:0:0:
412,289,137043,1,0,0:0:0:0:
412,289,137121,1,2,0:0:0:0:
412,289,137200,1,0,0:0:0:0:
412,289,137278,2,2,L|308:273,1,90,2|0,0:0|0:0,0:0:0:0:
136,320,137592,5,4,0:0:0:0:
88,224,137749,1,8,0:0:0:0:
104,192,137828,1,0,0:0:0:0:
120,160,137907,1,0,0:0:0:0:
112,296,138064,5,12,0:0:0:0:
64,200,138221,1,8,0:0:0:0:
80,168,138300,1,0,0:0:0:0:
96,136,138379,1,0,0:0:0:0:
208,32,138535,1,8,0:0:0:0:
357,93,138692,5,12,0:0:0:0:
253,126,138849,1,0,0:0:0:0:
239,156,138928,1,0,0:0:0:0:
224,185,139007,1,8,0:0:0:0:
433,148,139163,5,4,0:0:0:0:
329,181,139320,1,0,0:0:0:0:
315,211,139399,1,8,0:0:0:0:
300,240,139478,1,8,0:0:0:0:
212,324,139634,5,0,0:0:0:0:
188,316,139713,1,0,0:0:0:0:
164,308,139791,1,0,0:0:0:0:
140,300,139870,1,0,0:0:0:0:
116,292,139948,1,0,0:0:0:0:
92,284,140027,1,0,0:0:0:0:
45,274,140106,5,2,0:0:0:0:
45,274,140184,1,0,0:0:0:0:
45,274,140263,1,0,0:0:0:0:
125,40,140420,5,2,0:0:0:0:
125,40,140498,1,0,0:0:0:0:
125,40,140577,1,0,0:0:0:0:
198,239,140734,5,2,0:0:0:0:
198,239,140812,1,0,0:0:0:0:
198,239,140891,1,0,0:0:0:0:
303,87,141048,5,2,0:0:0:0:
303,87,141126,1,0,0:0:0:0:
303,87,141205,1,0,0:0:0:0:
368,204,141362,6,0,L|412:205,3,45,2|0|0|0,0:0|0:0|0:0|0:0,0:0:0:0:
485,209,141676,2,0,L|512:166,3,45,2|0|0|0,0:0|0:0|0:0|0:0,0:0:0:0:
445,271,141990,2,0,L|468:315,3,45,2|0|0|0,0:0|0:0|0:0|0:0,0:0:0:0:
400,340,142304,5,2,0:0:0:0:
377,339,142383,1,0,0:0:0:0:
357,349,142462,1,2,0:0:0:0:
256,336,142619,5,2,0:0:0:0:
249,313,142697,1,0,0:0:0:0:
236,294,142776,1,0,0:0:0:0:
218,280,142854,1,0,0:0:0:0:
256,248,142933,5,2,0:0:0:0:
263,225,143011,1,0,0:0:0:0:
276,206,143090,1,0,0:0:0:0:
294,192,143168,1,0,0:0:0:0:
256,156,143247,5,2,0:0:0:0:
249,133,143325,1,0,0:0:0:0:
236,114,143404,1,0,0:0:0:0:
218,100,143482,1,0,0:0:0:0:
256,72,143561,5,2,0:0:0:0:
272,56,143639,1,0,0:0:0:0:
294,50,143718,5,2,0:0:0:0:
16,104,144032,1,2,0:0:0:0:
496,280,144346,1,2,0:0:0:0:
207,324,144660,1,2,0:0:0:0:
219,41,144975,5,2,0:0:0:0:
219,41,145053,1,0,0:0:0:0:
219,41,145132,1,2,0:0:0:0:
128,152,145289,1,2,0:0:0:0:
248,224,145446,1,8,0:0:0:0:
344,120,145603,2,2,L|472:116,1,90,2|0,0:0|0:0,0:0:0:0:
496,248,145917,5,2,0:0:0:0:
408,360,146074,1,2,0:0:0:0:
264,328,146231,2,2,L|47:320,1,180,2|0,0:0|0:0,0:0:0:0:
248,224,146702,2,2,L|443:228,1,180,8|0,0:0|0:0,0:0:0:0:
424,80,147174,5,2,0:0:0:0:
256,40,147331,1,2,0:0:0:0:
152,152,147488,6,2,B|88:200|40:184|40:184|-8:112,1,180,2|0,0:0|0:0,0:0:0:0:
360,152,147959,6,2,B|424:200|472:184|472:184|520:112,1,180,8|0,0:0|0:0,0:0:0:0:
256,40,148430,5,0,0:0:0:0:
256,40,148587,2,0,L|224:24,4,22.5
151,68,148901,5,0,0:0:0:0:
163,98,148980,1,0,0:0:0:0:
187,119,149058,1,0,0:0:0:0:
216,132,149137,1,0,0:0:0:0:
248,136,149215,1,0,0:0:0:0:
280,132,149294,1,0,0:0:0:0:
310,123,149372,1,0,0:0:0:0:
337,106,149451,1,0,0:0:0:0:
369,104,149529,1,0,0:0:0:0:
400,114,149608,1,0,0:0:0:0:
426,133,149687,1,0,0:0:0:0:
446,158,149765,1,0,0:0:0:0:
464,184,149844,6,0,P|527:238|399:208,1,360
48,296,150472,5,4,0:0:0:0:
256,192,150551,12,0,152985,0:0:0:0:
