osu file format v14

[General]
AudioFilename: Grand_Chariot.mp3
AudioLeadIn: 0
PreviewTime: 94238
Countdown: 0
SampleSet: Soft
StackLeniency: 0.7
Mode: 3
LetterboxInBreaks: 0
SpecialStyle: 0
WidescreenStoryboard: 0

[Editor]
DistanceSpacing: 1.5
BeatDivisor: 4
GridSize: 16
TimelineZoom: 2.6

[Metadata]
Title:Grand Chariot
TitleUnicode:Grand Chariot
Artist:xi
ArtistUnicode:xi
Creator:SpectorDG
Version:GRAVITY
Source:SOUND VOLTEX III GRAVITY WARS
Tags:[ A v a l o n ] [_A_v_a_l_o_n_] ExNeko FAMoss SDVX 3 beatmania IIDX 23 copula jubeat Qubell NEW Generation natsu no ryuusei festa 2016 夏の流星フェスタ2016 HARD ART CORE Fukutomi WAVE Yusuke Ishiwata KONAMI BEMANI 24 SINOBUZ MÚSECA DanceDanceRevolution A pop'n music éclale REFLEC BEAT VOLZZA 2 Video Game Electronic Instrumental
BeatmapID:1076511
BeatmapSetID:506056

[Difficulty]
HPDrainRate:8.5
CircleSize:4
OverallDifficulty:8
ApproachRate:5
SliderMultiplier:1.4
SliderTickRate:1

[Events]
//Background and Video events
0,0,"bg.png",0,0
//Break Periods
//Storyboard Layer 0 (Background)
//Storyboard Layer 1 (Fail)
//Storyboard Layer 2 (Pass)
//Storyboard Layer 3 (Foreground)
//Storyboard Layer 4 (Overlay)
//Storyboard Sound Samples

[TimingPoints]
1254,314.13612565445,4,2,1,50,1,0
94238,-100,4,2,1,50,0,1
104290,-100,4,2,1,50,0,0
104604,-100,4,2,1,50,0,1
111829,-100,4,2,1,50,0,0

[HitObjects]
192,192,939,5,0,0:0:0:0:
64,192,1018,1,0,0:0:0:0:
320,192,1096,1,0,0:0:0:0:
192,192,1175,1,0,0:0:0:0:
64,192,1254,1,2,0:0:0:0:
320,192,1254,1,4,0:0:0:0:
448,192,1254,1,0,0:0:0:0:
64,192,1489,1,2,0:0:0:0:
320,192,1489,1,4,0:0:0:0:
448,192,1489,1,0,0:0:0:0:
192,192,1725,1,0,0:0:0:0:
320,192,1803,1,0,0:0:0:0:
64,192,1882,1,0,0:0:0:0:
192,192,1960,1,0,0:0:0:0:
448,192,2039,1,0,0:0:0:0:
320,192,2117,1,0,0:0:0:0:
192,192,2196,1,0,0:0:0:0:
64,192,2274,1,0,0:0:0:0:
192,192,2353,1,0,0:0:0:0:
320,192,2432,1,0,0:0:0:0:
64,192,2510,1,4,0:0:0:0:
192,192,2510,1,2,0:0:0:0:
448,192,2510,1,0,0:0:0:0:
64,192,2746,1,4,0:0:0:0:
192,192,2746,1,2,0:0:0:0:
448,192,2746,1,0,0:0:0:0:
320,192,2981,1,0,0:0:0:0:
192,192,3060,1,0,0:0:0:0:
64,192,3138,1,0,0:0:0:0:
192,192,3217,1,0,0:0:0:0:
320,192,3295,1,2,0:0:0:0:
448,192,3295,1,0,0:0:0:0:
64,192,3374,1,2,0:0:0:0:
192,192,3374,1,0,0:0:0:0:
320,192,3452,1,2,0:0:0:0:
448,192,3492,1,2,0:0:0:0:
192,192,3531,1,2,0:0:0:0:
64,192,3570,1,2,0:0:0:0:
320,192,3610,1,2,0:0:0:0:
448,192,3610,1,0,0:0:0:0:
192,192,3688,1,0,0:0:0:0:
64,192,3767,1,2,0:0:0:0:
320,192,3767,1,4,0:0:0:0:
448,192,3767,1,0,0:0:0:0:
320,192,3924,1,0,0:0:0:0:
64,192,4002,1,2,0:0:0:0:
448,192,4002,1,4,0:0:0:0:
192,192,4081,1,0,0:0:0:0:
320,192,4238,1,0,0:0:0:0:
192,192,4316,1,0,0:0:0:0:
64,192,4395,1,2,0:0:0:0:
448,192,4395,1,4,0:0:0:0:
320,192,4473,1,0,0:0:0:0:
64,192,4552,1,0,0:0:0:0:
192,192,4630,1,4,0:0:0:0:
448,192,4630,1,2,0:0:0:0:
320,192,4709,1,0,0:0:0:0:
192,192,4788,1,0,0:0:0:0:
64,192,4866,1,2,0:0:0:0:
448,192,4866,1,4,0:0:0:0:
320,192,4945,1,0,0:0:0:0:
192,192,5023,1,0,0:0:0:0:
448,192,5102,1,0,0:0:0:0:
64,192,5180,1,4,0:0:0:0:
320,192,5180,1,2,0:0:0:0:
192,192,5259,1,0,0:0:0:0:
64,192,5337,1,2,0:0:0:0:
448,192,5337,1,4,0:0:0:0:
320,192,5416,1,0,0:0:0:0:
192,192,5494,1,0,0:0:0:0:
320,192,5573,1,0,0:0:0:0:
64,192,5651,1,4,0:0:0:0:
448,192,5651,1,2,0:0:0:0:
192,192,5730,1,0,0:0:0:0:
320,192,5808,1,2,0:0:0:0:
448,192,5808,1,4,0:0:0:0:
64,192,5887,1,4,0:0:0:0:
192,192,5887,1,2,0:0:0:0:
448,192,5966,1,6,0:0:0:0:
320,192,6005,1,2,0:0:0:0:
192,192,6044,1,2,0:0:0:0:
64,192,6083,1,2,0:0:0:0:
320,192,6123,1,4,0:0:0:0:
448,192,6123,1,0,0:0:0:0:
192,192,6201,1,2,0:0:0:0:
64,192,6280,128,2,7222:0:0:0:0:
320,192,6280,1,4,0:0:0:0:
448,192,6280,1,0,0:0:0:0:
192,192,6437,1,0,0:0:0:0:
320,192,6594,1,8,0:0:0:0:
448,192,6594,1,0,0:0:0:0:
192,192,6751,1,0,0:0:0:0:
320,192,6908,1,2,0:0:0:0:
448,192,6908,1,0,0:0:0:0:
192,192,7065,1,0,0:0:0:0:
320,192,7222,1,8,0:0:0:0:
448,192,7222,1,0,0:0:0:0:
192,192,7301,1,0,0:0:0:0:
448,192,7379,1,0,0:0:0:0:
192,192,7458,1,0,0:0:0:0:
64,192,7536,1,4,0:0:0:0:
320,192,7536,1,2,0:0:0:0:
448,192,7536,128,0,8479:0:0:0:0:
192,192,7693,1,0,0:0:0:0:
64,192,7850,1,8,0:0:0:0:
320,192,7850,1,0,0:0:0:0:
192,192,8007,1,0,0:0:0:0:
64,192,8164,1,2,0:0:0:0:
320,192,8164,1,0,0:0:0:0:
192,192,8322,1,0,0:0:0:0:
64,192,8479,1,8,0:0:0:0:
320,192,8479,1,0,0:0:0:0:
192,192,8557,1,0,0:0:0:0:
320,192,8636,1,2,0:0:0:0:
448,192,8636,1,0,0:0:0:0:
192,192,8714,1,0,0:0:0:0:
64,192,8793,128,2,8950:0:0:0:0:
320,192,8793,128,4,8950:0:0:0:0:
448,192,8793,128,0,8950:0:0:0:0:
64,192,9028,128,4,9185:0:0:0:0:
320,192,9028,128,2,9185:0:0:0:0:
448,192,9028,128,0,9185:0:0:0:0:
192,192,9264,1,2,0:0:0:0:
320,192,9264,1,0,0:0:0:0:
64,192,9421,128,4,9578:0:0:0:0:
192,192,9421,128,2,9578:0:0:0:0:
448,192,9421,128,0,9578:0:0:0:0:
64,192,9657,128,2,9814:0:0:0:0:
192,192,9657,128,4,9814:0:0:0:0:
448,192,9657,128,0,9814:0:0:0:0:
192,192,9892,1,2,0:0:0:0:
320,192,9892,1,0,0:0:0:0:
320,192,10049,128,2,10128:0:0:0:0:
448,192,10049,1,0,0:0:0:0:
192,192,10128,128,0,10206:0:0:0:0:
64,192,10206,128,0,10285:0:0:0:0:
448,192,10285,128,0,10363:0:0:0:0:
320,192,10363,128,0,10442:0:0:0:0:
192,192,10442,128,0,10521:0:0:0:0:
64,192,10521,128,0,10599:0:0:0:0:
192,192,10599,1,4,0:0:0:0:
320,192,10599,1,2,0:0:0:0:
448,192,10599,1,0,0:0:0:0:
448,192,10835,128,0,11149:0:0:0:0:
320,192,11149,128,0,11306:0:0:0:0:
64,192,11306,128,2,13740:0:0:0:0:
192,192,11306,1,4,0:0:0:0:
448,192,11306,1,0,0:0:0:100:push_scratch.wav
320,192,11463,1,0,0:0:0:0:
192,192,11620,1,8,0:0:0:0:
448,192,11620,1,0,0:0:0:0:
320,192,11777,1,0,0:0:0:0:
192,192,11934,1,8,0:0:0:0:
448,192,11934,1,0,0:0:0:0:
448,192,12091,1,0,0:0:0:0:
192,192,12248,1,8,0:0:0:0:
320,192,12248,1,0,0:0:0:0:
192,192,12405,1,0,0:0:0:0:
320,192,12562,1,8,0:0:0:0:
448,192,12562,1,0,0:0:0:0:
448,192,12719,1,0,0:0:0:0:
192,192,12877,1,8,0:0:0:0:
320,192,12877,1,0,0:0:0:0:
320,192,13034,1,0,0:0:0:0:
192,192,13191,1,8,0:0:0:0:
448,192,13191,1,0,0:0:0:0:
320,192,13348,1,0,0:0:0:0:
192,192,13505,1,8,0:0:0:0:
448,192,13505,1,0,0:0:0:0:
320,192,13662,1,0,0:0:0:0:
64,192,13819,1,8,0:0:0:0:
192,192,13819,1,2,0:0:0:0:
448,192,13819,128,0,14997:0:0:0:0:
320,192,13976,1,0,0:0:0:0:
64,192,14133,1,8,0:0:0:0:
192,192,14133,1,0,0:0:0:0:
192,192,14290,1,0,0:0:0:0:
64,192,14447,1,8,0:0:0:0:
320,192,14447,1,0,0:0:0:0:
320,192,14604,1,0,0:0:0:0:
64,192,14761,1,8,0:0:0:0:
192,192,14761,1,0,0:0:0:0:
64,192,14918,1,0,0:0:0:0:
64,192,15075,128,8,15625:0:0:0:0:
320,192,15075,1,2,0:0:0:0:
448,192,15075,1,0,0:0:0:0:
192,192,15233,1,0,0:0:0:0:
320,192,15390,1,8,0:0:0:0:
448,192,15390,1,0,0:0:0:0:
320,192,15547,1,0,0:0:0:0:
64,192,15704,1,8,0:0:0:0:
192,192,15704,1,2,0:0:0:0:
448,192,15704,128,0,16253:0:0:0:0:
320,192,15861,1,8,0:0:0:0:
192,192,15939,1,8,0:0:0:0:
64,192,16018,1,8,0:0:0:0:
320,192,16018,1,0,0:0:0:0:
192,192,16175,1,8,0:0:0:0:
320,192,16253,1,8,0:0:0:0:
64,192,16332,1,2,0:0:0:0:
192,192,16332,1,4,0:0:0:0:
448,192,16332,1,8,0:0:0:0:
192,192,16489,1,8,0:0:0:0:
320,192,16489,1,0,0:0:0:0:
64,192,16646,1,2,0:0:0:0:
448,192,16646,1,8,0:0:0:0:
192,192,16803,1,8,0:0:0:0:
320,192,16803,1,0,0:0:0:0:
64,192,16960,1,8,0:0:0:0:
192,192,16960,1,2,0:0:0:0:
448,192,16960,1,4,0:0:0:0:
448,192,17117,1,8,0:0:0:0:
320,192,17117,1,0,0:0:0:0:
64,192,17274,1,8,0:0:0:0:
192,192,17274,1,2,0:0:0:0:
320,192,17432,1,8,0:0:0:0:
448,192,17432,1,0,0:0:0:0:
192,192,17510,1,8,0:0:0:0:
64,192,17589,1,8,0:0:0:0:
320,192,17589,1,2,0:0:0:0:
448,192,17589,1,4,0:0:0:0:
192,192,17746,1,8,0:0:0:0:
448,192,17746,1,0,0:0:0:0:
64,192,17903,1,8,0:0:0:0:
320,192,17903,1,2,0:0:0:0:
192,192,18060,1,8,0:0:0:0:
448,192,18060,1,0,0:0:0:0:
320,192,18138,1,8,0:0:0:0:
64,192,18217,1,4,0:0:0:0:
192,192,18217,1,8,0:0:0:0:
448,192,18217,1,2,0:0:0:0:
448,192,18374,1,8,0:0:0:0:
320,192,18413,1,8,0:0:0:0:
64,192,18452,1,8,0:0:0:0:
192,192,18492,1,8,0:0:0:0:
320,192,18531,1,8,0:0:0:0:
448,192,18531,1,2,0:0:0:0:
64,192,18688,1,8,0:0:0:0:
192,192,18727,1,8,0:0:0:0:
448,192,18767,1,8,0:0:0:0:
320,192,18806,1,8,0:0:0:0:
64,192,18845,1,10,0:0:0:0:
192,192,18845,1,4,0:0:0:0:
448,192,18924,1,8,0:0:0:0:
64,192,19002,1,8,0:0:0:0:
192,192,19002,1,0,0:0:0:0:
320,192,19081,1,8,0:0:0:0:
64,192,19159,1,10,0:0:0:0:
192,192,19159,1,4,0:0:0:0:
448,192,19238,1,8,0:0:0:0:
64,192,19316,1,8,0:0:0:0:
320,192,19316,1,2,0:0:0:0:
192,192,19395,1,8,0:0:0:0:
320,192,19473,1,12,0:0:0:0:
448,192,19473,1,2,0:0:0:0:
64,192,19552,1,8,0:0:0:0:
320,192,19630,1,8,0:0:0:0:
448,192,19630,1,2,0:0:0:0:
192,192,19709,1,8,0:0:0:0:
320,192,19788,1,10,0:0:0:0:
448,192,19788,1,4,0:0:0:0:
64,192,19866,1,8,0:0:0:0:
192,192,19945,1,8,0:0:0:0:
448,192,19945,1,2,0:0:0:0:
320,192,20023,1,8,0:0:0:0:
64,192,20102,1,12,0:0:0:0:
192,192,20102,1,2,0:0:0:0:
320,192,20180,1,8,0:0:0:0:
448,192,20180,1,2,0:0:0:0:
64,192,20259,1,10,0:0:0:0:
192,192,20259,1,4,0:0:0:0:
320,192,20337,1,8,0:0:0:0:
448,192,20337,1,2,0:0:0:0:
192,192,20416,1,14,0:0:0:0:
64,192,20455,1,8,0:0:0:0:
320,192,20494,1,8,0:0:0:0:
448,192,20534,1,8,0:0:0:0:
64,192,20573,1,12,0:0:0:0:
192,192,20612,1,8,0:0:0:0:
448,192,20651,1,8,0:0:0:0:
320,192,20691,1,8,0:0:0:0:
64,192,20730,1,8,0:0:0:0:
192,192,20730,1,4,0:0:0:0:
320,192,20887,1,10,0:0:0:0:
448,192,20887,1,4,0:0:0:0:
64,192,21044,1,0,0:0:0:100:S1.wav
192,192,21044,1,0,0:0:0:0:
448,192,21044,1,0,0:0:0:0:
320,192,21123,1,0,0:0:0:0:
64,192,21201,1,0,0:0:0:0:
448,192,21280,1,0,0:0:0:0:
64,192,21358,128,2,22615:0:0:0:0:
192,192,21358,1,4,0:0:0:0:
320,192,21358,1,0,0:0:0:100:push_scratch.wav
448,192,21515,1,0,0:0:0:0:
320,192,21594,1,0,0:0:0:0:
192,192,21672,1,2,0:0:0:0:
448,192,21672,1,0,0:0:0:0:
320,192,21829,1,0,0:0:0:0:
192,192,21908,1,0,0:0:0:0:
320,192,21986,1,2,0:0:0:0:
448,192,21986,1,0,0:0:0:0:
192,192,22144,1,0,0:0:0:0:
320,192,22222,1,0,0:0:0:0:
192,192,22301,1,2,0:0:0:0:
448,192,22301,1,0,0:0:0:0:
320,192,22458,1,0,0:0:0:0:
448,192,22536,1,0,0:0:0:0:
192,192,22615,128,2,23086:0:0:0:0:
320,192,22615,1,0,0:0:0:0:
448,192,22772,1,0,0:0:0:0:
320,192,22850,1,0,0:0:0:0:
64,192,22929,1,2,0:0:0:0:
448,192,22929,1,0,0:0:0:0:
320,192,23086,1,0,0:0:0:0:
448,192,23086,128,0,23479:0:0:0:0:
64,192,23164,1,0,0:0:0:0:
192,192,23243,1,2,0:0:0:0:
320,192,23243,1,0,0:0:0:0:
64,192,23400,1,0,0:0:0:0:
320,192,23479,128,0,23714:0:0:0:0:
64,192,23557,1,2,0:0:0:0:
192,192,23557,1,0,0:0:0:0:
192,192,23714,128,0,23871:0:0:0:0:
448,192,23714,1,0,0:0:0:0:
320,192,23793,1,0,0:0:0:0:
64,192,23871,128,2,24814:0:0:0:0:
448,192,23871,1,0,0:0:0:0:
320,192,24028,1,0,0:0:0:0:
192,192,24107,1,0,0:0:0:0:
320,192,24185,1,2,0:0:0:0:
448,192,24185,1,0,0:0:0:0:
192,192,24343,1,0,0:0:0:0:
320,192,24421,1,0,0:0:0:0:
192,192,24500,1,2,0:0:0:0:
448,192,24500,1,0,0:0:0:0:
320,192,24657,1,0,0:0:0:0:
448,192,24735,1,0,0:0:0:0:
192,192,24814,128,2,24971:0:0:0:0:
320,192,24814,1,0,0:0:0:0:
320,192,24971,128,0,25756:0:0:0:0:
64,192,24971,1,0,0:0:0:0:
448,192,25049,1,0,0:0:0:0:
64,192,25128,1,2,0:0:0:0:
192,192,25128,1,0,0:0:0:0:
448,192,25285,1,0,0:0:0:0:
192,192,25363,1,0,0:0:0:0:
64,192,25442,1,2,0:0:0:0:
448,192,25442,1,0,0:0:0:0:
192,192,25599,1,0,0:0:0:0:
64,192,25678,1,0,0:0:0:0:
192,192,25756,1,2,0:0:0:0:
448,192,25756,128,0,26070:0:0:0:0:
320,192,25913,1,0,0:0:0:0:
64,192,25992,1,2,0:0:0:0:
192,192,26070,128,2,26384:0:0:0:0:
320,192,26070,1,0,0:0:0:0:
64,192,26227,1,2,0:0:0:0:
320,192,26227,1,0,0:0:0:0:
448,192,26306,1,0,0:0:0:0:
64,192,26384,128,2,27170:0:0:0:0:
320,192,26384,1,0,0:0:0:0:
448,192,26541,1,0,0:0:0:0:
320,192,26620,1,0,0:0:0:0:
192,192,26699,1,2,0:0:0:0:
448,192,26699,1,0,0:0:0:0:
320,192,26856,1,0,0:0:0:0:
192,192,26934,1,0,0:0:0:0:
320,192,27013,1,2,0:0:0:0:
448,192,27013,1,0,0:0:0:0:
192,192,27170,128,0,27484:0:0:0:0:
448,192,27170,1,0,0:0:0:0:
320,192,27248,1,0,0:0:0:0:
64,192,27327,1,2,0:0:0:0:
448,192,27327,1,0,0:0:0:0:
320,192,27484,128,0,27641:0:0:0:0:
64,192,27484,1,0,0:0:0:0:
192,192,27562,1,0,0:0:0:0:
64,192,27641,1,2,0:0:0:0:
448,192,27641,128,0,28269:0:0:0:0:
192,192,27798,1,0,0:0:0:0:
320,192,27877,1,0,0:0:0:0:
64,192,27955,1,2,0:0:0:0:
192,192,27955,1,0,0:0:0:0:
320,192,28112,1,0,0:0:0:0:
64,192,28191,1,0,0:0:0:0:
192,192,28269,1,2,0:0:0:0:
320,192,28269,128,0,28583:0:0:0:0:
448,192,28426,1,0,0:0:0:0:
64,192,28505,1,0,0:0:0:0:
192,192,28583,128,2,28897:0:0:0:0:
448,192,28583,1,0,0:0:0:0:
320,192,28740,1,2,0:0:0:0:
448,192,28740,1,0,0:0:0:0:
64,192,28819,1,0,0:0:0:0:
320,192,28897,1,2,0:0:0:0:
448,192,28897,128,0,29212:0:0:0:0:
64,192,29055,1,0,0:0:0:0:
320,192,29133,1,0,0:0:0:0:
64,192,29212,128,2,29290:0:0:0:0:
192,192,29212,1,0,0:0:0:0:
320,192,29290,128,0,29369:0:0:0:0:
448,192,29290,1,0,0:0:0:0:
64,192,29369,128,0,29447:0:0:0:0:
192,192,29369,1,0,0:0:0:0:
320,192,29447,1,0,0:0:0:0:
448,192,29447,128,0,29526:0:0:0:0:
64,192,29526,128,2,29840:0:0:0:0:
192,192,29526,1,0,0:0:0:0:
320,192,29683,1,0,0:0:0:0:
192,192,29761,1,0,0:0:0:0:
320,192,29840,1,2,0:0:0:0:
448,192,29840,128,0,29918:0:0:0:0:
64,192,29918,1,0,0:0:0:0:
192,192,29918,128,0,29997:0:0:0:0:
320,192,29997,1,2,0:0:0:0:
448,192,29997,128,0,30075:0:0:0:0:
64,192,30075,128,0,30154:0:0:0:0:
192,192,30075,1,0,0:0:0:0:
320,192,30154,1,2,0:0:0:0:
448,192,30154,1,0,0:0:0:0:
64,192,30233,1,2,0:0:0:0:
192,192,30233,1,0,0:0:0:0:
448,192,30311,1,2,0:0:0:0:
320,192,30350,1,2,0:0:0:0:
64,192,30390,1,2,0:0:0:0:
192,192,30429,1,2,0:0:0:0:
320,192,30468,1,2,0:0:0:0:
448,192,30468,1,0,0:0:0:0:
64,192,30547,1,2,0:0:0:0:
192,192,30547,1,0,0:0:0:0:
448,192,30625,1,2,0:0:0:0:
320,192,30664,1,2,0:0:0:0:
64,192,30704,1,2,0:0:0:0:
192,192,30743,1,2,0:0:0:0:
320,192,30782,1,2,0:0:0:0:
448,192,30782,1,0,0:0:0:0:
192,192,31018,1,2,0:0:0:0:
320,192,31018,1,0,0:0:0:0:
448,192,31018,1,0,0:0:0:0:
64,192,31253,1,2,0:0:0:0:
192,192,31253,1,0,0:0:0:0:
320,192,31253,1,0,0:0:0:0:
64,192,31725,1,2,0:0:0:0:
320,192,31725,1,4,0:0:0:0:
448,192,31725,128,0,32667:0:0:0:100:push_scratch.wav
192,192,31882,1,0,0:0:0:0:
320,192,31960,1,0,0:0:0:0:
64,192,32039,1,2,0:0:0:0:
192,192,32039,1,0,0:0:0:0:
320,192,32196,1,8,0:0:0:0:
192,192,32274,1,8,0:0:0:0:
64,192,32353,1,2,0:0:0:0:
320,192,32353,1,8,0:0:0:0:
192,192,32510,1,8,0:0:0:0:
64,192,32589,1,8,0:0:0:0:
192,192,32667,1,2,0:0:0:0:
320,192,32667,128,0,33138:0:0:0:0:
448,192,32824,1,0,0:0:0:0:
64,192,32903,1,0,0:0:0:0:
192,192,32981,1,2,0:0:0:0:
448,192,32981,1,8,0:0:0:0:
64,192,33138,128,0,33531:0:0:0:0:
192,192,33138,1,0,0:0:0:0:
448,192,33217,1,0,0:0:0:0:
192,192,33295,1,2,0:0:0:0:
320,192,33295,1,0,0:0:0:0:
448,192,33452,1,0,0:0:0:0:
192,192,33531,128,0,33767:0:0:0:0:
320,192,33531,1,0,0:0:0:0:
64,192,33610,1,2,0:0:0:0:
448,192,33610,1,8,0:0:0:0:
64,192,33767,1,0,0:0:0:0:
320,192,33767,128,0,33924:0:0:0:0:
192,192,33845,1,0,0:0:0:0:
64,192,33924,1,2,0:0:0:0:
448,192,33924,128,0,34866:0:0:0:0:
192,192,34081,1,0,0:0:0:0:
320,192,34159,1,0,0:0:0:0:
64,192,34238,1,2,0:0:0:0:
192,192,34238,1,8,0:0:0:0:
320,192,34395,1,0,0:0:0:0:
64,192,34473,1,0,0:0:0:0:
192,192,34552,1,2,0:0:0:0:
320,192,34552,1,0,0:0:0:0:
64,192,34709,1,0,0:0:0:0:
320,192,34788,1,0,0:0:0:0:
64,192,34866,128,2,35023:0:0:0:0:
192,192,34866,1,8,0:0:0:0:
192,192,35023,128,0,35808:0:0:0:0:
320,192,35023,1,0,0:0:0:0:
448,192,35102,1,0,0:0:0:0:
64,192,35180,1,2,0:0:0:0:
320,192,35180,1,0,0:0:0:0:
448,192,35337,1,0,0:0:0:0:
320,192,35416,1,0,0:0:0:0:
64,192,35494,1,2,0:0:0:0:
448,192,35494,1,8,0:0:0:0:
320,192,35651,1,0,0:0:0:0:
64,192,35730,1,0,0:0:0:0:
320,192,35808,1,2,0:0:0:0:
448,192,35808,128,0,36123:0:0:0:0:
64,192,35887,1,8,0:0:0:0:
192,192,35887,1,0,0:0:0:0:
320,192,35966,1,0,0:0:0:0:
64,192,36044,1,2,0:0:0:0:
192,192,36123,1,2,0:0:0:0:
320,192,36123,128,8,36358:0:0:0:0:
64,192,36280,1,2,0:0:0:0:
448,192,36280,1,0,0:0:0:0:
192,192,36358,1,2,0:0:0:0:
64,192,36437,1,2,0:0:0:0:
320,192,36437,1,4,0:0:0:0:
448,192,36437,1,0,0:0:0:0:
192,192,36594,1,0,0:0:0:0:
320,192,36672,1,0,0:0:0:0:
64,192,36751,1,2,0:0:0:0:
448,192,36751,1,8,0:0:0:0:
192,192,36829,1,0,0:0:0:0:
320,192,36908,1,0,0:0:0:0:
192,192,36986,1,0,0:0:0:0:
64,192,37065,1,10,0:0:0:0:
320,192,37065,1,4,0:0:0:0:
192,192,37222,1,0,0:0:0:0:
448,192,37222,1,0,0:0:0:0:
320,192,37301,1,0,0:0:0:0:
64,192,37379,1,2,0:0:0:0:
192,192,37379,1,8,0:0:0:0:
448,192,37458,1,0,0:0:0:0:
64,192,37536,1,0,0:0:0:0:
320,192,37536,1,0,0:0:0:0:
192,192,37615,1,0,0:0:0:0:
64,192,37693,1,2,0:0:0:0:
320,192,37693,1,8,0:0:0:0:
448,192,37693,1,4,0:0:0:0:
192,192,37850,1,0,0:0:0:0:
320,192,37929,1,0,0:0:0:0:
64,192,38007,1,6,0:0:0:0:
448,192,38007,1,8,0:0:0:0:
192,192,38086,1,0,0:0:0:0:
320,192,38164,1,0,0:0:0:0:
64,192,38243,1,0,0:0:0:0:
192,192,38322,1,2,0:0:0:0:
320,192,38322,1,8,0:0:0:0:
448,192,38322,1,4,0:0:0:0:
448,192,38479,1,0,0:0:0:0:
64,192,38557,1,0,0:0:0:0:
320,192,38636,1,6,0:0:0:0:
448,192,38636,1,8,0:0:0:0:
64,192,38714,1,0,0:0:0:0:
320,192,38793,1,0,0:0:0:0:
192,192,38871,1,0,0:0:0:0:
64,192,38950,1,2,0:0:0:0:
320,192,38950,1,4,0:0:0:0:
448,192,38950,1,0,0:0:0:0:
64,192,39107,1,2,0:0:0:0:
320,192,39107,1,4,0:0:0:0:
448,192,39107,1,0,0:0:0:0:
192,192,39264,1,0,0:0:0:50:S2.wav
448,192,39343,1,0,0:0:0:50:S2.wav
192,192,39421,1,0,0:0:0:50:S2.wav
320,192,39500,1,0,0:0:0:50:S2.wav
64,192,39578,1,2,0:0:0:0:
192,192,39578,1,4,0:0:0:0:
448,192,39578,1,0,0:0:0:0:
64,192,39735,1,4,0:0:0:0:
192,192,39735,1,2,0:0:0:0:
448,192,39735,1,0,0:0:0:0:
320,192,39892,1,2,0:0:0:0:
448,192,39932,1,2,0:0:0:0:
192,192,39971,1,2,0:0:0:0:
64,192,40010,1,2,0:0:0:0:
320,192,40049,1,2,0:0:0:0:
448,192,40049,1,0,0:0:0:0:
192,192,40128,1,2,0:0:0:0:
64,192,40206,1,2,0:0:0:0:
320,192,40206,1,4,0:0:0:0:
448,192,40206,1,0,0:0:0:0:
64,192,40442,1,2,0:0:0:0:
320,192,40442,1,4,0:0:0:0:
448,192,40442,1,0,0:0:0:0:
64,192,40678,1,2,0:0:0:0:
192,192,40678,1,4,0:0:0:0:
448,192,40678,1,0,0:0:0:0:
320,192,40835,1,2,0:0:0:0:
448,192,40835,1,4,0:0:0:0:
64,192,40913,1,2,0:0:0:0:
192,192,40913,1,0,0:0:0:0:
448,192,40992,1,2,0:0:0:0:
320,192,41031,1,2,0:0:0:0:
64,192,41070,1,6,0:0:0:0:
192,192,41110,1,2,0:0:0:0:
320,192,41149,1,2,0:0:0:0:
448,192,41149,1,0,0:0:0:0:
64,192,41227,1,2,0:0:0:0:
192,192,41227,1,0,0:0:0:0:
320,192,41306,1,2,0:0:0:0:
448,192,41306,1,4,0:0:0:0:
192,192,41384,1,2,0:0:0:0:
64,192,41463,1,2,0:0:0:0:
320,192,41463,1,4,0:0:0:0:
448,192,41463,1,0,0:0:0:100:push_scratch.wav
192,192,41620,1,0,0:0:0:0:
448,192,41620,1,0,0:0:0:0:
64,192,41777,1,8,0:0:0:0:
448,192,41777,1,0,0:0:0:0:
192,192,41934,1,0,0:0:0:0:
320,192,41934,1,0,0:0:0:0:
64,192,42091,1,2,0:0:0:0:
320,192,42091,1,0,0:0:0:0:
192,192,42248,1,0,0:0:0:0:
320,192,42327,1,0,0:0:0:0:
448,192,42327,1,0,0:0:0:0:
64,192,42405,1,8,0:0:0:0:
192,192,42405,1,0,0:0:0:0:
192,192,42562,1,0,0:0:0:0:
448,192,42562,1,0,0:0:0:0:
320,192,42641,1,0,0:0:0:0:
64,192,42719,1,2,0:0:0:0:
448,192,42719,1,0,0:0:0:0:
64,192,42877,1,0,0:0:0:0:
192,192,42877,1,0,0:0:0:0:
320,192,42955,1,0,0:0:0:0:
64,192,43034,1,8,0:0:0:0:
448,192,43034,1,0,0:0:0:0:
192,192,43112,1,0,0:0:0:0:
320,192,43191,1,0,0:0:0:0:
448,192,43191,1,0,0:0:0:0:
64,192,43269,1,0,0:0:0:0:
192,192,43348,1,2,0:0:0:0:
320,192,43348,1,0,0:0:0:0:
64,192,43505,1,0,0:0:0:0:
320,192,43583,1,0,0:0:0:0:
448,192,43583,1,0,0:0:0:0:
64,192,43662,1,8,0:0:0:0:
192,192,43662,1,0,0:0:0:0:
448,192,43740,1,0,0:0:0:0:
64,192,43819,1,0,0:0:0:0:
320,192,43819,1,0,0:0:0:0:
192,192,43897,1,0,0:0:0:0:
64,192,43976,1,2,0:0:0:0:
448,192,43976,1,0,0:0:0:0:
320,192,44133,1,0,0:0:0:0:
192,192,44212,1,0,0:0:0:0:
64,192,44290,1,8,0:0:0:0:
448,192,44290,1,0,0:0:0:0:
320,192,44369,1,0,0:0:0:0:
192,192,44447,1,0,0:0:0:0:
448,192,44447,1,0,0:0:0:0:
64,192,44526,1,0,0:0:0:0:
320,192,44526,1,0,0:0:0:0:
192,192,44604,1,2,0:0:0:0:
448,192,44604,1,0,0:0:0:0:
320,192,44761,1,0,0:0:0:0:
64,192,44840,1,0,0:0:0:0:
192,192,44840,1,0,0:0:0:0:
320,192,44918,1,8,0:0:0:0:
448,192,44918,1,0,0:0:0:0:
64,192,44997,1,0,0:0:0:0:
192,192,45075,1,0,0:0:0:0:
448,192,45075,1,0,0:0:0:0:
320,192,45154,1,0,0:0:0:0:
64,192,45233,1,2,0:0:0:0:
192,192,45233,1,0,0:0:0:0:
448,192,45233,1,0,0:0:0:0:
192,192,45390,1,0,0:0:0:0:
448,192,45390,1,0,0:0:0:0:
64,192,45547,1,8,0:0:0:0:
320,192,45547,1,0,0:0:0:0:
192,192,45625,1,0,0:0:0:0:
448,192,45625,1,0,0:0:0:0:
64,192,45704,1,0,0:0:0:0:
320,192,45704,1,0,0:0:0:0:
192,192,45782,1,0,0:0:0:0:
64,192,45861,1,2,0:0:0:0:
320,192,45861,1,0,0:0:0:0:
448,192,45861,1,0,0:0:0:0:
320,192,46018,1,0,0:0:0:0:
64,192,46018,1,0,0:0:0:0:
192,192,46096,1,2,0:0:0:0:
320,192,46175,1,8,0:0:0:0:
448,192,46175,1,0,0:0:0:0:
64,192,46253,1,0,0:0:0:0:
192,192,46253,1,0,0:0:0:0:
320,192,46332,1,2,0:0:0:0:
448,192,46332,1,0,0:0:0:0:
192,192,46411,1,0,0:0:0:0:
64,192,46489,1,0,0:0:0:0:
320,192,46489,1,2,0:0:0:0:
448,192,46489,1,0,0:0:0:0:
320,192,46646,1,0,0:0:0:0:
192,192,46646,1,0,0:0:0:0:
64,192,46725,1,0,0:0:0:0:
320,192,46803,1,8,0:0:0:0:
448,192,46803,1,0,0:0:0:0:
192,192,46882,1,0,0:0:0:0:
64,192,46960,1,0,0:0:0:0:
448,192,46960,1,0,0:0:0:0:
320,192,47039,1,0,0:0:0:0:
192,192,47117,1,2,0:0:0:0:
64,192,47117,1,0,0:0:0:0:
320,192,47274,1,0,0:0:0:0:
64,192,47353,1,0,0:0:0:0:
192,192,47353,1,0,0:0:0:0:
320,192,47432,1,8,0:0:0:0:
448,192,47432,1,0,0:0:0:0:
64,192,47510,1,0,0:0:0:0:
192,192,47589,1,0,0:0:0:0:
448,192,47589,1,0,0:0:0:0:
320,192,47667,1,0,0:0:0:0:
64,192,47746,1,2,0:0:0:0:
192,192,47746,1,0,0:0:0:0:
448,192,47903,1,0,0:0:0:0:
192,192,47981,1,0,0:0:0:0:
320,192,47981,1,0,0:0:0:0:
64,192,48060,1,8,0:0:0:0:
448,192,48060,1,0,0:0:0:0:
192,192,48217,1,0,0:0:0:0:
320,192,48295,1,0,0:0:0:0:
448,192,48295,1,0,0:0:0:0:
64,192,48374,1,2,0:0:0:0:
192,192,48374,1,0,0:0:0:0:
448,192,48531,1,0,0:0:0:0:
64,192,48610,1,0,0:0:0:0:
192,192,48610,1,0,0:0:0:0:
320,192,48688,1,8,0:0:0:0:
448,192,48688,1,0,0:0:0:0:
64,192,48767,1,0,0:0:0:0:
192,192,48845,1,2,0:0:0:0:
448,192,48845,1,0,0:0:0:0:
320,192,48924,1,0,0:0:0:0:
64,192,49002,1,2,0:0:0:0:
192,192,49002,1,0,0:0:0:0:
448,192,49002,1,0,0:0:0:0:
320,192,49159,1,0,0:0:0:0:
192,192,49238,1,0,0:0:0:0:
64,192,49316,1,8,0:0:0:0:
448,192,49316,1,0,0:0:0:0:
192,192,49473,1,0,0:0:0:0:
320,192,49552,1,0,0:0:0:0:
448,192,49552,1,0,0:0:0:0:
64,192,49630,1,2,0:0:0:0:
192,192,49630,1,0,0:0:0:0:
448,192,49788,1,0,0:0:0:0:
192,192,49866,1,0,0:0:0:0:
320,192,49866,1,0,0:0:0:0:
64,192,49945,1,8,0:0:0:0:
448,192,49945,1,0,0:0:0:0:
64,192,50102,1,0,0:0:0:0:
320,192,50102,1,0,0:0:0:0:
192,192,50259,1,2,0:0:0:0:
320,192,50259,1,4,0:0:0:0:
448,192,50259,1,0,0:0:0:0:
64,192,50494,1,4,0:0:0:0:
192,192,50494,1,2,0:0:0:0:
320,192,50494,1,0,0:0:0:0:
64,192,50730,1,2,0:0:0:0:
192,192,50730,1,4,0:0:0:0:
448,192,50730,1,0,0:0:0:0:
320,192,50887,1,4,0:0:0:0:
448,192,50887,1,2,0:0:0:0:
64,192,50966,1,2,0:0:0:0:
192,192,50966,1,0,0:0:0:0:
448,192,51044,1,2,0:0:0:0:
320,192,51083,1,2,0:0:0:0:
192,192,51123,1,2,0:0:0:0:
64,192,51162,1,2,0:0:0:0:
320,192,51201,1,4,0:0:0:0:
448,192,51201,1,2,0:0:0:0:
64,192,51280,1,2,0:0:0:0:
192,192,51280,1,0,0:0:0:0:
320,192,51358,1,2,0:0:0:0:
448,192,51358,1,4,0:0:0:0:
64,192,51437,1,2,0:0:0:0:
192,192,51515,1,4,0:0:0:0:
320,192,51515,1,2,0:0:0:0:
448,192,51515,128,0,51829:0:0:0:100:push_scratch.wav
64,192,51672,1,0,0:0:0:0:
320,192,51829,1,0,0:0:0:50:S2.wav
64,192,51986,128,0,52301:0:0:0:0:
192,192,51986,1,0,0:0:0:0:
448,192,52144,1,0,0:0:0:50:S2.wav
192,192,52301,1,0,0:0:0:0:
320,192,52458,1,0,0:0:0:50:S2.wav
448,192,52458,128,0,52772:0:0:0:0:
64,192,52615,1,0,0:0:0:0:
192,192,52772,1,2,0:0:0:0:
320,192,52772,128,4,53400:0:0:0:0:
64,192,52929,1,0,0:0:0:0:
448,192,53086,1,0,0:0:0:50:S2.wav
192,192,53243,1,0,0:0:0:0:
64,192,53400,128,0,53714:0:0:0:50:S2.wav
448,192,53400,1,0,0:0:0:0:
192,192,53557,1,0,0:0:0:0:
448,192,53714,1,0,0:0:0:50:S2.wav
320,192,53793,1,0,0:0:0:0:
64,192,53871,1,0,0:0:0:50:S2.wav
192,192,53871,1,0,0:0:0:0:
320,192,53950,1,0,0:0:0:50:S2.wav
448,192,53950,1,0,0:0:0:0:
64,192,54028,1,2,0:0:0:0:
192,192,54028,128,4,54343:0:0:0:0:
448,192,54185,1,0,0:0:0:0:
64,192,54343,1,0,0:0:0:50:S2.wav
320,192,54500,128,0,54814:0:0:0:0:
448,192,54500,1,0,0:0:0:0:
64,192,54657,1,0,0:0:0:50:S2.wav
448,192,54814,1,0,0:0:0:0:
64,192,54971,128,0,55285:0:0:0:50:S2.wav
192,192,54971,1,0,0:0:0:0:
448,192,55128,1,0,0:0:0:0:
192,192,55285,1,2,0:0:0:0:
448,192,55285,128,4,55913:0:0:0:0:
320,192,55442,1,0,0:0:0:0:
64,192,55599,1,0,0:0:0:50:S2.wav
192,192,55756,1,0,0:0:0:0:
64,192,55913,1,2,0:0:0:0:
320,192,55913,1,4,0:0:0:0:
192,192,55992,1,2,0:0:0:0:
448,192,56070,1,2,0:0:0:0:
320,192,56110,1,2,0:0:0:0:
64,192,56149,1,2,0:0:0:0:
192,192,56188,1,2,0:0:0:0:
320,192,56227,1,2,0:0:0:0:
448,192,56227,1,4,0:0:0:0:
64,192,56306,1,2,0:0:0:0:
192,192,56306,1,0,0:0:0:0:
320,192,56384,1,2,0:0:0:0:
448,192,56384,1,4,0:0:0:0:
192,192,56463,1,2,0:0:0:0:
320,192,56541,1,2,0:0:0:0:
448,192,56541,1,4,0:0:0:0:
64,192,56541,1,0,0:0:0:0:
192,192,56699,1,0,0:0:0:0:
448,192,56699,1,0,0:0:0:0:
320,192,56856,1,4,0:0:0:0:
192,192,56856,1,8,0:0:0:0:
64,192,56856,1,0,0:0:0:0:
64,192,57013,1,0,0:0:0:0:
448,192,57013,1,0,0:0:0:0:
448,192,57170,1,2,0:0:0:0:
320,192,57170,1,4,0:0:0:0:
192,192,57170,1,0,0:0:0:0:
64,192,57327,1,0,0:0:0:0:
320,192,57327,1,0,0:0:0:0:
64,192,57484,1,4,0:0:0:0:
192,192,57484,1,8,0:0:0:0:
448,192,57484,1,0,0:0:0:0:
192,192,57641,1,0,0:0:0:0:
320,192,57641,1,0,0:0:0:0:
64,192,57798,1,2,0:0:0:0:
320,192,57798,1,4,0:0:0:0:
448,192,57798,1,0,0:0:0:0:
192,192,57955,1,2,0:0:0:0:
448,192,57955,1,0,0:0:0:0:
64,192,58112,1,4,0:0:0:0:
320,192,58112,1,8,0:0:0:0:
192,192,58112,1,0,0:0:0:0:
320,192,58269,1,2,0:0:0:0:
448,192,58269,1,0,0:0:0:0:
64,192,58348,1,2,0:0:0:0:
192,192,58348,1,0,0:0:0:0:
448,192,58426,1,12,0:0:0:0:
320,192,58466,1,2,0:0:0:0:
192,192,58505,1,2,0:0:0:0:
64,192,58544,1,2,0:0:0:0:
320,192,58583,1,2,0:0:0:0:
448,192,58583,1,0,0:0:0:0:
64,192,58662,1,2,0:0:0:0:
192,192,58662,1,0,0:0:0:0:
320,192,58740,1,4,0:0:0:0:
448,192,58740,1,2,0:0:0:0:
64,192,58819,1,2,0:0:0:0:
192,192,58819,1,0,0:0:0:0:
320,192,58897,1,2,0:0:0:0:
448,192,58897,1,0,0:0:0:0:
192,192,58976,1,2,0:0:0:0:
64,192,58976,1,0,0:0:0:0:
64,192,59055,128,4,59526:0:0:0:0:
448,192,59055,1,2,0:0:0:0:
320,192,59055,1,0,0:0:0:0:
192,192,59526,128,4,59604:0:0:0:0:
448,192,59526,1,2,0:0:0:0:
64,192,59604,128,0,59683:0:0:0:0:
320,192,59683,128,0,59761:0:0:0:0:
192,192,59761,128,0,59840:0:0:0:0:
448,192,59840,128,0,59918:0:0:0:0:
320,192,59918,128,0,59997:0:0:0:0:
64,192,59997,128,4,60075:0:0:0:0:
192,192,59997,1,2,0:0:0:0:
448,192,60075,128,0,60154:0:0:0:0:
320,192,60154,128,0,60233:0:0:0:0:
192,192,60233,128,0,60311:0:0:0:0:
64,192,60311,128,0,60390:0:0:0:0:
320,192,60390,128,0,60468:0:0:0:0:
192,192,60468,128,4,60547:0:0:0:0:
448,192,60468,1,2,0:0:0:0:
64,192,60547,128,0,60625:0:0:0:0:
320,192,60625,128,0,60704:0:0:0:0:
448,192,60704,128,0,60782:0:0:0:0:
192,192,60782,128,0,60861:0:0:0:0:
320,192,60861,128,0,60939:0:0:0:0:
64,192,60939,128,4,61018:0:0:0:0:
448,192,60939,1,2,0:0:0:0:
192,192,61018,128,0,61096:0:0:0:0:
448,192,61096,128,0,61175:0:0:0:0:
320,192,61175,128,0,61253:0:0:0:0:
64,192,61253,128,2,61332:0:0:0:0:
192,192,61253,1,4,0:0:0:0:
448,192,61332,128,0,61411:0:0:0:0:
320,192,61411,128,0,61489:0:0:0:0:
64,192,61489,128,0,61568:0:0:0:0:
192,192,61568,128,4,61646:0:0:0:0:
448,192,61568,1,2,0:0:0:0:
320,192,61646,128,0,61725:0:0:0:0:
448,192,61725,128,0,61803:0:0:0:0:
64,192,61803,128,0,61882:0:0:0:0:
192,192,61882,128,0,61960:0:0:0:0:
320,192,61960,128,0,62039:0:0:0:0:
64,192,62039,1,2,0:0:0:0:
448,192,62039,128,4,62117:0:0:0:0:
192,192,62117,128,0,62196:0:0:0:0:
320,192,62196,128,0,62274:0:0:0:0:
64,192,62274,128,0,62353:0:0:0:0:
448,192,62353,128,0,62432:0:0:0:0:
320,192,62432,128,0,62510:0:0:0:0:
64,192,62510,128,4,62589:0:0:0:0:
192,192,62510,1,2,0:0:0:0:
448,192,62589,128,0,62667:0:0:0:0:
320,192,62667,128,0,62746:0:0:0:0:
192,192,62746,128,0,62824:0:0:0:0:
64,192,62824,128,0,62903:0:0:0:0:
320,192,62903,128,0,62981:0:0:0:0:
192,192,62981,1,4,0:0:0:0:
448,192,62981,128,2,63060:0:0:0:0:
64,192,63060,128,0,63138:0:0:0:0:
192,192,63138,128,0,63217:0:0:0:0:
448,192,63217,128,0,63295:0:0:0:0:
64,192,63295,1,2,0:0:0:0:
320,192,63295,1,0,0:0:0:0:
192,192,63374,1,2,0:0:0:0:
448,192,63374,1,0,0:0:0:0:
64,192,63452,1,2,0:0:0:0:
320,192,63452,1,4,0:0:0:0:
192,192,63531,1,2,0:0:0:0:
320,192,63610,1,2,0:0:0:0:
448,192,63610,1,0,0:0:0:0:
64,192,63688,1,2,0:0:0:0:
192,192,63727,1,2,0:0:0:0:
320,192,63767,1,4,0:0:0:0:
448,192,63767,1,2,0:0:0:0:
64,192,63845,1,2,0:0:0:0:
192,192,63845,1,0,0:0:0:0:
320,192,63924,1,2,0:0:0:0:
448,192,63924,1,0,0:0:0:0:
64,192,64002,1,2,0:0:0:0:
192,192,64002,1,0,0:0:0:0:
320,192,64081,128,2,66515:0:0:0:0:
448,192,64081,128,4,66515:0:0:0:0:
192,192,66555,1,0,0:0:0:0:
64,192,66594,128,0,69028:0:0:0:0:
192,192,68479,128,0,69028:0:0:0:0:
448,192,68793,128,0,68871:0:0:0:0:
320,192,68871,128,0,68950:0:0:0:0:
448,192,68950,128,0,69028:0:0:0:0:
320,192,69028,128,0,69107:0:0:0:0:
64,192,69107,1,2,0:0:0:0:
192,192,69107,1,4,0:0:0:0:
448,192,69107,1,0,0:0:0:100:push_scratch.wav
320,192,69343,1,0,0:0:0:0:
192,192,69578,1,0,0:0:0:0:
448,192,69814,1,0,0:0:0:0:
64,192,70049,1,0,0:0:0:0:
448,192,70206,1,0,0:0:0:0:
192,192,70363,1,0,0:0:0:0:
448,192,70521,1,0,0:0:0:0:
320,192,70835,1,0,0:0:0:0:
64,192,71070,1,0,0:0:0:0:
320,192,71306,1,0,0:0:0:0:
64,192,71463,1,0,0:0:0:0:
192,192,71620,128,0,71699:0:0:0:0:
448,192,71620,1,0,0:0:0:0:
64,192,71856,1,0,0:0:0:0:
320,192,71856,128,0,71934:0:0:0:0:
64,192,72091,128,0,72170:0:0:0:0:
448,192,72091,1,0,0:0:0:0:
192,192,72327,1,0,0:0:0:0:
448,192,72327,128,0,72405:0:0:0:0:
64,192,72562,1,0,0:0:0:0:
320,192,72562,128,0,72641:0:0:0:0:
192,192,72719,128,0,72798:0:0:0:0:
448,192,72719,1,0,0:0:0:0:
64,192,72877,1,0,0:0:0:0:
448,192,72877,128,0,72955:0:0:0:0:
64,192,73112,128,0,73191:0:0:0:0:
320,192,73112,1,0,0:0:0:0:
192,192,73348,1,0,0:0:0:0:
448,192,73348,128,0,73426:0:0:0:0:
64,192,73583,1,0,0:0:0:0:
320,192,73583,128,0,73662:0:0:0:0:
192,192,73819,1,0,0:0:0:0:
448,192,73819,128,0,73897:0:0:0:0:
64,192,73976,1,0,0:0:0:0:
320,192,73976,128,0,74055:0:0:0:0:
64,192,74133,1,4,0:0:0:0:
192,192,74133,1,2,0:0:0:0:
320,192,74133,1,0,0:0:0:0:
448,192,74133,1,0,0:0:0:0:
64,192,74290,1,0,0:0:0:50:S2.wav
192,192,74290,1,0,0:0:0:0:
320,192,74369,1,0,0:0:0:50:S2.wav
448,192,74369,1,0,0:0:0:0:
64,192,74447,1,0,0:0:0:50:S2.wav
320,192,74526,1,0,0:0:0:50:S2.wav
448,192,74526,1,0,0:0:0:0:
64,192,74604,1,0,0:0:0:50:S2.wav
192,192,74604,1,0,0:0:0:0:
448,192,74683,1,0,0:0:0:50:S2.wav
64,192,74761,1,0,0:0:0:50:S2.wav
192,192,74761,1,0,0:0:0:0:
320,192,74840,1,0,0:0:0:50:S2.wav
448,192,74840,1,0,0:0:0:0:
64,192,74918,1,0,0:0:0:50:S2.wav
320,192,74997,1,0,0:0:0:50:S2.wav
448,192,74997,1,0,0:0:0:0:
64,192,75075,1,0,0:0:0:50:S2.wav
192,192,75075,1,0,0:0:0:0:
448,192,75154,1,0,0:0:0:50:S2.wav
64,192,75233,1,0,0:0:0:50:S2.wav
192,192,75233,1,0,0:0:0:0:
64,192,75390,1,4,0:0:0:0:
192,192,75390,1,2,0:0:0:0:
320,192,75390,1,0,0:0:0:0:
448,192,75390,1,0,0:0:0:0:
192,192,75547,1,0,0:0:0:50:S2.wav
320,192,75547,1,0,0:0:0:0:
64,192,75625,1,0,0:0:0:50:S2.wav
448,192,75625,1,0,0:0:0:0:
320,192,75704,1,0,0:0:0:50:S2.wav
64,192,75782,1,0,0:0:0:50:S2.wav
192,192,75782,1,0,0:0:0:0:
320,192,75861,1,0,0:0:0:50:S2.wav
448,192,75861,1,0,0:0:0:0:
64,192,76018,1,4,0:0:0:0:
192,192,76018,1,2,0:0:0:0:
320,192,76018,1,0,0:0:0:0:
448,192,76018,1,0,0:0:0:0:
64,192,76175,1,0,0:0:0:50:S2.wav
448,192,76175,1,0,0:0:0:0:
192,192,76253,1,0,0:0:0:50:S2.wav
320,192,76253,1,0,0:0:0:0:
64,192,76332,1,0,0:0:0:50:S2.wav
320,192,76411,1,0,0:0:0:50:S2.wav
448,192,76411,1,0,0:0:0:0:
64,192,76489,1,0,0:0:0:50:S2.wav
192,192,76489,1,0,0:0:0:0:
64,192,76646,1,2,0:0:0:0:
192,192,76646,1,4,0:0:0:0:
320,192,76646,1,0,0:0:0:0:
448,192,76646,1,0,0:0:0:0:
320,192,76803,1,0,0:0:0:50:S2.wav
64,192,76882,1,4,0:0:0:0:
448,192,76882,1,2,0:0:0:0:
192,192,76960,1,0,0:0:0:50:S2.wav
320,192,76960,1,0,0:0:0:0:
448,192,77039,1,0,0:0:0:50:S2.wav
64,192,77117,1,2,0:0:0:0:
192,192,77117,1,4,0:0:0:0:
320,192,77117,1,0,0:0:0:0:
448,192,77196,1,0,0:0:0:50:S2.wav
64,192,77274,1,0,0:0:0:50:S2.wav
192,192,77353,1,4,0:0:0:0:
320,192,77353,1,2,0:0:0:0:
64,192,77432,1,0,0:0:0:50:S2.wav
448,192,77432,1,0,0:0:0:0:
320,192,77510,1,0,0:0:0:50:S2.wav
64,192,77589,1,2,0:0:0:0:
192,192,77589,1,4,0:0:0:0:
448,192,77589,1,0,0:0:0:0:
320,192,77667,1,0,0:0:0:50:S2.wav
192,192,77746,1,0,0:0:0:50:S2.wav
64,192,77824,1,4,0:0:0:0:
448,192,77824,1,2,0:0:0:0:
192,192,77903,1,0,0:0:0:50:S2.wav
320,192,77903,1,0,0:0:0:0:
64,192,77981,1,0,0:0:0:50:S2.wav
192,192,78060,1,4,0:0:0:0:
320,192,78060,1,2,0:0:0:0:
448,192,78060,1,0,0:0:0:0:
64,192,78138,1,0,0:0:0:50:S2.wav
320,192,78217,1,0,0:0:0:50:S2.wav
192,192,78295,1,2,0:0:0:0:
448,192,78295,1,4,0:0:0:0:
64,192,78374,1,0,0:0:0:50:S2.wav
320,192,78374,1,0,0:0:0:0:
192,192,78452,1,0,0:0:0:50:S2.wav
64,192,78531,1,4,0:0:0:0:
320,192,78531,1,2,0:0:0:0:
448,192,78531,1,0,0:0:0:0:
192,192,78688,1,2,0:0:0:0:
64,192,78727,1,2,0:0:0:0:
320,192,78767,1,2,0:0:0:0:
448,192,78806,1,2,0:0:0:0:
64,192,78845,1,2,0:0:0:0:
192,192,78845,1,4,0:0:0:0:
320,192,79002,1,2,0:0:0:0:
448,192,79041,1,2,0:0:0:0:
192,192,79081,1,2,0:0:0:0:
64,192,79120,1,2,0:0:0:0:
320,192,79159,1,6,0:0:0:0:
448,192,79159,1,0,0:0:0:100:push_scratch.wav
192,192,79238,1,0,0:0:0:0:
320,192,79316,1,0,0:0:0:0:
64,192,79395,1,0,0:0:0:0:
192,192,79395,1,0,0:0:0:0:
448,192,79473,1,0,0:0:0:50:S2.wav
320,192,79552,1,0,0:0:0:0:
64,192,79630,1,0,0:0:0:0:
192,192,79630,1,0,0:0:0:0:
448,192,79709,1,0,0:0:0:0:
64,192,79788,1,0,0:0:0:50:S2.wav
192,192,79866,1,0,0:0:0:0:
320,192,79866,1,0,0:0:0:0:
448,192,79945,1,0,0:0:0:0:
64,192,80023,1,0,0:0:0:0:
192,192,80102,1,0,0:0:0:50:S2.wav
320,192,80102,1,0,0:0:0:0:
448,192,80180,1,0,0:0:0:0:
64,192,80259,1,0,0:0:0:0:
320,192,80259,1,0,0:0:0:0:
192,192,80337,1,0,0:0:0:0:
320,192,80416,1,0,0:0:0:50:S2.wav
448,192,80416,1,0,0:0:0:0:
64,192,80494,1,0,0:0:0:0:
192,192,80573,1,0,0:0:0:0:
320,192,80651,1,0,0:0:0:0:
448,192,80651,1,0,0:0:0:0:
64,192,80730,1,0,0:0:0:50:S2.wav
448,192,80808,1,0,0:0:0:0:
192,192,80887,1,0,0:0:0:0:
320,192,80887,1,0,0:0:0:0:
64,192,80966,1,0,0:0:0:0:
448,192,81044,1,0,0:0:0:50:S2.wav
192,192,81123,1,0,0:0:0:0:
320,192,81123,1,0,0:0:0:0:
64,192,81201,1,0,0:0:0:0:
320,192,81280,1,0,0:0:0:0:
192,192,81358,1,0,0:0:0:50:S2.wav
448,192,81358,1,0,0:0:0:0:
64,192,81437,1,0,0:0:0:0:
320,192,81515,1,0,0:0:0:0:
448,192,81515,1,0,0:0:0:0:
192,192,81594,1,0,0:0:0:0:
64,192,81672,1,2,0:0:0:0:
320,192,81672,1,4,0:0:0:0:
448,192,81672,1,0,0:0:0:0:
192,192,81751,1,0,0:0:0:0:
320,192,81829,1,0,0:0:0:0:
64,192,81908,1,0,0:0:0:0:
448,192,81908,1,0,0:0:0:0:
192,192,81986,1,0,0:0:0:50:S2.wav
448,192,82065,1,0,0:0:0:0:
192,192,82144,1,0,0:0:0:0:
320,192,82144,1,0,0:0:0:0:
64,192,82222,1,0,0:0:0:0:
448,192,82301,1,0,0:0:0:50:S2.wav
192,192,82379,1,0,0:0:0:0:
320,192,82379,1,0,0:0:0:0:
64,192,82458,1,0,0:0:0:0:
448,192,82458,1,0,0:0:0:0:
320,192,82536,1,0,0:0:0:0:
64,192,82615,1,0,0:0:0:50:S2.wav
192,192,82615,1,0,0:0:0:0:
448,192,82693,1,0,0:0:0:0:
192,192,82772,1,0,0:0:0:0:
320,192,82772,1,0,0:0:0:0:
64,192,82850,1,0,0:0:0:0:
192,192,82929,1,2,0:0:0:0:
320,192,82929,1,4,0:0:0:0:
448,192,82929,1,0,0:0:0:0:
64,192,83007,1,0,0:0:0:0:
448,192,83086,1,0,0:0:0:0:
192,192,83164,1,0,0:0:0:0:
320,192,83164,1,0,0:0:0:0:
64,192,83243,1,0,0:0:0:50:S2.wav
320,192,83322,1,0,0:0:0:0:
64,192,83400,1,0,0:0:0:0:
448,192,83400,1,0,0:0:0:0:
192,192,83479,1,0,0:0:0:0:
320,192,83557,1,0,0:0:0:50:S2.wav
64,192,83636,1,0,0:0:0:0:
448,192,83636,1,0,0:0:0:0:
192,192,83714,1,2,0:0:0:0:
320,192,83714,1,0,0:0:0:0:
64,192,83793,1,2,0:0:0:0:
448,192,83793,1,0,0:0:0:0:
192,192,83871,1,2,0:0:0:0:
320,192,83911,1,2,0:0:0:0:
448,192,83950,1,2,0:0:0:0:
64,192,83989,1,2,0:0:0:0:
192,192,84028,1,2,0:0:0:0:
320,192,84028,1,0,0:0:0:0:
448,192,84107,1,0,0:0:0:0:
64,192,84185,1,2,0:0:0:0:
192,192,84185,1,4,0:0:0:0:
320,192,84185,1,0,0:0:0:0:
448,192,84264,1,0,0:0:0:0:
320,192,84343,1,0,0:0:0:50:S2.wav
192,192,84343,1,0,0:0:0:0:
64,192,84421,1,0,0:0:0:0:
320,192,84500,1,8,0:0:0:0:
448,192,84500,1,0,0:0:0:0:
192,192,84578,1,0,0:0:0:0:
64,192,84657,1,0,0:0:0:50:S2.wav
448,192,84657,1,0,0:0:0:0:
320,192,84735,1,0,0:0:0:0:
64,192,84814,1,4,0:0:0:0:
192,192,84814,1,2,0:0:0:0:
448,192,84814,1,0,0:0:0:0:
320,192,84892,1,0,0:0:0:50:S2.wav
64,192,84971,1,0,0:0:0:50:S2.wav
192,192,84971,1,0,0:0:0:0:
448,192,85049,1,0,0:0:0:0:
192,192,85128,1,8,0:0:0:0:
320,192,85128,1,0,0:0:0:0:
64,192,85206,1,0,0:0:0:50:S2.wav
320,192,85285,1,0,0:0:0:0:
448,192,85285,1,0,0:0:0:0:
192,192,85363,1,0,0:0:0:50:S2.wav
64,192,85442,1,4,0:0:0:0:
320,192,85442,1,2,0:0:0:0:
448,192,85442,1,0,0:0:0:0:
192,192,85521,1,0,0:0:0:0:
320,192,85599,1,0,0:0:0:50:S2.wav
64,192,85678,1,0,0:0:0:0:
192,192,85756,1,8,0:0:0:0:
320,192,85756,1,4,0:0:0:0:
448,192,85756,1,0,0:0:0:0:
64,192,85835,1,0,0:0:0:0:
448,192,85913,1,0,0:0:0:50:S2.wav
320,192,85992,1,0,0:0:0:0:
64,192,86070,1,4,0:0:0:0:
192,192,86070,1,2,0:0:0:0:
448,192,86070,1,0,0:0:0:0:
320,192,86149,1,0,0:0:0:0:
64,192,86227,1,8,0:0:0:0:
192,192,86227,1,4,0:0:0:0:
448,192,86306,1,0,0:0:0:0:
192,192,86384,1,12,0:0:0:0:
64,192,86424,1,8,0:0:0:0:
448,192,86463,1,8,0:0:0:0:
320,192,86502,1,8,0:0:0:0:
64,192,86541,1,8,0:0:0:0:
192,192,86541,1,4,0:0:0:0:
320,192,86620,1,8,0:0:0:0:
64,192,86699,1,2,0:0:0:0:
192,192,86699,1,4,0:0:0:0:
448,192,86699,1,0,0:0:0:0:
64,192,86934,1,2,0:0:0:0:
192,192,86934,1,4,0:0:0:0:
320,192,86934,1,0,0:0:0:0:
64,192,87170,1,4,0:0:0:0:
192,192,87170,1,2,0:0:0:0:
448,192,87170,1,0,0:0:0:0:
192,192,87405,1,2,0:0:0:0:
320,192,87405,1,4,0:0:0:0:
448,192,87405,1,0,0:0:0:0:
64,192,87641,1,4,0:0:0:0:
320,192,87641,1,2,0:0:0:0:
448,192,87641,1,0,0:0:0:0:
64,192,87798,1,0,0:0:0:50:S2.wav
192,192,87798,1,0,0:0:0:0:
448,192,87798,1,0,0:0:0:0:
192,192,87955,1,2,0:0:0:0:
320,192,87955,1,4,0:0:0:0:
448,192,87955,1,0,0:0:0:0:
64,192,88191,1,4,0:0:0:0:
320,192,88191,1,2,0:0:0:0:
448,192,88191,1,0,0:0:0:0:
320,192,88426,1,2,0:0:0:0:
192,192,88426,1,4,0:0:0:0:
448,192,88426,1,0,0:0:0:0:
64,192,88583,1,0,0:0:0:0:
192,192,88662,1,0,0:0:0:0:
320,192,88740,128,0,88819:0:0:0:50:S2.wav
448,192,88740,128,0,88819:0:0:0:0:
192,192,88819,128,0,88897:0:0:0:50:S2.wav
64,192,88897,128,0,88976:0:0:0:50:S2.wav
448,192,88897,128,0,88976:0:0:0:0:
320,192,88976,128,0,89055:0:0:0:50:S2.wav
64,192,89055,128,0,89133:0:0:0:50:S2.wav
192,192,89055,128,0,89133:0:0:0:0:
448,192,89133,128,0,89212:0:0:0:50:S2.wav
64,192,89212,128,4,89369:0:0:0:0:
192,192,89212,128,2,89369:0:0:0:0:
320,192,89212,128,0,89369:0:0:0:0:
64,192,89447,128,4,89604:0:0:0:0:
320,192,89447,128,2,89604:0:0:0:0:
448,192,89447,128,0,89604:0:0:0:0:
64,192,89683,128,2,89840:0:0:0:0:
192,192,89683,128,4,89840:0:0:0:0:
448,192,89683,128,0,89840:0:0:0:0:
192,192,89918,128,2,90075:0:0:0:0:
64,192,89918,128,0,90075:0:0:0:0:
320,192,89997,128,2,90075:0:0:0:0:
448,192,89997,128,0,90075:0:0:0:0:
192,192,90154,128,2,90233:0:0:0:0:
320,192,90154,128,4,90233:0:0:0:0:
64,192,90311,128,4,90390:0:0:0:0:
192,192,90311,128,2,90390:0:0:0:0:
64,192,90468,128,4,90625:0:0:0:0:
320,192,90468,128,2,90625:0:0:0:0:
448,192,90468,128,0,90625:0:0:0:0:
64,192,90704,128,2,90861:0:0:0:0:
192,192,90704,128,4,90861:0:0:0:0:
320,192,90704,128,0,90861:0:0:0:0:
64,192,90939,128,2,91096:0:0:0:0:
320,192,90939,128,4,91096:0:0:0:0:
448,192,90939,128,0,91096:0:0:0:0:
448,192,91175,128,4,91332:0:0:0:0:
320,192,91175,128,2,91332:0:0:0:0:
192,192,91253,128,2,91332:0:0:0:0:
64,192,91253,128,0,91332:0:0:0:0:
64,192,91411,128,2,91489:0:0:0:0:
320,192,91411,128,4,91489:0:0:0:0:
192,192,91568,128,4,91646:0:0:0:0:
448,192,91568,128,2,91646:0:0:0:0:
64,192,91725,1,2,0:0:0:0:
192,192,91725,1,4,0:0:0:0:
320,192,91725,1,0,0:0:0:100:push_scratch.wav
448,192,91725,1,0,0:0:0:0:
448,192,92039,128,0,92117:0:0:0:0:
320,192,92117,128,0,92196:0:0:0:0:
192,192,92196,128,0,92274:0:0:0:0:
64,192,92274,128,0,92432:0:0:0:0:
448,192,92353,128,0,92432:0:0:0:0:
320,192,92432,128,0,92510:0:0:0:0:
192,192,92510,128,0,92589:0:0:0:0:
64,192,92589,128,0,92746:0:0:0:0:
448,192,92667,128,0,92746:0:0:0:0:
320,192,92746,128,0,92824:0:0:0:0:
192,192,92824,128,0,92903:0:0:0:0:
64,192,92903,128,0,92981:0:0:0:0:
320,192,92981,128,0,93060:0:0:0:0:
448,192,92981,128,0,93217:0:0:0:0:
64,192,93138,128,0,93374:0:0:0:0:
192,192,93138,128,0,93217:0:0:0:0:
320,192,93295,128,0,93374:0:0:0:0:
448,192,93295,128,0,93531:0:0:0:0:
64,192,93452,128,0,93688:0:0:0:0:
192,192,93452,128,0,93531:0:0:0:0:
448,192,93610,128,0,93688:0:0:0:0:
320,192,93688,128,0,93767:0:0:0:0:
192,192,93767,128,0,93845:0:0:0:0:
64,192,93845,128,0,93924:0:0:0:0:
448,192,93924,1,0,0:0:0:100:S1.wav
320,192,93963,1,0,0:0:0:0:
192,192,94002,1,0,0:0:0:0:
64,192,94041,1,0,0:0:0:0:
448,192,94081,1,0,0:0:0:0:
320,192,94120,1,0,0:0:0:0:
192,192,94159,1,0,0:0:0:0:
64,192,94199,1,0,0:0:0:0:
320,192,94238,1,6,0:0:0:0:
448,192,94238,1,0,0:0:0:100:push_scratch.wav
192,192,94395,1,0,0:0:0:0:
320,192,94473,1,0,0:0:0:0:
448,192,94473,1,0,0:0:0:0:
64,192,94552,1,8,0:0:0:0:
192,192,94552,1,0,0:0:0:0:
192,192,94709,1,0,0:0:0:0:
320,192,94709,1,0,0:0:0:0:
64,192,94866,1,2,0:0:0:0:
448,192,94866,1,0,0:0:0:0:
192,192,94945,1,0,0:0:0:0:
320,192,94945,1,0,0:0:0:0:
64,192,95023,1,0,0:0:0:0:
320,192,95102,1,0,0:0:0:0:
64,192,95180,1,8,0:0:0:0:
192,192,95180,128,0,95337:0:0:0:0:
320,192,95337,1,0,0:0:0:0:
448,192,95337,128,0,95494:0:0:0:0:
64,192,95494,1,2,0:0:0:0:
192,192,95494,1,0,0:0:0:0:
320,192,95651,1,0,0:0:0:0:
64,192,95730,1,0,0:0:0:0:
192,192,95730,1,0,0:0:0:0:
320,192,95808,1,8,0:0:0:0:
448,192,95808,1,0,0:0:0:0:
192,192,95966,1,0,0:0:0:0:
320,192,95966,1,0,0:0:0:0:
64,192,96123,1,2,0:0:0:0:
448,192,96123,1,0,0:0:0:0:
192,192,96201,1,0,0:0:0:0:
320,192,96201,1,0,0:0:0:0:
448,192,96280,1,0,0:0:0:0:
192,192,96358,1,0,0:0:0:0:
64,192,96437,128,8,96594:0:0:0:0:
320,192,96437,1,0,0:0:0:0:
192,192,96594,1,0,0:0:0:0:
448,192,96594,128,0,96751:0:0:0:0:
192,192,96751,128,2,96908:0:0:0:0:
320,192,96751,1,0,0:0:0:0:
448,192,96908,1,0,0:0:0:0:
64,192,96986,128,0,97144:0:0:0:0:
192,192,96986,1,0,0:0:0:0:
320,192,97065,1,8,0:0:0:0:
448,192,97065,1,0,0:0:0:0:
192,192,97222,128,0,97379:0:0:0:0:
320,192,97222,1,0,0:0:0:0:
320,192,97379,1,2,0:0:0:0:
448,192,97379,1,0,0:0:0:0:
64,192,97458,128,0,97615:0:0:0:0:
192,192,97458,1,0,0:0:0:0:
448,192,97536,1,0,0:0:0:0:
192,192,97615,1,0,0:0:0:0:
320,192,97693,1,8,0:0:0:0:
448,192,97693,128,0,97850:0:0:0:0:
64,192,97850,128,0,98007:0:0:0:0:
192,192,97850,1,0,0:0:0:0:
320,192,98007,128,2,98164:0:0:0:0:
448,192,98007,1,0,0:0:0:0:
64,192,98164,1,0,0:0:0:0:
320,192,98243,1,0,0:0:0:0:
448,192,98243,128,0,98400:0:0:0:0:
64,192,98322,1,8,0:0:0:0:
192,192,98322,1,0,0:0:0:0:
192,192,98479,1,0,0:0:0:0:
320,192,98479,128,0,98636:0:0:0:0:
64,192,98636,1,2,0:0:0:0:
192,192,98636,1,0,0:0:0:0:
320,192,98714,1,0,0:0:0:0:
448,192,98714,128,0,98871:0:0:0:0:
64,192,98793,1,0,0:0:0:0:
192,192,98871,1,2,0:0:0:0:
320,192,98871,1,0,0:0:0:0:
64,192,98950,128,8,99107:0:0:0:0:
448,192,98950,1,0,0:0:0:0:
320,192,99107,1,2,0:0:0:0:
448,192,99107,128,0,99264:0:0:0:0:
64,192,99264,1,2,0:0:0:0:
192,192,99264,1,0,0:0:0:0:
320,192,99421,1,0,0:0:0:0:
192,192,99500,1,0,0:0:0:0:
448,192,99500,1,0,0:0:0:0:
64,192,99578,1,8,0:0:0:0:
320,192,99578,1,0,0:0:0:0:
192,192,99735,1,0,0:0:0:0:
320,192,99735,1,0,0:0:0:0:
64,192,99892,1,2,0:0:0:0:
448,192,99892,1,0,0:0:0:0:
192,192,99971,1,0,0:0:0:0:
320,192,99971,1,0,0:0:0:0:
64,192,100049,1,0,0:0:0:0:
448,192,100128,1,0,0:0:0:0:
192,192,100206,1,8,0:0:0:0:
320,192,100206,128,0,100363:0:0:0:0:
64,192,100363,128,0,100521:0:0:0:0:
448,192,100363,1,0,0:0:0:0:
192,192,100521,1,2,0:0:0:0:
320,192,100521,1,0,0:0:0:0:
448,192,100678,1,0,0:0:0:0:
192,192,100756,1,0,0:0:0:0:
320,192,100756,1,0,0:0:0:0:
64,192,100835,1,8,0:0:0:0:
448,192,100835,1,0,0:0:0:0:
64,192,100992,1,0,0:0:0:0:
192,192,100992,1,0,0:0:0:0:
320,192,101149,1,2,0:0:0:0:
448,192,101149,1,0,0:0:0:0:
64,192,101227,1,0,0:0:0:0:
192,192,101227,1,0,0:0:0:0:
448,192,101306,1,0,0:0:0:0:
320,192,101384,1,0,0:0:0:0:
64,192,101463,128,8,101620:0:0:0:0:
192,192,101463,1,0,0:0:0:0:
320,192,101620,1,2,0:0:0:0:
448,192,101620,128,0,101777:0:0:0:0:
64,192,101777,1,2,0:0:0:0:
192,192,101777,1,4,0:0:0:0:
320,192,101777,1,0,0:0:0:0:
448,192,101934,1,0,0:0:0:0:
192,192,102013,1,0,0:0:0:0:
320,192,102013,1,0,0:0:0:0:
64,192,102091,1,2,0:0:0:0:
448,192,102091,1,0,0:0:0:0:
192,192,102170,1,0,0:0:0:0:
64,192,102248,1,4,0:0:0:0:
320,192,102248,1,2,0:0:0:0:
448,192,102248,1,0,0:0:0:0:
192,192,102405,1,0,0:0:0:0:
320,192,102484,1,0,0:0:0:0:
448,192,102484,1,0,0:0:0:0:
64,192,102562,1,2,0:0:0:0:
192,192,102562,1,0,0:0:0:0:
320,192,102641,1,0,0:0:0:0:
64,192,102719,1,2,0:0:0:0:
192,192,102719,1,4,0:0:0:0:
448,192,102719,1,0,0:0:0:0:
320,192,102877,1,0,0:0:0:0:
64,192,102955,1,0,0:0:0:0:
448,192,102955,1,0,0:0:0:0:
192,192,103034,1,2,0:0:0:0:
320,192,103034,1,0,0:0:0:0:
448,192,103112,1,0,0:0:0:0:
64,192,103191,1,4,0:0:0:0:
192,192,103191,1,2,0:0:0:0:
320,192,103191,1,0,0:0:0:0:
192,192,103348,1,0,0:0:0:0:
320,192,103426,1,0,0:0:0:0:
448,192,103426,1,0,0:0:0:0:
64,192,103505,1,2,0:0:0:0:
192,192,103505,1,0,0:0:0:0:
320,192,103583,1,0,0:0:0:0:
64,192,103662,1,2,0:0:0:0:
448,192,103662,1,4,0:0:0:0:
192,192,103701,1,2,0:0:0:0:
320,192,103740,1,2,0:0:0:0:
448,192,103780,1,2,0:0:0:0:
64,192,103819,1,2,0:0:0:0:
192,192,103819,1,4,0:0:0:0:
320,192,103897,1,2,0:0:0:0:
448,192,103897,1,0,0:0:0:0:
64,192,103976,1,2,0:0:0:0:
192,192,103976,1,4,0:0:0:0:
320,192,104055,1,2,0:0:0:0:
448,192,104055,1,0,0:0:0:0:
64,192,104133,1,2,0:0:0:0:
192,192,104133,1,4,0:0:0:0:
320,192,104212,1,2,0:0:0:0:
448,192,104212,1,0,0:0:0:0:
192,192,104290,1,0,0:0:0:0:
192,192,104526,1,0,0:0:0:0:
64,192,104604,1,4,0:0:0:0:
320,192,104604,1,8,0:0:0:0:
448,192,104604,1,0,0:0:0:100:push_scratch.wav
192,192,104683,1,0,0:0:0:0:
320,192,104761,1,0,0:0:0:0:
448,192,104761,1,0,0:0:0:0:
64,192,104840,1,0,0:0:0:0:
192,192,104918,1,2,0:0:0:0:
320,192,104918,1,0,0:0:0:0:
64,192,104997,1,0,0:0:0:0:
448,192,104997,1,0,0:0:0:0:
320,192,105075,1,0,0:0:0:0:
192,192,105154,1,0,0:0:0:0:
320,192,105233,1,8,0:0:0:0:
448,192,105233,1,0,0:0:0:0:
64,192,105311,1,0,0:0:0:0:
320,192,105390,1,0,0:0:0:0:
448,192,105390,1,0,0:0:0:0:
192,192,105468,1,0,0:0:0:0:
64,192,105547,1,2,0:0:0:0:
448,192,105547,1,0,0:0:0:0:
192,192,105704,1,0,0:0:0:0:
320,192,105782,1,0,0:0:0:0:
448,192,105782,1,0,0:0:0:0:
64,192,105861,1,8,0:0:0:0:
192,192,105861,1,0,0:0:0:0:
448,192,105939,1,0,0:0:0:0:
192,192,106018,1,0,0:0:0:0:
320,192,106018,1,0,0:0:0:0:
64,192,106096,1,0,0:0:0:0:
320,192,106175,1,2,0:0:0:0:
448,192,106175,1,0,0:0:0:0:
64,192,106253,1,0,0:0:0:0:
192,192,106253,1,0,0:0:0:0:
448,192,106332,1,0,0:0:0:0:
320,192,106332,1,0,0:0:0:0:
192,192,106411,1,0,0:0:0:0:
64,192,106489,1,8,0:0:0:0:
320,192,106489,1,0,0:0:0:0:
448,192,106568,1,0,0:0:0:0:
64,192,106646,1,0,0:0:0:0:
192,192,106646,1,0,0:0:0:0:
320,192,106725,1,0,0:0:0:0:
64,192,106803,1,2,0:0:0:0:
192,192,106803,1,4,0:0:0:0:
448,192,106803,1,0,0:0:0:0:
320,192,106960,1,0,0:0:0:0:
64,192,107039,1,0,0:0:0:0:
448,192,107039,1,0,0:0:0:0:
192,192,107117,1,8,0:0:0:0:
320,192,107117,1,0,0:0:0:0:
448,192,107196,1,0,0:0:0:0:
64,192,107274,1,0,0:0:0:0:
192,192,107274,1,0,0:0:0:0:
320,192,107353,1,0,0:0:0:0:
64,192,107432,1,2,0:0:0:0:
192,192,107432,1,0,0:0:0:0:
320,192,107510,1,0,0:0:0:0:
448,192,107510,1,0,0:0:0:0:
64,192,107589,1,0,0:0:0:0:
192,192,107589,1,0,0:0:0:0:
320,192,107667,1,0,0:0:0:0:
192,192,107746,1,8,0:0:0:0:
448,192,107746,1,0,0:0:0:0:
64,192,107824,1,0,0:0:0:0:
320,192,107903,1,0,0:0:0:0:
448,192,107903,1,0,0:0:0:0:
192,192,107981,1,0,0:0:0:0:
64,192,108060,1,2,0:0:0:0:
320,192,108060,1,4,0:0:0:0:
448,192,108060,1,0,0:0:0:0:
320,192,108217,1,0,0:0:0:0:
64,192,108295,1,0,0:0:0:0:
192,192,108295,1,0,0:0:0:0:
320,192,108374,1,8,0:0:0:0:
448,192,108374,1,0,0:0:0:0:
192,192,108452,1,0,0:0:0:0:
64,192,108531,1,0,0:0:0:0:
448,192,108531,128,0,108610:0:0:0:0:
320,192,108610,1,0,0:0:0:0:
64,192,108688,1,2,0:0:0:0:
192,192,108688,1,0,0:0:0:0:
320,192,108767,128,8,108845:0:0:0:0:
448,192,108767,1,0,0:0:0:0:
64,192,108845,1,0,0:0:0:0:
192,192,108845,1,2,0:0:0:0:
448,192,108924,1,0,0:0:0:0:
64,192,109002,128,8,109081:0:0:0:0:
192,192,109002,1,0,0:0:0:0:
320,192,109081,1,0,0:0:0:0:
192,192,109159,1,2,0:0:0:0:
448,192,109159,128,0,109238:0:0:0:0:
320,192,109238,1,0,0:0:0:0:
64,192,109316,1,2,0:0:0:0:
192,192,109316,1,4,0:0:0:0:
448,192,109316,1,0,0:0:0:0:
192,192,109473,1,2,0:0:0:0:
320,192,109473,1,0,0:0:0:0:
64,192,109552,1,0,0:0:0:0:
320,192,109630,1,8,0:0:0:0:
448,192,109630,1,0,0:0:0:0:
192,192,109788,1,2,0:0:0:0:
320,192,109788,1,0,0:0:0:0:
64,192,109866,1,0,0:0:0:0:
192,192,109945,1,2,0:0:0:0:
320,192,109945,1,4,0:0:0:0:
448,192,109945,1,0,0:0:0:0:
64,192,110023,1,0,0:0:0:0:
320,192,110102,1,2,0:0:0:0:
448,192,110102,1,0,0:0:0:0:
192,192,110180,1,0,0:0:0:0:
64,192,110259,1,8,0:0:0:0:
448,192,110259,1,0,0:0:0:0:
320,192,110337,1,0,0:0:0:0:
64,192,110416,1,2,0:0:0:0:
192,192,110416,1,0,0:0:0:0:
320,192,110494,1,2,0:0:0:0:
64,192,110573,1,2,0:0:0:0:
192,192,110573,1,4,0:0:0:0:
448,192,110573,1,0,0:0:0:0:
192,192,110730,1,8,0:0:0:0:
320,192,110730,1,0,0:0:0:0:
64,192,110808,1,0,0:0:0:0:
320,192,110887,1,4,0:0:0:0:
448,192,110887,1,2,0:0:0:0:
64,192,110966,1,2,0:0:0:0:
192,192,110966,1,0,0:0:0:0:
320,192,111044,1,2,0:0:0:0:
448,192,111044,1,0,0:0:0:0:
64,192,111123,1,2,0:0:0:0:
192,192,111123,1,0,0:0:0:0:
320,192,111201,1,2,0:0:0:0:
448,192,111201,1,4,0:0:0:0:
64,192,111280,1,2,0:0:0:0:
192,192,111280,1,0,0:0:0:0:
320,192,111358,1,2,0:0:0:0:
448,192,111397,1,2,0:0:0:0:
64,192,111437,1,2,0:0:0:0:
192,192,111476,1,2,0:0:0:0:
320,192,111515,1,2,0:0:0:0:
448,192,111515,1,4,0:0:0:0:
64,192,111594,1,2,0:0:0:0:
192,192,111594,1,0,0:0:0:0:
320,192,111672,1,2,0:0:0:0:
448,192,111672,1,0,0:0:0:0:
192,192,111751,1,2,0:0:0:0:
64,192,111829,1,4,0:0:0:0:
320,192,111829,1,2,0:0:0:0:
448,192,111829,1,0,0:0:0:0:
192,192,112065,1,2,0:0:0:0:
320,192,112065,1,4,0:0:0:0:
448,192,112065,1,0,0:0:0:0:
64,192,112301,1,2,0:0:0:0:
192,192,112301,1,4,0:0:0:0:
448,192,112301,1,0,0:0:0:0:
64,192,112536,1,4,0:0:0:0:
320,192,112536,1,2,0:0:0:0:
448,192,112536,1,0,0:0:0:0:
64,192,112772,1,2,0:0:0:0:
192,192,112772,1,4,0:0:0:0:
320,192,112772,1,0,0:0:0:0:
192,192,112929,1,4,0:0:0:0:
320,192,112929,1,2,0:0:0:0:
448,192,112929,1,0,0:0:0:0:
64,192,113086,1,2,0:0:0:0:
192,192,113086,1,4,0:0:0:0:
448,192,113086,1,0,0:0:0:0:
192,192,113322,1,4,0:0:0:0:
320,192,113322,1,2,0:0:0:0:
448,192,113322,1,0,0:0:0:0:
64,192,113557,1,2,0:0:0:0:
320,192,113557,1,4,0:0:0:0:
448,192,113557,1,0,0:0:0:0:
448,192,113871,1,0,0:0:0:0:
320,192,113950,1,0,0:0:0:0:
64,192,114028,1,2,0:0:0:0:
192,192,114028,1,4,0:0:0:0:
320,192,114107,1,2,0:0:0:0:
448,192,114107,1,0,0:0:0:0:
64,192,114185,1,2,0:0:0:0:
192,192,114225,1,2,0:0:0:0:
448,192,114264,1,2,0:0:0:0:
320,192,114303,1,2,0:0:0:0:
64,192,114343,1,2,0:0:0:0:
192,192,114343,1,4,0:0:0:0:
64,192,114578,1,2,0:0:0:0:
320,192,114578,1,4,0:0:0:0:
448,192,114578,1,0,0:0:0:0:
64,192,114814,1,4,0:0:0:0:
192,192,114814,1,2,0:0:0:0:
448,192,114814,1,0,0:0:0:0:
192,192,115128,1,2,0:0:0:0:
320,192,115128,1,4,0:0:0:0:
448,192,115128,1,0,0:0:0:0:
64,192,115442,1,2,0:0:0:0:
192,192,115442,1,4,0:0:0:0:
448,192,115442,1,0,0:0:0:0:
320,192,115756,128,0,115835:0:0:0:0:
448,192,115835,128,0,115913:0:0:0:0:
192,192,115913,128,0,115992:0:0:0:0:
64,192,115992,128,0,116149:0:0:0:0:
320,192,116070,128,0,116149:0:0:0:0:
448,192,116149,128,0,116227:0:0:0:0:
192,192,116227,128,0,116306:0:0:0:0:
320,192,116306,128,0,116463:0:0:0:0:
64,192,116384,128,0,116463:0:0:0:0:
192,192,116463,128,0,116541:0:0:0:0:
448,192,116541,128,0,116620:0:0:0:0:
320,192,116620,128,0,116777:0:0:0:0:
64,192,116699,128,0,116777:0:0:0:0:
192,192,116777,128,0,116856:0:0:0:0:
64,192,117170,1,2,0:0:0:0:
320,192,117170,128,4,121882:0:0:0:0:
448,192,117170,128,0,121882:0:0:0:100:push_scratch.wav
