osu file format v14

[General]
AudioFilename: Grand_Chariot.mp3
AudioLeadIn: 0
PreviewTime: 94238
Countdown: 0
SampleSet: Soft
StackLeniency: 0.7
Mode: 3
LetterboxInBreaks: 0
SpecialStyle: 0
WidescreenStoryboard: 0

[Editor]
DistanceSpacing: 1.5
BeatDivisor: 4
GridSize: 16
TimelineZoom: 2.8

[Metadata]
Title:Grand Chariot
TitleUnicode:Grand Chariot
Artist:xi
ArtistUnicode:xi
Creator:SpectorDG
Version:Avalon's NOVICE
Source:SOUND VOLTEX III GRAVITY WARS
Tags:[ A v a l o n ] [_A_v_a_l_o_n_] ExNeko FAMoss SDVX 3 beatmania IIDX 23 copula jubeat Qubell NEW Generation natsu no ryuusei festa 2016 夏の流星フェスタ2016 HARD ART CORE Fukutomi WAVE Yusuke Ishiwata KONAMI BEMANI 24 SINOBUZ MÚSECA DanceDanceRevolution A pop'n music éclale REFLEC BEAT VOLZZA 2 Video Game Electronic Instrumental
BeatmapID:1861832
BeatmapSetID:506056

[Difficulty]
HPDrainRate:7.5
CircleSize:4
OverallDifficulty:7
ApproachRate:5
SliderMultiplier:1.4
SliderTickRate:1

[Events]
//Background and Video events
0,0,"bg.png",0,0
//Break Periods
//Storyboard Layer 0 (Background)
//Storyboard Layer 1 (Fail)
//Storyboard Layer 2 (Pass)
//Storyboard Layer 3 (Foreground)
//Storyboard Layer 4 (Overlay)
//Storyboard Sound Samples

[TimingPoints]
1254,314.13612565445,4,2,1,50,1,0
94238,-100,4,2,1,50,0,1
104290,-100,4,2,1,50,0,0
104604,-100,4,2,1,50,0,1
111829,-100,4,2,1,50,0,0

[HitObjects]
448,192,939,128,0,1254:0:0:0:0:
64,192,1254,1,2,0:0:0:0:
192,192,1254,1,4,0:0:0:0:
320,192,1489,1,2,0:0:0:0:
448,192,1489,1,4,0:0:0:0:
192,192,1725,1,0,0:0:0:0:
320,192,1882,1,0,0:0:0:0:
64,192,2039,1,0,0:0:0:0:
192,192,2196,1,0,0:0:0:0:
320,192,2353,1,0,0:0:0:0:
64,192,2510,1,4,0:0:0:0:
192,192,2510,1,2,0:0:0:0:
320,192,2746,1,4,0:0:0:0:
448,192,2746,1,2,0:0:0:0:
192,192,2981,1,0,0:0:0:0:
64,192,3138,1,0,0:0:0:0:
320,192,3295,1,2,0:0:0:0:
192,192,3452,1,2,0:0:0:0:
448,192,3610,1,2,0:0:0:0:
64,192,3767,1,2,0:0:0:0:
192,192,3767,1,4,0:0:0:0:
320,192,3924,1,0,0:0:0:0:
448,192,4081,1,0,0:0:0:0:
192,192,4238,1,0,0:0:0:0:
64,192,4395,1,2,0:0:0:0:
320,192,4395,1,4,0:0:0:0:
192,192,4630,1,4,0:0:0:0:
448,192,4630,1,2,0:0:0:0:
64,192,4866,1,2,0:0:0:0:
320,192,4866,1,4,0:0:0:0:
192,192,5180,1,4,0:0:0:0:
448,192,5180,1,2,0:0:0:0:
192,192,5337,1,2,0:0:0:0:
448,192,5337,1,4,0:0:0:0:
64,192,5651,1,4,0:0:0:0:
320,192,5651,1,2,0:0:0:0:
448,192,5808,1,6,0:0:0:0:
64,192,5966,1,2,0:0:0:0:
192,192,5966,1,4,0:0:0:0:
320,192,6123,1,4,0:0:0:0:
64,192,6280,1,2,0:0:0:0:
448,192,6280,128,4,7222:0:0:0:0:
192,192,6594,1,8,0:0:0:0:
320,192,6751,1,0,0:0:0:0:
64,192,6908,1,2,0:0:0:0:
192,192,7222,1,8,0:0:0:0:
320,192,7222,128,0,7536:0:0:0:0:
64,192,7536,128,4,8479:0:0:0:0:
448,192,7536,1,2,0:0:0:0:
320,192,7850,1,8,0:0:0:0:
192,192,8007,1,0,0:0:0:0:
448,192,8164,1,2,0:0:0:0:
192,192,8479,128,8,8793:0:0:0:0:
320,192,8479,1,0,0:0:0:0:
64,192,8793,1,2,0:0:0:0:
448,192,8793,1,4,0:0:0:0:
320,192,9028,1,4,0:0:0:0:
448,192,9028,1,2,0:0:0:0:
192,192,9264,1,2,0:0:0:0:
64,192,9421,1,4,0:0:0:0:
448,192,9421,1,2,0:0:0:0:
320,192,9657,1,2,0:0:0:0:
448,192,9657,1,4,0:0:0:0:
192,192,9892,1,2,0:0:0:0:
320,192,10049,128,2,10599:0:0:0:0:
64,192,10599,1,4,0:0:0:0:
192,192,10599,1,2,0:0:0:0:
448,192,10835,128,0,11306:0:0:0:0:
320,192,11149,128,0,11306:0:0:0:0:
64,192,11306,128,6,13819:0:0:0:0:
192,192,11306,1,0,0:0:0:100:push_scratch.wav
320,192,11620,1,8,0:0:0:0:
448,192,11934,1,8,0:0:0:0:
320,192,12248,1,8,0:0:0:0:
192,192,12562,1,8,0:0:0:0:
320,192,12877,1,8,0:0:0:0:
192,192,13191,1,8,0:0:0:0:
320,192,13505,1,8,0:0:0:0:
192,192,13819,1,8,0:0:0:0:
448,192,13819,128,2,15075:0:0:0:0:
64,192,14133,1,8,0:0:0:0:
320,192,14447,1,8,0:0:0:0:
192,192,14761,1,8,0:0:0:0:
64,192,15075,1,8,0:0:0:0:
320,192,15075,128,2,15704:0:0:0:0:
448,192,15390,1,8,0:0:0:0:
64,192,15704,1,8,0:0:0:0:
192,192,15704,128,2,16332:0:0:0:0:
448,192,16018,1,8,0:0:0:0:
64,192,16332,128,6,17589:0:0:0:0:
320,192,16332,1,8,0:0:0:0:
192,192,16646,1,10,0:0:0:0:
320,192,16960,1,10,0:0:0:0:
448,192,16960,1,4,0:0:0:0:
320,192,17274,1,10,0:0:0:0:
192,192,17589,1,10,0:0:0:0:
448,192,17589,128,4,18845:0:0:0:0:
320,192,17903,1,10,0:0:0:0:
64,192,18217,1,12,0:0:0:0:
192,192,18217,1,2,0:0:0:0:
320,192,18531,1,10,0:0:0:0:
64,192,18845,1,10,0:0:0:0:
192,192,18845,1,4,0:0:0:0:
320,192,19002,1,8,0:0:0:0:
448,192,19159,1,14,0:0:0:0:
192,192,19316,1,10,0:0:0:0:
320,192,19473,1,12,0:0:0:0:
448,192,19473,1,2,0:0:0:0:
64,192,19630,1,10,0:0:0:0:
192,192,19788,1,14,0:0:0:0:
320,192,19945,1,10,0:0:0:0:
64,192,20102,128,12,20730:0:0:0:0:
448,192,20102,128,2,20416:0:0:0:0:
320,192,20416,128,14,20730:0:0:0:0:
448,192,20730,1,12,0:0:0:0:
448,192,20887,1,14,0:0:0:0:
64,192,21044,1,0,0:0:0:100:S1.wav
192,192,21044,1,0,0:0:0:0:
320,192,21201,1,0,0:0:0:0:
64,192,21358,1,6,0:0:0:0:
448,192,21358,128,0,22615:0:0:0:100:push_scratch.wav
192,192,21672,1,2,0:0:0:0:
320,192,21986,1,2,0:0:0:0:
192,192,22301,1,2,0:0:0:0:
64,192,22615,128,2,23086:0:0:0:0:
448,192,22929,1,2,0:0:0:0:
192,192,23086,128,0,23479:0:0:0:0:
448,192,23479,128,0,23714:0:0:0:0:
64,192,23714,128,0,23871:0:0:0:0:
320,192,23871,128,2,24814:0:0:0:0:
192,192,24185,1,2,0:0:0:0:
448,192,24500,1,2,0:0:0:0:
192,192,24814,128,2,24971:0:0:0:0:
448,192,24971,128,0,25756:0:0:0:0:
64,192,25128,1,2,0:0:0:0:
320,192,25442,1,2,0:0:0:0:
64,192,25756,128,2,26070:0:0:0:0:
192,192,26070,128,2,26384:0:0:0:0:
448,192,26227,1,2,0:0:0:0:
320,192,26384,128,2,27170:0:0:0:0:
64,192,26699,1,2,0:0:0:0:
192,192,27013,1,2,0:0:0:0:
64,192,27170,1,0,0:0:0:0:
448,192,27327,1,2,0:0:0:0:
64,192,27484,1,0,0:0:0:0:
448,192,27641,128,2,28269:0:0:0:0:
320,192,27955,1,2,0:0:0:0:
192,192,28269,128,2,28897:0:0:0:0:
448,192,28583,1,2,0:0:0:0:
64,192,28740,1,2,0:0:0:0:
320,192,28897,1,2,0:0:0:0:
64,192,29055,1,0,0:0:0:0:
192,192,29212,1,2,0:0:0:0:
320,192,29369,1,0,0:0:0:0:
448,192,29526,1,2,0:0:0:0:
64,192,29683,1,0,0:0:0:0:
192,192,29840,1,2,0:0:0:0:
448,192,29997,1,2,0:0:0:0:
320,192,30154,1,2,0:0:0:0:
64,192,30311,1,2,0:0:0:0:
448,192,30468,1,2,0:0:0:0:
320,192,30625,1,2,0:0:0:0:
64,192,30782,1,2,0:0:0:0:
192,192,30782,1,0,0:0:0:0:
320,192,31018,1,2,0:0:0:0:
448,192,31018,1,0,0:0:0:0:
64,192,31253,1,2,0:0:0:0:
192,192,31253,1,0,0:0:0:0:
192,192,31725,1,6,0:0:0:0:
448,192,31725,128,0,32667:0:0:0:100:push_scratch.wav
320,192,32039,1,2,0:0:0:0:
192,192,32353,1,10,0:0:0:0:
64,192,32667,128,2,33138:0:0:0:0:
448,192,32981,1,10,0:0:0:0:
320,192,33138,128,0,33295:0:0:0:0:
192,192,33295,128,2,33531:0:0:0:0:
320,192,33531,128,0,33767:0:0:0:0:
64,192,33610,1,10,0:0:0:0:
448,192,33767,128,0,33924:0:0:0:0:
64,192,33924,128,2,34866:0:0:0:0:
320,192,34238,1,10,0:0:0:0:
192,192,34552,1,2,0:0:0:0:
320,192,34866,128,10,35023:0:0:0:0:
192,192,35023,128,0,35808:0:0:0:0:
448,192,35180,1,2,0:0:0:0:
320,192,35494,1,10,0:0:0:0:
448,192,35808,128,2,36123:0:0:0:0:
320,192,35966,1,0,0:0:0:0:
64,192,36123,128,10,36437:0:0:0:0:
192,192,36280,1,2,0:0:0:0:
320,192,36437,1,2,0:0:0:0:
448,192,36437,1,4,0:0:0:0:
64,192,36594,1,0,0:0:0:0:
192,192,36751,1,10,0:0:0:0:
448,192,36908,1,0,0:0:0:0:
320,192,37065,1,14,0:0:0:0:
64,192,37222,1,0,0:0:0:0:
448,192,37379,1,10,0:0:0:0:
64,192,37536,1,0,0:0:0:0:
320,192,37693,1,10,0:0:0:0:
448,192,37693,1,4,0:0:0:0:
192,192,37850,1,0,0:0:0:0:
320,192,38007,1,14,0:0:0:0:
64,192,38164,1,0,0:0:0:0:
192,192,38322,1,14,0:0:0:0:
448,192,38479,1,0,0:0:0:0:
320,192,38636,1,14,0:0:0:0:
192,192,38793,1,0,0:0:0:0:
64,192,38950,1,2,0:0:0:0:
448,192,38950,1,4,0:0:0:0:
448,192,39107,1,6,0:0:0:0:
192,192,39264,1,0,0:0:0:50:S2.wav
320,192,39421,1,0,0:0:0:50:S2.wav
64,192,39578,1,2,0:0:0:0:
448,192,39578,1,4,0:0:0:0:
64,192,39735,1,6,0:0:0:0:
320,192,39892,1,2,0:0:0:0:
192,192,40049,1,2,0:0:0:0:
64,192,40206,1,2,0:0:0:0:
448,192,40206,1,4,0:0:0:0:
320,192,40442,1,2,0:0:0:0:
448,192,40442,1,4,0:0:0:0:
64,192,40678,1,2,0:0:0:0:
192,192,40678,1,4,0:0:0:0:
320,192,40835,1,6,0:0:0:0:
64,192,41070,1,2,0:0:0:0:
448,192,41070,1,4,0:0:0:0:
192,192,41306,1,6,0:0:0:0:
64,192,41463,1,6,0:0:0:0:
320,192,41463,1,0,0:0:0:100:push_scratch.wav
448,192,41620,1,0,0:0:0:0:
320,192,41777,1,8,0:0:0:0:
192,192,41934,1,0,0:0:0:0:
64,192,42091,1,2,0:0:0:0:
320,192,42327,1,0,0:0:0:0:
192,192,42562,1,0,0:0:0:0:
448,192,42719,1,2,0:0:0:0:
320,192,43034,1,8,0:0:0:0:
64,192,43348,1,2,0:0:0:0:
192,192,43662,1,8,0:0:0:0:
320,192,43976,1,2,0:0:0:0:
448,192,44447,1,0,0:0:0:0:
320,192,44526,1,0,0:0:0:0:
64,192,44604,1,2,0:0:0:0:
192,192,44840,1,0,0:0:0:0:
320,192,45075,1,0,0:0:0:0:
64,192,45233,1,2,0:0:0:0:
64,192,45390,1,0,0:0:0:0:
320,192,45547,128,8,45704:0:0:0:0:
192,192,45704,128,0,45861:0:0:0:0:
448,192,45861,1,2,0:0:0:0:
448,192,46018,1,0,0:0:0:0:
192,192,46175,128,8,46332:0:0:0:0:
320,192,46332,128,2,46489:0:0:0:0:
64,192,46489,1,2,0:0:0:0:
192,192,46646,1,0,0:0:0:0:
320,192,46803,1,8,0:0:0:0:
64,192,46960,1,0,0:0:0:0:
448,192,47117,1,2,0:0:0:0:
192,192,47353,1,0,0:0:0:0:
320,192,47589,1,0,0:0:0:0:
448,192,47746,1,2,0:0:0:0:
192,192,47903,1,0,0:0:0:0:
320,192,48060,1,8,0:0:0:0:
64,192,48217,1,0,0:0:0:0:
192,192,48374,1,2,0:0:0:0:
320,192,48531,1,0,0:0:0:0:
448,192,48688,1,8,0:0:0:0:
448,192,48845,1,2,0:0:0:0:
64,192,49002,1,2,0:0:0:0:
320,192,49159,1,0,0:0:0:0:
192,192,49316,1,8,0:0:0:0:
448,192,49473,1,0,0:0:0:0:
320,192,49630,1,2,0:0:0:0:
64,192,49866,1,0,0:0:0:0:
192,192,50102,1,0,0:0:0:0:
320,192,50259,1,2,0:0:0:0:
448,192,50259,1,4,0:0:0:0:
320,192,50494,1,4,0:0:0:0:
448,192,50494,1,2,0:0:0:0:
64,192,50730,1,2,0:0:0:0:
192,192,50730,1,4,0:0:0:0:
448,192,50887,1,6,0:0:0:0:
320,192,51044,1,2,0:0:0:0:
192,192,51201,1,6,0:0:0:0:
64,192,51358,1,6,0:0:0:0:
320,192,51515,1,6,0:0:0:0:
448,192,51515,128,0,51986:0:0:0:100:push_scratch.wav
64,192,51829,1,0,0:0:0:50:S2.wav
192,192,51986,128,0,52458:0:0:0:0:
448,192,52144,1,0,0:0:0:50:S2.wav
320,192,52458,128,0,52772:0:0:0:50:S2.wav
64,192,52772,128,2,53714:0:0:0:0:
448,192,52772,1,4,0:0:0:0:
192,192,53086,1,0,0:0:0:50:S2.wav
448,192,53400,1,0,0:0:0:50:S2.wav
320,192,53714,1,0,0:0:0:50:S2.wav
192,192,53871,1,0,0:0:0:50:S2.wav
64,192,54028,1,2,0:0:0:0:
448,192,54028,128,4,54500:0:0:0:0:
192,192,54343,1,0,0:0:0:50:S2.wav
320,192,54500,128,0,54971:0:0:0:0:
64,192,54657,1,0,0:0:0:50:S2.wav
192,192,54971,128,0,55285:0:0:0:50:S2.wav
64,192,55285,128,2,55913:0:0:0:0:
448,192,55285,1,4,0:0:0:0:
320,192,55599,1,0,0:0:0:50:S2.wav
448,192,55913,1,6,0:0:0:0:
192,192,56070,1,2,0:0:0:0:
320,192,56227,1,6,0:0:0:0:
64,192,56384,1,6,0:0:0:0:
320,192,56541,1,2,0:0:0:0:
448,192,56541,1,4,0:0:0:0:
192,192,56699,1,0,0:0:0:0:
64,192,56856,1,12,0:0:0:0:
320,192,57013,1,0,0:0:0:0:
64,192,57170,1,2,0:0:0:0:
192,192,57170,1,4,0:0:0:0:
448,192,57327,1,0,0:0:0:0:
192,192,57484,1,12,0:0:0:0:
320,192,57641,1,0,0:0:0:0:
64,192,57798,1,2,0:0:0:0:
448,192,57798,1,4,0:0:0:0:
64,192,57955,1,2,0:0:0:0:
320,192,58112,1,12,0:0:0:0:
320,192,58269,1,2,0:0:0:0:
64,192,58426,1,12,0:0:0:0:
192,192,58583,1,2,0:0:0:0:
320,192,58740,1,6,0:0:0:0:
448,192,58897,1,2,0:0:0:0:
64,192,59055,128,4,59526:0:0:0:0:
192,192,59055,1,2,0:0:0:0:
448,192,59526,1,6,0:0:0:0:
320,192,59683,1,0,0:0:0:0:
192,192,59840,1,0,0:0:0:0:
320,192,59997,1,6,0:0:0:0:
192,192,60154,1,0,0:0:0:0:
64,192,60311,1,0,0:0:0:0:
192,192,60468,1,6,0:0:0:0:
320,192,60625,1,0,0:0:0:0:
448,192,60782,1,0,0:0:0:0:
320,192,60939,1,6,0:0:0:0:
192,192,61096,1,0,0:0:0:0:
320,192,61253,1,6,0:0:0:0:
192,192,61411,1,0,0:0:0:0:
448,192,61568,1,6,0:0:0:0:
320,192,61725,1,0,0:0:0:0:
64,192,61882,1,0,0:0:0:0:
192,192,62039,1,6,0:0:0:0:
320,192,62196,1,0,0:0:0:0:
64,192,62353,1,0,0:0:0:0:
448,192,62510,1,6,0:0:0:0:
320,192,62667,1,0,0:0:0:0:
192,192,62824,1,0,0:0:0:0:
320,192,62981,1,6,0:0:0:0:
64,192,63138,1,0,0:0:0:0:
192,192,63295,1,2,0:0:0:0:
320,192,63452,1,6,0:0:0:0:
448,192,63610,1,2,0:0:0:0:
320,192,63767,1,6,0:0:0:0:
192,192,63924,1,2,0:0:0:0:
64,192,64081,1,2,0:0:0:0:
448,192,64081,128,4,66594:0:0:0:0:
64,192,66594,128,0,68793:0:0:0:0:
320,192,68793,128,0,69107:0:0:0:0:
64,192,69107,128,6,71620:0:0:0:0:
192,192,69107,1,0,0:0:0:100:push_scratch.wav
320,192,71620,1,0,0:0:0:0:
192,192,71856,1,0,0:0:0:0:
448,192,72091,1,0,0:0:0:0:
320,192,72327,1,0,0:0:0:0:
64,192,72562,1,0,0:0:0:0:
192,192,72719,1,0,0:0:0:0:
320,192,72877,1,0,0:0:0:0:
448,192,73112,1,0,0:0:0:0:
192,192,73348,1,0,0:0:0:0:
64,192,73583,1,0,0:0:0:0:
320,192,73819,1,0,0:0:0:0:
192,192,73976,1,0,0:0:0:0:
64,192,74133,1,4,0:0:0:0:
448,192,74133,1,2,0:0:0:0:
320,192,74290,1,0,0:0:0:50:S2.wav
192,192,74447,1,0,0:0:0:50:S2.wav
320,192,74604,1,0,0:0:0:50:S2.wav
64,192,74761,1,0,0:0:0:50:S2.wav
192,192,74918,1,0,0:0:0:50:S2.wav
320,192,75075,1,0,0:0:0:50:S2.wav
448,192,75233,1,0,0:0:0:50:S2.wav
64,192,75390,1,4,0:0:0:0:
192,192,75390,1,2,0:0:0:0:
320,192,75547,1,0,0:0:0:50:S2.wav
64,192,75704,1,0,0:0:0:50:S2.wav
448,192,75861,1,0,0:0:0:50:S2.wav
192,192,76018,1,4,0:0:0:0:
320,192,76018,1,2,0:0:0:0:
64,192,76175,1,0,0:0:0:50:S2.wav
448,192,76332,1,0,0:0:0:50:S2.wav
320,192,76489,1,0,0:0:0:50:S2.wav
64,192,76646,1,2,0:0:0:0:
192,192,76646,1,4,0:0:0:0:
320,192,76882,1,6,0:0:0:0:
192,192,77117,1,2,0:0:0:0:
448,192,77117,1,4,0:0:0:0:
320,192,77353,1,6,0:0:0:0:
64,192,77589,1,2,0:0:0:0:
448,192,77589,1,4,0:0:0:0:
192,192,77824,1,6,0:0:0:0:
64,192,78060,1,4,0:0:0:0:
320,192,78060,1,2,0:0:0:0:
448,192,78295,1,6,0:0:0:0:
64,192,78531,1,4,0:0:0:0:
192,192,78531,1,2,0:0:0:0:
320,192,78688,1,2,0:0:0:0:
64,192,78845,1,2,0:0:0:0:
448,192,78845,1,4,0:0:0:0:
192,192,79002,1,2,0:0:0:0:
320,192,79159,1,6,0:0:0:0:
448,192,79159,1,0,0:0:0:100:push_scratch.wav
64,192,79395,1,0,0:0:0:0:
192,192,79630,1,0,0:0:0:0:
320,192,79866,1,0,0:0:0:0:
64,192,80102,1,0,0:0:0:50:S2.wav
192,192,80259,1,0,0:0:0:0:
448,192,80416,1,0,0:0:0:50:S2.wav
320,192,80651,1,0,0:0:0:0:
192,192,80887,1,0,0:0:0:0:
64,192,81123,1,0,0:0:0:0:
320,192,81358,1,0,0:0:0:50:S2.wav
192,192,81515,1,0,0:0:0:0:
64,192,81672,1,2,0:0:0:0:
448,192,81672,1,4,0:0:0:0:
320,192,81908,1,0,0:0:0:0:
64,192,82144,1,0,0:0:0:0:
192,192,82458,1,0,0:0:0:0:
320,192,82615,1,0,0:0:0:50:S2.wav
64,192,82772,1,0,0:0:0:0:
320,192,82929,1,2,0:0:0:0:
448,192,82929,1,4,0:0:0:0:
192,192,83164,1,0,0:0:0:0:
64,192,83400,1,0,0:0:0:0:
320,192,83714,1,2,0:0:0:0:
192,192,83871,1,2,0:0:0:0:
320,192,84028,1,2,0:0:0:0:
64,192,84185,1,2,0:0:0:0:
192,192,84185,1,4,0:0:0:0:
320,192,84500,1,8,0:0:0:0:
192,192,84814,1,4,0:0:0:0:
448,192,84814,1,2,0:0:0:0:
320,192,85128,1,8,0:0:0:0:
64,192,85442,1,4,0:0:0:0:
192,192,85442,1,2,0:0:0:0:
320,192,85756,1,8,0:0:0:0:
448,192,85756,1,4,0:0:0:0:
64,192,86070,1,4,0:0:0:0:
192,192,86070,1,2,0:0:0:0:
448,192,86227,1,12,0:0:0:0:
320,192,86384,1,12,0:0:0:0:
192,192,86541,1,12,0:0:0:0:
64,192,86699,1,2,0:0:0:0:
448,192,86699,1,4,0:0:0:0:
192,192,86934,1,2,0:0:0:0:
320,192,86934,1,4,0:0:0:0:
64,192,87170,1,4,0:0:0:0:
448,192,87170,1,2,0:0:0:0:
192,192,87405,1,2,0:0:0:0:
320,192,87405,1,4,0:0:0:0:
448,192,87641,1,6,0:0:0:0:
64,192,87798,1,0,0:0:0:50:S2.wav
320,192,87955,1,2,0:0:0:0:
448,192,87955,1,4,0:0:0:0:
64,192,88191,1,4,0:0:0:0:
192,192,88191,1,2,0:0:0:0:
320,192,88426,1,2,0:0:0:0:
448,192,88426,1,4,0:0:0:0:
192,192,88740,1,0,0:0:0:50:S2.wav
320,192,88897,1,0,0:0:0:50:S2.wav
64,192,89055,1,0,0:0:0:50:S2.wav
320,192,89212,1,4,0:0:0:0:
448,192,89212,128,2,90468:0:0:0:0:
192,192,89447,1,6,0:0:0:0:
320,192,89683,1,6,0:0:0:0:
192,192,89918,1,2,0:0:0:0:
320,192,90154,1,6,0:0:0:0:
320,192,90311,1,6,0:0:0:0:
64,192,90468,128,4,91725:0:0:0:0:
192,192,90468,1,2,0:0:0:0:
448,192,90704,1,6,0:0:0:0:
192,192,90939,1,6,0:0:0:0:
448,192,91175,1,6,0:0:0:0:
192,192,91411,1,6,0:0:0:0:
192,192,91568,1,6,0:0:0:0:
320,192,91725,1,6,0:0:0:0:
448,192,91725,1,0,0:0:0:100:push_scratch.wav
192,192,92039,128,0,92353:0:0:0:0:
320,192,92353,128,0,92667:0:0:0:0:
64,192,92667,128,0,92981:0:0:0:0:
448,192,92981,1,0,0:0:0:0:
320,192,93138,1,0,0:0:0:0:
192,192,93295,1,0,0:0:0:0:
64,192,93452,1,0,0:0:0:0:
320,192,93610,1,0,0:0:0:0:
448,192,93767,1,0,0:0:0:0:
64,192,93924,128,0,94238:0:0:0:100:S1.wav
192,192,93924,1,0,0:0:0:0:
320,192,94238,1,6,0:0:0:0:
448,192,94238,1,0,0:0:0:100:push_scratch.wav
192,192,94473,1,0,0:0:0:0:
320,192,94552,1,8,0:0:0:0:
64,192,94709,1,0,0:0:0:0:
320,192,94866,1,2,0:0:0:0:
192,192,94945,1,0,0:0:0:0:
64,192,95180,1,8,0:0:0:0:
448,192,95180,1,0,0:0:0:0:
320,192,95337,1,0,0:0:0:0:
192,192,95494,1,2,0:0:0:0:
192,192,95730,1,0,0:0:0:0:
320,192,95808,1,8,0:0:0:0:
64,192,95966,1,0,0:0:0:0:
320,192,96123,1,2,0:0:0:0:
192,192,96201,1,0,0:0:0:0:
64,192,96437,1,8,0:0:0:0:
448,192,96437,1,0,0:0:0:0:
192,192,96594,1,0,0:0:0:0:
320,192,96751,1,2,0:0:0:0:
320,192,96986,1,0,0:0:0:0:
192,192,97065,1,8,0:0:0:0:
448,192,97222,1,0,0:0:0:0:
192,192,97379,1,2,0:0:0:0:
320,192,97458,1,0,0:0:0:0:
64,192,97693,1,8,0:0:0:0:
448,192,97693,1,0,0:0:0:0:
192,192,97850,1,0,0:0:0:0:
320,192,98007,1,2,0:0:0:0:
320,192,98243,1,0,0:0:0:0:
192,192,98322,1,8,0:0:0:0:
448,192,98479,1,0,0:0:0:0:
192,192,98636,1,2,0:0:0:0:
320,192,98714,1,0,0:0:0:0:
64,192,98950,1,8,0:0:0:0:
448,192,98950,1,0,0:0:0:0:
320,192,99107,1,2,0:0:0:0:
192,192,99264,1,2,0:0:0:0:
448,192,99264,1,0,0:0:0:0:
192,192,99500,1,0,0:0:0:0:
320,192,99578,1,8,0:0:0:0:
64,192,99735,1,0,0:0:0:0:
320,192,99892,1,2,0:0:0:0:
192,192,99971,1,0,0:0:0:0:
64,192,100206,1,8,0:0:0:0:
448,192,100206,1,0,0:0:0:0:
320,192,100363,1,0,0:0:0:0:
192,192,100521,1,2,0:0:0:0:
192,192,100756,1,0,0:0:0:0:
320,192,100835,1,8,0:0:0:0:
64,192,100992,1,0,0:0:0:0:
320,192,101149,1,2,0:0:0:0:
192,192,101227,1,0,0:0:0:0:
64,192,101463,1,8,0:0:0:0:
448,192,101463,1,0,0:0:0:0:
320,192,101620,1,2,0:0:0:0:
64,192,101777,1,2,0:0:0:0:
192,192,101777,1,4,0:0:0:0:
448,192,102091,1,2,0:0:0:0:
192,192,102248,1,4,0:0:0:0:
320,192,102248,1,2,0:0:0:0:
64,192,102562,1,2,0:0:0:0:
192,192,102719,1,2,0:0:0:0:
320,192,102719,1,4,0:0:0:0:
448,192,103034,1,2,0:0:0:0:
64,192,103191,1,4,0:0:0:0:
192,192,103191,1,2,0:0:0:0:
320,192,103505,1,2,0:0:0:0:
192,192,103662,128,6,103976:0:0:0:0:
448,192,103976,128,6,104290:0:0:0:0:
64,192,104290,1,0,0:0:0:0:
320,192,104526,1,0,0:0:0:0:
64,192,104604,1,12,0:0:0:0:
192,192,104604,1,0,0:0:0:100:push_scratch.wav
448,192,104761,1,0,0:0:0:0:
192,192,104918,1,2,0:0:0:0:
320,192,104997,1,0,0:0:0:0:
64,192,105233,1,8,0:0:0:0:
192,192,105390,1,0,0:0:0:0:
448,192,105547,1,2,0:0:0:0:
320,192,105782,1,0,0:0:0:0:
192,192,105861,1,8,0:0:0:0:
448,192,106018,1,0,0:0:0:0:
192,192,106175,1,2,0:0:0:0:
320,192,106253,1,0,0:0:0:0:
64,192,106489,1,8,0:0:0:0:
192,192,106646,1,0,0:0:0:0:
320,192,106803,1,2,0:0:0:0:
448,192,106803,1,4,0:0:0:0:
192,192,107039,1,0,0:0:0:0:
320,192,107117,1,8,0:0:0:0:
64,192,107274,1,0,0:0:0:0:
320,192,107432,1,2,0:0:0:0:
192,192,107510,1,0,0:0:0:0:
448,192,107746,1,8,0:0:0:0:
320,192,107903,1,0,0:0:0:0:
64,192,108060,1,2,0:0:0:0:
192,192,108060,1,4,0:0:0:0:
320,192,108295,1,0,0:0:0:0:
192,192,108374,1,8,0:0:0:0:
448,192,108531,1,0,0:0:0:0:
192,192,108688,1,2,0:0:0:0:
320,192,108767,1,8,0:0:0:0:
64,192,109002,1,8,0:0:0:0:
192,192,109159,1,2,0:0:0:0:
320,192,109316,1,2,0:0:0:0:
448,192,109316,1,4,0:0:0:0:
64,192,109473,1,2,0:0:0:0:
320,192,109630,1,8,0:0:0:0:
64,192,109788,1,2,0:0:0:0:
320,192,109945,1,2,0:0:0:0:
448,192,109945,1,4,0:0:0:0:
64,192,110102,1,2,0:0:0:0:
320,192,110259,1,8,0:0:0:0:
64,192,110416,1,2,0:0:0:0:
192,192,110573,1,2,0:0:0:0:
448,192,110573,1,4,0:0:0:0:
320,192,110730,1,8,0:0:0:0:
64,192,110887,1,4,0:0:0:0:
448,192,110887,1,2,0:0:0:0:
192,192,111044,1,2,0:0:0:0:
64,192,111201,1,2,0:0:0:0:
320,192,111201,1,4,0:0:0:0:
448,192,111358,1,2,0:0:0:0:
192,192,111515,1,2,0:0:0:0:
320,192,111515,1,4,0:0:0:0:
64,192,111672,1,2,0:0:0:0:
320,192,111829,1,4,0:0:0:0:
448,192,111829,1,2,0:0:0:0:
64,192,112065,1,2,0:0:0:0:
192,192,112065,1,4,0:0:0:0:
320,192,112301,1,2,0:0:0:0:
448,192,112301,1,4,0:0:0:0:
64,192,112536,1,4,0:0:0:0:
192,192,112536,1,2,0:0:0:0:
320,192,112772,1,6,0:0:0:0:
192,192,112929,1,6,0:0:0:0:
64,192,113086,1,2,0:0:0:0:
448,192,113086,1,4,0:0:0:0:
192,192,113322,1,4,0:0:0:0:
320,192,113322,1,2,0:0:0:0:
64,192,113557,1,2,0:0:0:0:
448,192,113557,1,4,0:0:0:0:
320,192,113871,128,0,114028:0:0:0:0:
192,192,114028,128,6,114343:0:0:0:0:
64,192,114343,1,2,0:0:0:0:
448,192,114343,1,4,0:0:0:0:
320,192,114578,1,2,0:0:0:0:
448,192,114578,1,4,0:0:0:0:
64,192,114814,1,4,0:0:0:0:
192,192,114814,1,2,0:0:0:0:
192,192,115128,1,2,0:0:0:0:
320,192,115128,1,4,0:0:0:0:
320,192,115442,1,2,0:0:0:0:
448,192,115442,1,4,0:0:0:0:
64,192,115756,128,0,115913:0:0:0:0:
192,192,115913,128,0,116070:0:0:0:0:
448,192,116070,128,0,116227:0:0:0:0:
320,192,116227,128,0,116384:0:0:0:0:
192,192,116384,128,0,116541:0:0:0:0:
64,192,116541,128,0,116699:0:0:0:0:
320,192,116699,128,0,116856:0:0:0:0:
64,192,117170,128,6,121882:0:0:0:0:
448,192,117170,1,0,0:0:0:100:push_scratch.wav
