osu file format v14

[General]
AudioFilename: audio.mp3
AudioLeadIn: 0
PreviewTime: 150349
Countdown: 0
SampleSet: Normal
StackLeniency: 0.7
Mode: 3
LetterboxInBreaks: 0
SpecialStyle: 0
WidescreenStoryboard: 0

[Editor]
DistanceSpacing: 1.3
BeatDivisor: 4
GridSize: 32
TimelineZoom: 1.7

[Metadata]
Title:Glorious Crown (tpz over-Over-OVERCUTE REMIX)
TitleUnicode:Glorious Crown (tpz over-Over-OVERCUTE REMIX)
Artist:xi
ArtistUnicode:xi
Creator:Rido
Version:Kawaii Overload
Source:
Tags:
BeatmapID:1175429
BeatmapSetID:555361

[Difficulty]
HPDrainRate:9
CircleSize:4
OverallDifficulty:8.8
ApproachRate:6.9
SliderMultiplier:1.4
SliderTickRate:1

[Events]
//Background and Video events
0,0,"bg.jpg",0,0
//Break Periods
//Storyboard Layer 0 (Background)
//Storyboard Layer 1 (Fail)
//Storyboard Layer 2 (Pass)
//Storyboard Layer 3 (Foreground)
//Storyboard Sound Samples

[TimingPoints]
2868,254.479906690701,4,1,0,25,1,0

[HitObjects]
448,192,2359,5,0,0:0:0:0:
320,192,2422,1,0,0:0:0:0:
192,192,2486,1,0,0:0:0:0:
320,192,2549,1,0,0:0:0:0:
64,192,2613,1,0,0:0:0:0:
192,192,2677,1,0,0:0:0:0:
320,192,2740,1,0,0:0:0:0:
192,192,2804,1,0,0:0:0:0:
448,192,2868,1,0,0:0:0:0:
64,192,2931,1,0,0:0:0:0:
192,192,2995,1,0,0:0:0:0:
64,192,3058,1,0,0:0:0:0:
320,192,3122,1,0,0:0:0:0:
448,192,3122,1,0,0:0:0:0:
192,192,3186,1,0,0:0:0:0:
320,192,3249,1,0,0:0:0:0:
448,192,3313,1,0,0:0:0:0:
64,192,3376,1,0,0:0:0:0:
192,192,3440,1,0,0:0:0:0:
320,192,3504,1,0,0:0:0:0:
64,192,3567,1,0,0:0:0:0:
192,192,3631,1,0,0:0:0:0:
448,192,3631,1,0,0:0:0:0:
320,192,3695,1,0,0:0:0:0:
192,192,3758,1,0,0:0:0:0:
64,192,3822,1,0,0:0:0:0:
448,192,3885,1,0,0:0:0:0:
320,192,3949,1,0,0:0:0:0:
192,192,4013,1,0,0:0:0:0:
320,192,4076,1,0,0:0:0:0:
64,192,4140,1,0,0:0:0:0:
448,192,4140,1,0,0:0:0:0:
192,192,4204,1,0,0:0:0:0:
320,192,4267,1,0,0:0:0:0:
192,192,4331,1,0,0:0:0:0:
448,192,4394,1,0,0:0:0:0:
320,192,4458,1,0,0:0:0:0:
64,192,4522,1,0,0:0:0:0:
192,192,4585,1,0,0:0:0:0:
320,192,4649,1,0,0:0:0:0:
448,192,4649,1,0,0:0:0:0:
192,192,4712,1,0,0:0:0:0:
64,192,4776,1,0,0:0:0:0:
192,192,4840,1,0,0:0:0:0:
448,192,4903,1,0,0:0:0:0:
320,192,4967,1,0,0:0:0:0:
448,192,5031,1,0,0:0:0:0:
192,192,5094,1,0,0:0:0:0:
64,192,5158,1,0,0:0:0:0:
320,192,5158,1,0,0:0:0:0:
448,192,5221,1,0,0:0:0:0:
192,192,5285,1,0,0:0:0:0:
320,192,5349,1,0,0:0:0:0:
192,192,5412,1,0,0:0:0:0:
64,192,5476,1,0,0:0:0:0:
448,192,5540,1,0,0:0:0:0:
320,192,5603,1,0,0:0:0:0:
192,192,5667,1,0,0:0:0:0:
448,192,5667,1,0,0:0:0:0:
64,192,5730,1,0,0:0:0:0:
320,192,5794,1,0,0:0:0:0:
192,192,5858,1,0,0:0:0:0:
320,192,5921,1,0,0:0:0:0:
448,192,5985,1,0,0:0:0:0:
64,192,6048,1,0,0:0:0:0:
192,192,6112,1,0,0:0:0:0:
64,192,6176,1,0,0:0:0:0:
448,192,6176,1,0,0:0:0:0:
320,192,6261,1,0,0:0:0:0:
192,192,6345,1,0,0:0:0:0:
448,192,6430,1,0,0:0:0:0:
320,192,6494,1,0,0:0:0:0:
192,192,6557,1,0,0:0:0:0:
320,192,6621,1,0,0:0:0:0:
192,192,6685,1,0,0:0:0:0:
64,192,6685,1,0,0:0:0:0:
448,192,6748,1,0,0:0:0:0:
320,192,6812,1,0,0:0:0:0:
192,192,6876,1,0,0:0:0:0:
448,192,6939,1,0,0:0:0:0:
64,192,7003,1,0,0:0:0:0:
192,192,7066,1,0,0:0:0:0:
320,192,7130,1,0,0:0:0:0:
64,192,7194,1,0,0:0:0:0:
192,192,7194,1,0,0:0:0:0:
448,192,7257,1,0,0:0:0:0:
320,192,7321,1,0,0:0:0:0:
192,192,7385,1,0,0:0:0:0:
64,192,7448,1,0,0:0:0:0:
320,192,7512,1,0,0:0:0:0:
192,192,7575,1,0,0:0:0:0:
64,192,7575,1,0,0:0:0:0:
320,192,7639,1,0,0:0:0:0:
448,192,7703,1,0,0:0:0:0:
192,192,7703,1,0,0:0:0:0:
64,192,7766,1,0,0:0:0:0:
320,192,7830,1,0,0:0:0:0:
448,192,7893,1,0,0:0:0:0:
192,192,7957,1,0,0:0:0:0:
64,192,7957,1,0,0:0:0:0:
320,192,8021,1,0,0:0:0:0:
64,192,8084,1,0,0:0:0:0:
192,192,8148,1,0,0:0:0:0:
320,192,8212,1,0,0:0:0:0:
448,192,8212,1,0,0:0:0:0:
64,192,8275,1,0,0:0:0:0:
192,192,8339,1,0,0:0:0:0:
448,192,8339,1,0,0:0:0:0:
320,192,8402,1,0,0:0:0:0:
192,192,8466,1,0,0:0:0:0:
64,192,8530,1,0,0:0:0:0:
320,192,8593,1,0,0:0:0:0:
448,192,8593,1,0,0:0:0:0:
192,192,8657,1,0,0:0:0:0:
64,192,8721,1,0,0:0:0:0:
448,192,8721,1,0,0:0:0:0:
320,192,8784,1,0,0:0:0:0:
192,192,8848,1,0,0:0:0:0:
64,192,8911,1,0,0:0:0:0:
320,192,8975,1,0,0:0:0:0:
448,192,8975,1,0,0:0:0:0:
192,192,9039,1,0,0:0:0:0:
320,192,9102,1,0,0:0:0:0:
448,192,9166,1,0,0:0:0:0:
192,192,9229,1,0,0:0:0:0:
64,192,9229,1,0,0:0:0:0:
320,192,9293,1,0,0:0:0:0:
192,192,9357,1,0,0:0:0:0:
320,192,9420,1,0,0:0:0:0:
448,192,9484,1,0,0:0:0:0:
64,192,9548,1,0,0:0:0:0:
192,192,9611,1,0,0:0:0:0:
448,192,9611,1,0,0:0:0:0:
320,192,9675,1,0,0:0:0:0:
192,192,9738,1,0,0:0:0:0:
64,192,9738,1,0,0:0:0:0:
320,192,9802,1,0,0:0:0:0:
448,192,9866,1,0,0:0:0:0:
64,192,9866,1,0,0:0:0:0:
192,192,9929,1,0,0:0:0:0:
320,192,9993,1,0,0:0:0:0:
448,192,9993,1,0,0:0:0:0:
64,192,10057,1,0,0:0:0:0:
192,192,10120,1,0,0:0:0:0:
448,192,10120,1,0,0:0:0:0:
320,192,10184,1,0,0:0:0:0:
192,192,10247,1,0,0:0:0:0:
64,192,10247,1,0,0:0:0:0:
448,192,10311,1,0,0:0:0:0:
320,192,10375,1,0,0:0:0:0:
64,192,10375,1,0,0:0:0:0:
192,192,10438,1,0,0:0:0:0:
320,192,10502,1,0,0:0:0:0:
448,192,10502,1,0,0:0:0:0:
192,192,10566,1,0,0:0:0:0:
64,192,10629,1,0,0:0:0:0:
320,192,10629,1,0,0:0:0:0:
448,192,10693,1,0,0:0:0:0:
192,192,10756,1,0,0:0:0:0:
64,192,10756,1,0,0:0:0:0:
320,192,10820,1,0,0:0:0:0:
192,192,10884,1,0,0:0:0:0:
320,192,10947,1,0,0:0:0:0:
64,192,11011,1,0,0:0:0:0:
448,192,11011,1,0,0:0:0:0:
192,192,11074,1,0,0:0:0:0:
320,192,11138,1,0,0:0:0:0:
192,192,11202,1,0,0:0:0:0:
320,192,11265,1,0,0:0:0:0:
448,192,11265,1,0,0:0:0:0:
64,192,11329,1,0,0:0:0:0:
192,192,11393,1,0,0:0:0:0:
448,192,11456,1,0,0:0:0:0:
320,192,11520,1,0,0:0:0:0:
192,192,11583,1,0,0:0:0:0:
64,192,11647,1,0,0:0:0:0:
320,192,11647,1,0,0:0:0:0:
448,192,11711,1,0,0:0:0:0:
192,192,11774,1,0,0:0:0:0:
64,192,11774,1,0,0:0:0:0:
320,192,11838,1,0,0:0:0:0:
192,192,11902,1,0,0:0:0:0:
64,192,11965,1,0,0:0:0:0:
320,192,12029,1,0,0:0:0:0:
448,192,12029,1,0,0:0:0:0:
192,192,12092,1,0,0:0:0:0:
64,192,12156,1,0,0:0:0:0:
448,192,12220,1,0,0:0:0:0:
320,192,12283,1,0,0:0:0:0:
192,192,12283,1,0,0:0:0:0:
64,192,12347,1,0,0:0:0:0:
320,192,12410,1,0,0:0:0:0:
448,192,12410,1,0,0:0:0:0:
192,192,12474,1,0,0:0:0:0:
320,192,12538,1,0,0:0:0:0:
64,192,12601,1,0,0:0:0:0:
192,192,12665,1,0,0:0:0:0:
448,192,12665,1,0,0:0:0:0:
320,192,12729,1,0,0:0:0:0:
64,192,12792,1,0,0:0:0:0:
448,192,12792,1,0,0:0:0:0:
192,192,12856,1,0,0:0:0:0:
320,192,12919,1,0,0:0:0:0:
192,192,12983,1,0,0:0:0:0:
64,192,13047,1,0,0:0:0:0:
320,192,13047,1,0,0:0:0:0:
448,192,13110,1,0,0:0:0:0:
192,192,13174,1,0,0:0:0:0:
320,192,13238,1,0,0:0:0:0:
192,192,13301,1,0,0:0:0:0:
64,192,13301,1,0,0:0:0:0:
448,192,13365,1,0,0:0:0:0:
320,192,13428,1,0,0:0:0:0:
192,192,13492,1,0,0:0:0:0:
320,192,13556,1,0,0:0:0:0:
64,192,13619,1,0,0:0:0:0:
192,192,13683,1,0,0:0:0:0:
448,192,13683,1,0,0:0:0:0:
320,192,13747,1,0,0:0:0:0:
192,192,13810,1,0,0:0:0:0:
64,192,13810,1,0,0:0:0:0:
448,192,13874,1,0,0:0:0:0:
320,192,13937,1,0,0:0:0:0:
192,192,13937,1,0,0:0:0:0:
64,192,14001,1,0,0:0:0:0:
320,192,14065,1,0,0:0:0:0:
448,192,14065,1,0,0:0:0:0:
192,192,14128,1,0,0:0:0:0:
64,192,14192,1,0,0:0:0:0:
320,192,14192,1,0,0:0:0:0:
448,192,14255,1,0,0:0:0:0:
192,192,14319,1,0,0:0:0:0:
64,192,14319,1,0,0:0:0:0:
448,192,14404,1,0,0:0:0:0:
320,192,14446,1,0,0:0:0:0:
192,192,14446,1,0,0:0:0:0:
64,192,14489,1,0,0:0:0:0:
320,192,14574,1,0,0:0:0:0:
448,192,14574,1,0,0:0:0:0:
192,192,14637,1,0,0:0:0:0:
320,192,14701,1,0,0:0:0:0:
448,192,14701,1,0,0:0:0:0:
192,192,14764,1,0,0:0:0:0:
64,192,14828,1,0,0:0:0:0:
448,192,14828,1,0,0:0:0:0:
320,192,14892,1,0,0:0:0:0:
192,192,14955,1,0,0:0:0:0:
64,192,15019,1,0,0:0:0:0:
320,192,15083,1,0,0:0:0:0:
448,192,15083,1,0,0:0:0:0:
192,192,15146,1,0,0:0:0:0:
448,192,15210,1,0,0:0:0:0:
320,192,15273,1,0,0:0:0:0:
192,192,15337,1,0,0:0:0:0:
64,192,15337,1,0,0:0:0:0:
320,192,15401,1,0,0:0:0:0:
448,192,15464,1,0,0:0:0:0:
64,192,15528,1,0,0:0:0:0:
192,192,15591,1,0,0:0:0:0:
320,192,15655,1,0,0:0:0:0:
64,192,15719,1,0,0:0:0:0:
448,192,15719,1,0,0:0:0:0:
192,192,15782,1,0,0:0:0:0:
320,192,15846,1,0,0:0:0:0:
448,192,15846,1,0,0:0:0:0:
64,192,15910,1,0,0:0:0:0:
192,192,15973,1,0,0:0:0:0:
320,192,16037,1,0,0:0:0:0:
192,192,16100,1,0,0:0:0:0:
64,192,16100,1,0,0:0:0:0:
448,192,16164,1,0,0:0:0:0:
320,192,16228,1,0,0:0:0:0:
192,192,16291,1,0,0:0:0:0:
64,192,16355,1,0,0:0:0:0:
320,192,16355,1,0,0:0:0:0:
448,192,16419,1,0,0:0:0:0:
192,192,16482,1,0,0:0:0:0:
64,192,16482,1,0,0:0:0:0:
320,192,16546,1,0,0:0:0:0:
448,192,16609,1,0,0:0:0:0:
64,192,16673,1,0,0:0:0:0:
192,192,16737,1,0,0:0:0:0:
320,192,16737,1,0,0:0:0:0:
448,192,16800,1,0,0:0:0:0:
192,192,16864,1,0,0:0:0:0:
64,192,16864,1,0,0:0:0:0:
320,192,16928,1,0,0:0:0:0:
192,192,16991,1,0,0:0:0:0:
320,192,17055,1,0,0:0:0:0:
64,192,17118,1,0,0:0:0:0:
448,192,17118,1,0,0:0:0:0:
192,192,17182,1,0,0:0:0:0:
320,192,17246,1,0,0:0:0:0:
448,192,17309,1,0,0:0:0:0:
192,192,17373,1,0,0:0:0:0:
64,192,17373,1,0,0:0:0:0:
320,192,17436,1,0,0:0:0:0:
448,192,17500,1,0,0:0:0:0:
192,192,17564,1,0,0:0:0:0:
320,192,17627,1,0,0:0:0:0:
64,192,17691,1,0,0:0:0:0:
192,192,17755,1,0,0:0:0:0:
448,192,17755,1,0,0:0:0:0:
320,192,17818,1,0,0:0:0:0:
192,192,17882,1,0,0:0:0:0:
64,192,17882,1,0,0:0:0:0:
448,192,17945,1,0,0:0:0:0:
320,192,18009,1,0,0:0:0:0:
64,192,18009,1,0,0:0:0:0:
192,192,18073,1,0,0:0:0:0:
320,192,18136,1,0,0:0:0:0:
448,192,18136,1,0,0:0:0:0:
192,192,18200,1,0,0:0:0:0:
64,192,18200,1,0,0:0:0:0:
320,192,18264,1,0,0:0:0:0:
448,192,18264,1,0,0:0:0:0:
192,192,18327,1,0,0:0:0:0:
64,192,18327,1,0,0:0:0:0:
320,192,18391,1,0,0:0:0:0:
448,192,18391,1,0,0:0:0:0:
192,192,18454,1,0,0:0:0:0:
64,192,18454,1,0,0:0:0:0:
320,192,18518,1,0,0:0:0:0:
448,192,18518,1,0,0:0:0:0:
192,192,18582,1,0,0:0:0:0:
448,192,18645,1,0,0:0:0:0:
64,192,18645,1,0,0:0:0:0:
320,192,18645,128,0,18772:0:0:0:0:
192,192,18772,128,0,18900:0:0:0:0:
448,192,18900,128,0,19027:0:0:0:0:
320,192,19027,128,0,19154:0:0:0:0:
64,192,19154,128,0,19663:0:0:0:0:
192,192,19154,1,0,0:0:0:0:
448,192,19154,1,0,0:0:0:0:
320,192,19409,1,0,0:0:0:0:
320,192,19663,1,0,0:0:0:0:
192,192,19790,128,0,19918:0:0:0:0:
320,192,19918,128,0,20045:0:0:0:0:
64,192,19918,1,0,0:0:0:0:
448,192,20045,128,0,20172:0:0:0:0:
192,192,20172,1,0,0:0:0:0:
320,192,20172,128,0,20427:0:0:0:0:
192,192,20427,128,0,20681:0:0:0:0:
64,192,20427,1,0,0:0:0:0:
448,192,20681,128,0,20936:0:0:0:0:
320,192,20681,1,0,0:0:0:0:
64,192,20936,128,0,21190:0:0:0:0:
192,192,20936,1,0,0:0:0:0:
448,192,21190,128,0,21699:0:0:0:0:
320,192,21190,1,0,0:0:0:0:
320,192,21445,1,0,0:0:0:0:
192,192,21699,1,0,0:0:0:0:
64,192,21953,1,0,0:0:0:0:
448,192,21953,128,0,22081:0:0:0:0:
192,192,22081,128,0,22208:0:0:0:0:
64,192,22208,128,0,22462:0:0:0:0:
320,192,22208,1,0,0:0:0:0:
448,192,22462,1,0,0:0:0:0:
320,192,22462,1,0,0:0:0:0:
192,192,22547,1,0,0:0:0:0:
320,192,22632,1,0,0:0:0:0:
192,192,22717,1,0,0:0:0:0:
64,192,22717,128,0,22971:0:0:0:0:
192,192,22971,128,0,23226:0:0:0:0:
320,192,22971,1,0,0:0:0:0:
320,192,23226,128,0,23480:0:0:0:0:
448,192,23226,1,0,0:0:0:0:
448,192,23480,128,0,23735:0:0:0:0:
64,192,23480,1,0,0:0:0:0:
192,192,23735,128,0,23989:0:0:0:0:
320,192,23735,1,0,0:0:0:0:
320,192,23989,128,0,24244:0:0:0:0:
64,192,23989,1,0,0:0:0:0:
64,192,24244,128,0,24626:0:0:0:0:
448,192,24244,1,0,0:0:0:0:
192,192,24498,1,0,0:0:0:0:
320,192,24626,128,0,24753:0:0:0:0:
192,192,24753,128,0,24880:0:0:0:0:
448,192,24753,1,0,0:0:0:0:
320,192,24880,128,0,25007:0:0:0:0:
448,192,25007,128,0,25134:0:0:0:0:
64,192,25007,1,0,0:0:0:0:
192,192,25134,128,0,25262:0:0:0:0:
64,192,25262,128,0,25516:0:0:0:0:
320,192,25262,1,0,0:0:0:0:
448,192,25516,128,0,25771:0:0:0:0:
192,192,25516,1,0,0:0:0:0:
320,192,25771,128,0,26025:0:0:0:0:
64,192,25771,1,0,0:0:0:0:
192,192,26025,128,0,26280:0:0:0:0:
448,192,26025,1,0,0:0:0:0:
64,192,26280,128,0,26789:0:0:0:0:
448,192,26280,1,0,0:0:0:0:
320,192,26534,1,0,0:0:0:0:
192,192,26661,1,0,0:0:0:0:
320,192,26725,1,0,0:0:0:0:
448,192,26789,128,0,27298:0:0:0:0:
192,192,26789,1,0,0:0:0:0:
64,192,27043,1,0,0:0:0:0:
64,192,27298,1,0,0:0:0:0:
320,192,27298,1,0,0:0:0:0:
192,192,27298,1,0,0:0:0:0:
320,192,27552,1,0,0:0:0:0:
448,192,27552,1,0,0:0:0:0:
448,192,27807,1,0,0:0:0:0:
192,192,27807,1,0,0:0:0:0:
64,192,28061,1,0,0:0:0:0:
320,192,28061,1,0,0:0:0:0:
192,192,28188,1,0,0:0:0:0:
64,192,28188,1,0,0:0:0:0:
320,192,28315,1,0,0:0:0:0:
448,192,28315,1,0,0:0:0:0:
320,192,28570,1,0,0:0:0:0:
192,192,28570,1,0,0:0:0:0:
320,192,28824,1,0,0:0:0:0:
64,192,28824,1,0,0:0:0:0:
192,192,29079,1,0,0:0:0:0:
64,192,29079,1,0,0:0:0:0:
320,192,29206,1,0,0:0:0:0:
448,192,29206,1,0,0:0:0:0:
192,192,29206,1,0,0:0:0:0:
64,192,29333,1,0,0:0:0:0:
320,192,29333,1,0,0:0:0:0:
448,192,29333,1,0,0:0:0:0:
192,192,29588,1,0,0:0:0:0:
448,192,29588,1,0,0:0:0:0:
192,192,29842,1,0,0:0:0:0:
320,192,29842,1,0,0:0:0:0:
64,192,29842,1,0,0:0:0:0:
448,192,30033,1,0,0:0:0:0:
320,192,30033,1,0,0:0:0:0:
64,192,30033,1,0,0:0:0:0:
192,192,30097,1,0,0:0:0:0:
448,192,30224,1,0,0:0:0:0:
320,192,30224,1,0,0:0:0:0:
192,192,30224,1,0,0:0:0:0:
64,192,30351,1,0,0:0:0:0:
320,192,30351,1,0,0:0:0:0:
448,192,30351,1,0,0:0:0:0:
192,192,30479,1,0,0:0:0:0:
448,192,30479,1,0,0:0:0:0:
320,192,30606,1,0,0:0:0:0:
192,192,30606,1,0,0:0:0:0:
64,192,30733,1,0,0:0:0:0:
320,192,30733,1,0,0:0:0:0:
192,192,30860,1,0,0:0:0:0:
64,192,30860,1,0,0:0:0:0:
448,192,30988,1,0,0:0:0:0:
64,192,30988,1,0,0:0:0:0:
320,192,31030,1,0,0:0:0:0:
192,192,31072,1,0,0:0:0:0:
64,192,31115,1,0,0:0:0:0:
448,192,31115,1,0,0:0:0:0:
64,192,31242,1,0,0:0:0:0:
192,192,31274,1,0,0:0:0:0:
448,192,31306,1,0,0:0:0:0:
320,192,31337,1,0,0:0:0:0:
192,192,31369,1,0,0:0:0:0:
64,192,31369,1,0,0:0:0:0:
64,192,31496,1,0,0:0:0:0:
192,192,31624,1,0,0:0:0:0:
320,192,31751,1,0,0:0:0:0:
448,192,31751,1,0,0:0:0:0:
448,192,31878,1,0,0:0:0:0:
192,192,31878,1,0,0:0:0:0:
192,192,32005,1,0,0:0:0:0:
320,192,32133,1,0,0:0:0:0:
320,192,32260,1,0,0:0:0:0:
64,192,32260,1,0,0:0:0:0:
64,192,32387,1,0,0:0:0:0:
192,192,32387,1,0,0:0:0:0:
448,192,32387,1,0,0:0:0:0:
320,192,32514,1,0,0:0:0:0:
192,192,32642,1,0,0:0:0:0:
192,192,32769,1,0,0:0:0:0:
64,192,32769,1,0,0:0:0:0:
320,192,32896,1,0,0:0:0:0:
448,192,32896,1,0,0:0:0:0:
64,192,33023,1,0,0:0:0:0:
448,192,33023,1,0,0:0:0:0:
192,192,33087,1,0,0:0:0:0:
320,192,33087,1,0,0:0:0:0:
192,192,33278,1,0,0:0:0:0:
64,192,33278,1,0,0:0:0:0:
320,192,33405,1,0,0:0:0:0:
448,192,33405,1,0,0:0:0:0:
64,192,33405,128,0,33914:0:0:0:0:
448,192,33532,1,0,0:0:0:0:
320,192,33660,1,0,0:0:0:0:
192,192,33660,1,0,0:0:0:0:
320,192,33787,1,0,0:0:0:0:
192,192,33914,128,0,34169:0:0:0:0:
448,192,33914,1,0,0:0:0:0:
64,192,34041,1,0,0:0:0:0:
320,192,34169,128,0,34423:0:0:0:0:
64,192,34169,1,0,0:0:0:0:
448,192,34169,1,0,0:0:0:0:
192,192,34296,1,0,0:0:0:0:
448,192,34423,128,0,34932:0:0:0:0:
192,192,34423,1,0,0:0:0:0:
64,192,34423,1,0,0:0:0:0:
320,192,34550,1,0,0:0:0:0:
192,192,34677,1,0,0:0:0:0:
64,192,34677,1,0,0:0:0:0:
192,192,34805,1,0,0:0:0:0:
320,192,34868,1,0,0:0:0:0:
64,192,34932,1,0,0:0:0:0:
192,192,34932,128,0,35186:0:0:0:0:
448,192,35059,1,0,0:0:0:0:
64,192,35059,1,0,0:0:0:0:
448,192,35186,1,0,0:0:0:0:
320,192,35186,1,0,0:0:0:0:
192,192,35314,1,0,0:0:0:0:
64,192,35314,1,0,0:0:0:0:
64,192,35441,128,0,35950:0:0:0:0:
320,192,35441,1,0,0:0:0:0:
448,192,35441,1,0,0:0:0:0:
192,192,35505,1,0,0:0:0:0:
320,192,35568,1,0,0:0:0:0:
448,192,35568,1,0,0:0:0:0:
192,192,35632,1,0,0:0:0:0:
320,192,35695,1,0,0:0:0:0:
448,192,35695,1,0,0:0:0:0:
192,192,35759,1,0,0:0:0:0:
320,192,35823,1,0,0:0:0:0:
448,192,35823,1,0,0:0:0:0:
192,192,35886,1,0,0:0:0:0:
320,192,35950,1,0,0:0:0:0:
448,192,35950,1,0,0:0:0:0:
192,192,36204,1,0,0:0:0:0:
320,192,36204,1,0,0:0:0:0:
64,192,36459,1,0,0:0:0:0:
320,192,36459,1,0,0:0:0:0:
448,192,36459,1,0,0:0:0:0:
192,192,36586,1,0,0:0:0:0:
320,192,36650,1,0,0:0:0:0:
448,192,36713,1,0,0:0:0:0:
64,192,36713,1,0,0:0:0:0:
192,192,36777,1,0,0:0:0:0:
320,192,36841,1,0,0:0:0:0:
192,192,36968,1,0,0:0:0:0:
64,192,36968,1,0,0:0:0:0:
320,192,37031,1,0,0:0:0:0:
448,192,37095,1,0,0:0:0:0:
192,192,37159,1,0,0:0:0:0:
64,192,37222,1,0,0:0:0:0:
320,192,37222,1,0,0:0:0:0:
448,192,37350,1,0,0:0:0:0:
192,192,37350,1,0,0:0:0:0:
64,192,37477,1,0,0:0:0:0:
448,192,37477,1,0,0:0:0:0:
320,192,37540,1,0,0:0:0:0:
192,192,37604,1,0,0:0:0:0:
320,192,37668,1,0,0:0:0:0:
64,192,37731,1,0,0:0:0:0:
448,192,37731,1,0,0:0:0:0:
192,192,37795,1,0,0:0:0:0:
320,192,37858,1,0,0:0:0:0:
192,192,37922,1,0,0:0:0:0:
64,192,37986,1,0,0:0:0:0:
448,192,37986,1,0,0:0:0:0:
448,192,38113,1,0,0:0:0:0:
320,192,38177,1,0,0:0:0:0:
192,192,38240,1,0,0:0:0:0:
64,192,38240,1,0,0:0:0:0:
320,192,38367,1,0,0:0:0:0:
192,192,38495,1,0,0:0:0:0:
448,192,38495,1,0,0:0:0:0:
320,192,38622,1,0,0:0:0:0:
192,192,38686,1,0,0:0:0:0:
64,192,38749,1,0,0:0:0:0:
448,192,38749,1,0,0:0:0:0:
320,192,38813,1,0,0:0:0:0:
192,192,38876,1,0,0:0:0:0:
64,192,38940,1,0,0:0:0:0:
320,192,39004,1,0,0:0:0:0:
448,192,39004,1,0,0:0:0:0:
448,192,39131,1,0,0:0:0:0:
192,192,39131,1,0,0:0:0:0:
192,192,39258,1,0,0:0:0:0:
64,192,39258,1,0,0:0:0:0:
320,192,39385,1,0,0:0:0:0:
448,192,39385,1,0,0:0:0:0:
448,192,39513,1,0,0:0:0:0:
64,192,39513,1,0,0:0:0:0:
192,192,39576,1,0,0:0:0:0:
320,192,39640,1,0,0:0:0:0:
64,192,39703,1,0,0:0:0:0:
192,192,39767,1,0,0:0:0:0:
448,192,39767,1,0,0:0:0:0:
320,192,39831,1,0,0:0:0:0:
192,192,39894,1,0,0:0:0:0:
64,192,39894,1,0,0:0:0:0:
320,192,39958,1,0,0:0:0:0:
448,192,39958,1,0,0:0:0:0:
64,192,40022,1,0,0:0:0:0:
320,192,40191,1,0,0:0:0:0:
192,192,40361,1,0,0:0:0:0:
64,192,40531,1,0,0:0:0:0:
320,192,40531,1,0,0:0:0:0:
448,192,40531,1,0,0:0:0:0:
192,192,40658,1,0,0:0:0:0:
320,192,40721,1,0,0:0:0:0:
448,192,40785,1,0,0:0:0:0:
64,192,40785,1,0,0:0:0:0:
192,192,40849,1,0,0:0:0:0:
320,192,40912,1,0,0:0:0:0:
448,192,41039,1,0,0:0:0:0:
192,192,41039,1,0,0:0:0:0:
320,192,41167,1,0,0:0:0:0:
64,192,41230,1,0,0:0:0:0:
320,192,41294,1,0,0:0:0:0:
448,192,41294,1,0,0:0:0:0:
192,192,41421,1,0,0:0:0:0:
64,192,41548,1,0,0:0:0:0:
448,192,41548,1,0,0:0:0:0:
448,192,41676,1,0,0:0:0:0:
192,192,41676,1,0,0:0:0:0:
64,192,41803,1,0,0:0:0:0:
320,192,41803,1,0,0:0:0:0:
448,192,41867,1,0,0:0:0:0:
192,192,41930,1,0,0:0:0:0:
320,192,41994,1,0,0:0:0:0:
64,192,42057,1,0,0:0:0:0:
192,192,42057,1,0,0:0:0:0:
448,192,42121,1,0,0:0:0:0:
320,192,42185,1,0,0:0:0:0:
64,192,42185,1,0,0:0:0:0:
192,192,42248,1,0,0:0:0:0:
320,192,42312,1,0,0:0:0:0:
448,192,42312,1,0,0:0:0:0:
64,192,42376,1,0,0:0:0:0:
192,192,42439,1,0,0:0:0:0:
448,192,42439,1,0,0:0:0:0:
320,192,42503,1,0,0:0:0:0:
192,192,42566,1,0,0:0:0:0:
64,192,42566,1,0,0:0:0:0:
448,192,42630,1,0,0:0:0:0:
320,192,42694,1,0,0:0:0:0:
448,192,42757,1,0,0:0:0:0:
64,192,42821,1,0,0:0:0:0:
192,192,42884,1,0,0:0:0:0:
64,192,42948,1,0,0:0:0:0:
192,192,43012,1,0,0:0:0:0:
320,192,43075,1,0,0:0:0:0:
448,192,43139,1,0,0:0:0:0:
320,192,43203,1,0,0:0:0:0:
64,192,43330,1,0,0:0:0:0:
192,192,43372,1,0,0:0:0:0:
320,192,43415,1,0,0:0:0:0:
448,192,43457,1,0,0:0:0:0:
64,192,43499,1,0,0:0:0:0:
192,192,43542,1,0,0:0:0:0:
448,192,43584,1,0,0:0:0:0:
320,192,43584,1,0,0:0:0:0:
64,192,43648,1,0,0:0:0:0:
192,192,43712,1,0,0:0:0:0:
320,192,43775,1,0,0:0:0:0:
64,192,43839,1,0,0:0:0:0:
448,192,43839,1,0,0:0:0:0:
192,192,43902,1,0,0:0:0:0:
320,192,43966,1,0,0:0:0:0:
448,192,44030,1,0,0:0:0:0:
320,192,44093,1,0,0:0:0:0:
192,192,44093,1,0,0:0:0:0:
64,192,44220,1,0,0:0:0:0:
192,192,44263,1,0,0:0:0:0:
320,192,44305,1,0,0:0:0:0:
448,192,44348,1,0,0:0:0:0:
64,192,44348,1,0,0:0:0:0:
448,192,44602,128,0,45366:0:0:0:0:
192,192,44602,1,0,0:0:0:0:
64,192,44602,1,0,0:0:0:0:
320,192,44729,1,0,0:0:0:0:
192,192,44857,1,0,0:0:0:0:
64,192,44857,1,0,0:0:0:0:
320,192,44984,1,0,0:0:0:0:
192,192,45111,1,0,0:0:0:0:
64,192,45111,1,0,0:0:0:0:
320,192,45238,1,0,0:0:0:0:
64,192,45366,128,0,45493:0:0:0:0:
192,192,45366,1,0,0:0:0:0:
448,192,45493,128,0,46129:0:0:0:0:
320,192,45493,1,0,0:0:0:0:
192,192,45620,1,0,0:0:0:0:
64,192,45620,1,0,0:0:0:0:
320,192,45747,1,0,0:0:0:0:
64,192,45875,1,0,0:0:0:0:
192,192,45875,1,0,0:0:0:0:
320,192,46002,1,0,0:0:0:0:
64,192,46129,1,0,0:0:0:0:
192,192,46129,1,0,0:0:0:0:
320,192,46161,1,0,0:0:0:0:
448,192,46193,1,0,0:0:0:0:
192,192,46225,1,0,0:0:0:0:
64,192,46256,1,0,0:0:0:0:
320,192,46288,1,0,0:0:0:0:
448,192,46320,1,0,0:0:0:0:
192,192,46352,1,0,0:0:0:0:
64,192,46384,1,0,0:0:0:0:
320,192,46426,1,0,0:0:0:0:
448,192,46468,1,0,0:0:0:0:
192,192,46511,1,0,0:0:0:0:
64,192,46553,1,0,0:0:0:0:
320,192,46596,1,0,0:0:0:0:
448,192,46638,1,0,0:0:0:0:
192,192,46638,1,0,0:0:0:0:
64,192,46638,1,0,0:0:0:0:
320,192,46702,1,0,0:0:0:0:
192,192,46765,1,0,0:0:0:0:
64,192,46829,1,0,0:0:0:0:
448,192,46893,1,0,0:0:0:0:
320,192,46893,1,0,0:0:0:0:
192,192,46956,1,0,0:0:0:0:
320,192,47020,1,0,0:0:0:0:
448,192,47083,1,0,0:0:0:0:
192,192,47147,1,0,0:0:0:0:
64,192,47147,1,0,0:0:0:0:
320,192,47211,1,0,0:0:0:0:
192,192,47274,1,0,0:0:0:0:
64,192,47338,1,0,0:0:0:0:
448,192,47401,128,0,47656:0:0:0:0:
320,192,47401,1,0,0:0:0:0:
192,192,47465,1,0,0:0:0:0:
64,192,47529,1,0,0:0:0:0:
192,192,47592,1,0,0:0:0:0:
64,192,47656,1,0,0:0:0:0:
320,192,47656,1,0,0:0:0:0:
448,192,47783,1,0,0:0:0:0:
320,192,47847,1,0,0:0:0:0:
192,192,47910,1,0,0:0:0:0:
64,192,47910,1,0,0:0:0:0:
320,192,47974,1,0,0:0:0:0:
192,192,48038,1,0,0:0:0:0:
64,192,48101,1,0,0:0:0:0:
448,192,48165,128,0,48610:0:0:0:0:
320,192,48165,128,0,48610:0:0:0:0:
64,192,48674,1,0,0:0:0:0:
320,192,48674,1,0,0:0:0:0:
448,192,48674,1,0,0:0:0:0:
192,192,48801,1,0,0:0:0:0:
320,192,48865,1,0,0:0:0:0:
192,192,48928,1,0,0:0:0:0:
64,192,48928,1,0,0:0:0:0:
448,192,49056,1,0,0:0:0:0:
320,192,49119,1,0,0:0:0:0:
448,192,49183,1,0,0:0:0:0:
192,192,49183,1,0,0:0:0:0:
64,192,49246,1,0,0:0:0:0:
192,192,49310,1,0,0:0:0:0:
320,192,49374,1,0,0:0:0:0:
64,192,49437,1,0,0:0:0:0:
448,192,49437,1,0,0:0:0:0:
192,192,49501,1,0,0:0:0:0:
320,192,49565,1,0,0:0:0:0:
192,192,49628,1,0,0:0:0:0:
64,192,49692,1,0,0:0:0:0:
320,192,49692,1,0,0:0:0:0:
448,192,49692,1,0,0:0:0:0:
192,192,49755,1,0,0:0:0:0:
320,192,49819,1,0,0:0:0:0:
448,192,49883,1,0,0:0:0:0:
192,192,49946,1,0,0:0:0:0:
64,192,49946,1,0,0:0:0:0:
320,192,50010,1,0,0:0:0:0:
64,192,50074,1,0,0:0:0:0:
192,192,50137,1,0,0:0:0:0:
320,192,50201,1,0,0:0:0:0:
448,192,50201,1,0,0:0:0:0:
448,192,50328,1,0,0:0:0:0:
320,192,50392,1,0,0:0:0:0:
192,192,50455,1,0,0:0:0:0:
64,192,50455,1,0,0:0:0:0:
192,192,50582,1,0,0:0:0:0:
448,192,50582,1,0,0:0:0:0:
448,192,50710,1,0,0:0:0:0:
320,192,50710,1,0,0:0:0:0:
64,192,50710,1,0,0:0:0:0:
192,192,50837,1,0,0:0:0:0:
320,192,50901,1,0,0:0:0:0:
448,192,50964,1,0,0:0:0:0:
64,192,50964,1,0,0:0:0:0:
192,192,51028,1,0,0:0:0:0:
320,192,51091,1,0,0:0:0:0:
448,192,51155,1,0,0:0:0:0:
320,192,51219,1,0,0:0:0:0:
192,192,51219,1,0,0:0:0:0:
64,192,51219,1,0,0:0:0:0:
448,192,51346,1,0,0:0:0:0:
320,192,51410,1,0,0:0:0:0:
192,192,51473,1,0,0:0:0:0:
64,192,51473,1,0,0:0:0:0:
320,192,51537,1,0,0:0:0:0:
192,192,51600,1,0,0:0:0:0:
64,192,51664,1,0,0:0:0:0:
320,192,51728,1,0,0:0:0:0:
448,192,51728,1,0,0:0:0:0:
192,192,51791,1,0,0:0:0:0:
64,192,51791,1,0,0:0:0:0:
320,192,51919,1,0,0:0:0:0:
448,192,51919,1,0,0:0:0:0:
192,192,51982,1,0,0:0:0:0:
64,192,51982,1,0,0:0:0:0:
64,192,52109,1,0,0:0:0:0:
448,192,52109,1,0,0:0:0:0:
320,192,52237,128,0,52364:0:0:0:0:
448,192,52364,128,0,52491:0:0:0:0:
320,192,52491,128,0,52618:0:0:0:0:
64,192,52491,1,0,0:0:0:0:
192,192,52618,128,0,52746:0:0:0:0:
320,192,52746,1,0,0:0:0:0:
448,192,52746,1,0,0:0:0:0:
64,192,52746,128,0,53255:0:0:0:0:
192,192,52873,1,0,0:0:0:0:
320,192,53000,1,0,0:0:0:0:
448,192,53000,1,0,0:0:0:0:
192,192,53127,1,0,0:0:0:0:
448,192,53255,1,0,0:0:0:0:
192,192,53382,128,0,53509:0:0:0:0:
64,192,53509,128,0,53636:0:0:0:0:
320,192,53509,1,0,0:0:0:0:
448,192,53636,128,0,53763:0:0:0:0:
320,192,53763,128,0,54018:0:0:0:0:
192,192,53763,1,0,0:0:0:0:
64,192,53891,1,0,0:0:0:0:
192,192,54018,128,0,54272:0:0:0:0:
448,192,54018,1,0,0:0:0:0:
320,192,54145,1,0,0:0:0:0:
64,192,54272,128,0,54527:0:0:0:0:
448,192,54272,1,0,0:0:0:0:
192,192,54400,1,0,0:0:0:0:
320,192,54527,128,0,54781:0:0:0:0:
448,192,54527,1,0,0:0:0:0:
192,192,54654,1,0,0:0:0:0:
448,192,54781,128,0,55290:0:0:0:0:
64,192,54781,1,0,0:0:0:0:
320,192,54909,1,0,0:0:0:0:
192,192,55036,1,0,0:0:0:0:
64,192,55036,1,0,0:0:0:0:
320,192,55163,1,0,0:0:0:0:
64,192,55290,1,0,0:0:0:0:
448,192,55418,1,0,0:0:0:0:
320,192,55545,128,0,55672:0:0:0:0:
192,192,55545,1,0,0:0:0:0:
448,192,55672,128,0,55799:0:0:0:0:
320,192,55799,128,0,56054:0:0:0:0:
64,192,55799,1,0,0:0:0:0:
448,192,55927,1,0,0:0:0:0:
192,192,56054,1,0,0:0:0:0:
64,192,56054,1,0,0:0:0:0:
320,192,56139,1,0,0:0:0:0:
192,192,56223,1,0,0:0:0:0:
64,192,56308,128,0,56563:0:0:0:0:
448,192,56308,1,0,0:0:0:0:
320,192,56436,1,0,0:0:0:0:
192,192,56563,128,0,56626:0:0:0:0:
192,192,56817,1,0,0:0:0:0:
448,192,56817,1,0,0:0:0:0:
64,192,56817,128,0,57072:0:0:0:0:
320,192,56944,1,0,0:0:0:0:
192,192,57072,128,0,57326:0:0:0:0:
448,192,57072,1,0,0:0:0:0:
64,192,57199,1,0,0:0:0:0:
320,192,57326,128,0,57581:0:0:0:0:
448,192,57326,1,0,0:0:0:0:
192,192,57453,1,0,0:0:0:0:
448,192,57581,128,0,57835:0:0:0:0:
64,192,57581,1,0,0:0:0:0:
320,192,57708,1,0,0:0:0:0:
192,192,57835,128,0,58217:0:0:0:0:
64,192,57835,1,0,0:0:0:0:
320,192,57962,1,0,0:0:0:0:
448,192,58090,1,0,0:0:0:0:
64,192,58090,1,0,0:0:0:0:
320,192,58217,128,0,58344:0:0:0:0:
448,192,58344,128,0,58471:0:0:0:0:
64,192,58344,1,0,0:0:0:0:
320,192,58471,128,0,58599:0:0:0:0:
192,192,58599,128,0,58726:0:0:0:0:
448,192,58599,1,0,0:0:0:0:
64,192,58726,128,0,58853:0:0:0:0:
448,192,58853,128,0,59108:0:0:0:0:
320,192,58853,1,0,0:0:0:0:
192,192,58980,1,0,0:0:0:0:
320,192,59108,128,0,59362:0:0:0:0:
64,192,59108,1,0,0:0:0:0:
448,192,59235,1,0,0:0:0:0:
192,192,59362,128,0,59617:0:0:0:0:
64,192,59362,1,0,0:0:0:0:
448,192,59489,1,0,0:0:0:0:
64,192,59617,128,0,59871:0:0:0:0:
320,192,59617,1,0,0:0:0:0:
448,192,59744,1,0,0:0:0:0:
192,192,59871,1,0,0:0:0:0:
448,192,60253,1,0,0:0:0:0:
320,192,60316,1,0,0:0:0:0:
64,192,60380,1,0,0:0:0:0:
192,192,60380,1,0,0:0:0:0:
448,192,60507,1,0,0:0:0:0:
64,192,60507,1,0,0:0:0:0:
448,192,60634,1,0,0:0:0:0:
64,192,60634,1,0,0:0:0:0:
448,192,60762,1,0,0:0:0:0:
64,192,60762,1,0,0:0:0:0:
192,192,60889,1,0,0:0:0:0:
320,192,60889,1,0,0:0:0:0:
448,192,60889,1,0,0:0:0:0:
192,192,61016,1,0,0:0:0:0:
64,192,61143,1,0,0:0:0:0:
320,192,61143,1,0,0:0:0:0:
448,192,61143,1,0,0:0:0:0:
64,192,61271,1,0,0:0:0:0:
192,192,61398,1,0,0:0:0:0:
320,192,61398,1,0,0:0:0:0:
320,192,61525,1,0,0:0:0:0:
448,192,61525,1,0,0:0:0:0:
448,192,61652,1,0,0:0:0:0:
192,192,61652,1,0,0:0:0:0:
64,192,61652,1,0,0:0:0:0:
320,192,61780,1,0,0:0:0:0:
192,192,61780,1,0,0:0:0:0:
64,192,61907,1,0,0:0:0:0:
448,192,61907,1,0,0:0:0:0:
192,192,62034,1,0,0:0:0:0:
320,192,62098,1,0,0:0:0:0:
192,192,62161,1,0,0:0:0:0:
448,192,62161,1,0,0:0:0:0:
64,192,62161,1,0,0:0:0:0:
448,192,62289,1,0,0:0:0:0:
320,192,62352,1,0,0:0:0:0:
192,192,62416,1,0,0:0:0:0:
64,192,62416,1,0,0:0:0:0:
320,192,62543,1,0,0:0:0:0:
192,192,62607,1,0,0:0:0:0:
64,192,62670,1,0,0:0:0:0:
320,192,62670,1,0,0:0:0:0:
448,192,62670,1,0,0:0:0:0:
320,192,62798,1,0,0:0:0:0:
192,192,62925,1,0,0:0:0:0:
448,192,62925,1,0,0:0:0:0:
64,192,63052,1,0,0:0:0:0:
64,192,63179,1,0,0:0:0:0:
192,192,63179,1,0,0:0:0:0:
320,192,63179,1,0,0:0:0:0:
320,192,63306,1,0,0:0:0:0:
192,192,63434,1,0,0:0:0:0:
448,192,63434,1,0,0:0:0:0:
64,192,63561,1,0,0:0:0:0:
320,192,63561,1,0,0:0:0:0:
192,192,63688,1,0,0:0:0:0:
320,192,63688,1,0,0:0:0:0:
448,192,63688,1,0,0:0:0:0:
64,192,63815,1,0,0:0:0:0:
192,192,63815,1,0,0:0:0:0:
448,192,63943,1,0,0:0:0:0:
320,192,63943,1,0,0:0:0:0:
192,192,64070,1,0,0:0:0:0:
64,192,64197,1,0,0:0:0:0:
448,192,64197,1,0,0:0:0:0:
320,192,64197,1,0,0:0:0:0:
192,192,64282,1,0,0:0:0:0:
320,192,64367,1,0,0:0:0:0:
192,192,64452,1,0,0:0:0:0:
64,192,64452,1,0,0:0:0:0:
448,192,64579,1,0,0:0:0:0:
64,192,64579,1,0,0:0:0:0:
320,192,64621,1,0,0:0:0:0:
192,192,64664,1,0,0:0:0:0:
448,192,64706,1,0,0:0:0:0:
64,192,64706,1,0,0:0:0:0:
320,192,64833,1,0,0:0:0:0:
192,192,64833,1,0,0:0:0:0:
192,192,64961,1,0,0:0:0:0:
64,192,64961,1,0,0:0:0:0:
448,192,64961,1,0,0:0:0:0:
320,192,65088,1,0,0:0:0:0:
192,192,65215,1,0,0:0:0:0:
448,192,65215,1,0,0:0:0:0:
320,192,65215,1,0,0:0:0:0:
64,192,65342,1,0,0:0:0:0:
64,192,65470,1,0,0:0:0:0:
192,192,65470,1,0,0:0:0:0:
448,192,65470,1,0,0:0:0:0:
320,192,65597,1,0,0:0:0:0:
320,192,65724,1,0,0:0:0:0:
64,192,65724,1,0,0:0:0:0:
448,192,65724,1,0,0:0:0:0:
192,192,65851,1,0,0:0:0:0:
64,192,65979,1,0,0:0:0:0:
192,192,65979,1,0,0:0:0:0:
448,192,65979,1,0,0:0:0:0:
320,192,66106,1,0,0:0:0:0:
320,192,66233,1,0,0:0:0:0:
448,192,66233,1,0,0:0:0:0:
64,192,66233,1,0,0:0:0:0:
192,192,66360,1,0,0:0:0:0:
64,192,66360,1,0,0:0:0:0:
320,192,66487,1,0,0:0:0:0:
192,192,66487,1,0,0:0:0:0:
448,192,66487,1,0,0:0:0:0:
64,192,66615,1,0,0:0:0:0:
448,192,66615,1,0,0:0:0:0:
192,192,66742,1,0,0:0:0:0:
320,192,66742,1,0,0:0:0:0:
64,192,66742,1,0,0:0:0:0:
448,192,66869,1,0,0:0:0:0:
320,192,66869,1,0,0:0:0:0:
448,192,66996,1,0,0:0:0:0:
192,192,66996,1,0,0:0:0:0:
64,192,66996,1,0,0:0:0:0:
192,192,67124,1,0,0:0:0:0:
320,192,67251,1,0,0:0:0:0:
64,192,67251,1,0,0:0:0:0:
448,192,67251,1,0,0:0:0:0:
192,192,67378,1,0,0:0:0:0:
320,192,67378,1,0,0:0:0:0:
192,192,67505,1,0,0:0:0:0:
64,192,67505,1,0,0:0:0:0:
448,192,67505,1,0,0:0:0:0:
448,192,67633,1,0,0:0:0:0:
320,192,67760,1,0,0:0:0:0:
192,192,67760,1,0,0:0:0:0:
64,192,67760,1,0,0:0:0:0:
192,192,67887,1,0,0:0:0:0:
448,192,68014,1,0,0:0:0:0:
320,192,68014,1,0,0:0:0:0:
64,192,68014,1,0,0:0:0:0:
192,192,68142,1,0,0:0:0:0:
448,192,68142,1,0,0:0:0:0:
320,192,68269,1,0,0:0:0:0:
192,192,68269,1,0,0:0:0:0:
64,192,68396,1,0,0:0:0:0:
320,192,68396,1,0,0:0:0:0:
448,192,68460,1,0,0:0:0:0:
192,192,68523,1,0,0:0:0:0:
64,192,68523,1,0,0:0:0:0:
192,192,68651,1,0,0:0:0:0:
320,192,68651,1,0,0:0:0:0:
320,192,68778,1,0,0:0:0:0:
448,192,68778,1,0,0:0:0:0:
448,192,68905,1,0,0:0:0:0:
192,192,68905,1,0,0:0:0:0:
64,192,69032,1,0,0:0:0:0:
192,192,69032,1,0,0:0:0:0:
320,192,69096,1,0,0:0:0:0:
448,192,69096,1,0,0:0:0:0:
192,192,69160,1,0,0:0:0:0:
64,192,69160,1,0,0:0:0:0:
320,192,69223,1,0,0:0:0:0:
448,192,69223,1,0,0:0:0:0:
192,192,69287,1,0,0:0:0:0:
64,192,69287,1,0,0:0:0:0:
320,192,69350,1,0,0:0:0:0:
448,192,69350,1,0,0:0:0:0:
192,192,69414,1,0,0:0:0:0:
64,192,69414,1,0,0:0:0:0:
448,192,69478,1,0,0:0:0:0:
320,192,69478,1,0,0:0:0:0:
64,192,69541,1,0,0:0:0:0:
192,192,69573,1,0,0:0:0:0:
320,192,69605,1,0,0:0:0:0:
448,192,69637,1,0,0:0:0:0:
64,192,69668,1,0,0:0:0:0:
192,192,69668,1,0,0:0:0:0:
320,192,69732,1,0,0:0:0:0:
448,192,69732,1,0,0:0:0:0:
192,192,69796,1,0,0:0:0:0:
64,192,69796,1,0,0:0:0:0:
320,192,69859,1,0,0:0:0:0:
448,192,69859,1,0,0:0:0:0:
192,192,69923,1,0,0:0:0:0:
64,192,69955,1,0,0:0:0:0:
320,192,69987,1,0,0:0:0:0:
448,192,70018,1,0,0:0:0:0:
64,192,70050,1,0,0:0:0:0:
192,192,70050,128,0,71959:0:0:0:0:
320,192,71832,1,0,0:0:0:0:
320,192,72086,1,0,0:0:0:0:
448,192,74122,128,0,74185:0:0:0:0:
320,192,75903,1,0,0:0:0:0:
320,192,76158,1,0,0:0:0:0:
192,192,78194,1,0,0:0:0:0:
64,192,78194,1,0,0:0:0:0:
320,192,78194,1,0,0:0:0:0:
448,192,78194,1,0,0:0:0:0:
320,192,78448,1,0,0:0:0:0:
192,192,78448,1,0,0:0:0:0:
320,192,78703,1,0,0:0:0:0:
192,192,78703,1,0,0:0:0:0:
320,192,78957,1,0,0:0:0:0:
192,192,78957,1,0,0:0:0:0:
320,192,79211,1,0,0:0:0:0:
192,192,79211,1,0,0:0:0:0:
320,192,79466,1,0,0:0:0:0:
192,192,79466,1,0,0:0:0:0:
320,192,79720,1,0,0:0:0:0:
192,192,79720,1,0,0:0:0:0:
320,192,79975,1,0,0:0:0:0:
192,192,79975,1,0,0:0:0:0:
192,192,80229,1,0,0:0:0:0:
64,192,80229,1,0,0:0:0:0:
448,192,80229,1,0,0:0:0:0:
320,192,80229,1,0,0:0:0:0:
64,192,80484,1,0,0:0:0:0:
448,192,80484,1,0,0:0:0:0:
64,192,80738,1,0,0:0:0:0:
448,192,80738,1,0,0:0:0:0:
448,192,80993,1,0,0:0:0:0:
64,192,80993,1,0,0:0:0:0:
448,192,81247,1,0,0:0:0:0:
64,192,81247,1,0,0:0:0:0:
448,192,81502,1,0,0:0:0:0:
64,192,81502,1,0,0:0:0:0:
448,192,81756,1,0,0:0:0:0:
64,192,81756,1,0,0:0:0:0:
448,192,82011,1,0,0:0:0:0:
64,192,82011,1,0,0:0:0:0:
64,192,82265,1,0,0:0:0:0:
448,192,82265,1,0,0:0:0:0:
320,192,82265,1,0,0:0:0:0:
192,192,82265,1,0,0:0:0:0:
192,192,82435,1,0,0:0:0:0:
320,192,82435,1,0,0:0:0:0:
192,192,82605,1,0,0:0:0:0:
448,192,82605,1,0,0:0:0:0:
320,192,82774,1,0,0:0:0:0:
448,192,82774,1,0,0:0:0:0:
320,192,82944,1,0,0:0:0:0:
192,192,82944,1,0,0:0:0:0:
192,192,83113,1,0,0:0:0:0:
64,192,83113,1,0,0:0:0:0:
64,192,83283,1,0,0:0:0:0:
192,192,83283,1,0,0:0:0:0:
320,192,83283,1,0,0:0:0:0:
448,192,83283,1,0,0:0:0:0:
64,192,83453,1,0,0:0:0:0:
448,192,83453,1,0,0:0:0:0:
192,192,83622,1,0,0:0:0:0:
448,192,83622,1,0,0:0:0:0:
320,192,83792,1,0,0:0:0:0:
192,192,83792,1,0,0:0:0:0:
320,192,83962,1,0,0:0:0:0:
448,192,83962,1,0,0:0:0:0:
64,192,84131,1,0,0:0:0:0:
192,192,84131,1,0,0:0:0:0:
192,192,84301,1,0,0:0:0:0:
64,192,84301,1,0,0:0:0:0:
448,192,84301,1,0,0:0:0:0:
320,192,84386,1,0,0:0:0:0:
192,192,84471,1,0,0:0:0:0:
320,192,84556,1,0,0:0:0:0:
448,192,84556,1,0,0:0:0:0:
64,192,84640,1,0,0:0:0:0:
192,192,84725,1,0,0:0:0:0:
64,192,84810,1,0,0:0:0:0:
320,192,84810,1,0,0:0:0:0:
448,192,84810,1,0,0:0:0:0:
192,192,84895,1,0,0:0:0:0:
448,192,84980,1,0,0:0:0:0:
320,192,85065,1,0,0:0:0:0:
64,192,85065,1,0,0:0:0:0:
192,192,85149,1,0,0:0:0:0:
320,192,85234,1,0,0:0:0:0:
448,192,85319,1,0,0:0:0:0:
192,192,85319,1,0,0:0:0:0:
64,192,85319,1,0,0:0:0:0:
320,192,85404,1,0,0:0:0:0:
192,192,85489,1,0,0:0:0:0:
64,192,85573,1,0,0:0:0:0:
448,192,85573,1,0,0:0:0:0:
320,192,85658,1,0,0:0:0:0:
192,192,85743,1,0,0:0:0:0:
64,192,85828,1,0,0:0:0:0:
448,192,85828,1,0,0:0:0:0:
192,192,85913,1,0,0:0:0:0:
320,192,85998,1,0,0:0:0:0:
448,192,86082,128,0,86146:0:0:0:0:
64,192,86082,1,0,0:0:0:0:
320,192,86337,1,0,0:0:0:0:
64,192,86337,1,0,0:0:0:0:
448,192,86337,1,0,0:0:0:0:
192,192,86422,1,0,0:0:0:0:
320,192,86507,1,0,0:0:0:0:
64,192,86591,1,0,0:0:0:0:
448,192,86591,1,0,0:0:0:0:
192,192,86676,1,0,0:0:0:0:
320,192,86761,1,0,0:0:0:0:
192,192,86846,1,0,0:0:0:0:
64,192,86846,1,0,0:0:0:0:
448,192,86931,1,0,0:0:0:0:
320,192,87016,1,0,0:0:0:0:
192,192,87100,1,0,0:0:0:0:
448,192,87100,1,0,0:0:0:0:
320,192,87270,1,0,0:0:0:0:
64,192,87355,1,0,0:0:0:0:
448,192,87355,1,0,0:0:0:0:
192,192,87440,1,0,0:0:0:0:
320,192,87524,1,0,0:0:0:0:
192,192,87609,1,0,0:0:0:0:
64,192,87609,1,0,0:0:0:0:
448,192,87694,1,0,0:0:0:0:
320,192,87779,1,0,0:0:0:0:
192,192,87864,1,0,0:0:0:0:
448,192,87864,1,0,0:0:0:0:
64,192,87949,1,0,0:0:0:0:
320,192,88033,1,0,0:0:0:0:
192,192,88118,1,0,0:0:0:0:
64,192,88118,1,0,0:0:0:0:
320,192,88288,1,0,0:0:0:0:
192,192,88288,1,0,0:0:0:0:
320,192,88373,1,0,0:0:0:0:
448,192,88373,1,0,0:0:0:0:
64,192,88458,1,0,0:0:0:0:
192,192,88542,1,0,0:0:0:0:
64,192,88627,1,0,0:0:0:0:
448,192,88627,1,0,0:0:0:0:
320,192,88712,1,0,0:0:0:0:
192,192,88797,1,0,0:0:0:0:
64,192,88882,1,0,0:0:0:0:
448,192,88882,1,0,0:0:0:0:
320,192,88967,1,0,0:0:0:0:
192,192,89051,1,0,0:0:0:0:
320,192,89136,1,0,0:0:0:0:
448,192,89136,1,0,0:0:0:0:
64,192,89306,1,0,0:0:0:0:
192,192,89391,1,0,0:0:0:0:
320,192,89391,1,0,0:0:0:0:
448,192,89475,1,0,0:0:0:0:
192,192,89560,1,0,0:0:0:0:
64,192,89560,1,0,0:0:0:0:
64,192,89645,1,0,0:0:0:0:
320,192,89645,1,0,0:0:0:0:
448,192,89730,1,0,0:0:0:0:
192,192,89815,1,0,0:0:0:0:
64,192,89900,128,0,90154:0:0:0:0:
320,192,89900,1,0,0:0:0:0:
448,192,89984,1,0,0:0:0:0:
192,192,90069,1,0,0:0:0:0:
320,192,90154,1,0,0:0:0:0:
448,192,90154,1,0,0:0:0:0:
192,192,90197,1,0,0:0:0:0:
64,192,90239,1,0,0:0:0:0:
320,192,90281,1,0,0:0:0:0:
448,192,90324,1,0,0:0:0:0:
192,192,90366,1,0,0:0:0:0:
64,192,90409,1,0,0:0:0:0:
320,192,90409,1,0,0:0:0:0:
192,192,90493,1,0,0:0:0:0:
320,192,90578,1,0,0:0:0:0:
192,192,90663,1,0,0:0:0:0:
448,192,90663,1,0,0:0:0:0:
64,192,90748,1,0,0:0:0:0:
320,192,90833,1,0,0:0:0:0:
192,192,90918,1,0,0:0:0:0:
64,192,90918,1,0,0:0:0:0:
448,192,91002,1,0,0:0:0:0:
320,192,91087,1,0,0:0:0:0:
192,192,91172,1,0,0:0:0:0:
448,192,91172,1,0,0:0:0:0:
320,192,91342,1,0,0:0:0:0:
192,192,91427,1,0,0:0:0:0:
64,192,91427,1,0,0:0:0:0:
448,192,91511,1,0,0:0:0:0:
320,192,91596,1,0,0:0:0:0:
192,192,91681,1,0,0:0:0:0:
448,192,91681,1,0,0:0:0:0:
64,192,91766,1,0,0:0:0:0:
192,192,91851,1,0,0:0:0:0:
320,192,91935,1,0,0:0:0:0:
64,192,91935,1,0,0:0:0:0:
448,192,92020,1,0,0:0:0:0:
192,192,92105,1,0,0:0:0:0:
320,192,92190,1,0,0:0:0:0:
448,192,92190,1,0,0:0:0:0:
192,192,92360,1,0,0:0:0:0:
64,192,92360,1,0,0:0:0:0:
192,192,92444,1,0,0:0:0:0:
320,192,92444,1,0,0:0:0:0:
448,192,92529,1,0,0:0:0:0:
64,192,92614,1,0,0:0:0:0:
192,192,92699,1,0,0:0:0:0:
448,192,92699,1,0,0:0:0:0:
320,192,92784,1,0,0:0:0:0:
192,192,92869,1,0,0:0:0:0:
64,192,92953,1,0,0:0:0:0:
448,192,92953,128,0,93208:0:0:0:0:
320,192,93038,1,0,0:0:0:0:
192,192,93123,1,0,0:0:0:0:
64,192,93208,1,0,0:0:0:0:
320,192,93208,1,0,0:0:0:0:
192,192,93462,1,0,0:0:0:0:
64,192,93462,1,0,0:0:0:0:
192,192,93653,1,0,0:0:0:0:
320,192,93685,1,0,0:0:0:0:
448,192,93717,1,0,0:0:0:0:
64,192,93802,1,0,0:0:0:0:
64,192,93886,1,0,0:0:0:0:
320,192,93971,1,0,0:0:0:0:
448,192,93971,1,0,0:0:0:0:
320,192,94226,1,0,0:0:0:0:
192,192,94226,1,0,0:0:0:0:
64,192,94226,1,0,0:0:0:0:
64,192,94480,1,0,0:0:0:0:
320,192,94480,1,0,0:0:0:0:
448,192,94480,1,0,0:0:0:0:
192,192,94565,1,0,0:0:0:0:
320,192,94650,1,0,0:0:0:0:
192,192,94735,1,0,0:0:0:0:
448,192,94735,1,0,0:0:0:0:
64,192,94820,1,0,0:0:0:0:
320,192,94904,1,0,0:0:0:0:
192,192,94989,1,0,0:0:0:0:
64,192,94989,1,0,0:0:0:0:
448,192,95074,1,0,0:0:0:0:
320,192,95159,1,0,0:0:0:0:
192,192,95244,1,0,0:0:0:0:
448,192,95244,1,0,0:0:0:0:
320,192,95413,1,0,0:0:0:0:
192,192,95498,1,0,0:0:0:0:
64,192,95498,1,0,0:0:0:0:
448,192,95583,1,0,0:0:0:0:
192,192,95668,1,0,0:0:0:0:
64,192,95753,1,0,0:0:0:0:
320,192,95753,1,0,0:0:0:0:
448,192,95837,1,0,0:0:0:0:
64,192,95922,1,0,0:0:0:0:
192,192,96007,1,0,0:0:0:0:
320,192,96007,1,0,0:0:0:0:
448,192,96092,1,0,0:0:0:0:
320,192,96177,1,0,0:0:0:0:
192,192,96262,1,0,0:0:0:0:
64,192,96262,1,0,0:0:0:0:
448,192,96431,1,0,0:0:0:0:
320,192,96431,1,0,0:0:0:0:
64,192,96516,1,0,0:0:0:0:
320,192,96516,1,0,0:0:0:0:
192,192,96601,1,0,0:0:0:0:
448,192,96686,1,0,0:0:0:0:
192,192,96771,1,0,0:0:0:0:
64,192,96771,1,0,0:0:0:0:
320,192,96855,1,0,0:0:0:0:
448,192,96940,1,0,0:0:0:0:
320,192,97025,1,0,0:0:0:0:
192,192,97025,1,0,0:0:0:0:
64,192,97110,1,0,0:0:0:0:
320,192,97195,1,0,0:0:0:0:
192,192,97280,1,0,0:0:0:0:
448,192,97280,1,0,0:0:0:0:
64,192,97449,1,0,0:0:0:0:
192,192,97534,1,0,0:0:0:0:
320,192,97534,1,0,0:0:0:0:
448,192,97619,1,0,0:0:0:0:
192,192,97704,1,0,0:0:0:0:
64,192,97704,1,0,0:0:0:0:
64,192,97789,1,0,0:0:0:0:
448,192,97789,1,0,0:0:0:0:
320,192,97873,1,0,0:0:0:0:
192,192,97958,1,0,0:0:0:0:
64,192,98043,1,0,0:0:0:0:
448,192,98043,128,0,98297:0:0:0:0:
192,192,98128,1,0,0:0:0:0:
320,192,98213,1,0,0:0:0:0:
192,192,98297,1,0,0:0:0:0:
64,192,98297,1,0,0:0:0:0:
320,192,98340,1,0,0:0:0:0:
448,192,98382,1,0,0:0:0:0:
192,192,98425,1,0,0:0:0:0:
64,192,98467,1,0,0:0:0:0:
320,192,98510,1,0,0:0:0:0:
192,192,98552,1,0,0:0:0:0:
448,192,98552,1,0,0:0:0:0:
320,192,98637,1,0,0:0:0:0:
192,192,98722,1,0,0:0:0:0:
64,192,98806,1,0,0:0:0:0:
448,192,98806,1,0,0:0:0:0:
320,192,98891,1,0,0:0:0:0:
192,192,98976,1,0,0:0:0:0:
320,192,99061,1,0,0:0:0:0:
448,192,99061,1,0,0:0:0:0:
64,192,99146,1,0,0:0:0:0:
192,192,99231,1,0,0:0:0:0:
64,192,99315,1,0,0:0:0:0:
320,192,99315,1,0,0:0:0:0:
448,192,99485,1,0,0:0:0:0:
320,192,99570,1,0,0:0:0:0:
192,192,99570,1,0,0:0:0:0:
64,192,99655,1,0,0:0:0:0:
320,192,99740,1,0,0:0:0:0:
192,192,99824,1,0,0:0:0:0:
448,192,99824,1,0,0:0:0:0:
64,192,99909,1,0,0:0:0:0:
320,192,99994,1,0,0:0:0:0:
192,192,100079,1,0,0:0:0:0:
64,192,100079,1,0,0:0:0:0:
448,192,100164,1,0,0:0:0:0:
320,192,100248,1,0,0:0:0:0:
64,192,100333,1,0,0:0:0:0:
448,192,100333,1,0,0:0:0:0:
192,192,100503,1,0,0:0:0:0:
320,192,100503,1,0,0:0:0:0:
64,192,100588,1,0,0:0:0:0:
192,192,100588,1,0,0:0:0:0:
320,192,100779,1,0,0:0:0:0:
192,192,100810,1,0,0:0:0:0:
64,192,100842,1,0,0:0:0:0:
448,192,101012,1,0,0:0:0:0:
448,192,101097,1,0,0:0:0:0:
320,192,101097,1,0,0:0:0:0:
192,192,101266,1,0,0:0:0:0:
192,192,101351,1,0,0:0:0:0:
64,192,101351,1,0,0:0:0:0:
448,192,101436,1,0,0:0:0:0:
320,192,101521,1,0,0:0:0:0:
64,192,101606,1,0,0:0:0:0:
448,192,101606,1,0,0:0:0:0:
192,192,101691,1,0,0:0:0:0:
320,192,101775,1,0,0:0:0:0:
448,192,101860,1,0,0:0:0:0:
64,192,101860,1,0,0:0:0:0:
320,192,101945,1,0,0:0:0:0:
192,192,102030,1,0,0:0:0:0:
448,192,102115,1,0,0:0:0:0:
64,192,102115,128,0,102369:0:0:0:0:
320,192,102369,1,0,0:0:0:0:
320,192,102624,5,0,0:0:0:0:
64,192,102624,1,0,0:0:0:0:
192,192,102624,1,0,0:0:0:0:
448,192,102708,1,0,0:0:0:0:
192,192,102793,1,0,0:0:0:0:
64,192,102878,1,0,0:0:0:0:
448,192,102878,1,0,0:0:0:0:
320,192,102878,1,0,0:0:0:0:
192,192,102963,1,0,0:0:0:0:
320,192,103048,1,0,0:0:0:0:
192,192,103133,1,0,0:0:0:0:
64,192,103133,1,0,0:0:0:0:
448,192,103133,1,0,0:0:0:0:
320,192,103217,1,0,0:0:0:0:
64,192,103302,1,0,0:0:0:0:
448,192,103387,1,0,0:0:0:0:
192,192,103387,1,0,0:0:0:0:
320,192,103387,1,0,0:0:0:0:
192,192,103557,1,0,0:0:0:0:
320,192,103642,1,0,0:0:0:0:
448,192,103642,1,0,0:0:0:0:
64,192,103642,1,0,0:0:0:0:
192,192,103726,1,0,0:0:0:0:
448,192,103811,1,0,0:0:0:0:
320,192,103896,1,0,0:0:0:0:
192,192,103896,1,0,0:0:0:0:
64,192,103896,1,0,0:0:0:0:
448,192,103981,1,0,0:0:0:0:
64,192,104066,1,0,0:0:0:0:
192,192,104151,1,0,0:0:0:0:
320,192,104151,1,0,0:0:0:0:
448,192,104151,1,0,0:0:0:0:
64,192,104235,1,0,0:0:0:0:
320,192,104320,1,0,0:0:0:0:
192,192,104405,1,0,0:0:0:0:
64,192,104405,1,0,0:0:0:0:
448,192,104405,1,0,0:0:0:0:
192,192,104575,1,0,0:0:0:0:
320,192,104575,1,0,0:0:0:0:
320,192,104659,1,0,0:0:0:0:
448,192,104659,1,0,0:0:0:0:
64,192,104659,1,0,0:0:0:0:
192,192,104744,1,0,0:0:0:0:
320,192,104829,1,0,0:0:0:0:
192,192,104914,1,0,0:0:0:0:
64,192,104914,1,0,0:0:0:0:
448,192,104914,1,0,0:0:0:0:
320,192,104999,1,0,0:0:0:0:
64,192,105084,1,0,0:0:0:0:
192,192,105168,1,0,0:0:0:0:
320,192,105168,1,0,0:0:0:0:
448,192,105168,1,0,0:0:0:0:
64,192,105253,1,0,0:0:0:0:
448,192,105338,1,0,0:0:0:0:
320,192,105423,1,0,0:0:0:0:
192,192,105423,1,0,0:0:0:0:
64,192,105423,1,0,0:0:0:0:
320,192,105593,1,0,0:0:0:0:
448,192,105677,1,0,0:0:0:0:
192,192,105677,1,0,0:0:0:0:
64,192,105677,1,0,0:0:0:0:
320,192,105762,1,0,0:0:0:0:
192,192,105847,1,0,0:0:0:0:
64,192,105847,1,0,0:0:0:0:
320,192,105932,1,0,0:0:0:0:
448,192,105932,1,0,0:0:0:0:
64,192,105932,1,0,0:0:0:0:
192,192,106017,1,0,0:0:0:0:
320,192,106102,1,0,0:0:0:0:
448,192,106186,128,0,106441:0:0:0:0:
64,192,106186,1,0,0:0:0:0:
192,192,106271,1,0,0:0:0:0:
320,192,106356,1,0,0:0:0:0:
192,192,106441,1,0,0:0:0:0:
64,192,106441,1,0,0:0:0:0:
320,192,106483,1,0,0:0:0:0:
448,192,106526,1,0,0:0:0:0:
192,192,106568,1,0,0:0:0:0:
64,192,106610,1,0,0:0:0:0:
320,192,106653,1,0,0:0:0:0:
192,192,106695,1,0,0:0:0:0:
64,192,106695,1,0,0:0:0:0:
448,192,106695,1,0,0:0:0:0:
320,192,106780,1,0,0:0:0:0:
192,192,106865,1,0,0:0:0:0:
64,192,106950,1,0,0:0:0:0:
320,192,106950,1,0,0:0:0:0:
448,192,106950,1,0,0:0:0:0:
192,192,107035,1,0,0:0:0:0:
448,192,107119,1,0,0:0:0:0:
320,192,107204,1,0,0:0:0:0:
192,192,107204,1,0,0:0:0:0:
64,192,107204,1,0,0:0:0:0:
448,192,107289,1,0,0:0:0:0:
64,192,107374,1,0,0:0:0:0:
192,192,107459,1,0,0:0:0:0:
320,192,107459,1,0,0:0:0:0:
448,192,107459,1,0,0:0:0:0:
192,192,107628,1,0,0:0:0:0:
320,192,107713,1,0,0:0:0:0:
64,192,107713,1,0,0:0:0:0:
448,192,107713,1,0,0:0:0:0:
192,192,107798,1,0,0:0:0:0:
320,192,107883,1,0,0:0:0:0:
192,192,107968,1,0,0:0:0:0:
64,192,107968,1,0,0:0:0:0:
448,192,107968,1,0,0:0:0:0:
320,192,108053,1,0,0:0:0:0:
64,192,108137,1,0,0:0:0:0:
192,192,108222,1,0,0:0:0:0:
320,192,108222,1,0,0:0:0:0:
448,192,108222,1,0,0:0:0:0:
64,192,108307,1,0,0:0:0:0:
448,192,108392,1,0,0:0:0:0:
64,192,108477,1,0,0:0:0:0:
320,192,108477,1,0,0:0:0:0:
192,192,108477,1,0,0:0:0:0:
448,192,108646,1,0,0:0:0:0:
192,192,108646,1,0,0:0:0:0:
64,192,108731,1,0,0:0:0:0:
320,192,108731,1,0,0:0:0:0:
448,192,108731,1,0,0:0:0:0:
192,192,108816,1,0,0:0:0:0:
320,192,108901,1,0,0:0:0:0:
192,192,108986,1,0,0:0:0:0:
64,192,108986,1,0,0:0:0:0:
448,192,108986,1,0,0:0:0:0:
320,192,109070,1,0,0:0:0:0:
64,192,109155,1,0,0:0:0:0:
192,192,109240,1,0,0:0:0:0:
448,192,109240,1,0,0:0:0:0:
64,192,109325,1,0,0:0:0:0:
320,192,109410,1,0,0:0:0:0:
64,192,109495,1,0,0:0:0:0:
448,192,109495,1,0,0:0:0:0:
192,192,109495,1,0,0:0:0:0:
192,192,109664,1,0,0:0:0:0:
64,192,109749,1,0,0:0:0:0:
320,192,109749,1,0,0:0:0:0:
448,192,109749,1,0,0:0:0:0:
192,192,109940,1,0,0:0:0:0:
320,192,109972,1,0,0:0:0:0:
448,192,110004,1,0,0:0:0:0:
64,192,110088,1,0,0:0:0:0:
64,192,110173,1,0,0:0:0:0:
320,192,110258,1,0,0:0:0:0:
448,192,110258,1,0,0:0:0:0:
64,192,110513,1,0,0:0:0:0:
320,192,110513,1,0,0:0:0:0:
192,192,110513,1,0,0:0:0:0:
192,192,110767,1,0,0:0:0:0:
448,192,110767,1,0,0:0:0:0:
320,192,110767,1,0,0:0:0:0:
64,192,110852,1,0,0:0:0:0:
320,192,110937,1,0,0:0:0:0:
64,192,111021,1,0,0:0:0:0:
192,192,111021,1,0,0:0:0:0:
448,192,111021,1,0,0:0:0:0:
320,192,111106,1,0,0:0:0:0:
192,192,111191,1,0,0:0:0:0:
320,192,111276,1,0,0:0:0:0:
448,192,111276,1,0,0:0:0:0:
64,192,111276,1,0,0:0:0:0:
192,192,111361,1,0,0:0:0:0:
448,192,111446,1,0,0:0:0:0:
320,192,111530,1,0,0:0:0:0:
64,192,111530,1,0,0:0:0:0:
192,192,111530,1,0,0:0:0:0:
320,192,111700,1,0,0:0:0:0:
448,192,111785,1,0,0:0:0:0:
64,192,111785,1,0,0:0:0:0:
192,192,111785,1,0,0:0:0:0:
320,192,111870,1,0,0:0:0:0:
64,192,111955,1,0,0:0:0:0:
192,192,112039,1,0,0:0:0:0:
320,192,112039,1,0,0:0:0:0:
448,192,112039,1,0,0:0:0:0:
64,192,112124,1,0,0:0:0:0:
448,192,112209,1,0,0:0:0:0:
192,192,112294,1,0,0:0:0:0:
64,192,112294,1,0,0:0:0:0:
320,192,112294,1,0,0:0:0:0:
448,192,112379,1,0,0:0:0:0:
192,192,112464,1,0,0:0:0:0:
320,192,112548,1,0,0:0:0:0:
64,192,112548,1,0,0:0:0:0:
448,192,112548,1,0,0:0:0:0:
192,192,112718,1,0,0:0:0:0:
320,192,112718,1,0,0:0:0:0:
64,192,112803,1,0,0:0:0:0:
192,192,112803,1,0,0:0:0:0:
448,192,112803,1,0,0:0:0:0:
320,192,112888,1,0,0:0:0:0:
192,192,112972,1,0,0:0:0:0:
64,192,113057,1,0,0:0:0:0:
320,192,113057,1,0,0:0:0:0:
448,192,113057,1,0,0:0:0:0:
192,192,113142,1,0,0:0:0:0:
448,192,113227,1,0,0:0:0:0:
320,192,113312,1,0,0:0:0:0:
192,192,113312,1,0,0:0:0:0:
64,192,113312,1,0,0:0:0:0:
448,192,113397,1,0,0:0:0:0:
64,192,113481,1,0,0:0:0:0:
448,192,113566,1,0,0:0:0:0:
192,192,113566,1,0,0:0:0:0:
320,192,113566,1,0,0:0:0:0:
192,192,113736,1,0,0:0:0:0:
320,192,113821,1,0,0:0:0:0:
448,192,113821,1,0,0:0:0:0:
64,192,113821,1,0,0:0:0:0:
192,192,113906,1,0,0:0:0:0:
320,192,113990,1,0,0:0:0:0:
448,192,113990,1,0,0:0:0:0:
192,192,114075,1,0,0:0:0:0:
64,192,114075,1,0,0:0:0:0:
448,192,114075,1,0,0:0:0:0:
320,192,114160,1,0,0:0:0:0:
192,192,114245,1,0,0:0:0:0:
64,192,114330,128,0,114584:0:0:0:0:
448,192,114330,1,0,0:0:0:0:
320,192,114415,1,0,0:0:0:0:
192,192,114499,1,0,0:0:0:0:
320,192,114584,1,0,0:0:0:0:
448,192,114584,1,0,0:0:0:0:
192,192,114627,1,0,0:0:0:0:
64,192,114669,1,0,0:0:0:0:
320,192,114711,1,0,0:0:0:0:
448,192,114754,1,0,0:0:0:0:
192,192,114796,1,0,0:0:0:0:
320,192,114839,1,0,0:0:0:0:
448,192,114839,1,0,0:0:0:0:
64,192,114839,1,0,0:0:0:0:
192,192,114923,1,0,0:0:0:0:
320,192,115008,1,0,0:0:0:0:
64,192,115093,1,0,0:0:0:0:
448,192,115093,1,0,0:0:0:0:
192,192,115093,1,0,0:0:0:0:
320,192,115178,1,0,0:0:0:0:
64,192,115263,1,0,0:0:0:0:
320,192,115348,1,0,0:0:0:0:
448,192,115348,1,0,0:0:0:0:
192,192,115348,1,0,0:0:0:0:
64,192,115432,1,0,0:0:0:0:
448,192,115517,1,0,0:0:0:0:
64,192,115602,1,0,0:0:0:0:
192,192,115602,1,0,0:0:0:0:
320,192,115602,1,0,0:0:0:0:
320,192,115772,1,0,0:0:0:0:
64,192,115857,1,0,0:0:0:0:
448,192,115857,1,0,0:0:0:0:
192,192,115857,1,0,0:0:0:0:
320,192,115941,1,0,0:0:0:0:
192,192,116026,1,0,0:0:0:0:
64,192,116111,1,0,0:0:0:0:
320,192,116111,1,0,0:0:0:0:
448,192,116111,1,0,0:0:0:0:
192,192,116196,1,0,0:0:0:0:
448,192,116281,1,0,0:0:0:0:
320,192,116366,1,0,0:0:0:0:
64,192,116366,1,0,0:0:0:0:
192,192,116366,1,0,0:0:0:0:
448,192,116450,1,0,0:0:0:0:
64,192,116535,1,0,0:0:0:0:
192,192,116620,1,0,0:0:0:0:
448,192,116620,1,0,0:0:0:0:
320,192,116620,1,0,0:0:0:0:
320,192,116790,1,0,0:0:0:0:
64,192,116790,1,0,0:0:0:0:
192,192,116874,1,0,0:0:0:0:
64,192,116874,1,0,0:0:0:0:
448,192,116874,1,0,0:0:0:0:
320,192,116959,1,0,0:0:0:0:
192,192,117044,1,0,0:0:0:0:
64,192,117129,1,0,0:0:0:0:
320,192,117129,1,0,0:0:0:0:
448,192,117129,1,0,0:0:0:0:
192,192,117214,1,0,0:0:0:0:
448,192,117299,1,0,0:0:0:0:
320,192,117383,1,0,0:0:0:0:
64,192,117383,1,0,0:0:0:0:
192,192,117468,1,0,0:0:0:0:
320,192,117553,1,0,0:0:0:0:
192,192,117638,1,0,0:0:0:0:
64,192,117638,1,0,0:0:0:0:
448,192,117638,1,0,0:0:0:0:
320,192,117808,1,0,0:0:0:0:
64,192,117892,1,0,0:0:0:0:
192,192,117892,1,0,0:0:0:0:
448,192,118083,1,0,0:0:0:0:
320,192,118115,1,0,0:0:0:0:
192,192,118147,1,0,0:0:0:0:
448,192,118232,1,0,0:0:0:0:
448,192,118317,1,0,0:0:0:0:
192,192,118401,1,0,0:0:0:0:
64,192,118401,1,0,0:0:0:0:
192,192,118656,1,0,0:0:0:0:
320,192,118656,1,0,0:0:0:0:
64,192,118656,1,0,0:0:0:0:
64,192,118910,1,0,0:0:0:0:
320,192,118910,1,0,0:0:0:0:
448,192,118910,1,0,0:0:0:0:
192,192,119165,1,0,0:0:0:0:
448,192,119165,128,0,119419:0:0:0:0:
64,192,119419,1,0,0:0:0:0:
320,192,119419,1,0,0:0:0:0:
192,192,119419,1,0,0:0:0:0:
64,192,119674,128,0,119928:0:0:0:0:
320,192,119674,1,0,0:0:0:0:
448,192,119928,1,0,0:0:0:0:
320,192,119928,1,0,0:0:0:0:
192,192,119928,1,0,0:0:0:0:
192,192,120183,128,0,120437:0:0:0:0:
320,192,120183,1,0,0:0:0:0:
64,192,120437,1,0,0:0:0:0:
320,192,120437,1,0,0:0:0:0:
448,192,120437,1,0,0:0:0:0:
448,192,120692,128,0,120946:0:0:0:0:
64,192,120692,1,0,0:0:0:0:
192,192,120861,1,0,0:0:0:0:
64,192,120946,1,0,0:0:0:0:
320,192,120946,1,0,0:0:0:0:
192,192,120946,1,0,0:0:0:0:
192,192,121201,1,0,0:0:0:0:
64,192,121201,128,0,121455:0:0:0:0:
192,192,121455,1,0,0:0:0:0:
320,192,121455,1,0,0:0:0:0:
448,192,121455,1,0,0:0:0:0:
320,192,121710,1,0,0:0:0:0:
448,192,121710,128,0,121964:0:0:0:0:
320,192,121964,1,0,0:0:0:0:
192,192,121964,1,0,0:0:0:0:
64,192,121964,1,0,0:0:0:0:
192,192,122219,128,0,122473:0:0:0:0:
320,192,122219,1,0,0:0:0:0:
64,192,122473,1,0,0:0:0:0:
320,192,122473,1,0,0:0:0:0:
448,192,122473,1,0,0:0:0:0:
320,192,122728,128,0,122982:0:0:0:0:
192,192,122728,1,0,0:0:0:0:
64,192,122897,1,0,0:0:0:0:
64,192,122982,1,0,0:0:0:0:
448,192,122982,1,0,0:0:0:0:
192,192,122982,128,0,123152:0:0:0:0:
320,192,123152,128,0,123321:0:0:0:0:
64,192,123152,1,0,0:0:0:0:
448,192,123321,128,0,123491:0:0:0:0:
192,192,123321,1,0,0:0:0:0:
320,192,123491,1,0,0:0:0:0:
64,192,123491,1,0,0:0:0:0:
192,192,123491,128,0,123661:0:0:0:0:
320,192,123661,128,0,123830:0:0:0:0:
448,192,123661,1,0,0:0:0:0:
64,192,123830,128,0,124000:0:0:0:0:
192,192,123830,1,0,0:0:0:0:
320,192,124000,1,0,0:0:0:0:
448,192,124000,1,0,0:0:0:0:
192,192,124000,128,0,124170:0:0:0:0:
448,192,124170,128,0,124339:0:0:0:0:
64,192,124170,1,0,0:0:0:0:
320,192,124339,128,0,124509:0:0:0:0:
192,192,124339,1,0,0:0:0:0:
64,192,124509,1,0,0:0:0:0:
448,192,124509,1,0,0:0:0:0:
192,192,124509,128,0,124679:0:0:0:0:
64,192,124679,128,0,124848:0:0:0:0:
320,192,124679,1,0,0:0:0:0:
448,192,124848,128,0,125018:0:0:0:0:
192,192,124848,1,0,0:0:0:0:
192,192,125018,1,0,0:0:0:0:
64,192,125018,1,0,0:0:0:0:
192,192,125103,1,0,0:0:0:0:
320,192,125103,1,0,0:0:0:0:
448,192,125188,1,0,0:0:0:0:
64,192,125188,1,0,0:0:0:0:
192,192,125272,1,0,0:0:0:0:
320,192,125272,1,0,0:0:0:0:
320,192,125357,1,0,0:0:0:0:
448,192,125357,1,0,0:0:0:0:
64,192,125442,1,0,0:0:0:0:
192,192,125442,1,0,0:0:0:0:
64,192,125527,1,0,0:0:0:0:
448,192,125527,1,0,0:0:0:0:
320,192,125612,1,0,0:0:0:0:
192,192,125612,1,0,0:0:0:0:
64,192,125696,1,0,0:0:0:0:
448,192,125696,1,0,0:0:0:0:
320,192,125781,1,0,0:0:0:0:
448,192,125781,1,0,0:0:0:0:
192,192,125866,1,0,0:0:0:0:
64,192,125866,1,0,0:0:0:0:
192,192,125951,1,0,0:0:0:0:
320,192,125951,1,0,0:0:0:0:
320,192,126036,1,0,0:0:0:0:
64,192,126036,1,0,0:0:0:0:
448,192,126036,128,0,126205:0:0:0:0:
192,192,126205,128,0,126375:0:0:0:0:
64,192,126375,128,0,126545:0:0:0:0:
320,192,126545,128,0,126714:0:0:0:0:
192,192,126714,128,0,126884:0:0:0:0:
64,192,126714,1,0,0:0:0:0:
448,192,126714,1,0,0:0:0:0:
448,192,126884,128,0,127054:0:0:0:0:
320,192,127054,128,0,127944:0:0:0:0:
192,192,127054,1,0,0:0:0:0:
64,192,127054,1,0,0:0:0:0:
192,192,131125,1,0,0:0:0:0:
64,192,131125,1,0,0:0:0:0:
192,192,131380,1,0,0:0:0:0:
448,192,131412,1,0,0:0:0:0:
320,192,131507,1,0,0:0:0:0:
192,192,131762,1,0,0:0:0:0:
320,192,132016,1,0,0:0:0:0:
192,192,132271,1,0,0:0:0:0:
64,192,132525,1,0,0:0:0:0:
192,192,132779,1,0,0:0:0:0:
64,192,132907,1,0,0:0:0:0:
448,192,133161,1,0,0:0:0:0:
320,192,133416,1,0,0:0:0:0:
192,192,133543,1,0,0:0:0:0:
64,192,133797,1,0,0:0:0:0:
192,192,134052,1,0,0:0:0:0:
320,192,134306,1,0,0:0:0:0:
64,192,134434,1,0,0:0:0:0:
192,192,134943,1,0,0:0:0:0:
320,192,135197,1,0,0:0:0:0:
64,192,135197,1,0,0:0:0:0:
320,192,135452,1,0,0:0:0:0:
448,192,135483,1,0,0:0:0:0:
192,192,135579,1,0,0:0:0:0:
320,192,135706,1,0,0:0:0:0:
64,192,135706,1,0,0:0:0:0:
192,192,135833,1,0,0:0:0:0:
320,192,136088,1,0,0:0:0:0:
64,192,136342,1,0,0:0:0:0:
320,192,136469,1,0,0:0:0:0:
448,192,136469,1,0,0:0:0:0:
192,192,136597,1,0,0:0:0:0:
64,192,136724,1,0,0:0:0:0:
448,192,136724,1,0,0:0:0:0:
320,192,136851,1,0,0:0:0:0:
192,192,136978,1,0,0:0:0:0:
448,192,137233,1,0,0:0:0:0:
64,192,137233,1,0,0:0:0:0:
320,192,137487,1,0,0:0:0:0:
192,192,137615,1,0,0:0:0:0:
320,192,137742,1,0,0:0:0:0:
448,192,137742,1,0,0:0:0:0:
64,192,137869,1,0,0:0:0:0:
192,192,138124,1,0,0:0:0:0:
64,192,138505,1,0,0:0:0:0:
320,192,138633,1,0,0:0:0:0:
448,192,138760,1,0,0:0:0:0:
192,192,138760,1,0,0:0:0:0:
320,193,139269,1,0,0:0:0:0:
64,193,139269,1,0,0:0:0:0:
320,193,139523,1,0,0:0:0:0:
448,193,139555,1,0,0:0:0:0:
192,193,139650,1,0,0:0:0:0:
64,193,139778,1,0,0:0:0:0:
320,193,139778,1,0,0:0:0:0:
192,193,139905,1,0,0:0:0:0:
320,193,140159,1,0,0:0:0:0:
64,193,140414,1,0,0:0:0:0:
448,193,140541,1,0,0:0:0:0:
320,193,140541,1,0,0:0:0:0:
192,193,140668,1,0,0:0:0:0:
64,193,140796,1,0,0:0:0:0:
448,193,140796,1,0,0:0:0:0:
320,193,140923,1,0,0:0:0:0:
448,193,141050,1,0,0:0:0:0:
192,193,141050,1,0,0:0:0:0:
64,192,141050,128,0,141177:0:0:0:0:
320,192,141177,128,0,141305:0:0:0:0:
448,192,141305,1,0,0:0:0:0:
192,192,141432,128,0,141559:0:0:0:0:
64,192,141559,128,0,141686:0:0:0:0:
320,192,141686,128,0,141814:0:0:0:0:
448,192,141814,128,0,141941:0:0:0:0:
192,192,141814,1,0,0:0:0:0:
320,192,141941,128,0,142068:0:0:0:0:
64,192,142068,128,0,142195:0:0:0:0:
448,192,142195,128,0,142322:0:0:0:0:
192,192,142322,128,0,142450:0:0:0:0:
64,192,142450,128,0,142577:0:0:0:0:
320,192,142577,128,0,142704:0:0:0:0:
192,192,142577,1,0,0:0:0:0:
448,192,142704,128,0,142831:0:0:0:0:
192,192,142831,128,0,142959:0:0:0:0:
64,192,142831,1,0,0:0:0:0:
320,192,142959,128,0,143086:0:0:0:0:
448,192,143086,128,0,143213:0:0:0:0:
192,192,143213,128,0,143340:0:0:0:0:
320,192,143340,1,0,0:0:0:0:
64,192,143340,1,0,0:0:0:0:
448,192,143340,1,0,0:0:0:0:
320,192,143468,128,0,143595:0:0:0:0:
192,192,143595,128,0,143722:0:0:0:0:
448,192,143595,1,0,0:0:0:0:
64,192,143722,128,0,143849:0:0:0:0:
320,192,143849,128,0,143977:0:0:0:0:
448,192,143849,1,0,0:0:0:0:
192,192,143977,128,0,144104:0:0:0:0:
320,192,144104,128,0,144231:0:0:0:0:
64,192,144104,1,0,0:0:0:0:
448,192,144231,128,0,144358:0:0:0:0:
64,192,144358,1,0,0:0:0:0:
320,192,144486,128,0,144613:0:0:0:0:
192,192,144613,128,0,144740:0:0:0:0:
448,192,144613,1,0,0:0:0:0:
64,192,144740,128,0,144867:0:0:0:0:
320,192,144867,128,0,144995:0:0:0:0:
448,192,144867,1,0,0:0:0:0:
192,192,144995,128,0,145122:0:0:0:0:
320,192,145122,128,0,145249:0:0:0:0:
64,192,145122,1,0,0:0:0:0:
448,192,145249,128,0,145376:0:0:0:0:
64,192,145376,1,0,0:0:0:0:
192,192,145376,1,0,0:0:0:0:
320,192,145376,1,0,0:0:0:0:
320,192,145503,128,0,145631:0:0:0:0:
192,192,145631,128,0,145758:0:0:0:0:
448,192,145631,1,0,0:0:0:0:
64,192,145758,128,0,145885:0:0:0:0:
320,192,145885,128,0,146012:0:0:0:0:
448,192,145885,1,0,0:0:0:0:
192,192,146012,128,0,146140:0:0:0:0:
320,192,146140,128,0,146267:0:0:0:0:
64,192,146140,1,0,0:0:0:0:
448,192,146267,128,0,146394:0:0:0:0:
64,192,146394,1,0,0:0:0:0:
320,192,146394,1,0,0:0:0:0:
192,192,146394,1,0,0:0:0:0:
192,192,146521,128,0,146649:0:0:0:0:
64,192,146649,128,0,146776:0:0:0:0:
448,192,146649,1,0,0:0:0:0:
320,192,146776,128,0,146903:0:0:0:0:
448,192,146903,128,0,147030:0:0:0:0:
64,192,146903,1,0,0:0:0:0:
192,192,147030,128,0,147158:0:0:0:0:
64,192,147158,128,0,147285:0:0:0:0:
320,192,147158,1,0,0:0:0:0:
448,192,147285,128,0,147412:0:0:0:0:
320,192,147412,1,0,0:0:0:0:
192,192,147412,1,0,0:0:0:0:
64,192,147412,1,0,0:0:0:0:
320,192,147539,1,0,0:0:0:0:
448,192,147539,1,0,0:0:0:0:
448,192,147667,1,0,0:0:0:0:
192,192,147667,1,0,0:0:0:0:
320,192,147794,1,0,0:0:0:0:
64,192,147794,1,0,0:0:0:0:
64,192,147921,1,0,0:0:0:0:
192,192,147921,1,0,0:0:0:0:
448,192,147921,1,0,0:0:0:0:
192,192,148048,1,0,0:0:0:0:
320,192,148048,1,0,0:0:0:0:
320,192,148176,1,0,0:0:0:0:
448,192,148176,1,0,0:0:0:0:
64,192,148303,1,0,0:0:0:0:
192,192,148303,1,0,0:0:0:0:
192,192,148430,1,0,0:0:0:0:
320,192,148430,1,0,0:0:0:0:
448,192,148430,1,0,0:0:0:0:
64,192,148557,1,0,0:0:0:0:
448,192,148557,1,0,0:0:0:0:
192,192,148684,1,0,0:0:0:0:
64,192,148684,1,0,0:0:0:0:
320,192,148812,1,0,0:0:0:0:
448,192,148812,1,0,0:0:0:0:
320,192,148939,1,0,0:0:0:0:
192,192,148939,1,0,0:0:0:0:
64,192,148939,1,0,0:0:0:0:
192,192,149066,1,0,0:0:0:0:
448,192,149066,1,0,0:0:0:0:
448,192,149193,1,0,0:0:0:0:
320,192,149193,1,0,0:0:0:0:
192,192,149321,1,0,0:0:0:0:
64,192,149321,1,0,0:0:0:0:
64,192,149448,128,0,149575:0:0:0:0:
320,192,149448,1,0,0:0:0:0:
448,192,149448,1,0,0:0:0:0:
192,192,149575,128,0,149702:0:0:0:0:
320,192,149702,128,0,149830:0:0:0:0:
64,192,149702,1,0,0:0:0:0:
448,192,149702,1,0,0:0:0:0:
192,192,149830,128,0,149957:0:0:0:0:
64,192,149957,128,0,150084:0:0:0:0:
320,192,149957,1,0,0:0:0:0:
448,192,149957,1,0,0:0:0:0:
192,192,150084,128,0,150211:0:0:0:0:
320,192,150211,128,0,150339:0:0:0:0:
448,192,150211,1,0,0:0:0:0:
64,192,150211,1,0,0:0:0:0:
192,192,150339,128,0,150466:0:0:0:0:
64,192,150466,1,0,0:0:0:0:
448,192,150975,1,0,0:0:0:0:
320,192,150975,128,0,151102:0:0:0:0:
192,192,151102,128,0,151229:0:0:0:0:
64,192,151229,1,0,0:0:0:0:
448,192,151229,128,0,151357:0:0:0:0:
320,192,151357,128,0,151484:0:0:0:0:
192,192,151484,1,0,0:0:0:0:
64,192,151484,1,0,0:0:0:0:
448,192,151484,1,0,0:0:0:0:
320,192,151547,1,0,0:0:0:0:
192,192,151611,1,0,0:0:0:0:
64,192,151675,1,0,0:0:0:0:
320,192,151738,1,0,0:0:0:0:
448,192,151738,1,0,0:0:0:0:
192,192,151802,1,0,0:0:0:0:
64,192,151865,1,0,0:0:0:0:
448,192,151929,1,0,0:0:0:0:
192,192,151993,1,0,0:0:0:0:
64,192,151993,1,0,0:0:0:0:
320,192,152056,1,0,0:0:0:0:
448,192,152120,1,0,0:0:0:0:
64,192,152184,1,0,0:0:0:0:
320,192,152247,1,0,0:0:0:0:
448,192,152247,1,0,0:0:0:0:
192,192,152311,1,0,0:0:0:0:
64,192,152374,1,0,0:0:0:0:
320,192,152374,1,0,0:0:0:0:
448,192,152438,1,0,0:0:0:0:
192,192,152502,1,0,0:0:0:0:
64,192,152502,1,0,0:0:0:0:
320,192,152565,1,0,0:0:0:0:
448,192,152629,1,0,0:0:0:0:
64,192,152693,1,0,0:0:0:0:
192,192,152756,1,0,0:0:0:0:
320,192,152756,1,0,0:0:0:0:
448,192,152820,1,0,0:0:0:0:
64,192,152883,1,0,0:0:0:0:
192,192,152947,1,0,0:0:0:0:
448,192,153011,1,0,0:0:0:0:
320,192,153011,1,0,0:0:0:0:
64,192,153074,1,0,0:0:0:0:
192,192,153138,1,0,0:0:0:0:
320,192,153202,1,0,0:0:0:0:
64,192,153265,1,0,0:0:0:0:
448,192,153265,1,0,0:0:0:0:
192,192,153329,1,0,0:0:0:0:
320,192,153392,1,0,0:0:0:0:
192,192,153456,1,0,0:0:0:0:
320,192,153520,1,0,0:0:0:0:
448,192,153520,1,0,0:0:0:0:
64,192,153583,1,0,0:0:0:0:
192,192,153647,1,0,0:0:0:0:
448,192,153710,1,0,0:0:0:0:
320,192,153774,1,0,0:0:0:0:
64,192,153774,1,0,0:0:0:0:
192,192,153838,1,0,0:0:0:0:
320,192,153901,1,0,0:0:0:0:
448,192,153965,1,0,0:0:0:0:
192,192,154029,1,0,0:0:0:0:
64,192,154029,1,0,0:0:0:0:
320,192,154092,1,0,0:0:0:0:
192,192,154156,1,0,0:0:0:0:
64,192,154219,1,0,0:0:0:0:
320,192,154283,1,0,0:0:0:0:
448,192,154283,1,0,0:0:0:0:
192,192,154347,1,0,0:0:0:0:
448,192,154410,1,0,0:0:0:0:
64,192,154410,1,0,0:0:0:0:
320,192,154474,1,0,0:0:0:0:
192,192,154538,1,0,0:0:0:0:
64,192,154538,1,0,0:0:0:0:
448,192,154601,1,0,0:0:0:0:
320,192,154665,1,0,0:0:0:0:
192,192,154728,1,0,0:0:0:0:
64,192,154792,1,0,0:0:0:0:
448,192,154792,1,0,0:0:0:0:
320,192,154877,1,0,0:0:0:0:
448,192,154962,1,0,0:0:0:0:
192,192,155046,1,0,0:0:0:0:
64,192,155046,1,0,0:0:0:0:
320,192,155110,1,0,0:0:0:0:
64,192,155174,1,0,0:0:0:0:
192,192,155237,1,0,0:0:0:0:
448,192,155301,1,0,0:0:0:0:
320,192,155555,1,0,0:0:0:0:
192,192,155555,1,0,0:0:0:0:
448,192,155619,1,0,0:0:0:0:
64,192,155683,1,0,0:0:0:0:
192,192,155746,1,0,0:0:0:0:
320,192,155810,1,0,0:0:0:0:
448,192,155810,1,0,0:0:0:0:
64,192,155874,1,0,0:0:0:0:
192,192,155937,1,0,0:0:0:0:
320,192,156001,1,0,0:0:0:0:
64,192,156064,1,0,0:0:0:0:
448,192,156064,1,0,0:0:0:0:
192,192,156128,1,0,0:0:0:0:
320,192,156192,1,0,0:0:0:0:
192,192,156255,1,0,0:0:0:0:
64,192,156319,1,0,0:0:0:0:
320,192,156319,1,0,0:0:0:0:
448,192,156383,1,0,0:0:0:0:
192,192,156446,1,0,0:0:0:0:
64,192,156510,1,0,0:0:0:0:
320,192,156573,1,0,0:0:0:0:
448,192,156573,1,0,0:0:0:0:
192,192,156637,1,0,0:0:0:0:
64,192,156701,1,0,0:0:0:0:
448,192,156764,1,0,0:0:0:0:
192,192,156828,1,0,0:0:0:0:
64,192,156828,1,0,0:0:0:0:
320,192,156891,1,0,0:0:0:0:
448,192,156955,1,0,0:0:0:0:
192,192,156955,1,0,0:0:0:0:
64,192,157019,1,0,0:0:0:0:
320,192,157082,1,0,0:0:0:0:
448,192,157082,1,0,0:0:0:0:
192,192,157146,1,0,0:0:0:0:
64,192,157210,1,0,0:0:0:0:
320,192,157210,1,0,0:0:0:0:
448,192,157273,1,0,0:0:0:0:
64,192,157337,1,0,0:0:0:0:
192,192,157337,1,0,0:0:0:0:
320,192,157400,1,0,0:0:0:0:
448,192,157464,1,0,0:0:0:0:
64,192,157464,1,0,0:0:0:0:
192,192,157528,1,0,0:0:0:0:
320,192,157591,1,0,0:0:0:0:
448,192,157591,1,0,0:0:0:0:
64,192,157655,1,0,0:0:0:0:
320,192,157719,1,0,0:0:0:0:
192,192,157782,1,0,0:0:0:0:
64,192,157846,1,0,0:0:0:0:
448,192,157846,1,0,0:0:0:0:
320,192,157909,1,0,0:0:0:0:
192,192,157973,1,0,0:0:0:0:
64,192,158037,1,0,0:0:0:0:
320,192,158100,1,0,0:0:0:0:
448,192,158100,1,0,0:0:0:0:
192,192,158164,1,0,0:0:0:0:
320,192,158227,1,0,0:0:0:0:
192,192,158291,1,0,0:0:0:0:
64,192,158355,1,0,0:0:0:0:
448,192,158355,1,0,0:0:0:0:
320,192,158418,1,0,0:0:0:0:
192,192,158482,1,0,0:0:0:0:
64,192,158546,1,0,0:0:0:0:
448,192,158609,1,0,0:0:0:0:
448,192,158991,1,0,0:0:0:0:
320,192,159055,1,0,0:0:0:0:
192,192,159118,1,0,0:0:0:0:
64,192,159118,1,0,0:0:0:0:
64,192,159245,1,0,0:0:0:0:
448,192,159245,1,0,0:0:0:0:
448,192,159373,1,0,0:0:0:0:
64,192,159373,1,0,0:0:0:0:
448,192,159500,1,0,0:0:0:0:
64,192,159500,1,0,0:0:0:0:
192,192,159627,1,0,0:0:0:0:
320,192,159627,1,0,0:0:0:0:
448,192,159627,1,0,0:0:0:0:
64,192,159691,1,0,0:0:0:0:
320,192,159754,1,0,0:0:0:0:
192,192,159818,1,0,0:0:0:0:
64,192,159882,1,0,0:0:0:0:
448,192,159882,1,0,0:0:0:0:
320,192,159945,1,0,0:0:0:0:
192,192,160009,1,0,0:0:0:0:
448,192,160072,1,0,0:0:0:0:
64,192,160136,1,0,0:0:0:0:
192,192,160136,1,0,0:0:0:0:
320,192,160200,1,0,0:0:0:0:
448,192,160263,1,0,0:0:0:0:
64,192,160327,1,0,0:0:0:0:
320,192,160391,1,0,0:0:0:0:
448,192,160391,1,0,0:0:0:0:
192,192,160454,1,0,0:0:0:0:
64,192,160518,1,0,0:0:0:0:
448,192,160518,1,0,0:0:0:0:
320,192,160581,1,0,0:0:0:0:
192,192,160645,1,0,0:0:0:0:
64,192,160645,1,0,0:0:0:0:
448,192,160709,1,0,0:0:0:0:
320,192,160772,1,0,0:0:0:0:
192,192,160836,1,0,0:0:0:0:
64,192,160900,1,0,0:0:0:0:
448,192,160900,1,0,0:0:0:0:
320,192,160963,1,0,0:0:0:0:
192,192,161027,1,0,0:0:0:0:
64,192,161090,1,0,0:0:0:0:
320,192,161154,1,0,0:0:0:0:
448,192,161154,1,0,0:0:0:0:
192,192,161218,1,0,0:0:0:0:
320,192,161281,1,0,0:0:0:0:
64,192,161345,1,0,0:0:0:0:
192,192,161408,1,0,0:0:0:0:
448,192,161408,1,0,0:0:0:0:
320,192,161472,1,0,0:0:0:0:
192,192,161536,1,0,0:0:0:0:
64,192,161599,1,0,0:0:0:0:
320,192,161663,1,0,0:0:0:0:
448,192,161663,1,0,0:0:0:0:
192,192,161727,1,0,0:0:0:0:
320,192,161790,1,0,0:0:0:0:
64,192,161854,1,0,0:0:0:0:
192,192,161917,1,0,0:0:0:0:
448,192,161917,1,0,0:0:0:0:
320,192,161981,1,0,0:0:0:0:
448,192,162045,1,0,0:0:0:0:
192,192,162108,1,0,0:0:0:0:
64,192,162172,1,0,0:0:0:0:
320,192,162172,1,0,0:0:0:0:
448,192,162236,1,0,0:0:0:0:
64,192,162299,1,0,0:0:0:0:
192,192,162363,1,0,0:0:0:0:
320,192,162426,1,0,0:0:0:0:
448,192,162426,1,0,0:0:0:0:
64,192,162490,1,0,0:0:0:0:
192,192,162554,1,0,0:0:0:0:
320,192,162554,1,0,0:0:0:0:
448,192,162617,1,0,0:0:0:0:
192,192,162681,1,0,0:0:0:0:
64,192,162681,1,0,0:0:0:0:
320,192,162745,1,0,0:0:0:0:
192,192,162808,1,0,0:0:0:0:
320,192,162872,1,0,0:0:0:0:
64,192,162935,1,0,0:0:0:0:
448,192,162935,1,0,0:0:0:0:
192,192,163020,1,0,0:0:0:0:
320,192,163105,1,0,0:0:0:0:
192,192,163190,1,0,0:0:0:0:
64,192,163190,1,0,0:0:0:0:
448,192,163317,1,0,0:0:0:0:
64,192,163317,1,0,0:0:0:0:
320,192,163359,1,0,0:0:0:0:
192,192,163402,1,0,0:0:0:0:
64,192,163444,1,0,0:0:0:0:
448,192,163444,1,0,0:0:0:0:
320,192,163572,1,0,0:0:0:0:
192,192,163572,1,0,0:0:0:0:
448,192,163699,1,0,0:0:0:0:
192,192,163699,1,0,0:0:0:0:
64,192,163699,1,0,0:0:0:0:
320,192,163762,1,0,0:0:0:0:
192,192,163826,1,0,0:0:0:0:
64,192,163890,1,0,0:0:0:0:
320,192,163953,1,0,0:0:0:0:
448,192,163953,1,0,0:0:0:0:
192,192,164017,1,0,0:0:0:0:
64,192,164081,1,0,0:0:0:0:
320,192,164144,1,0,0:0:0:0:
192,192,164208,1,0,0:0:0:0:
448,192,164208,1,0,0:0:0:0:
64,192,164271,1,0,0:0:0:0:
320,192,164335,1,0,0:0:0:0:
192,192,164399,1,0,0:0:0:0:
320,192,164462,1,0,0:0:0:0:
448,192,164462,1,0,0:0:0:0:
64,192,164526,1,0,0:0:0:0:
192,192,164589,1,0,0:0:0:0:
320,192,164653,1,0,0:0:0:0:
64,192,164717,1,0,0:0:0:0:
448,192,164717,1,0,0:0:0:0:
192,192,164717,1,0,0:0:0:0:
320,192,164780,1,0,0:0:0:0:
192,192,164844,1,0,0:0:0:0:
64,192,164908,1,0,0:0:0:0:
320,192,164971,1,0,0:0:0:0:
448,192,164971,1,0,0:0:0:0:
192,192,165035,1,0,0:0:0:0:
64,192,165098,1,0,0:0:0:0:
320,192,165098,1,0,0:0:0:0:
448,192,165162,1,0,0:0:0:0:
192,192,165226,1,0,0:0:0:0:
64,192,165226,1,0,0:0:0:0:
320,192,165289,1,0,0:0:0:0:
448,192,165353,1,0,0:0:0:0:
192,192,165353,1,0,0:0:0:0:
64,192,165417,1,0,0:0:0:0:
320,192,165480,1,0,0:0:0:0:
448,192,165480,1,0,0:0:0:0:
192,192,165544,1,0,0:0:0:0:
64,192,165607,1,0,0:0:0:0:
320,192,165607,1,0,0:0:0:0:
448,192,165671,1,0,0:0:0:0:
320,192,165735,1,0,0:0:0:0:
192,192,165735,1,0,0:0:0:0:
64,192,165735,1,0,0:0:0:0:
448,192,165798,1,0,0:0:0:0:
64,192,165862,1,0,0:0:0:0:
192,192,165926,1,0,0:0:0:0:
320,192,165989,1,0,0:0:0:0:
448,192,165989,1,0,0:0:0:0:
64,192,166053,1,0,0:0:0:0:
192,192,166116,1,0,0:0:0:0:
320,192,166180,1,0,0:0:0:0:
192,192,166244,1,0,0:0:0:0:
64,192,166244,1,0,0:0:0:0:
448,192,166244,1,0,0:0:0:0:
320,192,166307,1,0,0:0:0:0:
192,192,166371,1,0,0:0:0:0:
64,192,166434,1,0,0:0:0:0:
448,192,166498,1,0,0:0:0:0:
320,192,166498,1,0,0:0:0:0:
192,192,166562,1,0,0:0:0:0:
320,192,166625,1,0,0:0:0:0:
64,192,166689,1,0,0:0:0:0:
448,192,166753,1,0,0:0:0:0:
192,192,166753,1,0,0:0:0:0:
320,192,166753,1,0,0:0:0:0:
64,192,166880,1,0,0:0:0:0:
448,192,166880,1,0,0:0:0:0:
192,192,167007,1,0,0:0:0:0:
64,192,167007,1,0,0:0:0:0:
192,192,167134,1,0,0:0:0:0:
320,192,167134,1,0,0:0:0:0:
320,192,167262,1,0,0:0:0:0:
448,192,167262,128,0,167389:0:0:0:0:
192,192,167389,128,0,167516:0:0:0:0:
64,192,167516,128,0,167643:0:0:0:0:
448,192,167516,1,0,0:0:0:0:
320,192,167643,128,0,167770:0:0:0:0:
192,192,167770,1,0,0:0:0:0:
64,192,167770,1,0,0:0:0:0:
448,192,167770,1,0,0:0:0:0:
320,192,167898,128,0,168025:0:0:0:0:
320,192,168152,128,0,168279:0:0:0:0:
320,192,168407,128,0,168534:0:0:0:0:
320,192,168661,128,0,168788:0:0:0:0:
192,192,168661,1,0,0:0:0:0:
64,192,168661,1,0,0:0:0:0:
64,192,168788,1,0,0:0:0:0:
448,192,168788,1,0,0:0:0:0:
192,192,168916,128,0,169043:0:0:0:0:
192,192,169170,128,0,169297:0:0:0:0:
192,192,169425,128,0,169552:0:0:0:0:
192,192,169679,128,0,169806:0:0:0:0:
448,192,169679,1,0,0:0:0:0:
448,192,169806,1,0,0:0:0:0:
320,192,169806,1,0,0:0:0:0:
64,192,169934,128,0,170061:0:0:0:0:
64,192,170188,128,0,170315:0:0:0:0:
192,192,170315,1,0,0:0:0:0:
320,192,170315,1,0,0:0:0:0:
448,192,170315,1,0,0:0:0:0:
448,192,170506,1,0,0:0:0:0:
192,192,170506,1,0,0:0:0:0:
64,192,170506,1,0,0:0:0:0:
64,192,170697,1,0,0:0:0:0:
192,192,170697,1,0,0:0:0:0:
320,192,170697,1,0,0:0:0:0:
320,192,170824,1,0,0:0:0:0:
448,192,170824,1,0,0:0:0:0:
64,192,170824,1,0,0:0:0:0:
192,192,170951,1,0,0:0:0:0:
448,192,170951,1,0,0:0:0:0:
320,192,171079,1,0,0:0:0:0:
192,192,171079,1,0,0:0:0:0:
64,192,171079,1,0,0:0:0:0:
64,192,171206,1,0,0:0:0:0:
448,192,171206,1,0,0:0:0:0:
320,192,171333,1,0,0:0:0:0:
192,192,171333,1,0,0:0:0:0:
448,192,171333,1,0,0:0:0:0:
64,192,171460,1,0,0:0:0:0:
448,192,171460,1,0,0:0:0:0:
320,192,171503,1,0,0:0:0:0:
192,192,171545,1,0,0:0:0:0:
64,192,171588,1,0,0:0:0:0:
448,192,171588,1,0,0:0:0:0:
320,192,171715,1,0,0:0:0:0:
448,192,171747,1,0,0:0:0:0:
192,192,171779,1,0,0:0:0:0:
64,192,171810,1,0,0:0:0:0:
448,192,171842,1,0,0:0:0:0:
320,192,171842,128,0,172097:0:0:0:0:
448,192,172097,128,0,172351:0:0:0:0:
64,192,172224,1,0,0:0:0:0:
192,192,172224,1,0,0:0:0:0:
192,192,172351,128,0,172606:0:0:0:0:
64,192,172351,1,0,0:0:0:0:
320,192,172351,1,0,0:0:0:0:
64,192,172606,128,0,172860:0:0:0:0:
448,192,172733,1,0,0:0:0:0:
320,192,172733,1,0,0:0:0:0:
320,192,172860,1,0,0:0:0:0:
192,192,172860,1,0,0:0:0:0:
448,192,172860,128,0,173242:0:0:0:0:
192,192,173242,1,0,0:0:0:0:
64,192,173242,1,0,0:0:0:0:
320,192,173369,1,0,0:0:0:0:
192,192,173369,1,0,0:0:0:0:
64,192,173496,1,0,0:0:0:0:
320,192,173560,1,0,0:0:0:0:
448,192,173560,1,0,0:0:0:0:
64,192,173624,1,0,0:0:0:0:
320,192,173751,1,0,0:0:0:0:
192,192,173751,1,0,0:0:0:0:
64,192,173878,1,0,0:0:0:0:
192,192,173878,1,0,0:0:0:0:
448,192,173878,1,0,0:0:0:0:
320,192,173942,1,0,0:0:0:0:
448,192,174005,1,0,0:0:0:0:
64,192,174069,1,0,0:0:0:0:
192,192,174132,1,0,0:0:0:0:
320,192,174132,1,0,0:0:0:0:
448,192,174196,1,0,0:0:0:0:
64,192,174260,1,0,0:0:0:0:
192,192,174323,1,0,0:0:0:0:
64,192,174387,1,0,0:0:0:0:
320,192,174387,1,0,0:0:0:0:
448,192,174451,1,0,0:0:0:0:
192,192,174514,1,0,0:0:0:0:
64,192,174578,1,0,0:0:0:0:
320,192,174641,1,0,0:0:0:0:
448,192,174641,1,0,0:0:0:0:
192,192,174705,1,0,0:0:0:0:
64,192,174769,1,0,0:0:0:0:
448,192,174832,1,0,0:0:0:0:
320,192,174896,1,0,0:0:0:0:
192,192,174896,1,0,0:0:0:0:
192,192,175023,1,0,0:0:0:0:
64,192,175023,1,0,0:0:0:0:
320,192,175150,1,0,0:0:0:0:
448,192,175150,1,0,0:0:0:0:
320,192,175278,1,0,0:0:0:0:
192,192,175278,1,0,0:0:0:0:
448,192,175341,1,0,0:0:0:0:
192,192,175405,1,0,0:0:0:0:
64,192,175405,1,0,0:0:0:0:
448,192,175532,1,0,0:0:0:0:
320,192,175532,1,0,0:0:0:0:
448,192,175659,1,0,0:0:0:0:
320,192,175659,1,0,0:0:0:0:
448,192,175787,1,0,0:0:0:0:
320,192,175787,1,0,0:0:0:0:
192,192,175914,1,0,0:0:0:0:
64,192,175914,1,0,0:0:0:0:
448,192,175914,1,0,0:0:0:0:
320,192,175956,1,0,0:0:0:0:
192,192,175999,1,0,0:0:0:0:
64,192,176041,1,0,0:0:0:0:
448,192,176083,1,0,0:0:0:0:
320,192,176126,1,0,0:0:0:0:
192,192,176168,1,0,0:0:0:0:
64,192,176168,1,0,0:0:0:0:
448,192,176211,1,0,0:0:0:0:
320,192,176253,1,0,0:0:0:0:
192,192,176296,1,0,0:0:0:0:
64,192,176338,1,0,0:0:0:0:
448,192,176380,1,0,0:0:0:0:
320,192,176423,1,0,0:0:0:0:
192,192,176423,1,0,0:0:0:0:
64,192,176465,1,0,0:0:0:0:
448,192,176508,1,0,0:0:0:0:
320,192,176550,1,0,0:0:0:0:
192,192,176592,1,0,0:0:0:0:
64,192,176635,1,0,0:0:0:0:
448,192,176677,1,0,0:0:0:0:
320,192,176677,1,0,0:0:0:0:
192,192,176741,1,0,0:0:0:0:
64,192,176805,1,0,0:0:0:0:
448,192,176805,1,0,0:0:0:0:
320,192,176868,1,0,0:0:0:0:
192,192,176932,1,0,0:0:0:0:
64,192,176932,1,0,0:0:0:0:
320,192,176995,1,0,0:0:0:0:
448,192,177059,1,0,0:0:0:0:
64,192,177123,1,0,0:0:0:0:
192,192,177186,1,0,0:0:0:0:
320,192,177186,1,0,0:0:0:0:
448,192,177250,1,0,0:0:0:0:
64,192,177313,1,0,0:0:0:0:
192,192,177377,1,0,0:0:0:0:
320,192,177441,1,0,0:0:0:0:
448,192,177441,1,0,0:0:0:0:
192,192,177504,1,0,0:0:0:0:
64,192,177568,1,0,0:0:0:0:
448,192,177632,1,0,0:0:0:0:
320,192,177695,1,0,0:0:0:0:
192,192,177695,1,0,0:0:0:0:
64,192,177759,1,0,0:0:0:0:
448,192,177822,1,0,0:0:0:0:
320,192,177886,1,0,0:0:0:0:
64,192,177950,1,0,0:0:0:0:
192,192,177950,1,0,0:0:0:0:
448,192,177950,1,0,0:0:0:0:
320,192,178013,1,0,0:0:0:0:
64,192,178077,1,0,0:0:0:0:
192,192,178141,1,0,0:0:0:0:
64,192,178204,1,0,0:0:0:0:
448,192,178204,1,0,0:0:0:0:
320,192,178268,1,0,0:0:0:0:
192,192,178331,1,0,0:0:0:0:
64,192,178395,1,0,0:0:0:0:
320,192,178459,1,0,0:0:0:0:
448,192,178459,1,0,0:0:0:0:
192,192,178522,1,0,0:0:0:0:
448,192,178586,1,0,0:0:0:0:
320,192,178649,1,0,0:0:0:0:
192,192,178713,1,0,0:0:0:0:
64,192,178713,1,0,0:0:0:0:
448,192,178777,1,0,0:0:0:0:
320,192,178840,1,0,0:0:0:0:
64,192,178840,1,0,0:0:0:0:
192,192,178904,1,0,0:0:0:0:
320,192,178968,1,0,0:0:0:0:
448,192,178968,1,0,0:0:0:0:
64,192,179031,1,0,0:0:0:0:
192,192,179095,1,0,0:0:0:0:
320,192,179158,1,0,0:0:0:0:
64,192,179222,1,0,0:0:0:0:
448,192,179222,1,0,0:0:0:0:
192,192,179307,1,0,0:0:0:0:
320,192,179392,1,0,0:0:0:0:
192,192,179477,1,0,0:0:0:0:
64,192,179477,1,0,0:0:0:0:
64,192,179604,1,0,0:0:0:0:
448,192,179604,1,0,0:0:0:0:
192,192,179646,1,0,0:0:0:0:
320,192,179689,1,0,0:0:0:0:
448,192,179731,1,0,0:0:0:0:
64,192,179731,1,0,0:0:0:0:
192,192,179858,1,0,0:0:0:0:
320,192,179858,1,0,0:0:0:0:
64,192,179986,1,0,0:0:0:0:
320,192,179986,1,0,0:0:0:0:
448,192,179986,1,0,0:0:0:0:
192,192,180028,1,0,0:0:0:0:
320,192,180070,1,0,0:0:0:0:
448,192,180113,1,0,0:0:0:0:
64,192,180155,1,0,0:0:0:0:
192,192,180198,1,0,0:0:0:0:
320,192,180240,1,0,0:0:0:0:
448,192,180240,1,0,0:0:0:0:
64,192,180282,1,0,0:0:0:0:
192,192,180325,1,0,0:0:0:0:
320,192,180367,1,0,0:0:0:0:
448,192,180410,1,0,0:0:0:0:
64,192,180452,1,0,0:0:0:0:
192,192,180494,1,0,0:0:0:0:
320,192,180494,1,0,0:0:0:0:
448,192,180537,1,0,0:0:0:0:
64,192,180579,1,0,0:0:0:0:
192,192,180622,1,0,0:0:0:0:
320,192,180664,1,0,0:0:0:0:
448,192,180707,1,0,0:0:0:0:
192,192,180749,1,0,0:0:0:0:
64,192,180749,1,0,0:0:0:0:
320,192,180791,1,0,0:0:0:0:
448,192,180834,1,0,0:0:0:0:
64,192,180876,1,0,0:0:0:0:
192,192,180919,1,0,0:0:0:0:
320,192,180961,1,0,0:0:0:0:
448,192,181003,1,0,0:0:0:0:
64,192,181003,1,0,0:0:0:0:
192,192,181003,1,0,0:0:0:0:
320,192,181067,1,0,0:0:0:0:
192,192,181131,1,0,0:0:0:0:
64,192,181194,1,0,0:0:0:0:
320,192,181258,1,0,0:0:0:0:
448,192,181258,1,0,0:0:0:0:
192,192,181322,1,0,0:0:0:0:
64,192,181385,1,0,0:0:0:0:
320,192,181385,1,0,0:0:0:0:
448,192,181449,1,0,0:0:0:0:
192,192,181512,1,0,0:0:0:0:
64,192,181512,1,0,0:0:0:0:
320,192,181576,1,0,0:0:0:0:
448,192,181640,1,0,0:0:0:0:
192,192,181640,1,0,0:0:0:0:
64,192,181703,1,0,0:0:0:0:
320,192,181767,1,0,0:0:0:0:
448,192,181767,1,0,0:0:0:0:
64,192,181830,1,0,0:0:0:0:
192,192,181894,1,0,0:0:0:0:
320,192,181894,1,0,0:0:0:0:
448,192,181958,1,0,0:0:0:0:
192,192,182021,1,0,0:0:0:0:
64,192,182021,1,0,0:0:0:0:
320,192,182021,1,0,0:0:0:0:
448,192,182085,1,0,0:0:0:0:
64,192,182149,1,0,0:0:0:0:
192,192,182212,1,0,0:0:0:0:
320,192,182276,1,0,0:0:0:0:
448,192,182276,1,0,0:0:0:0:
64,192,182339,1,0,0:0:0:0:
192,192,182403,1,0,0:0:0:0:
448,192,182403,1,0,0:0:0:0:
320,192,182467,1,0,0:0:0:0:
192,192,182530,1,0,0:0:0:0:
64,192,182530,1,0,0:0:0:0:
448,192,182594,1,0,0:0:0:0:
320,192,182658,1,0,0:0:0:0:
192,192,182721,1,0,0:0:0:0:
64,192,182785,1,0,0:0:0:0:
448,192,182785,1,0,0:0:0:0:
320,192,182848,1,0,0:0:0:0:
192,192,182912,1,0,0:0:0:0:
320,192,182976,1,0,0:0:0:0:
192,192,183039,1,0,0:0:0:0:
64,192,183039,1,0,0:0:0:0:
448,192,183039,1,0,0:0:0:0:
320,192,183103,1,0,0:0:0:0:
448,192,183167,1,0,0:0:0:0:
64,192,183167,1,0,0:0:0:0:
192,192,183230,1,0,0:0:0:0:
320,192,183294,1,0,0:0:0:0:
448,192,183294,1,0,0:0:0:0:
64,192,183357,1,0,0:0:0:0:
192,192,183421,1,0,0:0:0:0:
320,192,183421,1,0,0:0:0:0:
448,192,183485,1,0,0:0:0:0:
192,192,183548,1,0,0:0:0:0:
64,192,183548,1,0,0:0:0:0:
320,192,183612,1,0,0:0:0:0:
448,192,183675,1,0,0:0:0:0:
192,192,183675,1,0,0:0:0:0:
64,192,183739,1,0,0:0:0:0:
320,192,183803,1,0,0:0:0:0:
448,192,183803,1,0,0:0:0:0:
192,192,183866,1,0,0:0:0:0:
64,192,183930,1,0,0:0:0:0:
320,192,183930,1,0,0:0:0:0:
448,192,183994,1,0,0:0:0:0:
192,192,184057,1,0,0:0:0:0:
64,192,184057,1,0,0:0:0:0:
320,192,184121,1,0,0:0:0:0:
192,192,184184,1,0,0:0:0:0:
64,192,184184,1,0,0:0:0:0:
448,192,184248,1,0,0:0:0:0:
320,192,184312,1,0,0:0:0:0:
192,192,184312,1,0,0:0:0:0:
64,192,184375,1,0,0:0:0:0:
320,192,184439,1,0,0:0:0:0:
448,192,184439,1,0,0:0:0:0:
192,192,184503,1,0,0:0:0:0:
320,192,184566,1,0,0:0:0:0:
448,192,184566,1,0,0:0:0:0:
64,192,184630,1,0,0:0:0:0:
192,192,184693,1,0,0:0:0:0:
320,192,184693,1,0,0:0:0:0:
448,192,184757,1,0,0:0:0:0:
64,192,184821,1,0,0:0:0:0:
192,192,184821,1,0,0:0:0:0:
320,192,184884,1,0,0:0:0:0:
448,192,184948,1,0,0:0:0:0:
64,192,184948,1,0,0:0:0:0:
192,192,185011,1,0,0:0:0:0:
64,192,185075,1,0,0:0:0:0:
320,192,185075,1,0,0:0:0:0:
448,192,185075,1,0,0:0:0:0:
192,192,185139,1,0,0:0:0:0:
320,192,185202,1,0,0:0:0:0:
448,192,185202,1,0,0:0:0:0:
64,192,185266,1,0,0:0:0:0:
192,192,185330,1,0,0:0:0:0:
448,192,185330,1,0,0:0:0:0:
320,192,185393,1,0,0:0:0:0:
192,192,185457,1,0,0:0:0:0:
64,192,185457,1,0,0:0:0:0:
448,192,185520,1,0,0:0:0:0:
320,192,185584,1,0,0:0:0:0:
64,192,185584,1,0,0:0:0:0:
192,192,185648,1,0,0:0:0:0:
320,192,185711,1,0,0:0:0:0:
448,192,185711,1,0,0:0:0:0:
64,192,185775,1,0,0:0:0:0:
192,192,185839,1,0,0:0:0:0:
448,192,185839,1,0,0:0:0:0:
320,192,185902,1,0,0:0:0:0:
192,192,185966,1,0,0:0:0:0:
64,192,185966,1,0,0:0:0:0:
448,192,186029,1,0,0:0:0:0:
192,192,186093,1,0,0:0:0:0:
64,192,186093,1,0,0:0:0:0:
320,192,186157,1,0,0:0:0:0:
448,192,186157,1,0,0:0:0:0:
192,192,186220,1,0,0:0:0:0:
64,192,186220,1,0,0:0:0:0:
320,192,186284,1,0,0:0:0:0:
448,192,186284,1,0,0:0:0:0:
192,192,186348,1,0,0:0:0:0:
64,192,186348,1,0,0:0:0:0:
320,192,186411,1,0,0:0:0:0:
448,192,186411,1,0,0:0:0:0:
192,192,186475,1,0,0:0:0:0:
64,192,186475,1,0,0:0:0:0:
320,192,186538,1,0,0:0:0:0:
448,192,186538,1,0,0:0:0:0:
192,192,186602,1,0,0:0:0:0:
64,192,186602,1,0,0:0:0:0:
320,192,186666,1,0,0:0:0:0:
448,192,186666,1,0,0:0:0:0:
192,192,186729,1,0,0:0:0:0:
64,192,186729,1,0,0:0:0:0:
320,192,186793,1,0,0:0:0:0:
448,192,186793,1,0,0:0:0:0:
192,192,186856,1,0,0:0:0:0:
64,192,186856,1,0,0:0:0:0:
320,192,186920,1,0,0:0:0:0:
448,192,186920,1,0,0:0:0:0:
192,192,186984,1,0,0:0:0:0:
64,192,186984,1,0,0:0:0:0:
320,192,187047,1,0,0:0:0:0:
192,192,187111,1,0,0:0:0:0:
448,192,187111,128,0,189147:0:0:0:0:
64,192,187111,128,0,188511:0:0:0:0:
64,192,189147,128,0,190165:0:0:0:0:
192,192,189147,1,0,0:0:0:0:
320,192,189210,1,0,0:0:0:0:
448,192,189274,1,0,0:0:0:0:
192,192,189338,1,0,0:0:0:0:
320,192,189401,1,0,0:0:0:0:
448,192,189465,1,0,0:0:0:0:
192,192,189529,1,0,0:0:0:0:
320,192,189592,1,0,0:0:0:0:
192,192,189656,1,0,0:0:0:0:
448,192,189719,1,0,0:0:0:0:
192,192,189783,1,0,0:0:0:0:
320,192,189847,1,0,0:0:0:0:
448,192,189910,1,0,0:0:0:0:
192,192,189974,1,0,0:0:0:0:
320,192,190037,1,0,0:0:0:0:
192,192,190101,1,0,0:0:0:0:
448,192,190165,1,0,0:0:0:0:
192,192,190228,1,0,0:0:0:0:
448,192,190292,1,0,0:0:0:0:
192,192,190356,1,0,0:0:0:0:
320,192,190419,1,0,0:0:0:0:
64,192,190483,1,0,0:0:0:0:
320,192,190546,1,0,0:0:0:0:
64,192,190610,1,0,0:0:0:0:
448,192,190674,1,0,0:0:0:0:
320,192,190716,1,0,0:0:0:0:
192,192,190758,1,0,0:0:0:0:
64,192,190801,1,0,0:0:0:0:
448,192,190843,1,0,0:0:0:0:
320,192,190886,1,0,0:0:0:0:
192,192,190928,1,0,0:0:0:0:
64,192,190971,1,0,0:0:0:0:
448,192,191013,1,0,0:0:0:0:
320,192,191055,1,0,0:0:0:0:
64,192,191098,1,0,0:0:0:0:
192,192,191140,1,0,0:0:0:0:
64,192,191183,1,0,0:0:0:0:
320,192,191183,1,0,0:0:0:0:
448,192,191183,1,0,0:0:0:0:
