osu file format v14

[General]
AudioFilename: audio.mp3
AudioLeadIn: 0
PreviewTime: 78196
Countdown: 0
SampleSet: Normal
StackLeniency: 0.7
Mode: 3
LetterboxInBreaks: 0
SpecialStyle: 1
WidescreenStoryboard: 0

[Editor]
Bookmarks: 6941,14321,35952,56056,64199,64581,70052,191185
DistanceSpacing: 2
BeatDivisor: 8
GridSize: 8
TimelineZoom: 2.399999

[Metadata]
Title:Glorious Crown (tpz over-Over-OVERCUTE REMIX)
TitleUnicode:Glorious Crown (tpz over-Over-OVERCUTE REMIX)
Artist:xi
ArtistUnicode:xi
Creator:Herkkupala
Version:treat
Source:
Tags:t+pazolite
BeatmapID:1236359
BeatmapSetID:584423

[Difficulty]
HPDrainRate:8.5
CircleSize:4
OverallDifficulty:8.5
ApproachRate:5
SliderMultiplier:1.4
SliderTickRate:1

[Events]
//Background and Video events
0,0,"gloriouscrown2.jpg",0,0
//Break Periods
//Storyboard Layer 0 (Background)
//Storyboard Layer 1 (Fail)
//Storyboard Layer 2 (Pass)
//Storyboard Layer 3 (Foreground)
//Storyboard Sound Samples

[TimingPoints]
1852,254.479906690701,4,1,0,30,1,0
52748,-100,4,1,0,30,0,1
70052,-100,4,1,0,30,0,0
151422,-100,4,1,0,30,0,1
167772,-100,4,1,0,30,0,0
175916,-100,4,1,0,30,0,1
187113,-100,4,1,0,30,0,0

[HitObjects]
320,192,2361,5,0,0:0:0:0:
448,192,2424,1,0,0:0:0:0:
192,192,2488,1,0,0:0:0:0:
320,192,2551,1,0,0:0:0:0:
64,192,2615,1,0,0:0:0:0:
192,192,2679,1,0,0:0:0:0:
448,192,2742,1,0,0:0:0:0:
320,192,2806,1,0,0:0:0:0:
192,192,2870,1,0,0:0:0:0:
64,192,2933,1,0,0:0:0:0:
448,192,2997,1,0,0:0:0:0:
320,192,3060,1,0,0:0:0:0:
64,192,3124,1,0,0:0:0:0:
192,192,3188,1,0,0:0:0:0:
64,192,3251,1,0,0:0:0:0:
192,192,3315,1,0,0:0:0:0:
320,192,3378,1,0,0:0:0:0:
448,192,3442,1,0,0:0:0:0:
320,192,3506,1,0,0:0:0:0:
448,192,3569,1,0,0:0:0:0:
64,192,3633,1,0,0:0:0:0:
192,192,3697,1,0,0:0:0:0:
448,192,3760,1,0,0:0:0:0:
320,192,3824,1,0,0:0:0:0:
192,192,3887,1,0,0:0:0:0:
320,192,3951,1,0,0:0:0:0:
448,192,4015,1,0,0:0:0:0:
64,192,4078,1,0,0:0:0:0:
192,192,4142,1,0,0:0:0:0:
448,192,4206,1,0,0:0:0:0:
320,192,4269,1,0,0:0:0:0:
64,192,4333,1,0,0:0:0:0:
320,192,4396,1,0,0:0:0:0:
192,192,4460,1,0,0:0:0:0:
448,192,4524,1,0,0:0:0:0:
320,192,4587,1,0,0:0:0:0:
64,192,4651,1,0,0:0:0:0:
192,192,4714,1,0,0:0:0:0:
320,192,4778,1,0,0:0:0:0:
64,192,4842,1,0,0:0:0:0:
192,192,4905,1,0,0:0:0:0:
448,192,4969,1,0,0:0:0:0:
320,192,5033,1,0,0:0:0:0:
192,192,5096,1,0,0:0:0:0:
64,192,5160,1,0,0:0:0:0:
192,192,5223,1,0,0:0:0:0:
64,192,5287,1,0,0:0:0:0:
192,192,5351,1,0,0:0:0:0:
320,192,5414,1,0,0:0:0:0:
448,192,5478,1,0,0:0:0:0:
320,192,5542,1,0,0:0:0:0:
192,192,5605,1,0,0:0:0:0:
320,192,5669,1,0,0:0:0:0:
192,192,5732,1,0,0:0:0:0:
64,192,5796,1,0,0:0:0:0:
192,192,5860,1,0,0:0:0:0:
320,192,5923,1,0,0:0:0:0:
64,192,5987,1,0,0:0:0:0:
192,192,6050,1,0,0:0:0:0:
448,192,6114,1,0,0:0:0:0:
320,192,6178,1,0,0:0:0:0:
192,192,6263,1,0,0:0:0:0:
320,192,6347,1,0,0:0:0:0:
192,192,6432,1,0,0:0:0:0:
64,192,6496,1,0,0:0:0:0:
448,192,6559,1,0,0:0:0:0:
320,192,6623,1,0,0:0:0:0:
192,192,6687,1,0,0:0:0:0:
320,192,6750,1,0,0:0:0:0:
448,192,6814,1,0,0:0:0:0:
192,192,6878,1,0,0:0:0:0:
320,192,6941,1,0,0:0:0:0:
64,192,6941,1,0,0:0:0:0:
448,192,7005,1,0,0:0:0:0:
192,192,7068,1,0,0:0:0:0:
320,192,7132,1,0,0:0:0:0:
448,192,7196,1,0,0:0:0:0:
64,192,7196,1,0,0:0:0:0:
192,192,7259,1,0,0:0:0:0:
320,192,7323,1,0,0:0:0:0:
64,192,7387,1,0,0:0:0:0:
448,192,7450,1,0,0:0:0:0:
320,192,7514,1,0,0:0:0:0:
64,192,7577,1,0,0:0:0:0:
192,192,7577,1,0,0:0:0:0:
448,192,7641,1,0,0:0:0:0:
320,192,7705,1,0,0:0:0:0:
192,192,7705,1,0,0:0:0:0:
64,192,7768,1,0,0:0:0:0:
192,192,7832,1,0,0:0:0:0:
448,192,7895,1,0,0:0:0:0:
64,192,7959,1,0,0:0:0:0:
320,192,7959,1,0,0:0:0:0:
192,192,8023,1,0,0:0:0:0:
448,192,8086,1,0,0:0:0:0:
320,192,8150,1,0,0:0:0:0:
192,192,8214,1,0,0:0:0:0:
64,192,8214,1,0,0:0:0:0:
320,192,8277,1,0,0:0:0:0:
448,192,8341,1,0,0:0:0:0:
192,192,8341,1,0,0:0:0:0:
64,192,8404,1,0,0:0:0:0:
320,192,8468,1,0,0:0:0:0:
192,192,8532,1,0,0:0:0:0:
64,192,8595,1,0,0:0:0:0:
448,192,8595,1,0,0:0:0:0:
192,192,8659,1,0,0:0:0:0:
448,192,8723,1,0,0:0:0:0:
320,192,8723,1,0,0:0:0:0:
192,192,8786,1,0,0:0:0:0:
320,192,8850,1,0,0:0:0:0:
192,192,8913,1,0,0:0:0:0:
64,192,8977,1,0,0:0:0:0:
448,192,8977,1,0,0:0:0:0:
320,192,9041,1,0,0:0:0:0:
192,192,9104,1,0,0:0:0:0:
448,192,9168,1,0,0:0:0:0:
320,192,9231,1,0,0:0:0:0:
64,192,9231,1,0,0:0:0:0:
192,192,9295,1,0,0:0:0:0:
320,192,9359,1,0,0:0:0:0:
64,192,9422,1,0,0:0:0:0:
448,192,9486,1,0,0:0:0:0:
320,192,9550,1,0,0:0:0:0:
192,192,9613,1,0,0:0:0:0:
64,192,9613,1,0,0:0:0:0:
320,192,9677,1,0,0:0:0:0:
448,192,9740,1,0,0:0:0:0:
192,192,9740,1,0,0:0:0:0:
320,192,9804,1,0,0:0:0:0:
192,192,9868,1,0,0:0:0:0:
64,192,9868,1,0,0:0:0:0:
448,192,9931,1,0,0:0:0:0:
64,192,9995,1,0,0:0:0:0:
192,192,9995,1,0,0:0:0:0:
448,192,10059,1,0,0:0:0:0:
64,192,10122,1,0,0:0:0:0:
192,192,10122,1,0,0:0:0:0:
320,192,10186,1,0,0:0:0:0:
448,192,10249,1,0,0:0:0:0:
192,192,10249,1,0,0:0:0:0:
64,192,10313,1,0,0:0:0:0:
320,192,10377,1,0,0:0:0:0:
448,192,10377,1,0,0:0:0:0:
192,192,10440,1,0,0:0:0:0:
320,192,10504,1,0,0:0:0:0:
448,192,10504,1,0,0:0:0:0:
192,192,10568,1,0,0:0:0:0:
64,192,10568,1,0,0:0:0:0:
320,192,10631,1,0,0:0:0:0:
448,192,10631,1,0,0:0:0:0:
192,192,10695,1,0,0:0:0:0:
64,192,10695,1,0,0:0:0:0:
320,192,10758,1,0,0:0:0:0:
448,192,10758,1,0,0:0:0:0:
192,192,10822,1,0,0:0:0:0:
320,192,10886,1,0,0:0:0:0:
192,192,10949,1,0,0:0:0:0:
320,192,11013,1,0,0:0:0:0:
64,192,11013,1,0,0:0:0:0:
448,192,11076,1,0,0:0:0:0:
192,192,11140,1,0,0:0:0:0:
320,192,11204,1,0,0:0:0:0:
64,192,11267,1,0,0:0:0:0:
448,192,11267,1,0,0:0:0:0:
192,192,11331,1,0,0:0:0:0:
320,192,11395,1,0,0:0:0:0:
192,192,11458,1,0,0:0:0:0:
320,192,11522,1,0,0:0:0:0:
448,192,11585,1,0,0:0:0:0:
192,192,11649,1,0,0:0:0:0:
320,192,11649,1,0,0:0:0:0:
64,192,11713,1,0,0:0:0:0:
448,192,11776,1,0,0:0:0:0:
320,192,11776,1,0,0:0:0:0:
192,192,11840,1,0,0:0:0:0:
64,192,11904,1,0,0:0:0:0:
320,192,11967,1,0,0:0:0:0:
448,192,12031,1,0,0:0:0:0:
192,192,12031,1,0,0:0:0:0:
320,192,12094,1,0,0:0:0:0:
192,192,12158,1,0,0:0:0:0:
448,192,12222,1,0,0:0:0:0:
320,192,12285,1,0,0:0:0:0:
64,192,12285,1,0,0:0:0:0:
192,192,12349,1,0,0:0:0:0:
320,192,12412,1,0,0:0:0:0:
448,192,12412,1,0,0:0:0:0:
64,192,12476,1,0,0:0:0:0:
192,192,12540,1,0,0:0:0:0:
320,192,12603,1,0,0:0:0:0:
64,192,12667,1,0,0:0:0:0:
448,192,12667,1,0,0:0:0:0:
320,192,12731,1,0,0:0:0:0:
192,192,12794,1,0,0:0:0:0:
448,192,12858,1,0,0:0:0:0:
320,192,12921,1,0,0:0:0:0:
64,192,12985,1,0,0:0:0:0:
192,192,13049,1,0,0:0:0:0:
448,192,13049,1,0,0:0:0:0:
320,192,13112,1,0,0:0:0:0:
192,192,13176,1,0,0:0:0:0:
64,192,13240,1,0,0:0:0:0:
448,192,13303,1,0,0:0:0:0:
320,192,13303,1,0,0:0:0:0:
192,192,13367,1,0,0:0:0:0:
320,192,13430,1,0,0:0:0:0:
192,192,13494,1,0,0:0:0:0:
64,192,13558,1,0,0:0:0:0:
448,192,13621,1,0,0:0:0:0:
320,192,13685,1,0,0:0:0:0:
192,192,13685,1,0,0:0:0:0:
64,192,13749,1,0,0:0:0:0:
192,192,13812,1,0,0:0:0:0:
448,192,13812,1,0,0:0:0:0:
320,192,13876,1,0,0:0:0:0:
192,192,13939,1,0,0:0:0:0:
64,192,13939,1,0,0:0:0:0:
448,192,14003,1,0,0:0:0:0:
320,192,14067,1,0,0:0:0:0:
64,192,14067,1,0,0:0:0:0:
192,192,14130,1,0,0:0:0:0:
64,192,14194,1,0,0:0:0:0:
320,192,14194,1,0,0:0:0:0:
192,192,14257,1,0,0:0:0:0:
320,192,14321,1,0,0:0:0:0:
64,192,14321,1,0,0:0:0:0:
448,192,14406,1,0,0:0:0:0:
192,192,14491,1,0,0:0:0:0:
320,192,14576,1,0,0:0:0:0:
448,192,14576,1,0,0:0:0:0:
64,192,14639,1,0,0:0:0:0:
192,192,14639,1,0,0:0:0:0:
320,192,14703,1,0,0:0:0:0:
448,192,14703,1,0,0:0:0:0:
192,192,14766,1,0,0:0:0:0:
64,192,14766,1,0,0:0:0:0:
320,192,14830,1,0,0:0:0:0:
448,192,14830,1,0,0:0:0:0:
192,192,14894,1,0,0:0:0:0:
64,192,14957,1,0,0:0:0:0:
448,192,15021,1,0,0:0:0:0:
192,192,15085,1,0,0:0:0:0:
320,192,15085,1,0,0:0:0:0:
64,192,15148,1,0,0:0:0:0:
448,192,15212,1,0,0:0:0:0:
192,192,15275,1,0,0:0:0:0:
448,192,15339,1,0,0:0:0:0:
320,192,15339,1,0,0:0:0:0:
64,192,15403,1,0,0:0:0:0:
192,192,15466,1,0,0:0:0:0:
448,192,15530,1,0,0:0:0:0:
320,192,15593,1,0,0:0:0:0:
64,192,15657,1,0,0:0:0:0:
192,192,15721,1,0,0:0:0:0:
448,192,15721,1,0,0:0:0:0:
320,192,15784,1,0,0:0:0:0:
64,192,15848,1,0,0:0:0:0:
192,192,15848,1,0,0:0:0:0:
320,192,15912,1,0,0:0:0:0:
448,192,15975,1,0,0:0:0:0:
320,192,16039,1,0,0:0:0:0:
192,192,16102,1,0,0:0:0:0:
64,192,16102,1,0,0:0:0:0:
448,192,16166,1,0,0:0:0:0:
320,192,16230,1,0,0:0:0:0:
192,192,16293,1,0,0:0:0:0:
64,192,16357,1,0,0:0:0:0:
448,192,16357,1,0,0:0:0:0:
192,192,16421,1,0,0:0:0:0:
320,192,16484,1,0,0:0:0:0:
448,192,16484,1,0,0:0:0:0:
192,192,16548,1,0,0:0:0:0:
64,192,16611,1,0,0:0:0:0:
320,192,16675,1,0,0:0:0:0:
448,192,16739,1,0,0:0:0:0:
192,192,16739,1,0,0:0:0:0:
320,192,16802,1,0,0:0:0:0:
64,192,16866,1,0,0:0:0:0:
448,192,16866,1,0,0:0:0:0:
192,192,16930,1,0,0:0:0:0:
64,192,16993,1,0,0:0:0:0:
192,192,17057,1,0,0:0:0:0:
448,192,17120,1,0,0:0:0:0:
320,192,17120,1,0,0:0:0:0:
192,192,17184,1,0,0:0:0:0:
64,192,17248,1,0,0:0:0:0:
320,192,17311,1,0,0:0:0:0:
448,192,17375,1,0,0:0:0:0:
192,192,17375,1,0,0:0:0:0:
64,192,17438,1,0,0:0:0:0:
320,192,17502,1,0,0:0:0:0:
192,192,17566,1,0,0:0:0:0:
320,192,17629,1,0,0:0:0:0:
64,192,17693,1,0,0:0:0:0:
192,192,17757,1,0,0:0:0:0:
448,192,17757,1,0,0:0:0:0:
320,192,17820,1,0,0:0:0:0:
64,192,17884,1,0,0:0:0:0:
448,192,17884,1,0,0:0:0:0:
192,192,17947,1,0,0:0:0:0:
448,192,18011,1,0,0:0:0:0:
320,192,18011,1,0,0:0:0:0:
192,192,18075,1,0,0:0:0:0:
448,192,18138,1,0,0:0:0:0:
64,192,18138,1,0,0:0:0:0:
192,192,18202,1,0,0:0:0:0:
320,192,18202,1,0,0:0:0:0:
448,192,18266,1,0,0:0:0:0:
64,192,18266,1,0,0:0:0:0:
192,192,18329,1,0,0:0:0:0:
320,192,18329,1,0,0:0:0:0:
448,192,18393,1,0,0:0:0:0:
64,192,18393,1,0,0:0:0:0:
192,192,18456,1,0,0:0:0:0:
320,192,18456,1,0,0:0:0:0:
448,192,18520,1,0,0:0:0:0:
64,192,18520,1,0,0:0:0:0:
192,192,18584,1,0,0:0:0:0:
320,192,18584,1,0,0:0:0:0:
448,192,18647,128,0,18679:0:0:0:0:
64,192,18647,128,0,18679:0:0:0:0:
320,192,18774,128,0,18806:0:0:0:0:
192,192,18902,128,0,18934:0:0:0:0:
64,192,19029,128,0,19061:0:0:0:0:
320,192,19156,128,0,19188:0:0:0:0:
448,192,19156,128,0,19188:0:0:0:0:
192,192,19920,128,0,19951:0:0:0:0:
448,192,20047,128,0,20079:0:0:0:0:
320,192,20174,128,0,20206:0:0:0:0:
192,192,20429,128,0,20460:0:0:0:0:
320,192,20683,128,0,20715:0:0:0:0:
64,192,20938,128,0,20969:0:0:0:0:
192,192,21192,128,0,21224:0:0:0:0:
448,192,21955,128,0,21987:0:0:0:0:
192,192,22083,128,0,22115:0:0:0:0:
320,192,22210,128,0,22242:0:0:0:0:
448,192,22464,128,0,22496:0:0:0:0:
192,192,22528,128,0,22560:0:0:0:0:
320,192,22592,128,0,22624:0:0:0:0:
64,192,22655,128,0,22687:0:0:0:0:
448,192,22719,128,0,22751:0:0:0:0:
320,192,22973,128,0,23005:0:0:0:0:
64,192,23228,128,0,23260:0:0:0:0:
192,192,23482,128,0,23514:0:0:0:0:
320,192,23737,128,0,23769:0:0:0:0:
448,192,23991,128,0,24023:0:0:0:0:
192,192,24246,128,0,24278:0:0:0:0:
192,192,24628,128,0,24659:0:0:0:0:
448,192,24755,128,0,24787:0:0:0:0:
320,192,24882,128,0,24914:0:0:0:0:
192,192,25009,128,0,25041:0:0:0:0:
64,192,25136,128,0,25168:0:0:0:0:
192,192,25264,128,0,25296:0:0:0:0:
448,192,25518,128,0,25550:0:0:0:0:
64,192,25773,128,0,25805:0:0:0:0:
320,192,26027,128,0,26059:0:0:0:0:
320,192,26282,128,0,26313:0:0:0:0:
64,192,26663,128,0,26695:0:0:0:0:
192,192,26727,128,0,26759:0:0:0:0:
448,192,26791,128,0,26822:0:0:0:0:
448,192,27300,1,0,0:0:0:0:
192,192,27300,1,0,0:0:0:0:
64,192,27300,1,0,0:0:0:0:
320,192,27427,128,0,27554:0:0:0:0:
192,192,27554,1,0,0:0:0:0:
320,192,27681,128,0,27809:0:0:0:0:
192,192,27809,1,0,0:0:0:0:
320,192,27936,128,0,28063:0:0:0:0:
192,192,28063,1,0,0:0:0:0:
320,192,28190,128,0,28317:0:0:0:0:
192,192,28317,1,0,0:0:0:0:
448,192,28445,128,0,28572:0:0:0:0:
64,192,28572,1,0,0:0:0:0:
448,192,28699,128,0,28826:0:0:0:0:
64,192,28826,1,0,0:0:0:0:
448,192,28954,128,0,29081:0:0:0:0:
64,192,29081,1,0,0:0:0:0:
448,192,29208,128,0,29335:0:0:0:0:
320,192,29208,1,0,0:0:0:0:
64,192,29208,1,0,0:0:0:0:
320,192,29335,1,0,0:0:0:0:
64,192,29335,1,0,0:0:0:0:
192,192,29335,1,0,0:0:0:0:
320,192,29463,128,0,29590:0:0:0:0:
192,192,29590,1,0,0:0:0:0:
320,192,29717,128,0,29844:0:0:0:0:
192,192,29844,1,0,0:0:0:0:
64,192,29844,1,0,0:0:0:0:
192,192,30035,1,0,0:0:0:0:
64,192,30035,1,0,0:0:0:0:
64,192,30226,1,0,0:0:0:0:
192,192,30226,1,0,0:0:0:0:
192,192,30353,1,0,0:0:0:0:
64,192,30353,1,0,0:0:0:0:
448,192,30353,1,0,0:0:0:0:
448,192,30481,1,0,0:0:0:0:
320,192,30481,1,0,0:0:0:0:
64,192,30608,1,0,0:0:0:0:
448,192,30608,1,0,0:0:0:0:
320,192,30608,1,0,0:0:0:0:
192,192,30735,1,0,0:0:0:0:
64,192,30735,1,0,0:0:0:0:
448,192,30862,1,0,0:0:0:0:
64,192,30862,1,0,0:0:0:0:
192,192,30862,1,0,0:0:0:0:
320,192,30990,1,0,0:0:0:0:
192,192,31032,1,0,0:0:0:0:
64,192,31074,1,0,0:0:0:0:
448,192,31117,1,0,0:0:0:0:
320,192,31117,1,0,0:0:0:0:
192,192,31244,1,0,0:0:0:0:
320,192,31286,1,0,0:0:0:0:
192,192,31329,1,0,0:0:0:0:
320,192,31371,1,0,0:0:0:0:
64,192,31371,1,0,0:0:0:0:
448,192,31371,1,0,0:0:0:0:
192,192,31498,1,0,0:0:0:0:
320,192,31626,1,0,0:0:0:0:
192,192,31753,1,0,0:0:0:0:
64,192,31753,1,0,0:0:0:0:
320,192,31880,1,0,0:0:0:0:
448,192,31880,1,0,0:0:0:0:
192,192,32007,1,0,0:0:0:0:
320,192,32135,1,0,0:0:0:0:
192,192,32262,1,0,0:0:0:0:
64,192,32262,1,0,0:0:0:0:
320,192,32389,1,0,0:0:0:0:
448,192,32389,1,0,0:0:0:0:
192,192,32516,1,0,0:0:0:0:
320,192,32644,1,0,0:0:0:0:
192,192,32771,1,0,0:0:0:0:
64,192,32771,1,0,0:0:0:0:
192,192,32898,1,0,0:0:0:0:
64,192,32898,1,0,0:0:0:0:
320,192,33025,1,0,0:0:0:0:
448,192,33089,1,0,0:0:0:0:
192,192,33089,1,0,0:0:0:0:
320,192,33153,1,0,0:0:0:0:
192,192,33280,1,0,0:0:0:0:
64,192,33280,1,0,0:0:0:0:
64,192,33407,1,0,0:0:0:0:
192,192,33407,1,0,0:0:0:0:
448,192,33407,1,0,0:0:0:0:
320,192,33534,1,0,0:0:0:0:
192,192,33662,1,0,0:0:0:0:
64,192,33662,1,0,0:0:0:0:
320,192,33789,1,0,0:0:0:0:
192,192,33916,1,0,0:0:0:0:
64,192,33916,1,0,0:0:0:0:
448,192,33916,1,0,0:0:0:0:
320,192,34043,1,0,0:0:0:0:
192,192,34171,1,0,0:0:0:0:
64,192,34171,1,0,0:0:0:0:
320,192,34298,1,0,0:0:0:0:
192,192,34425,1,0,0:0:0:0:
64,192,34425,1,0,0:0:0:0:
448,192,34425,1,0,0:0:0:0:
320,192,34489,1,0,0:0:0:0:
192,192,34552,1,0,0:0:0:0:
64,192,34552,1,0,0:0:0:0:
320,192,34616,1,0,0:0:0:0:
192,192,34679,1,0,0:0:0:0:
64,192,34679,1,0,0:0:0:0:
448,192,34679,1,0,0:0:0:0:
320,192,34743,1,0,0:0:0:0:
192,192,34807,1,0,0:0:0:0:
64,192,34807,1,0,0:0:0:0:
320,192,34870,1,0,0:0:0:0:
448,192,34870,1,0,0:0:0:0:
192,192,34934,1,0,0:0:0:0:
64,192,34934,1,0,0:0:0:0:
320,192,34998,1,0,0:0:0:0:
448,192,35061,1,0,0:0:0:0:
192,192,35061,1,0,0:0:0:0:
320,192,35125,1,0,0:0:0:0:
448,192,35188,1,0,0:0:0:0:
192,192,35188,1,0,0:0:0:0:
64,192,35188,1,0,0:0:0:0:
320,192,35252,1,0,0:0:0:0:
64,192,35316,1,0,0:0:0:0:
192,192,35316,1,0,0:0:0:0:
320,192,35379,1,0,0:0:0:0:
192,192,35443,1,0,0:0:0:0:
64,192,35443,1,0,0:0:0:0:
320,192,35507,1,0,0:0:0:0:
448,192,35507,1,0,0:0:0:0:
192,192,35570,1,0,0:0:0:0:
64,192,35570,1,0,0:0:0:0:
320,192,35634,1,0,0:0:0:0:
448,192,35634,1,0,0:0:0:0:
192,192,35697,1,0,0:0:0:0:
64,192,35697,1,0,0:0:0:0:
320,192,35761,1,0,0:0:0:0:
448,192,35761,1,0,0:0:0:0:
192,192,35825,1,0,0:0:0:0:
64,192,35825,1,0,0:0:0:0:
320,192,35888,1,0,0:0:0:0:
448,192,35888,1,0,0:0:0:0:
64,192,35952,1,0,0:0:0:0:
192,192,35952,1,0,0:0:0:0:
320,192,36206,1,0,0:0:0:0:
448,192,36206,128,0,36461:0:0:0:0:
64,192,36461,1,0,0:0:0:0:
192,192,36461,1,0,0:0:0:0:
320,192,36524,1,0,0:0:0:0:
192,192,36588,1,0,0:0:0:0:
448,192,36588,1,0,0:0:0:0:
320,192,36652,1,0,0:0:0:0:
64,192,36652,1,0,0:0:0:0:
192,192,36715,1,0,0:0:0:0:
448,192,36715,1,0,0:0:0:0:
320,192,36779,1,0,0:0:0:0:
64,192,36779,1,0,0:0:0:0:
192,192,36843,1,0,0:0:0:0:
448,192,36843,1,0,0:0:0:0:
448,192,36970,1,0,0:0:0:0:
192,192,36970,1,0,0:0:0:0:
320,192,37033,1,0,0:0:0:0:
64,192,37033,1,0,0:0:0:0:
192,192,37097,1,0,0:0:0:0:
448,192,37097,1,0,0:0:0:0:
320,192,37161,1,0,0:0:0:0:
64,192,37161,1,0,0:0:0:0:
192,192,37224,1,0,0:0:0:0:
448,192,37224,1,0,0:0:0:0:
320,192,37288,1,0,0:0:0:0:
192,192,37352,1,0,0:0:0:0:
64,192,37352,1,0,0:0:0:0:
320,192,37479,1,0,0:0:0:0:
64,192,37479,1,0,0:0:0:0:
448,192,37542,1,0,0:0:0:0:
320,192,37606,1,0,0:0:0:0:
192,192,37670,1,0,0:0:0:0:
64,192,37733,1,0,0:0:0:0:
448,192,37733,1,0,0:0:0:0:
320,192,37797,1,0,0:0:0:0:
192,192,37860,1,0,0:0:0:0:
448,192,37924,1,0,0:0:0:0:
320,192,37988,1,0,0:0:0:0:
64,192,37988,1,0,0:0:0:0:
192,192,38051,1,0,0:0:0:0:
320,192,38115,1,0,0:0:0:0:
448,192,38115,1,0,0:0:0:0:
192,192,38179,1,0,0:0:0:0:
64,192,38242,1,0,0:0:0:0:
320,192,38242,1,0,0:0:0:0:
320,192,38369,1,0,0:0:0:0:
64,192,38369,1,0,0:0:0:0:
192,192,38497,1,0,0:0:0:0:
448,192,38497,1,0,0:0:0:0:
320,192,38560,1,0,0:0:0:0:
192,192,38624,1,0,0:0:0:0:
320,192,38687,1,0,0:0:0:0:
192,192,38751,1,0,0:0:0:0:
64,192,38751,1,0,0:0:0:0:
320,192,38815,1,0,0:0:0:0:
192,192,38878,1,0,0:0:0:0:
320,192,38942,1,0,0:0:0:0:
448,192,39006,128,0,39037:0:0:0:0:
192,192,39006,1,0,0:0:0:0:
320,192,39133,1,0,0:0:0:0:
64,192,39133,1,0,0:0:0:0:
192,192,39260,1,0,0:0:0:0:
320,192,39260,1,0,0:0:0:0:
192,192,39387,1,0,0:0:0:0:
448,192,39387,1,0,0:0:0:0:
64,192,39515,1,0,0:0:0:0:
320,192,39515,1,0,0:0:0:0:
192,192,39578,1,0,0:0:0:0:
320,192,39642,1,0,0:0:0:0:
448,192,39642,1,0,0:0:0:0:
64,192,39705,1,0,0:0:0:0:
448,192,39769,1,0,0:0:0:0:
192,192,39769,1,0,0:0:0:0:
320,192,39833,1,0,0:0:0:0:
64,192,39833,1,0,0:0:0:0:
192,192,39896,1,0,0:0:0:0:
448,192,39896,1,0,0:0:0:0:
320,192,39960,1,0,0:0:0:0:
64,192,39960,1,0,0:0:0:0:
448,192,40024,128,0,40066:0:0:0:0:
320,192,40193,128,0,40236:0:0:0:0:
192,192,40363,128,0,40405:0:0:0:0:
64,192,40533,1,0,0:0:0:0:
448,192,40533,1,0,0:0:0:0:
320,192,40533,1,0,0:0:0:0:
192,192,40660,1,0,0:0:0:0:
320,192,40723,1,0,0:0:0:0:
64,192,40787,1,0,0:0:0:0:
448,192,40787,1,0,0:0:0:0:
192,192,40851,1,0,0:0:0:0:
448,192,40914,1,0,0:0:0:0:
320,192,40978,1,0,0:0:0:0:
64,192,41041,1,0,0:0:0:0:
448,192,41041,1,0,0:0:0:0:
320,192,41169,1,0,0:0:0:0:
64,192,41169,1,0,0:0:0:0:
192,192,41232,1,0,0:0:0:0:
448,192,41232,1,0,0:0:0:0:
320,192,41296,1,0,0:0:0:0:
64,192,41296,1,0,0:0:0:0:
192,192,41423,1,0,0:0:0:0:
448,192,41550,1,0,0:0:0:0:
64,192,41550,1,0,0:0:0:0:
320,192,41614,1,0,0:0:0:0:
192,192,41678,1,0,0:0:0:0:
64,192,41741,1,0,0:0:0:0:
448,192,41805,1,0,0:0:0:0:
192,192,41805,1,0,0:0:0:0:
320,192,41869,1,0,0:0:0:0:
64,192,41869,1,0,0:0:0:0:
448,192,41932,1,0,0:0:0:0:
192,192,41932,1,0,0:0:0:0:
320,192,41996,1,0,0:0:0:0:
64,192,41996,1,0,0:0:0:0:
192,192,42059,1,0,0:0:0:0:
448,192,42059,1,0,0:0:0:0:
320,192,42123,1,0,0:0:0:0:
64,192,42187,1,0,0:0:0:0:
192,192,42187,1,0,0:0:0:0:
448,192,42250,1,0,0:0:0:0:
192,192,42314,1,0,0:0:0:0:
320,192,42314,1,0,0:0:0:0:
64,192,42378,1,0,0:0:0:0:
192,192,42441,1,0,0:0:0:0:
448,192,42441,1,0,0:0:0:0:
320,192,42505,1,0,0:0:0:0:
64,192,42568,128,0,42600:0:0:0:0:
448,192,42568,1,0,0:0:0:0:
192,192,42632,128,0,42664:0:0:0:0:
320,192,42696,128,0,42727:0:0:0:0:
448,192,42759,128,0,42791:0:0:0:0:
192,192,42823,128,0,42855:0:0:0:0:
64,192,42823,1,0,0:0:0:0:
320,192,42886,128,0,42918:0:0:0:0:
448,192,42950,128,0,42982:0:0:0:0:
320,192,43014,128,0,43046:0:0:0:0:
448,192,43077,1,0,0:0:0:0:
192,192,43077,128,0,43109:0:0:0:0:
64,192,43141,128,0,43173:0:0:0:0:
320,192,43205,128,0,43332:0:0:0:0:
448,192,43332,1,0,0:0:0:0:
64,192,43332,1,0,0:0:0:0:
192,192,43374,1,0,0:0:0:0:
320,192,43417,1,0,0:0:0:0:
448,192,43459,1,0,0:0:0:0:
64,192,43501,1,0,0:0:0:0:
192,192,43544,1,0,0:0:0:0:
320,192,43586,1,0,0:0:0:0:
448,192,43586,1,0,0:0:0:0:
192,192,43650,1,0,0:0:0:0:
320,192,43714,1,0,0:0:0:0:
448,192,43714,1,0,0:0:0:0:
192,192,43777,1,0,0:0:0:0:
320,192,43841,1,0,0:0:0:0:
64,192,43841,1,0,0:0:0:0:
448,192,43904,1,0,0:0:0:0:
320,192,43968,1,0,0:0:0:0:
64,192,43968,1,0,0:0:0:0:
448,192,44032,1,0,0:0:0:0:
64,192,44095,1,0,0:0:0:0:
192,192,44095,1,0,0:0:0:0:
320,192,44095,1,0,0:0:0:0:
448,192,44222,1,0,0:0:0:0:
320,192,44265,1,0,0:0:0:0:
192,192,44307,1,0,0:0:0:0:
448,192,44350,1,0,0:0:0:0:
64,192,44350,1,0,0:0:0:0:
64,192,44604,128,0,45368:0:0:0:0:
448,192,44604,1,0,0:0:0:0:
192,192,44604,1,0,0:0:0:0:
448,192,44731,1,0,0:0:0:0:
320,192,44859,1,0,0:0:0:0:
192,192,44859,1,0,0:0:0:0:
192,192,44986,1,0,0:0:0:0:
320,192,45113,1,0,0:0:0:0:
448,192,45113,1,0,0:0:0:0:
320,192,45240,1,0,0:0:0:0:
192,192,45368,1,0,0:0:0:0:
448,192,45368,128,0,45399:0:0:0:0:
64,192,45495,128,0,45527:0:0:0:0:
320,192,45495,1,0,0:0:0:0:
64,192,45622,128,0,46131:0:0:0:0:
320,192,45622,1,0,0:0:0:0:
192,192,45622,1,0,0:0:0:0:
192,192,45749,1,0,0:0:0:0:
320,192,45877,1,0,0:0:0:0:
448,192,45877,1,0,0:0:0:0:
192,192,46004,1,0,0:0:0:0:
448,192,46131,1,0,0:0:0:0:
320,192,46131,1,0,0:0:0:0:
192,192,46195,1,0,0:0:0:0:
448,192,46258,1,0,0:0:0:0:
64,192,46322,1,0,0:0:0:0:
320,192,46386,1,0,0:0:0:0:
192,192,46449,1,0,0:0:0:0:
448,192,46513,1,0,0:0:0:0:
64,192,46576,1,0,0:0:0:0:
192,192,46640,1,0,0:0:0:0:
448,192,46640,1,0,0:0:0:0:
320,192,46640,1,0,0:0:0:0:
64,192,46704,1,0,0:0:0:0:
192,192,46767,1,0,0:0:0:0:
448,192,46831,1,0,0:0:0:0:
64,192,46895,1,0,0:0:0:0:
320,192,46895,128,0,46926:0:0:0:0:
192,192,46958,1,0,0:0:0:0:
448,192,47022,1,0,0:0:0:0:
320,192,47085,1,0,0:0:0:0:
64,192,47149,1,0,0:0:0:0:
192,192,47149,128,0,47181:0:0:0:0:
320,192,47213,1,0,0:0:0:0:
192,192,47276,1,0,0:0:0:0:
320,192,47340,1,0,0:0:0:0:
448,192,47403,1,0,0:0:0:0:
192,192,47403,1,0,0:0:0:0:
64,192,47403,128,0,47435:0:0:0:0:
320,192,47467,1,0,0:0:0:0:
448,192,47531,1,0,0:0:0:0:
64,192,47594,1,0,0:0:0:0:
192,192,47658,1,0,0:0:0:0:
320,192,47658,1,0,0:0:0:0:
448,192,47658,1,0,0:0:0:0:
64,192,47785,1,0,0:0:0:0:
192,192,47785,1,0,0:0:0:0:
448,192,47849,1,0,0:0:0:0:
64,192,47912,1,0,0:0:0:0:
320,192,47912,1,0,0:0:0:0:
192,192,47976,1,0,0:0:0:0:
320,192,48040,1,0,0:0:0:0:
448,192,48103,1,0,0:0:0:0:
64,192,48167,128,0,48676:0:0:0:0:
192,192,48167,1,0,0:0:0:0:
448,192,48676,1,0,0:0:0:0:
192,192,48676,1,0,0:0:0:0:
320,192,48740,1,0,0:0:0:0:
64,192,48803,1,0,0:0:0:0:
192,192,48803,1,0,0:0:0:0:
448,192,48867,1,0,0:0:0:0:
320,192,48867,1,0,0:0:0:0:
192,192,48930,1,0,0:0:0:0:
64,192,48930,1,0,0:0:0:0:
320,192,48994,1,0,0:0:0:0:
448,192,49058,1,0,0:0:0:0:
64,192,49058,1,0,0:0:0:0:
320,192,49121,1,0,0:0:0:0:
192,192,49121,1,0,0:0:0:0:
64,192,49185,1,0,0:0:0:0:
448,192,49185,1,0,0:0:0:0:
192,192,49248,1,0,0:0:0:0:
320,192,49312,1,0,0:0:0:0:
192,192,49376,1,0,0:0:0:0:
448,192,49439,1,0,0:0:0:0:
320,192,49439,1,0,0:0:0:0:
192,192,49503,1,0,0:0:0:0:
64,192,49567,1,0,0:0:0:0:
320,192,49630,1,0,0:0:0:0:
448,192,49694,1,0,0:0:0:0:
192,192,49694,1,0,0:0:0:0:
320,192,49757,1,0,0:0:0:0:
64,192,49821,1,0,0:0:0:0:
192,192,49885,1,0,0:0:0:0:
448,192,49948,1,0,0:0:0:0:
320,192,49948,1,0,0:0:0:0:
192,192,50012,1,0,0:0:0:0:
64,192,50076,1,0,0:0:0:0:
448,192,50076,1,0,0:0:0:0:
320,192,50139,1,0,0:0:0:0:
192,192,50203,1,0,0:0:0:0:
64,192,50203,1,0,0:0:0:0:
320,192,50266,1,0,0:0:0:0:
192,192,50330,1,0,0:0:0:0:
448,192,50330,1,0,0:0:0:0:
64,192,50394,1,0,0:0:0:0:
320,192,50394,1,0,0:0:0:0:
192,192,50457,1,0,0:0:0:0:
448,192,50457,1,0,0:0:0:0:
320,192,50521,1,0,0:0:0:0:
64,192,50584,1,0,0:0:0:0:
192,192,50648,1,0,0:0:0:0:
448,192,50712,1,0,0:0:0:0:
320,192,50712,1,0,0:0:0:0:
64,192,50712,1,0,0:0:0:0:
192,192,50775,1,0,0:0:0:0:
320,192,50839,1,0,0:0:0:0:
448,192,50903,1,0,0:0:0:0:
320,192,50966,1,0,0:0:0:0:
64,192,50966,1,0,0:0:0:0:
192,192,51030,1,0,0:0:0:0:
320,192,51093,1,0,0:0:0:0:
192,192,51157,1,0,0:0:0:0:
448,192,51221,1,0,0:0:0:0:
320,192,51221,1,0,0:0:0:0:
64,192,51221,1,0,0:0:0:0:
192,192,51284,1,0,0:0:0:0:
320,192,51348,1,0,0:0:0:0:
448,192,51412,1,0,0:0:0:0:
64,192,51475,1,0,0:0:0:0:
320,192,51475,1,0,0:0:0:0:
192,192,51539,1,0,0:0:0:0:
448,192,51602,1,0,0:0:0:0:
320,192,51666,1,0,0:0:0:0:
64,192,51730,1,0,0:0:0:0:
192,192,51730,1,0,0:0:0:0:
448,192,51793,1,0,0:0:0:0:
320,192,51793,1,0,0:0:0:0:
64,192,51921,1,0,0:0:0:0:
192,192,51921,1,0,0:0:0:0:
448,192,51984,1,0,0:0:0:0:
320,192,51984,1,0,0:0:0:0:
192,192,52111,1,0,0:0:0:0:
320,192,52111,1,0,0:0:0:0:
448,192,52111,1,0,0:0:0:0:
64,192,52239,128,0,52270:0:0:0:0:
192,192,52366,128,0,52398:0:0:0:0:
320,192,52493,128,0,52525:0:0:0:0:
64,192,52493,128,0,52748:0:0:0:0:
448,192,52620,128,0,52652:0:0:0:0:
320,192,52748,1,0,0:0:0:0:
192,192,52748,1,0,0:0:0:0:
448,192,52811,1,0,0:0:0:0:
320,192,52875,1,0,0:0:0:0:
64,192,52938,1,0,0:0:0:0:
192,192,53002,1,0,0:0:0:0:
448,192,53002,1,0,0:0:0:0:
320,192,53066,1,0,0:0:0:0:
64,192,53129,1,0,0:0:0:0:
192,192,53193,1,0,0:0:0:0:
320,192,53257,1,0,0:0:0:0:
448,192,53257,1,0,0:0:0:0:
192,192,53320,1,0,0:0:0:0:
320,192,53384,1,0,0:0:0:0:
64,192,53447,1,0,0:0:0:0:
448,192,53511,1,0,0:0:0:0:
320,192,53511,1,0,0:0:0:0:
192,192,53511,1,0,0:0:0:0:
64,192,53575,1,0,0:0:0:0:
448,192,53638,1,0,0:0:0:0:
192,192,53638,1,0,0:0:0:0:
320,192,53702,1,0,0:0:0:0:
192,192,53765,1,0,0:0:0:0:
64,192,53765,1,0,0:0:0:0:
448,192,53765,128,0,53797:0:0:0:0:
320,192,53829,1,0,0:0:0:0:
192,192,53893,1,0,0:0:0:0:
320,192,53956,1,0,0:0:0:0:
192,192,54020,1,0,0:0:0:0:
64,192,54020,128,0,54052:0:0:0:0:
448,192,54020,1,0,0:0:0:0:
320,192,54084,1,0,0:0:0:0:
192,192,54147,1,0,0:0:0:0:
320,192,54211,1,0,0:0:0:0:
64,192,54274,1,0,0:0:0:0:
192,192,54274,1,0,0:0:0:0:
448,192,54274,128,0,54306:0:0:0:0:
320,192,54338,1,0,0:0:0:0:
192,192,54402,1,0,0:0:0:0:
320,192,54465,1,0,0:0:0:0:
448,192,54529,1,0,0:0:0:0:
192,192,54529,1,0,0:0:0:0:
64,192,54529,128,0,54561:0:0:0:0:
320,192,54593,1,0,0:0:0:0:
192,192,54656,1,0,0:0:0:0:
320,192,54720,1,0,0:0:0:0:
448,192,54783,1,0,0:0:0:0:
64,192,54783,1,0,0:0:0:0:
192,192,54783,128,0,54815:0:0:0:0:
320,192,54847,1,0,0:0:0:0:
192,192,54911,1,0,0:0:0:0:
448,192,54974,1,0,0:0:0:0:
320,192,55038,1,0,0:0:0:0:
64,192,55038,1,0,0:0:0:0:
192,192,55102,1,0,0:0:0:0:
320,192,55165,1,0,0:0:0:0:
64,192,55229,1,0,0:0:0:0:
192,192,55292,1,0,0:0:0:0:
320,192,55292,1,0,0:0:0:0:
448,192,55356,1,0,0:0:0:0:
64,192,55420,1,0,0:0:0:0:
192,192,55483,1,0,0:0:0:0:
64,192,55547,1,0,0:0:0:0:
448,192,55547,1,0,0:0:0:0:
320,192,55547,1,0,0:0:0:0:
192,192,55610,1,0,0:0:0:0:
448,192,55674,1,0,0:0:0:0:
64,192,55674,1,0,0:0:0:0:
320,192,55738,1,0,0:0:0:0:
448,192,55801,1,0,0:0:0:0:
64,192,55801,1,0,0:0:0:0:
192,192,55801,1,0,0:0:0:0:
320,192,55865,1,0,0:0:0:0:
192,192,55929,1,0,0:0:0:0:
64,192,55992,1,0,0:0:0:0:
448,192,56056,1,0,0:0:0:0:
192,192,56056,1,0,0:0:0:0:
64,192,56141,1,0,0:0:0:0:
320,192,56141,1,0,0:0:0:0:
192,192,56225,1,0,0:0:0:0:
448,192,56225,1,0,0:0:0:0:
64,192,56310,1,0,0:0:0:0:
320,192,56310,1,0,0:0:0:0:
192,192,56438,1,0,0:0:0:0:
320,192,56565,128,0,56692:0:0:0:0:
448,192,56565,128,0,56692:0:0:0:0:
192,192,56819,1,0,0:0:0:0:
64,192,56819,128,0,56851:0:0:0:0:
320,192,56819,1,0,0:0:0:0:
448,192,56883,1,0,0:0:0:0:
320,192,56946,1,0,0:0:0:0:
64,192,57010,1,0,0:0:0:0:
448,192,57074,1,0,0:0:0:0:
320,192,57074,1,0,0:0:0:0:
192,192,57074,128,0,57106:0:0:0:0:
64,192,57137,1,0,0:0:0:0:
192,192,57201,1,0,0:0:0:0:
448,192,57265,1,0,0:0:0:0:
192,192,57328,1,0,0:0:0:0:
64,192,57328,1,0,0:0:0:0:
320,192,57328,128,0,57360:0:0:0:0:
448,192,57392,1,0,0:0:0:0:
320,192,57455,1,0,0:0:0:0:
64,192,57519,1,0,0:0:0:0:
320,192,57583,1,0,0:0:0:0:
448,192,57583,128,0,57614:0:0:0:0:
192,192,57583,1,0,0:0:0:0:
64,192,57646,1,0,0:0:0:0:
192,192,57710,1,0,0:0:0:0:
320,192,57774,1,0,0:0:0:0:
64,192,57837,1,0,0:0:0:0:
448,192,57837,1,0,0:0:0:0:
192,192,57837,128,0,57869:0:0:0:0:
320,192,57901,1,0,0:0:0:0:
192,192,57964,1,0,0:0:0:0:
448,192,58028,1,0,0:0:0:0:
320,192,58092,1,0,0:0:0:0:
64,192,58092,1,0,0:0:0:0:
192,192,58155,1,0,0:0:0:0:
448,192,58219,1,0,0:0:0:0:
320,192,58219,1,0,0:0:0:0:
64,192,58282,1,0,0:0:0:0:
192,192,58346,1,0,0:0:0:0:
448,192,58346,1,0,0:0:0:0:
320,192,58346,1,0,0:0:0:0:
64,192,58410,1,0,0:0:0:0:
448,192,58473,1,0,0:0:0:0:
192,192,58473,1,0,0:0:0:0:
320,192,58537,1,0,0:0:0:0:
64,192,58601,1,0,0:0:0:0:
192,192,58601,1,0,0:0:0:0:
448,192,58664,1,0,0:0:0:0:
320,192,58728,1,0,0:0:0:0:
64,192,58728,1,0,0:0:0:0:
192,192,58791,1,0,0:0:0:0:
448,192,58855,1,0,0:0:0:0:
320,192,58855,128,0,58887:0:0:0:0:
64,192,58855,1,0,0:0:0:0:
192,192,58919,1,0,0:0:0:0:
448,192,58982,1,0,0:0:0:0:
320,192,59046,1,0,0:0:0:0:
64,192,59110,1,0,0:0:0:0:
448,192,59110,1,0,0:0:0:0:
192,192,59110,128,0,59141:0:0:0:0:
320,192,59173,1,0,0:0:0:0:
64,192,59237,1,0,0:0:0:0:
192,192,59300,1,0,0:0:0:0:
64,192,59364,1,0,0:0:0:0:
448,192,59364,128,0,59396:0:0:0:0:
320,192,59364,1,0,0:0:0:0:
192,192,59428,1,0,0:0:0:0:
448,192,59491,1,0,0:0:0:0:
320,192,59555,1,0,0:0:0:0:
448,192,59619,1,0,0:0:0:0:
64,192,59619,128,0,59650:0:0:0:0:
192,192,59619,1,0,0:0:0:0:
320,192,59682,1,0,0:0:0:0:
64,192,59746,1,0,0:0:0:0:
192,192,59809,1,0,0:0:0:0:
448,192,59873,1,0,0:0:0:0:
320,192,59873,1,0,0:0:0:0:
64,192,59873,128,0,59905:0:0:0:0:
320,192,60255,128,0,60287:0:0:0:0:
192,192,60318,128,0,60350:0:0:0:0:
64,192,60382,128,0,60414:0:0:0:0:
448,192,60382,1,0,0:0:0:0:
448,192,60509,1,0,0:0:0:0:
448,192,60636,1,0,0:0:0:0:
448,192,60764,1,0,0:0:0:0:
64,192,60891,1,0,0:0:0:0:
320,192,60891,1,0,0:0:0:0:
448,192,60891,1,0,0:0:0:0:
192,192,60955,1,0,0:0:0:0:
448,192,61018,1,0,0:0:0:0:
320,192,61082,1,0,0:0:0:0:
64,192,61145,1,0,0:0:0:0:
192,192,61145,1,0,0:0:0:0:
320,192,61209,1,0,0:0:0:0:
192,192,61273,1,0,0:0:0:0:
448,192,61336,1,0,0:0:0:0:
64,192,61400,1,0,0:0:0:0:
320,192,61400,1,0,0:0:0:0:
192,192,61463,1,0,0:0:0:0:
320,192,61527,1,0,0:0:0:0:
448,192,61591,1,0,0:0:0:0:
64,192,61654,1,0,0:0:0:0:
192,192,61654,1,0,0:0:0:0:
320,192,61654,1,0,0:0:0:0:
448,192,61718,1,0,0:0:0:0:
64,192,61782,1,0,0:0:0:0:
320,192,61782,1,0,0:0:0:0:
192,192,61845,1,0,0:0:0:0:
320,192,61909,1,0,0:0:0:0:
448,192,61909,1,0,0:0:0:0:
64,192,61909,128,0,61941:0:0:0:0:
192,192,61972,1,0,0:0:0:0:
320,192,62036,1,0,0:0:0:0:
192,192,62100,1,0,0:0:0:0:
64,192,62163,1,0,0:0:0:0:
320,192,62163,1,0,0:0:0:0:
448,192,62163,128,0,62195:0:0:0:0:
192,192,62227,1,0,0:0:0:0:
320,192,62291,1,0,0:0:0:0:
192,192,62354,1,0,0:0:0:0:
448,192,62418,1,0,0:0:0:0:
320,192,62418,1,0,0:0:0:0:
64,192,62418,128,0,62450:0:0:0:0:
192,192,62481,1,0,0:0:0:0:
320,192,62545,1,0,0:0:0:0:
192,192,62609,1,0,0:0:0:0:
64,192,62672,1,0,0:0:0:0:
320,192,62672,1,0,0:0:0:0:
448,192,62672,128,0,62704:0:0:0:0:
192,192,62736,1,0,0:0:0:0:
320,192,62800,1,0,0:0:0:0:
192,192,62863,1,0,0:0:0:0:
64,192,62927,1,0,0:0:0:0:
448,192,62927,1,0,0:0:0:0:
320,192,62927,128,0,62959:0:0:0:0:
192,192,62990,1,0,0:0:0:0:
320,192,63054,1,0,0:0:0:0:
64,192,63118,1,0,0:0:0:0:
192,192,63181,1,0,0:0:0:0:
448,192,63181,1,0,0:0:0:0:
320,192,63245,1,0,0:0:0:0:
192,192,63308,1,0,0:0:0:0:
448,192,63372,1,0,0:0:0:0:
320,192,63436,1,0,0:0:0:0:
192,192,63436,1,0,0:0:0:0:
64,192,63499,1,0,0:0:0:0:
448,192,63563,1,0,0:0:0:0:
192,192,63627,1,0,0:0:0:0:
448,192,63690,1,0,0:0:0:0:
320,192,63690,1,0,0:0:0:0:
64,192,63690,1,0,0:0:0:0:
192,192,63754,1,0,0:0:0:0:
64,192,63817,1,0,0:0:0:0:
448,192,63817,1,0,0:0:0:0:
320,192,63881,1,0,0:0:0:0:
64,192,63945,1,0,0:0:0:0:
192,192,63945,1,0,0:0:0:0:
448,192,63945,1,0,0:0:0:0:
320,192,64008,1,0,0:0:0:0:
192,192,64072,1,0,0:0:0:0:
448,192,64136,1,0,0:0:0:0:
192,192,64199,1,0,0:0:0:0:
64,192,64199,1,0,0:0:0:0:
320,192,64284,1,0,0:0:0:0:
448,192,64284,1,0,0:0:0:0:
192,192,64369,1,0,0:0:0:0:
64,192,64369,1,0,0:0:0:0:
320,192,64454,1,0,0:0:0:0:
448,192,64454,1,0,0:0:0:0:
192,192,64581,1,0,0:0:0:0:
320,192,64623,1,0,0:0:0:0:
192,192,64666,1,0,0:0:0:0:
320,192,64708,1,0,0:0:0:0:
448,192,64708,1,0,0:0:0:0:
320,192,64835,1,0,0:0:0:0:
448,192,64835,1,0,0:0:0:0:
448,192,64963,1,0,0:0:0:0:
320,192,64963,1,0,0:0:0:0:
64,192,64963,1,0,0:0:0:0:
192,192,65026,1,0,0:0:0:0:
448,192,65090,1,0,0:0:0:0:
320,192,65153,1,0,0:0:0:0:
192,192,65217,1,0,0:0:0:0:
448,192,65217,1,0,0:0:0:0:
64,192,65217,1,0,0:0:0:0:
320,192,65281,1,0,0:0:0:0:
64,192,65344,1,0,0:0:0:0:
192,192,65408,1,0,0:0:0:0:
64,192,65472,1,0,0:0:0:0:
448,192,65472,1,0,0:0:0:0:
320,192,65472,1,0,0:0:0:0:
192,192,65535,1,0,0:0:0:0:
448,192,65599,1,0,0:0:0:0:
320,192,65662,1,0,0:0:0:0:
192,192,65726,1,0,0:0:0:0:
64,192,65726,1,0,0:0:0:0:
448,192,65726,1,0,0:0:0:0:
320,192,65790,1,0,0:0:0:0:
64,192,65853,1,0,0:0:0:0:
192,192,65917,1,0,0:0:0:0:
64,192,65981,1,0,0:0:0:0:
448,192,65981,1,0,0:0:0:0:
320,192,65981,1,0,0:0:0:0:
192,192,66044,1,0,0:0:0:0:
448,192,66108,1,0,0:0:0:0:
320,192,66171,1,0,0:0:0:0:
192,192,66235,1,0,0:0:0:0:
64,192,66235,1,0,0:0:0:0:
320,192,66299,1,0,0:0:0:0:
448,192,66362,1,0,0:0:0:0:
192,192,66362,1,0,0:0:0:0:
64,192,66426,1,0,0:0:0:0:
192,192,66489,1,0,0:0:0:0:
320,192,66489,1,0,0:0:0:0:
448,192,66489,1,0,0:0:0:0:
64,192,66553,1,0,0:0:0:0:
192,192,66617,1,0,0:0:0:0:
320,192,66617,1,0,0:0:0:0:
448,192,66680,1,0,0:0:0:0:
64,192,66744,1,0,0:0:0:0:
192,192,66744,1,0,0:0:0:0:
320,192,66744,1,0,0:0:0:0:
448,192,66808,1,0,0:0:0:0:
320,192,66871,1,0,0:0:0:0:
192,192,66871,1,0,0:0:0:0:
64,192,66935,1,0,0:0:0:0:
192,192,66998,1,0,0:0:0:0:
320,192,66998,1,0,0:0:0:0:
448,192,66998,1,0,0:0:0:0:
64,192,67062,1,0,0:0:0:0:
320,192,67126,1,0,0:0:0:0:
192,192,67189,1,0,0:0:0:0:
448,192,67253,1,0,0:0:0:0:
320,192,67253,1,0,0:0:0:0:
64,192,67317,1,0,0:0:0:0:
192,192,67380,1,0,0:0:0:0:
448,192,67380,1,0,0:0:0:0:
320,192,67444,1,0,0:0:0:0:
192,192,67507,1,0,0:0:0:0:
448,192,67507,1,0,0:0:0:0:
64,192,67507,1,0,0:0:0:0:
320,192,67571,1,0,0:0:0:0:
192,192,67635,1,0,0:0:0:0:
320,192,67698,1,0,0:0:0:0:
192,192,67762,1,0,0:0:0:0:
64,192,67762,1,0,0:0:0:0:
448,192,67762,1,0,0:0:0:0:
320,192,67825,1,0,0:0:0:0:
192,192,67889,1,0,0:0:0:0:
320,192,67953,1,0,0:0:0:0:
64,192,68016,1,0,0:0:0:0:
192,192,68016,1,0,0:0:0:0:
448,192,68016,1,0,0:0:0:0:
320,192,68080,1,0,0:0:0:0:
192,192,68144,1,0,0:0:0:0:
64,192,68144,1,0,0:0:0:0:
448,192,68207,1,0,0:0:0:0:
192,192,68271,1,0,0:0:0:0:
64,192,68271,1,0,0:0:0:0:
320,192,68271,1,0,0:0:0:0:
448,192,68334,1,0,0:0:0:0:
192,192,68398,1,0,0:0:0:0:
320,192,68398,1,0,0:0:0:0:
64,192,68462,1,0,0:0:0:0:
448,192,68462,1,0,0:0:0:0:
192,192,68525,1,0,0:0:0:0:
320,192,68525,1,0,0:0:0:0:
64,192,68589,1,0,0:0:0:0:
320,192,68653,1,0,0:0:0:0:
448,192,68653,1,0,0:0:0:0:
192,192,68716,1,0,0:0:0:0:
64,192,68780,1,0,0:0:0:0:
320,192,68780,1,0,0:0:0:0:
448,192,68780,1,0,0:0:0:0:
192,192,68843,1,0,0:0:0:0:
448,192,68907,1,0,0:0:0:0:
64,192,68907,1,0,0:0:0:0:
320,192,68971,1,0,0:0:0:0:
192,192,69034,1,0,0:0:0:0:
64,192,69034,1,0,0:0:0:0:
320,192,69098,1,0,0:0:0:0:
448,192,69098,1,0,0:0:0:0:
192,192,69162,1,0,0:0:0:0:
64,192,69162,1,0,0:0:0:0:
320,192,69225,1,0,0:0:0:0:
448,192,69225,1,0,0:0:0:0:
192,192,69289,1,0,0:0:0:0:
64,192,69289,1,0,0:0:0:0:
320,192,69352,1,0,0:0:0:0:
448,192,69352,1,0,0:0:0:0:
192,192,69416,1,0,0:0:0:0:
64,192,69416,1,0,0:0:0:0:
320,192,69480,1,0,0:0:0:0:
448,192,69480,1,0,0:0:0:0:
192,192,69543,1,0,0:0:0:0:
320,192,69586,1,0,0:0:0:0:
192,192,69628,1,0,0:0:0:0:
320,192,69670,1,0,0:0:0:0:
448,192,69670,1,0,0:0:0:0:
192,192,69734,1,0,0:0:0:0:
64,192,69734,1,0,0:0:0:0:
320,192,69798,1,0,0:0:0:0:
448,192,69798,1,0,0:0:0:0:
192,192,69861,1,0,0:0:0:0:
64,192,69861,1,0,0:0:0:0:
448,192,69925,1,0,0:0:0:0:
320,192,69967,1,0,0:0:0:0:
192,192,70010,1,0,0:0:0:0:
448,192,70052,128,0,70084:0:0:0:0:
64,192,70052,128,0,70084:0:0:0:0:
64,192,71834,128,0,71865:0:0:0:0:
64,192,72088,128,0,72120:0:0:0:0:
448,192,74124,1,0,0:0:0:0:
64,192,75905,128,0,75937:0:0:0:0:
64,192,76160,128,0,76192:0:0:0:0:
448,192,78196,1,0,0:0:0:0:
320,192,78196,1,0,0:0:0:0:
64,192,78196,1,0,0:0:0:0:
192,192,78450,1,0,0:0:0:0:
192,192,78705,1,0,0:0:0:0:
192,192,78959,1,0,0:0:0:0:
192,192,79213,1,0,0:0:0:0:
192,192,79468,1,0,0:0:0:0:
192,192,79722,1,0,0:0:0:0:
192,192,79977,1,0,0:0:0:0:
448,192,80231,1,0,0:0:0:0:
64,192,80231,1,0,0:0:0:0:
320,192,80231,1,0,0:0:0:0:
320,192,80486,1,0,0:0:0:0:
192,192,80486,1,0,0:0:0:0:
320,192,80740,1,0,0:0:0:0:
192,192,80740,1,0,0:0:0:0:
320,192,80995,1,0,0:0:0:0:
192,192,80995,1,0,0:0:0:0:
320,192,81249,1,0,0:0:0:0:
192,192,81249,1,0,0:0:0:0:
320,192,81504,1,0,0:0:0:0:
192,192,81504,1,0,0:0:0:0:
320,192,81758,1,0,0:0:0:0:
192,192,81758,1,0,0:0:0:0:
320,192,82013,1,0,0:0:0:0:
192,192,82013,1,0,0:0:0:0:
448,192,82267,1,0,0:0:0:0:
320,192,82267,1,0,0:0:0:0:
64,192,82267,1,0,0:0:0:0:
448,192,82437,1,0,0:0:0:0:
192,192,82522,1,0,0:0:0:0:
64,192,82522,1,0,0:0:0:0:
320,192,82522,1,0,0:0:0:0:
448,192,82607,1,0,0:0:0:0:
64,192,82776,1,0,0:0:0:0:
192,192,82776,1,0,0:0:0:0:
320,192,82776,1,0,0:0:0:0:
448,192,82776,1,0,0:0:0:0:
448,192,82946,1,0,0:0:0:0:
320,192,83031,1,0,0:0:0:0:
192,192,83031,1,0,0:0:0:0:
64,192,83031,1,0,0:0:0:0:
448,192,83115,1,0,0:0:0:0:
448,192,83285,1,0,0:0:0:0:
320,192,83285,1,0,0:0:0:0:
64,192,83285,1,0,0:0:0:0:
64,192,83455,1,0,0:0:0:0:
448,192,83540,1,0,0:0:0:0:
320,192,83540,1,0,0:0:0:0:
192,192,83540,1,0,0:0:0:0:
64,192,83624,1,0,0:0:0:0:
192,192,83794,1,0,0:0:0:0:
320,192,83794,1,0,0:0:0:0:
448,192,83794,1,0,0:0:0:0:
64,192,83794,1,0,0:0:0:0:
64,192,83964,1,0,0:0:0:0:
448,192,84049,1,0,0:0:0:0:
320,192,84049,1,0,0:0:0:0:
192,192,84049,1,0,0:0:0:0:
64,192,84133,1,0,0:0:0:0:
448,192,84303,1,0,0:0:0:0:
64,192,84303,1,0,0:0:0:0:
192,192,84303,1,0,0:0:0:0:
320,192,84388,1,0,0:0:0:0:
192,192,84473,1,0,0:0:0:0:
64,192,84558,1,0,0:0:0:0:
448,192,84558,1,0,0:0:0:0:
192,192,84642,1,0,0:0:0:0:
320,192,84727,1,0,0:0:0:0:
448,192,84812,1,0,0:0:0:0:
64,192,84812,1,0,0:0:0:0:
192,192,84812,1,0,0:0:0:0:
320,192,84897,1,0,0:0:0:0:
192,192,84982,1,0,0:0:0:0:
64,192,85067,1,0,0:0:0:0:
448,192,85067,1,0,0:0:0:0:
192,192,85151,1,0,0:0:0:0:
320,192,85236,1,0,0:0:0:0:
448,192,85321,128,0,85363:0:0:0:0:
64,192,85321,1,0,0:0:0:0:
320,192,85406,128,0,85448:0:0:0:0:
192,192,85491,128,0,85533:0:0:0:0:
448,192,85575,128,0,85618:0:0:0:0:
64,192,85575,1,0,0:0:0:0:
320,192,85660,128,0,85703:0:0:0:0:
192,192,85745,128,0,85788:0:0:0:0:
448,192,85745,1,0,0:0:0:0:
64,192,85830,128,0,85872:0:0:0:0:
448,192,85830,1,0,0:0:0:0:
192,192,85915,128,0,85957:0:0:0:0:
320,192,86000,128,0,86042:0:0:0:0:
448,192,86084,128,0,86212:0:0:0:0:
192,192,86339,1,0,0:0:0:0:
64,192,86339,1,0,0:0:0:0:
448,192,86339,1,0,0:0:0:0:
320,192,86424,1,0,0:0:0:0:
192,192,86509,1,0,0:0:0:0:
64,192,86593,1,0,0:0:0:0:
320,192,86593,1,0,0:0:0:0:
448,192,86593,1,0,0:0:0:0:
192,192,86678,1,0,0:0:0:0:
320,192,86763,1,0,0:0:0:0:
192,192,86848,1,0,0:0:0:0:
64,192,86848,1,0,0:0:0:0:
448,192,86848,1,0,0:0:0:0:
320,192,86933,1,0,0:0:0:0:
192,192,87018,1,0,0:0:0:0:
64,192,87102,1,0,0:0:0:0:
320,192,87102,1,0,0:0:0:0:
448,192,87102,1,0,0:0:0:0:
192,192,87272,1,0,0:0:0:0:
64,192,87272,1,0,0:0:0:0:
192,192,87357,1,0,0:0:0:0:
64,192,87357,1,0,0:0:0:0:
448,192,87357,1,0,0:0:0:0:
320,192,87442,1,0,0:0:0:0:
192,192,87526,1,0,0:0:0:0:
320,192,87611,1,0,0:0:0:0:
64,192,87611,1,0,0:0:0:0:
448,192,87611,128,0,87643:0:0:0:0:
192,192,87696,1,0,0:0:0:0:
320,192,87781,1,0,0:0:0:0:
448,192,87866,1,0,0:0:0:0:
192,192,87866,1,0,0:0:0:0:
64,192,87866,128,0,87898:0:0:0:0:
320,192,87951,1,0,0:0:0:0:
192,192,88035,1,0,0:0:0:0:
448,192,88120,1,0,0:0:0:0:
64,192,88120,1,0,0:0:0:0:
320,192,88120,128,0,88152:0:0:0:0:
320,192,88290,1,0,0:0:0:0:
448,192,88290,1,0,0:0:0:0:
448,192,88375,1,0,0:0:0:0:
320,192,88375,1,0,0:0:0:0:
64,192,88375,1,0,0:0:0:0:
192,192,88460,1,0,0:0:0:0:
320,192,88544,1,0,0:0:0:0:
192,192,88629,1,0,0:0:0:0:
448,192,88629,1,0,0:0:0:0:
64,192,88629,1,0,0:0:0:0:
320,192,88714,1,0,0:0:0:0:
192,192,88799,1,0,0:0:0:0:
64,192,88884,1,0,0:0:0:0:
448,192,88884,1,0,0:0:0:0:
320,192,88884,1,0,0:0:0:0:
192,192,88969,1,0,0:0:0:0:
320,192,89053,1,0,0:0:0:0:
192,192,89138,1,0,0:0:0:0:
64,192,89138,1,0,0:0:0:0:
448,192,89138,1,0,0:0:0:0:
192,192,89308,1,0,0:0:0:0:
448,192,89308,1,0,0:0:0:0:
448,192,89393,1,0,0:0:0:0:
320,192,89393,1,0,0:0:0:0:
64,192,89393,1,0,0:0:0:0:
192,192,89477,1,0,0:0:0:0:
320,192,89562,1,0,0:0:0:0:
448,192,89562,1,0,0:0:0:0:
64,192,89647,1,0,0:0:0:0:
192,192,89647,128,0,89679:0:0:0:0:
320,192,89732,1,0,0:0:0:0:
192,192,89817,1,0,0:0:0:0:
64,192,89902,128,0,89933:0:0:0:0:
448,192,89902,1,0,0:0:0:0:
192,192,89986,1,0,0:0:0:0:
320,192,90071,1,0,0:0:0:0:
64,192,90156,128,0,90283:0:0:0:0:
448,192,90156,128,0,90188:0:0:0:0:
320,192,90411,1,0,0:0:0:0:
448,192,90411,1,0,0:0:0:0:
64,192,90411,1,0,0:0:0:0:
192,192,90495,1,0,0:0:0:0:
320,192,90580,1,0,0:0:0:0:
192,192,90665,1,0,0:0:0:0:
64,192,90665,1,0,0:0:0:0:
448,192,90665,1,0,0:0:0:0:
320,192,90750,1,0,0:0:0:0:
192,192,90835,1,0,0:0:0:0:
320,192,90920,1,0,0:0:0:0:
448,192,90920,1,0,0:0:0:0:
64,192,90920,1,0,0:0:0:0:
192,192,91004,1,0,0:0:0:0:
320,192,91089,1,0,0:0:0:0:
192,192,91174,1,0,0:0:0:0:
64,192,91174,1,0,0:0:0:0:
448,192,91174,1,0,0:0:0:0:
192,192,91344,1,0,0:0:0:0:
448,192,91344,1,0,0:0:0:0:
320,192,91429,1,0,0:0:0:0:
448,192,91429,1,0,0:0:0:0:
64,192,91429,1,0,0:0:0:0:
192,192,91513,1,0,0:0:0:0:
320,192,91598,1,0,0:0:0:0:
192,192,91683,1,0,0:0:0:0:
448,192,91683,1,0,0:0:0:0:
64,192,91683,128,0,91715:0:0:0:0:
320,192,91768,1,0,0:0:0:0:
192,192,91853,1,0,0:0:0:0:
64,192,91937,1,0,0:0:0:0:
448,192,91937,1,0,0:0:0:0:
320,192,91937,128,0,91969:0:0:0:0:
192,192,92022,1,0,0:0:0:0:
320,192,92107,1,0,0:0:0:0:
192,192,92192,1,0,0:0:0:0:
64,192,92192,1,0,0:0:0:0:
448,192,92192,128,0,92224:0:0:0:0:
192,192,92362,1,0,0:0:0:0:
64,192,92362,1,0,0:0:0:0:
64,192,92446,1,0,0:0:0:0:
192,192,92446,1,0,0:0:0:0:
448,192,92446,1,0,0:0:0:0:
320,192,92531,1,0,0:0:0:0:
192,192,92616,1,0,0:0:0:0:
320,192,92701,1,0,0:0:0:0:
448,192,92701,1,0,0:0:0:0:
64,192,92701,1,0,0:0:0:0:
192,192,92786,1,0,0:0:0:0:
320,192,92871,1,0,0:0:0:0:
448,192,92955,128,0,93210:0:0:0:0:
64,192,92955,1,0,0:0:0:0:
192,192,93040,1,0,0:0:0:0:
320,192,93125,1,0,0:0:0:0:
192,192,93210,1,0,0:0:0:0:
64,192,93210,1,0,0:0:0:0:
192,192,93380,1,0,0:0:0:0:
320,192,93380,1,0,0:0:0:0:
64,192,93464,1,0,0:0:0:0:
192,192,93464,1,0,0:0:0:0:
448,192,93464,1,0,0:0:0:0:
448,192,93634,1,0,0:0:0:0:
320,192,93676,1,0,0:0:0:0:
192,192,93719,1,0,0:0:0:0:
448,192,93888,1,0,0:0:0:0:
192,192,93973,128,0,94228:0:0:0:0:
448,192,94228,1,0,0:0:0:0:
64,192,94228,1,0,0:0:0:0:
64,192,94482,1,0,0:0:0:0:
192,192,94482,1,0,0:0:0:0:
448,192,94482,1,0,0:0:0:0:
320,192,94567,1,0,0:0:0:0:
448,192,94652,1,0,0:0:0:0:
192,192,94737,1,0,0:0:0:0:
320,192,94737,1,0,0:0:0:0:
64,192,94737,1,0,0:0:0:0:
448,192,94822,1,0,0:0:0:0:
320,192,94906,1,0,0:0:0:0:
448,192,94991,1,0,0:0:0:0:
192,192,94991,1,0,0:0:0:0:
64,192,94991,1,0,0:0:0:0:
320,192,95076,1,0,0:0:0:0:
448,192,95161,1,0,0:0:0:0:
192,192,95246,1,0,0:0:0:0:
320,192,95246,1,0,0:0:0:0:
64,192,95246,1,0,0:0:0:0:
320,192,95415,1,0,0:0:0:0:
448,192,95415,1,0,0:0:0:0:
64,192,95500,1,0,0:0:0:0:
448,192,95500,1,0,0:0:0:0:
320,192,95500,1,0,0:0:0:0:
192,192,95585,1,0,0:0:0:0:
64,192,95670,1,0,0:0:0:0:
192,192,95755,1,0,0:0:0:0:
448,192,95755,1,0,0:0:0:0:
320,192,95755,128,0,95786:0:0:0:0:
64,192,95839,1,0,0:0:0:0:
192,192,95924,1,0,0:0:0:0:
64,192,96009,1,0,0:0:0:0:
320,192,96009,1,0,0:0:0:0:
448,192,96009,128,0,96041:0:0:0:0:
192,192,96094,1,0,0:0:0:0:
64,192,96179,1,0,0:0:0:0:
448,192,96264,1,0,0:0:0:0:
320,192,96264,1,0,0:0:0:0:
192,192,96264,128,0,96295:0:0:0:0:
64,192,96433,1,0,0:0:0:0:
192,192,96433,1,0,0:0:0:0:
64,192,96518,1,0,0:0:0:0:
448,192,96518,1,0,0:0:0:0:
192,192,96518,1,0,0:0:0:0:
320,192,96603,1,0,0:0:0:0:
448,192,96688,1,0,0:0:0:0:
192,192,96773,1,0,0:0:0:0:
320,192,96773,1,0,0:0:0:0:
64,192,96773,1,0,0:0:0:0:
448,192,96857,1,0,0:0:0:0:
320,192,96942,1,0,0:0:0:0:
448,192,97027,1,0,0:0:0:0:
192,192,97027,1,0,0:0:0:0:
64,192,97027,1,0,0:0:0:0:
320,192,97112,1,0,0:0:0:0:
448,192,97197,1,0,0:0:0:0:
192,192,97282,1,0,0:0:0:0:
320,192,97282,1,0,0:0:0:0:
64,192,97282,1,0,0:0:0:0:
64,192,97451,1,0,0:0:0:0:
192,192,97451,1,0,0:0:0:0:
64,192,97536,1,0,0:0:0:0:
192,192,97536,1,0,0:0:0:0:
448,192,97536,1,0,0:0:0:0:
320,192,97621,1,0,0:0:0:0:
64,192,97706,1,0,0:0:0:0:
192,192,97706,1,0,0:0:0:0:
448,192,97791,1,0,0:0:0:0:
320,192,97791,128,0,97822:0:0:0:0:
192,192,97875,1,0,0:0:0:0:
320,192,97960,1,0,0:0:0:0:
448,192,98045,128,0,98077:0:0:0:0:
192,192,98109,128,0,98299:0:0:0:0:
320,192,98130,1,0,0:0:0:0:
448,192,98215,1,0,0:0:0:0:
64,192,98299,128,0,98331:0:0:0:0:
320,192,98299,1,0,0:0:0:0:
192,192,98554,1,0,0:0:0:0:
64,192,98554,1,0,0:0:0:0:
448,192,98554,1,0,0:0:0:0:
320,192,98639,1,0,0:0:0:0:
192,192,98724,1,0,0:0:0:0:
64,192,98808,1,0,0:0:0:0:
320,192,98808,1,0,0:0:0:0:
448,192,98808,1,0,0:0:0:0:
192,192,98893,1,0,0:0:0:0:
320,192,98978,1,0,0:0:0:0:
192,192,99063,1,0,0:0:0:0:
64,192,99063,1,0,0:0:0:0:
448,192,99063,1,0,0:0:0:0:
320,192,99148,1,0,0:0:0:0:
192,192,99233,1,0,0:0:0:0:
64,192,99317,1,0,0:0:0:0:
320,192,99317,1,0,0:0:0:0:
448,192,99317,1,0,0:0:0:0:
192,192,99487,1,0,0:0:0:0:
64,192,99487,1,0,0:0:0:0:
448,192,99572,1,0,0:0:0:0:
64,192,99572,1,0,0:0:0:0:
192,192,99572,1,0,0:0:0:0:
320,192,99657,1,0,0:0:0:0:
192,192,99742,1,0,0:0:0:0:
320,192,99826,1,0,0:0:0:0:
64,192,99826,1,0,0:0:0:0:
448,192,99826,128,0,99858:0:0:0:0:
192,192,99911,1,0,0:0:0:0:
320,192,99996,1,0,0:0:0:0:
448,192,100081,1,0,0:0:0:0:
192,192,100081,128,0,100113:0:0:0:0:
64,192,100081,1,0,0:0:0:0:
320,192,100166,1,0,0:0:0:0:
192,192,100250,1,0,0:0:0:0:
448,192,100335,1,0,0:0:0:0:
320,192,100335,1,0,0:0:0:0:
64,192,100335,128,0,100367:0:0:0:0:
64,192,100505,1,0,0:0:0:0:
192,192,100505,1,0,0:0:0:0:
448,192,100590,1,0,0:0:0:0:
64,192,100590,1,0,0:0:0:0:
192,192,100590,1,0,0:0:0:0:
64,192,100759,1,0,0:0:0:0:
192,192,100802,1,0,0:0:0:0:
320,192,100844,1,0,0:0:0:0:
64,192,101014,1,0,0:0:0:0:
320,192,101099,128,0,101353:0:0:0:0:
192,192,101353,1,0,0:0:0:0:
448,192,101353,1,0,0:0:0:0:
448,192,101523,1,0,0:0:0:0:
192,192,101523,1,0,0:0:0:0:
64,192,101608,1,0,0:0:0:0:
192,192,101693,1,0,0:0:0:0:
320,192,101777,1,0,0:0:0:0:
64,192,101862,1,0,0:0:0:0:
192,192,101947,1,0,0:0:0:0:
320,192,102032,1,0,0:0:0:0:
64,192,102117,1,0,0:0:0:0:
448,192,102117,128,0,102371:0:0:0:0:
320,192,102371,128,0,102403:0:0:0:0:
192,192,102371,1,0,0:0:0:0:
448,192,102626,1,0,0:0:0:0:
320,192,102626,1,0,0:0:0:0:
64,192,102626,1,0,0:0:0:0:
192,192,102710,1,0,0:0:0:0:
64,192,102795,1,0,0:0:0:0:
320,192,102880,1,0,0:0:0:0:
192,192,102880,1,0,0:0:0:0:
448,192,102880,1,0,0:0:0:0:
64,192,102965,1,0,0:0:0:0:
192,192,103050,1,0,0:0:0:0:
64,192,103135,1,0,0:0:0:0:
320,192,103135,1,0,0:0:0:0:
448,192,103135,1,0,0:0:0:0:
192,192,103219,1,0,0:0:0:0:
64,192,103304,1,0,0:0:0:0:
320,192,103389,1,0,0:0:0:0:
192,192,103389,1,0,0:0:0:0:
448,192,103389,1,0,0:0:0:0:
192,192,103559,1,0,0:0:0:0:
64,192,103559,1,0,0:0:0:0:
448,192,103644,1,0,0:0:0:0:
64,192,103644,1,0,0:0:0:0:
192,192,103644,1,0,0:0:0:0:
320,192,103728,1,0,0:0:0:0:
448,192,103813,1,0,0:0:0:0:
320,192,103898,1,0,0:0:0:0:
64,192,103898,128,0,103930:0:0:0:0:
192,192,103898,1,0,0:0:0:0:
448,192,103983,1,0,0:0:0:0:
320,192,104068,1,0,0:0:0:0:
64,192,104153,1,0,0:0:0:0:
192,192,104153,128,0,104184:0:0:0:0:
448,192,104153,1,0,0:0:0:0:
320,192,104237,1,0,0:0:0:0:
448,192,104322,1,0,0:0:0:0:
64,192,104407,1,0,0:0:0:0:
192,192,104407,1,0,0:0:0:0:
320,192,104407,128,0,104439:0:0:0:0:
448,192,104577,1,0,0:0:0:0:
320,192,104577,1,0,0:0:0:0:
448,192,104661,1,0,0:0:0:0:
64,192,104661,1,0,0:0:0:0:
320,192,104661,1,0,0:0:0:0:
192,192,104746,1,0,0:0:0:0:
64,192,104831,1,0,0:0:0:0:
320,192,104916,1,0,0:0:0:0:
192,192,104916,1,0,0:0:0:0:
448,192,104916,1,0,0:0:0:0:
64,192,105001,1,0,0:0:0:0:
192,192,105086,1,0,0:0:0:0:
64,192,105170,1,0,0:0:0:0:
320,192,105170,1,0,0:0:0:0:
448,192,105170,1,0,0:0:0:0:
192,192,105255,1,0,0:0:0:0:
64,192,105340,1,0,0:0:0:0:
320,192,105425,1,0,0:0:0:0:
192,192,105425,1,0,0:0:0:0:
448,192,105425,1,0,0:0:0:0:
448,192,105595,1,0,0:0:0:0:
320,192,105595,1,0,0:0:0:0:
448,192,105679,1,0,0:0:0:0:
320,192,105679,1,0,0:0:0:0:
64,192,105679,1,0,0:0:0:0:
192,192,105764,1,0,0:0:0:0:
448,192,105849,1,0,0:0:0:0:
320,192,105849,1,0,0:0:0:0:
192,192,105934,1,0,0:0:0:0:
64,192,105934,128,0,105966:0:0:0:0:
320,192,106019,1,0,0:0:0:0:
448,192,106104,1,0,0:0:0:0:
192,192,106188,128,0,106220:0:0:0:0:
320,192,106252,128,0,106443:0:0:0:0:
64,192,106273,1,0,0:0:0:0:
192,192,106358,1,0,0:0:0:0:
448,192,106443,128,0,106475:0:0:0:0:
64,192,106443,1,0,0:0:0:0:
320,192,106697,1,0,0:0:0:0:
448,192,106697,1,0,0:0:0:0:
64,192,106697,1,0,0:0:0:0:
192,192,106782,1,0,0:0:0:0:
320,192,106867,1,0,0:0:0:0:
448,192,106952,1,0,0:0:0:0:
192,192,106952,1,0,0:0:0:0:
64,192,106952,1,0,0:0:0:0:
320,192,107037,1,0,0:0:0:0:
192,192,107121,1,0,0:0:0:0:
320,192,107206,1,0,0:0:0:0:
448,192,107206,1,0,0:0:0:0:
64,192,107206,1,0,0:0:0:0:
192,192,107291,1,0,0:0:0:0:
320,192,107376,1,0,0:0:0:0:
448,192,107461,1,0,0:0:0:0:
192,192,107461,1,0,0:0:0:0:
64,192,107461,1,0,0:0:0:0:
320,192,107630,1,0,0:0:0:0:
448,192,107630,1,0,0:0:0:0:
64,192,107715,1,0,0:0:0:0:
448,192,107715,1,0,0:0:0:0:
320,192,107715,1,0,0:0:0:0:
192,192,107800,1,0,0:0:0:0:
320,192,107885,1,0,0:0:0:0:
64,192,107970,1,0,0:0:0:0:
448,192,107970,1,0,0:0:0:0:
192,192,107970,128,0,108002:0:0:0:0:
320,192,108055,1,0,0:0:0:0:
192,192,108139,1,0,0:0:0:0:
64,192,108224,1,0,0:0:0:0:
320,192,108224,1,0,0:0:0:0:
448,192,108224,128,0,108256:0:0:0:0:
192,192,108309,1,0,0:0:0:0:
320,192,108394,1,0,0:0:0:0:
192,192,108479,1,0,0:0:0:0:
448,192,108479,1,0,0:0:0:0:
64,192,108479,128,0,108510:0:0:0:0:
448,192,108648,1,0,0:0:0:0:
320,192,108648,1,0,0:0:0:0:
448,192,108733,1,0,0:0:0:0:
64,192,108733,1,0,0:0:0:0:
192,192,108733,1,0,0:0:0:0:
320,192,108818,1,0,0:0:0:0:
192,192,108903,1,0,0:0:0:0:
448,192,108988,1,0,0:0:0:0:
320,192,108988,1,0,0:0:0:0:
64,192,108988,1,0,0:0:0:0:
192,192,109072,1,0,0:0:0:0:
320,192,109157,1,0,0:0:0:0:
448,192,109242,1,0,0:0:0:0:
192,192,109242,1,0,0:0:0:0:
64,192,109242,128,0,109497:0:0:0:0:
320,192,109327,1,0,0:0:0:0:
192,192,109412,1,0,0:0:0:0:
448,192,109497,1,0,0:0:0:0:
320,192,109497,1,0,0:0:0:0:
64,192,109666,1,0,0:0:0:0:
192,192,109666,1,0,0:0:0:0:
448,192,109751,1,0,0:0:0:0:
64,192,109751,1,0,0:0:0:0:
192,192,109751,1,0,0:0:0:0:
448,192,109921,1,0,0:0:0:0:
320,192,109963,1,0,0:0:0:0:
192,192,110006,128,0,110175:0:0:0:0:
64,192,110006,128,0,110175:0:0:0:0:
448,192,110175,1,0,0:0:0:0:
320,192,110260,128,0,110430:0:0:0:0:
192,192,110260,128,0,110430:0:0:0:0:
448,192,110515,128,0,110684:0:0:0:0:
320,192,110515,128,0,110684:0:0:0:0:
192,192,110769,1,0,0:0:0:0:
64,192,110769,1,0,0:0:0:0:
448,192,110769,1,0,0:0:0:0:
320,192,110854,1,0,0:0:0:0:
192,192,110939,1,0,0:0:0:0:
64,192,111023,1,0,0:0:0:0:
320,192,111023,1,0,0:0:0:0:
448,192,111023,1,0,0:0:0:0:
192,192,111108,1,0,0:0:0:0:
320,192,111193,1,0,0:0:0:0:
192,192,111278,1,0,0:0:0:0:
64,192,111278,1,0,0:0:0:0:
448,192,111278,1,0,0:0:0:0:
320,192,111363,1,0,0:0:0:0:
192,192,111448,1,0,0:0:0:0:
64,192,111532,1,0,0:0:0:0:
320,192,111532,1,0,0:0:0:0:
448,192,111532,1,0,0:0:0:0:
192,192,111702,1,0,0:0:0:0:
64,192,111702,1,0,0:0:0:0:
192,192,111787,1,0,0:0:0:0:
64,192,111787,1,0,0:0:0:0:
448,192,111787,1,0,0:0:0:0:
320,192,111872,1,0,0:0:0:0:
192,192,111957,1,0,0:0:0:0:
320,192,112041,1,0,0:0:0:0:
64,192,112041,1,0,0:0:0:0:
448,192,112041,128,0,112073:0:0:0:0:
192,192,112126,1,0,0:0:0:0:
320,192,112211,1,0,0:0:0:0:
448,192,112296,1,0,0:0:0:0:
192,192,112296,1,0,0:0:0:0:
64,192,112296,128,0,112328:0:0:0:0:
320,192,112381,1,0,0:0:0:0:
192,192,112466,1,0,0:0:0:0:
448,192,112550,1,0,0:0:0:0:
64,192,112550,1,0,0:0:0:0:
320,192,112550,128,0,112582:0:0:0:0:
320,192,112720,1,0,0:0:0:0:
448,192,112720,1,0,0:0:0:0:
448,192,112805,1,0,0:0:0:0:
320,192,112805,1,0,0:0:0:0:
64,192,112805,1,0,0:0:0:0:
192,192,112890,1,0,0:0:0:0:
320,192,112974,1,0,0:0:0:0:
192,192,113059,1,0,0:0:0:0:
448,192,113059,1,0,0:0:0:0:
64,192,113059,1,0,0:0:0:0:
320,192,113144,1,0,0:0:0:0:
192,192,113229,1,0,0:0:0:0:
64,192,113314,1,0,0:0:0:0:
448,192,113314,1,0,0:0:0:0:
320,192,113314,1,0,0:0:0:0:
192,192,113399,1,0,0:0:0:0:
320,192,113483,1,0,0:0:0:0:
192,192,113568,1,0,0:0:0:0:
64,192,113568,1,0,0:0:0:0:
448,192,113568,1,0,0:0:0:0:
192,192,113738,1,0,0:0:0:0:
448,192,113738,1,0,0:0:0:0:
448,192,113823,1,0,0:0:0:0:
320,192,113823,1,0,0:0:0:0:
64,192,113823,1,0,0:0:0:0:
192,192,113908,1,0,0:0:0:0:
320,192,113992,1,0,0:0:0:0:
64,192,113992,1,0,0:0:0:0:
192,192,114077,1,0,0:0:0:0:
448,192,114077,128,0,114109:0:0:0:0:
320,192,114162,1,0,0:0:0:0:
192,192,114247,1,0,0:0:0:0:
448,192,114332,1,0,0:0:0:0:
64,192,114332,128,0,114364:0:0:0:0:
192,192,114417,1,0,0:0:0:0:
320,192,114501,1,0,0:0:0:0:
448,192,114586,128,0,114618:0:0:0:0:
64,192,114586,128,0,114713:0:0:0:0:
64,192,114841,1,0,0:0:0:0:
192,192,114841,1,0,0:0:0:0:
448,192,114841,1,0,0:0:0:0:
320,192,114925,1,0,0:0:0:0:
448,192,115010,1,0,0:0:0:0:
192,192,115095,1,0,0:0:0:0:
320,192,115095,1,0,0:0:0:0:
64,192,115095,1,0,0:0:0:0:
448,192,115180,1,0,0:0:0:0:
320,192,115265,1,0,0:0:0:0:
448,192,115350,1,0,0:0:0:0:
192,192,115350,1,0,0:0:0:0:
64,192,115350,1,0,0:0:0:0:
320,192,115434,1,0,0:0:0:0:
448,192,115519,1,0,0:0:0:0:
192,192,115604,1,0,0:0:0:0:
320,192,115604,1,0,0:0:0:0:
64,192,115604,1,0,0:0:0:0:
320,192,115774,1,0,0:0:0:0:
448,192,115774,1,0,0:0:0:0:
64,192,115859,1,0,0:0:0:0:
448,192,115859,1,0,0:0:0:0:
320,192,115859,1,0,0:0:0:0:
192,192,115943,1,0,0:0:0:0:
64,192,116028,1,0,0:0:0:0:
192,192,116113,1,0,0:0:0:0:
448,192,116113,1,0,0:0:0:0:
320,192,116113,128,0,116145:0:0:0:0:
64,192,116198,1,0,0:0:0:0:
192,192,116283,1,0,0:0:0:0:
64,192,116368,1,0,0:0:0:0:
320,192,116368,1,0,0:0:0:0:
448,192,116368,128,0,116399:0:0:0:0:
192,192,116452,1,0,0:0:0:0:
64,192,116537,1,0,0:0:0:0:
448,192,116622,1,0,0:0:0:0:
320,192,116622,1,0,0:0:0:0:
192,192,116622,128,0,116654:0:0:0:0:
64,192,116792,1,0,0:0:0:0:
192,192,116792,1,0,0:0:0:0:
64,192,116876,1,0,0:0:0:0:
448,192,116876,1,0,0:0:0:0:
192,192,116876,1,0,0:0:0:0:
320,192,116961,1,0,0:0:0:0:
448,192,117046,1,0,0:0:0:0:
192,192,117131,1,0,0:0:0:0:
320,192,117131,1,0,0:0:0:0:
64,192,117131,1,0,0:0:0:0:
448,192,117216,1,0,0:0:0:0:
320,192,117301,1,0,0:0:0:0:
448,192,117385,1,0,0:0:0:0:
192,192,117385,1,0,0:0:0:0:
64,192,117385,1,0,0:0:0:0:
320,192,117470,1,0,0:0:0:0:
448,192,117555,1,0,0:0:0:0:
192,192,117640,1,0,0:0:0:0:
320,192,117640,1,0,0:0:0:0:
64,192,117640,1,0,0:0:0:0:
64,192,117810,5,0,0:0:0:0:
192,192,117810,1,0,0:0:0:0:
64,192,117894,1,0,0:0:0:0:
192,192,117894,1,0,0:0:0:0:
448,192,117894,1,0,0:0:0:0:
64,192,118064,1,0,0:0:0:0:
192,192,118106,1,0,0:0:0:0:
320,192,118149,128,0,118319:0:0:0:0:
448,192,118149,128,0,118319:0:0:0:0:
64,192,118319,1,0,0:0:0:0:
320,192,118403,128,0,118573:0:0:0:0:
192,192,118403,128,0,118573:0:0:0:0:
192,192,118658,128,0,118828:0:0:0:0:
64,192,118658,128,0,118828:0:0:0:0:
448,192,118912,5,0,0:0:0:0:
320,192,118912,1,0,0:0:0:0:
64,192,118912,1,0,0:0:0:0:
64,192,119167,128,0,119421:0:0:0:0:
448,192,119167,1,0,0:0:0:0:
320,192,119252,1,0,0:0:0:0:
192,192,119336,1,0,0:0:0:0:
448,192,119421,1,0,0:0:0:0:
320,192,119421,1,0,0:0:0:0:
64,192,119676,128,0,119930:0:0:0:0:
448,192,119676,1,0,0:0:0:0:
320,192,119761,1,0,0:0:0:0:
192,192,119845,1,0,0:0:0:0:
448,192,119930,1,0,0:0:0:0:
320,192,119930,1,0,0:0:0:0:
64,192,120185,128,0,120439:0:0:0:0:
448,192,120185,1,0,0:0:0:0:
320,192,120270,1,0,0:0:0:0:
192,192,120354,1,0,0:0:0:0:
448,192,120439,1,0,0:0:0:0:
320,192,120439,1,0,0:0:0:0:
192,192,120524,1,0,0:0:0:0:
320,192,120609,1,0,0:0:0:0:
64,192,120694,128,0,120948:0:0:0:0:
448,192,120694,1,0,0:0:0:0:
192,192,120694,128,0,120779:0:0:0:0:
320,192,120863,1,0,0:0:0:0:
448,192,120948,1,0,0:0:0:0:
192,192,120948,1,0,0:0:0:0:
448,192,121203,128,0,121457:0:0:0:0:
64,192,121203,1,0,0:0:0:0:
192,192,121287,1,0,0:0:0:0:
320,192,121372,1,0,0:0:0:0:
192,192,121457,1,0,0:0:0:0:
64,192,121457,1,0,0:0:0:0:
448,192,121712,128,0,121966:0:0:0:0:
64,192,121712,1,0,0:0:0:0:
192,192,121796,1,0,0:0:0:0:
320,192,121881,1,0,0:0:0:0:
192,192,121966,1,0,0:0:0:0:
64,192,121966,1,0,0:0:0:0:
448,192,122221,128,0,122475:0:0:0:0:
64,192,122221,1,0,0:0:0:0:
192,192,122305,1,0,0:0:0:0:
320,192,122390,1,0,0:0:0:0:
64,192,122475,1,0,0:0:0:0:
192,192,122475,1,0,0:0:0:0:
320,192,122560,1,0,0:0:0:0:
192,192,122645,1,0,0:0:0:0:
448,192,122730,128,0,122984:0:0:0:0:
64,192,122730,1,0,0:0:0:0:
320,192,122730,128,0,122857:0:0:0:0:
192,192,122899,1,0,0:0:0:0:
320,192,122984,128,0,123111:0:0:0:0:
64,192,122984,128,0,123111:0:0:0:0:
192,192,123154,128,0,123281:0:0:0:0:
448,192,123154,128,0,123281:0:0:0:0:
448,192,123323,128,0,123451:0:0:0:0:
320,192,123323,128,0,123451:0:0:0:0:
448,192,123493,1,0,0:0:0:0:
64,192,123493,128,0,123620:0:0:0:0:
320,192,123493,128,0,123620:0:0:0:0:
64,192,123663,128,0,123790:0:0:0:0:
192,192,123663,128,0,123790:0:0:0:0:
448,192,123832,128,0,123960:0:0:0:0:
320,192,123832,128,0,123960:0:0:0:0:
448,192,124002,1,0,0:0:0:0:
320,192,124002,128,0,124129:0:0:0:0:
64,192,124002,128,0,124129:0:0:0:0:
192,192,124172,128,0,124299:0:0:0:0:
448,192,124172,128,0,124299:0:0:0:0:
448,192,124341,128,0,124468:0:0:0:0:
320,192,124341,128,0,124468:0:0:0:0:
448,192,124511,1,0,0:0:0:0:
320,192,124511,128,0,124638:0:0:0:0:
64,192,124511,128,0,124638:0:0:0:0:
192,192,124681,128,0,124808:0:0:0:0:
64,192,124681,128,0,124808:0:0:0:0:
448,192,124850,128,0,124977:0:0:0:0:
320,192,124850,128,0,124977:0:0:0:0:
64,192,125020,1,0,0:0:0:0:
192,192,125020,1,0,0:0:0:0:
448,192,125105,1,0,0:0:0:0:
320,192,125105,1,0,0:0:0:0:
192,192,125190,1,0,0:0:0:0:
64,192,125190,1,0,0:0:0:0:
320,192,125274,1,0,0:0:0:0:
448,192,125274,1,0,0:0:0:0:
192,192,125359,1,0,0:0:0:0:
64,192,125359,1,0,0:0:0:0:
320,192,125444,1,0,0:0:0:0:
448,192,125444,1,0,0:0:0:0:
192,192,125529,1,0,0:0:0:0:
64,192,125529,1,0,0:0:0:0:
448,192,125614,1,0,0:0:0:0:
320,192,125614,1,0,0:0:0:0:
192,192,125698,1,0,0:0:0:0:
64,192,125698,1,0,0:0:0:0:
448,192,125783,1,0,0:0:0:0:
320,192,125783,1,0,0:0:0:0:
192,192,125868,1,0,0:0:0:0:
64,192,125868,1,0,0:0:0:0:
320,192,125953,1,0,0:0:0:0:
448,192,125953,1,0,0:0:0:0:
192,192,126038,128,0,126165:0:0:0:0:
64,192,126038,128,0,126165:0:0:0:0:
448,192,126207,128,0,126335:0:0:0:0:
320,192,126207,128,0,126335:0:0:0:0:
320,192,126377,128,0,126504:0:0:0:0:
64,192,126377,128,0,126504:0:0:0:0:
448,192,126547,128,0,126674:0:0:0:0:
192,192,126547,128,0,126674:0:0:0:0:
320,192,126716,128,0,126844:0:0:0:0:
192,192,126716,128,0,126844:0:0:0:0:
448,192,126886,128,0,127013:0:0:0:0:
64,192,126886,128,0,127013:0:0:0:0:
448,192,127056,128,0,127946:0:0:0:0:
320,192,127056,128,0,127946:0:0:0:0:
192,192,127056,128,0,127946:0:0:0:0:
64,192,128074,128,0,128583:0:0:0:0:
320,192,128583,128,0,129092:0:0:0:0:
192,192,129092,128,0,129600:0:0:0:0:
320,192,129600,128,0,130109:0:0:0:0:
448,192,130109,128,0,130618:0:0:0:0:
192,192,130618,128,0,131127:0:0:0:0:
448,192,131127,1,0,0:0:0:0:
64,192,131127,1,0,0:0:0:0:
448,192,131382,1,0,0:0:0:0:
320,192,131509,1,0,0:0:0:0:
192,192,131764,1,0,0:0:0:0:
320,192,132018,1,0,0:0:0:0:
64,192,132273,1,0,0:0:0:0:
320,192,132527,1,0,0:0:0:0:
192,192,132781,1,0,0:0:0:0:
448,192,132909,1,0,0:0:0:0:
64,192,133163,1,0,0:0:0:0:
192,192,133418,1,0,0:0:0:0:
320,192,133545,1,0,0:0:0:0:
448,192,133799,1,0,0:0:0:0:
192,192,134054,1,0,0:0:0:0:
64,192,134308,1,0,0:0:0:0:
320,192,134436,128,0,134945:0:0:0:0:
192,192,134945,128,0,135199:0:0:0:0:
64,192,135199,1,0,0:0:0:0:
320,192,135199,1,0,0:0:0:0:
448,192,135454,1,0,0:0:0:0:
320,192,135581,1,0,0:0:0:0:
64,192,135708,1,0,0:0:0:0:
448,192,135708,1,0,0:0:0:0:
192,192,135835,1,0,0:0:0:0:
320,192,136090,1,0,0:0:0:0:
64,192,136344,1,0,0:0:0:0:
448,192,136471,1,0,0:0:0:0:
192,192,136471,1,0,0:0:0:0:
320,192,136599,1,0,0:0:0:0:
448,192,136726,1,0,0:0:0:0:
64,192,136726,1,0,0:0:0:0:
192,192,136853,1,0,0:0:0:0:
448,192,136980,1,0,0:0:0:0:
64,192,137235,1,0,0:0:0:0:
320,192,137235,1,0,0:0:0:0:
192,192,137489,1,0,0:0:0:0:
320,192,137617,1,0,0:0:0:0:
192,192,137744,1,0,0:0:0:0:
64,192,137744,1,0,0:0:0:0:
448,192,137871,1,0,0:0:0:0:
192,192,138126,1,0,0:0:0:0:
448,192,138507,1,0,0:0:0:0:
320,192,138507,1,0,0:0:0:0:
192,192,138635,1,0,0:0:0:0:
320,192,138762,1,0,0:0:0:0:
64,192,138762,1,0,0:0:0:0:
448,192,138762,128,0,139271:0:0:0:0:
320,192,139271,1,0,0:0:0:0:
64,192,139271,1,0,0:0:0:0:
192,192,139271,128,0,139525:0:0:0:0:
448,192,139525,1,0,0:0:0:0:
320,192,139652,1,0,0:0:0:0:
64,192,139780,1,0,0:0:0:0:
448,192,139780,1,0,0:0:0:0:
192,192,139907,1,0,0:0:0:0:
320,192,140161,1,0,0:0:0:0:
64,192,140416,1,0,0:0:0:0:
448,192,140543,1,0,0:0:0:0:
192,192,140543,1,0,0:0:0:0:
320,192,140670,1,0,0:0:0:0:
448,192,140798,1,0,0:0:0:0:
64,192,140798,1,0,0:0:0:0:
192,192,140925,1,0,0:0:0:0:
448,192,141052,1,0,0:0:0:0:
64,192,141052,128,0,141179:0:0:0:0:
320,192,141307,1,0,0:0:0:0:
448,192,141307,1,0,0:0:0:0:
192,192,141434,128,0,141561:0:0:0:0:
320,192,141561,128,0,141688:0:0:0:0:
192,192,141688,128,0,141816:0:0:0:0:
64,192,141816,128,0,141943:0:0:0:0:
192,192,141943,128,0,142070:0:0:0:0:
448,192,142070,128,0,142197:0:0:0:0:
192,192,142197,128,0,142324:0:0:0:0:
320,192,142324,128,0,142452:0:0:0:0:
192,192,142452,128,0,142579:0:0:0:0:
64,192,142579,128,0,142706:0:0:0:0:
320,192,142706,128,0,142833:0:0:0:0:
448,192,142833,128,0,142961:0:0:0:0:
192,192,142961,128,0,143088:0:0:0:0:
64,192,143088,128,0,143215:0:0:0:0:
192,192,143215,128,0,143342:0:0:0:0:
320,192,143342,1,0,0:0:0:0:
448,192,143342,1,0,0:0:0:0:
192,192,143470,128,0,143597:0:0:0:0:
320,192,143597,128,0,143724:0:0:0:0:
64,192,143597,1,0,0:0:0:0:
448,192,143724,128,0,143851:0:0:0:0:
64,192,143851,128,0,143979:0:0:0:0:
192,192,143851,1,0,0:0:0:0:
448,192,143979,128,0,144106:0:0:0:0:
64,192,144106,128,0,144233:0:0:0:0:
192,192,144106,1,0,0:0:0:0:
320,192,144233,128,0,144360:0:0:0:0:
448,192,144360,1,0,0:0:0:0:
192,192,144488,128,0,144615:0:0:0:0:
320,192,144615,128,0,144742:0:0:0:0:
64,192,144615,1,0,0:0:0:0:
448,192,144742,128,0,144869:0:0:0:0:
64,192,144869,128,0,144997:0:0:0:0:
192,192,144869,1,0,0:0:0:0:
448,192,144997,128,0,145124:0:0:0:0:
64,192,145124,128,0,145251:0:0:0:0:
192,192,145124,1,0,0:0:0:0:
320,192,145251,128,0,145378:0:0:0:0:
448,192,145378,1,0,0:0:0:0:
192,192,145378,1,0,0:0:0:0:
192,192,145505,128,0,145633:0:0:0:0:
64,192,145633,1,0,0:0:0:0:
320,192,145633,128,0,145760:0:0:0:0:
448,192,145760,128,0,145887:0:0:0:0:
192,192,145887,1,0,0:0:0:0:
64,192,145887,128,0,146014:0:0:0:0:
448,192,146014,128,0,146142:0:0:0:0:
192,192,146142,1,0,0:0:0:0:
64,192,146142,128,0,146269:0:0:0:0:
320,192,146269,128,0,146396:0:0:0:0:
448,192,146396,1,0,0:0:0:0:
192,192,146396,1,0,0:0:0:0:
192,192,146523,128,0,146651:0:0:0:0:
320,192,146651,128,0,146778:0:0:0:0:
448,192,146651,1,0,0:0:0:0:
192,192,146778,128,0,146905:0:0:0:0:
64,192,146905,128,0,147032:0:0:0:0:
448,192,146905,1,0,0:0:0:0:
320,192,147032,128,0,147160:0:0:0:0:
64,192,147160,128,0,147287:0:0:0:0:
448,192,147160,1,0,0:0:0:0:
192,192,147287,128,0,147414:0:0:0:0:
320,192,147414,1,0,0:0:0:0:
448,192,147414,1,0,0:0:0:0:
64,192,147541,1,0,0:0:0:0:
192,192,147669,1,0,0:0:0:0:
320,192,147796,1,0,0:0:0:0:
448,192,147923,1,0,0:0:0:0:
320,192,147923,1,0,0:0:0:0:
192,192,147923,1,0,0:0:0:0:
64,192,148050,1,0,0:0:0:0:
192,192,148178,1,0,0:0:0:0:
320,192,148305,1,0,0:0:0:0:
448,192,148432,1,0,0:0:0:0:
320,192,148432,1,0,0:0:0:0:
192,192,148432,1,0,0:0:0:0:
64,192,148559,1,0,0:0:0:0:
192,192,148686,1,0,0:0:0:0:
320,192,148814,1,0,0:0:0:0:
448,192,148941,1,0,0:0:0:0:
320,192,148941,1,0,0:0:0:0:
192,192,148941,1,0,0:0:0:0:
64,192,149068,1,0,0:0:0:0:
192,192,149195,1,0,0:0:0:0:
320,192,149323,1,0,0:0:0:0:
448,192,149450,1,0,0:0:0:0:
192,192,149450,1,0,0:0:0:0:
64,192,149450,1,0,0:0:0:0:
320,192,149514,1,0,0:0:0:0:
448,192,149577,1,0,0:0:0:0:
64,192,149577,1,0,0:0:0:0:
192,192,149641,1,0,0:0:0:0:
320,192,149704,1,0,0:0:0:0:
448,192,149704,1,0,0:0:0:0:
64,192,149704,1,0,0:0:0:0:
192,192,149768,1,0,0:0:0:0:
320,192,149832,1,0,0:0:0:0:
448,192,149832,1,0,0:0:0:0:
64,192,149895,1,0,0:0:0:0:
192,192,149959,1,0,0:0:0:0:
320,192,149959,1,0,0:0:0:0:
448,192,149959,1,0,0:0:0:0:
64,192,150023,1,0,0:0:0:0:
448,192,150086,1,0,0:0:0:0:
320,192,150086,1,0,0:0:0:0:
192,192,150150,1,0,0:0:0:0:
64,192,150213,1,0,0:0:0:0:
448,192,150213,1,0,0:0:0:0:
320,192,150213,1,0,0:0:0:0:
192,192,150277,1,0,0:0:0:0:
64,192,150341,1,0,0:0:0:0:
448,192,150341,1,0,0:0:0:0:
320,192,150404,1,0,0:0:0:0:
192,192,150468,128,0,150977:0:0:0:0:
448,192,150977,1,0,0:0:0:0:
320,192,150977,128,0,151009:0:0:0:0:
64,192,151104,128,0,151136:0:0:0:0:
448,192,151231,128,0,151486:0:0:0:0:
320,192,151231,128,0,151263:0:0:0:0:
192,192,151358,128,0,151390:0:0:0:0:
320,192,151486,1,0,0:0:0:0:
64,192,151486,1,0,0:0:0:0:
192,192,151549,1,0,0:0:0:0:
320,192,151613,1,0,0:0:0:0:
448,192,151677,1,0,0:0:0:0:
320,192,151740,1,0,0:0:0:0:
64,192,151740,1,0,0:0:0:0:
192,192,151804,1,0,0:0:0:0:
448,192,151867,1,0,0:0:0:0:
320,192,151931,1,0,0:0:0:0:
192,192,151995,1,0,0:0:0:0:
64,192,151995,1,0,0:0:0:0:
320,192,152058,1,0,0:0:0:0:
192,192,152122,1,0,0:0:0:0:
448,192,152186,1,0,0:0:0:0:
64,192,152249,1,0,0:0:0:0:
192,192,152249,1,0,0:0:0:0:
320,192,152249,1,0,0:0:0:0:
448,192,152313,1,0,0:0:0:0:
64,192,152376,1,0,0:0:0:0:
320,192,152376,1,0,0:0:0:0:
192,192,152440,1,0,0:0:0:0:
320,192,152504,1,0,0:0:0:0:
448,192,152504,1,0,0:0:0:0:
64,192,152504,128,0,152535:0:0:0:0:
192,192,152567,1,0,0:0:0:0:
320,192,152631,1,0,0:0:0:0:
192,192,152695,1,0,0:0:0:0:
320,192,152758,1,0,0:0:0:0:
448,192,152758,128,0,152790:0:0:0:0:
64,192,152758,1,0,0:0:0:0:
192,192,152822,1,0,0:0:0:0:
320,192,152885,1,0,0:0:0:0:
192,192,152949,1,0,0:0:0:0:
448,192,153013,1,0,0:0:0:0:
320,192,153013,1,0,0:0:0:0:
64,192,153013,128,0,153044:0:0:0:0:
192,192,153076,1,0,0:0:0:0:
320,192,153140,1,0,0:0:0:0:
192,192,153204,1,0,0:0:0:0:
64,192,153267,1,0,0:0:0:0:
320,192,153267,1,0,0:0:0:0:
448,192,153267,128,0,153299:0:0:0:0:
192,192,153331,1,0,0:0:0:0:
320,192,153394,1,0,0:0:0:0:
192,192,153458,1,0,0:0:0:0:
64,192,153522,1,0,0:0:0:0:
448,192,153522,1,0,0:0:0:0:
320,192,153522,128,0,153553:0:0:0:0:
192,192,153585,1,0,0:0:0:0:
320,192,153649,1,0,0:0:0:0:
64,192,153712,1,0,0:0:0:0:
192,192,153776,1,0,0:0:0:0:
448,192,153776,1,0,0:0:0:0:
320,192,153840,1,0,0:0:0:0:
192,192,153903,1,0,0:0:0:0:
448,192,153967,1,0,0:0:0:0:
320,192,154031,1,0,0:0:0:0:
192,192,154031,1,0,0:0:0:0:
64,192,154094,1,0,0:0:0:0:
448,192,154158,1,0,0:0:0:0:
320,192,154221,1,0,0:0:0:0:
448,192,154285,1,0,0:0:0:0:
64,192,154285,1,0,0:0:0:0:
192,192,154285,1,0,0:0:0:0:
320,192,154349,1,0,0:0:0:0:
64,192,154412,1,0,0:0:0:0:
448,192,154412,1,0,0:0:0:0:
192,192,154476,1,0,0:0:0:0:
64,192,154540,1,0,0:0:0:0:
448,192,154540,1,0,0:0:0:0:
320,192,154540,1,0,0:0:0:0:
192,192,154603,1,0,0:0:0:0:
320,192,154667,1,0,0:0:0:0:
448,192,154730,1,0,0:0:0:0:
64,192,154794,1,0,0:0:0:0:
320,192,154794,1,0,0:0:0:0:
448,192,154879,1,0,0:0:0:0:
192,192,154879,1,0,0:0:0:0:
320,192,154964,1,0,0:0:0:0:
64,192,154964,1,0,0:0:0:0:
448,192,155048,1,0,0:0:0:0:
192,192,155048,1,0,0:0:0:0:
320,192,155176,1,0,0:0:0:0:
192,192,155303,128,0,155430:0:0:0:0:
64,192,155303,128,0,155430:0:0:0:0:
320,192,155557,1,0,0:0:0:0:
448,192,155557,128,0,155589:0:0:0:0:
192,192,155557,1,0,0:0:0:0:
64,192,155621,1,0,0:0:0:0:
192,192,155685,1,0,0:0:0:0:
448,192,155748,1,0,0:0:0:0:
64,192,155812,1,0,0:0:0:0:
192,192,155812,1,0,0:0:0:0:
320,192,155812,128,0,155844:0:0:0:0:
448,192,155876,1,0,0:0:0:0:
320,192,155939,1,0,0:0:0:0:
64,192,156003,1,0,0:0:0:0:
320,192,156066,1,0,0:0:0:0:
448,192,156066,1,0,0:0:0:0:
192,192,156066,128,0,156098:0:0:0:0:
64,192,156130,1,0,0:0:0:0:
192,192,156194,1,0,0:0:0:0:
448,192,156257,1,0,0:0:0:0:
192,192,156321,1,0,0:0:0:0:
64,192,156321,128,0,156353:0:0:0:0:
320,192,156321,1,0,0:0:0:0:
448,192,156385,1,0,0:0:0:0:
320,192,156448,1,0,0:0:0:0:
192,192,156512,1,0,0:0:0:0:
448,192,156575,1,0,0:0:0:0:
64,192,156575,1,0,0:0:0:0:
320,192,156575,128,0,156607:0:0:0:0:
192,192,156639,1,0,0:0:0:0:
320,192,156703,1,0,0:0:0:0:
64,192,156766,1,0,0:0:0:0:
192,192,156830,1,0,0:0:0:0:
448,192,156830,1,0,0:0:0:0:
320,192,156893,1,0,0:0:0:0:
64,192,156957,1,0,0:0:0:0:
192,192,156957,1,0,0:0:0:0:
448,192,157021,1,0,0:0:0:0:
320,192,157084,1,0,0:0:0:0:
64,192,157084,1,0,0:0:0:0:
192,192,157084,1,0,0:0:0:0:
448,192,157148,1,0,0:0:0:0:
64,192,157212,1,0,0:0:0:0:
320,192,157212,1,0,0:0:0:0:
192,192,157275,1,0,0:0:0:0:
448,192,157339,1,0,0:0:0:0:
320,192,157339,1,0,0:0:0:0:
64,192,157402,1,0,0:0:0:0:
192,192,157466,1,0,0:0:0:0:
448,192,157466,1,0,0:0:0:0:
320,192,157530,1,0,0:0:0:0:
64,192,157593,1,0,0:0:0:0:
192,192,157593,128,0,157625:0:0:0:0:
448,192,157593,1,0,0:0:0:0:
320,192,157657,1,0,0:0:0:0:
64,192,157721,1,0,0:0:0:0:
192,192,157784,1,0,0:0:0:0:
448,192,157848,1,0,0:0:0:0:
64,192,157848,1,0,0:0:0:0:
320,192,157848,128,0,157880:0:0:0:0:
192,192,157911,1,0,0:0:0:0:
448,192,157975,1,0,0:0:0:0:
320,192,158039,1,0,0:0:0:0:
448,192,158102,1,0,0:0:0:0:
64,192,158102,128,0,158134:0:0:0:0:
192,192,158102,1,0,0:0:0:0:
320,192,158166,1,0,0:0:0:0:
64,192,158229,1,0,0:0:0:0:
192,192,158293,1,0,0:0:0:0:
64,192,158357,1,0,0:0:0:0:
448,192,158357,128,0,158389:0:0:0:0:
320,192,158357,1,0,0:0:0:0:
192,192,158420,1,0,0:0:0:0:
448,192,158484,1,0,0:0:0:0:
320,192,158548,1,0,0:0:0:0:
64,192,158611,1,0,0:0:0:0:
192,192,158611,1,0,0:0:0:0:
448,192,158611,128,0,158643:0:0:0:0:
192,192,158993,128,0,159025:0:0:0:0:
320,192,159057,128,0,159088:0:0:0:0:
448,192,159120,128,0,159152:0:0:0:0:
64,192,159120,1,0,0:0:0:0:
64,192,159247,1,0,0:0:0:0:
64,192,159375,1,0,0:0:0:0:
64,192,159502,1,0,0:0:0:0:
448,192,159629,1,0,0:0:0:0:
192,192,159629,1,0,0:0:0:0:
64,192,159629,1,0,0:0:0:0:
320,192,159693,1,0,0:0:0:0:
64,192,159756,1,0,0:0:0:0:
192,192,159820,1,0,0:0:0:0:
448,192,159884,1,0,0:0:0:0:
320,192,159884,1,0,0:0:0:0:
192,192,159947,1,0,0:0:0:0:
320,192,160011,1,0,0:0:0:0:
64,192,160074,1,0,0:0:0:0:
192,192,160138,1,0,0:0:0:0:
448,192,160138,1,0,0:0:0:0:
320,192,160202,1,0,0:0:0:0:
192,192,160265,1,0,0:0:0:0:
64,192,160329,1,0,0:0:0:0:
448,192,160393,1,0,0:0:0:0:
320,192,160393,1,0,0:0:0:0:
192,192,160393,1,0,0:0:0:0:
64,192,160456,1,0,0:0:0:0:
448,192,160520,1,0,0:0:0:0:
192,192,160520,1,0,0:0:0:0:
320,192,160583,1,0,0:0:0:0:
192,192,160647,1,0,0:0:0:0:
64,192,160647,1,0,0:0:0:0:
448,192,160647,128,0,160679:0:0:0:0:
320,192,160711,1,0,0:0:0:0:
192,192,160774,1,0,0:0:0:0:
320,192,160838,1,0,0:0:0:0:
448,192,160902,1,0,0:0:0:0:
192,192,160902,1,0,0:0:0:0:
64,192,160902,128,0,160933:0:0:0:0:
320,192,160965,1,0,0:0:0:0:
192,192,161029,1,0,0:0:0:0:
320,192,161092,1,0,0:0:0:0:
64,192,161156,1,0,0:0:0:0:
192,192,161156,1,0,0:0:0:0:
448,192,161156,128,0,161188:0:0:0:0:
320,192,161220,1,0,0:0:0:0:
192,192,161283,1,0,0:0:0:0:
320,192,161347,1,0,0:0:0:0:
448,192,161410,1,0,0:0:0:0:
192,192,161410,1,0,0:0:0:0:
64,192,161410,128,0,161442:0:0:0:0:
320,192,161474,1,0,0:0:0:0:
192,192,161538,1,0,0:0:0:0:
320,192,161601,1,0,0:0:0:0:
448,192,161665,1,0,0:0:0:0:
64,192,161665,1,0,0:0:0:0:
192,192,161665,128,0,161697:0:0:0:0:
320,192,161729,1,0,0:0:0:0:
192,192,161792,1,0,0:0:0:0:
448,192,161856,1,0,0:0:0:0:
320,192,161919,1,0,0:0:0:0:
64,192,161919,1,0,0:0:0:0:
192,192,161983,1,0,0:0:0:0:
320,192,162047,1,0,0:0:0:0:
64,192,162110,1,0,0:0:0:0:
192,192,162174,1,0,0:0:0:0:
320,192,162174,1,0,0:0:0:0:
448,192,162238,1,0,0:0:0:0:
64,192,162301,1,0,0:0:0:0:
320,192,162365,1,0,0:0:0:0:
64,192,162428,1,0,0:0:0:0:
192,192,162428,1,0,0:0:0:0:
448,192,162428,1,0,0:0:0:0:
320,192,162492,1,0,0:0:0:0:
448,192,162556,1,0,0:0:0:0:
64,192,162556,1,0,0:0:0:0:
192,192,162619,1,0,0:0:0:0:
448,192,162683,1,0,0:0:0:0:
320,192,162683,1,0,0:0:0:0:
64,192,162683,1,0,0:0:0:0:
192,192,162747,1,0,0:0:0:0:
320,192,162810,1,0,0:0:0:0:
64,192,162874,1,0,0:0:0:0:
320,192,162937,1,0,0:0:0:0:
448,192,162937,1,0,0:0:0:0:
192,192,163022,1,0,0:0:0:0:
64,192,163022,1,0,0:0:0:0:
320,192,163107,1,0,0:0:0:0:
448,192,163107,1,0,0:0:0:0:
192,192,163192,1,0,0:0:0:0:
64,192,163192,1,0,0:0:0:0:
320,192,163319,1,0,0:0:0:0:
192,192,163361,1,0,0:0:0:0:
320,192,163404,1,0,0:0:0:0:
192,192,163446,1,0,0:0:0:0:
64,192,163446,1,0,0:0:0:0:
192,192,163574,1,0,0:0:0:0:
64,192,163574,1,0,0:0:0:0:
64,192,163701,1,0,0:0:0:0:
448,192,163701,1,0,0:0:0:0:
320,192,163701,128,0,163733:0:0:0:0:
192,192,163764,1,0,0:0:0:0:
448,192,163828,1,0,0:0:0:0:
320,192,163892,1,0,0:0:0:0:
448,192,163955,1,0,0:0:0:0:
64,192,163955,1,0,0:0:0:0:
192,192,163955,128,0,163987:0:0:0:0:
320,192,164019,1,0,0:0:0:0:
64,192,164083,1,0,0:0:0:0:
192,192,164146,1,0,0:0:0:0:
64,192,164210,1,0,0:0:0:0:
448,192,164210,1,0,0:0:0:0:
320,192,164210,128,0,164242:0:0:0:0:
192,192,164273,1,0,0:0:0:0:
448,192,164337,1,0,0:0:0:0:
320,192,164401,1,0,0:0:0:0:
192,192,164464,1,0,0:0:0:0:
64,192,164464,1,0,0:0:0:0:
448,192,164464,128,0,164496:0:0:0:0:
320,192,164528,1,0,0:0:0:0:
64,192,164591,1,0,0:0:0:0:
192,192,164655,1,0,0:0:0:0:
448,192,164719,1,0,0:0:0:0:
320,192,164719,1,0,0:0:0:0:
64,192,164719,128,0,164751:0:0:0:0:
192,192,164782,1,0,0:0:0:0:
320,192,164846,1,0,0:0:0:0:
448,192,164910,1,0,0:0:0:0:
192,192,164973,1,0,0:0:0:0:
64,192,164973,1,0,0:0:0:0:
320,192,165037,1,0,0:0:0:0:
448,192,165100,1,0,0:0:0:0:
192,192,165100,1,0,0:0:0:0:
64,192,165164,1,0,0:0:0:0:
192,192,165228,1,0,0:0:0:0:
320,192,165228,1,0,0:0:0:0:
448,192,165228,1,0,0:0:0:0:
64,192,165291,1,0,0:0:0:0:
192,192,165355,1,0,0:0:0:0:
320,192,165355,1,0,0:0:0:0:
448,192,165419,1,0,0:0:0:0:
64,192,165482,1,0,0:0:0:0:
192,192,165482,1,0,0:0:0:0:
320,192,165482,1,0,0:0:0:0:
448,192,165546,1,0,0:0:0:0:
320,192,165609,1,0,0:0:0:0:
192,192,165609,1,0,0:0:0:0:
64,192,165673,1,0,0:0:0:0:
192,192,165737,1,0,0:0:0:0:
320,192,165737,1,0,0:0:0:0:
448,192,165737,1,0,0:0:0:0:
64,192,165800,1,0,0:0:0:0:
320,192,165864,1,0,0:0:0:0:
192,192,165928,1,0,0:0:0:0:
448,192,165991,1,0,0:0:0:0:
320,192,165991,1,0,0:0:0:0:
64,192,166055,1,0,0:0:0:0:
192,192,166118,1,0,0:0:0:0:
448,192,166118,1,0,0:0:0:0:
320,192,166182,1,0,0:0:0:0:
192,192,166246,1,0,0:0:0:0:
448,192,166246,1,0,0:0:0:0:
64,192,166246,1,0,0:0:0:0:
320,192,166309,1,0,0:0:0:0:
192,192,166373,1,0,0:0:0:0:
320,192,166436,1,0,0:0:0:0:
192,192,166500,1,0,0:0:0:0:
64,192,166500,1,0,0:0:0:0:
448,192,166500,1,0,0:0:0:0:
320,192,166564,1,0,0:0:0:0:
192,192,166627,1,0,0:0:0:0:
320,192,166691,1,0,0:0:0:0:
448,192,166754,1,0,0:0:0:0:
64,192,166755,1,0,0:0:0:0:
192,192,166755,1,0,0:0:0:0:
320,192,166818,1,0,0:0:0:0:
192,192,166882,1,0,0:0:0:0:
64,192,166882,1,0,0:0:0:0:
448,192,166945,1,0,0:0:0:0:
192,192,167009,1,0,0:0:0:0:
64,192,167009,1,0,0:0:0:0:
320,192,167009,1,0,0:0:0:0:
448,192,167073,1,0,0:0:0:0:
320,192,167136,1,0,0:0:0:0:
64,192,167136,1,0,0:0:0:0:
192,192,167200,1,0,0:0:0:0:
448,192,167264,128,0,167295:0:0:0:0:
320,192,167391,128,0,167423:0:0:0:0:
192,192,167518,128,0,167550:0:0:0:0:
64,192,167645,128,0,167677:0:0:0:0:
192,192,167772,1,0,0:0:0:0:
320,192,167772,1,0,0:0:0:0:
448,192,167772,128,0,167804:0:0:0:0:
64,192,167900,128,0,168027:0:0:0:0:
192,192,168027,1,0,0:0:0:0:
64,192,168154,128,0,168281:0:0:0:0:
192,192,168281,1,0,0:0:0:0:
320,192,168409,128,0,168440:0:0:0:0:
64,192,168536,128,0,168568:0:0:0:0:
192,192,168663,128,0,168695:0:0:0:0:
320,192,168663,1,0,0:0:0:0:
448,192,168790,128,0,168822:0:0:0:0:
320,192,168790,1,0,0:0:0:0:
192,192,169045,128,0,169077:0:0:0:0:
64,192,169299,128,0,169331:0:0:0:0:
320,192,169554,128,0,169586:0:0:0:0:
448,192,169681,1,0,0:0:0:0:
192,192,169681,1,0,0:0:0:0:
192,192,169808,1,0,0:0:0:0:
448,192,169808,128,0,169840:0:0:0:0:
448,192,170317,1,0,0:0:0:0:
320,192,170317,1,0,0:0:0:0:
64,192,170445,128,0,170476:0:0:0:0:
448,192,170508,1,0,0:0:0:0:
320,192,170508,1,0,0:0:0:0:
64,192,170572,128,0,170604:0:0:0:0:
192,192,170699,128,0,170731:0:0:0:0:
448,192,170699,1,0,0:0:0:0:
320,192,170826,128,0,170858:0:0:0:0:
64,192,170826,1,0,0:0:0:0:
192,192,170953,1,0,0:0:0:0:
64,192,170953,1,0,0:0:0:0:
448,192,171081,128,0,171113:0:0:0:0:
320,192,171081,1,0,0:0:0:0:
64,192,171144,128,0,171176:0:0:0:0:
192,192,171208,1,0,0:0:0:0:
320,192,171208,128,0,171240:0:0:0:0:
448,192,171272,128,0,171303:0:0:0:0:
192,192,171335,128,0,171367:0:0:0:0:
64,192,171335,1,0,0:0:0:0:
448,192,171462,1,0,0:0:0:0:
320,192,171505,1,0,0:0:0:0:
192,192,171547,1,0,0:0:0:0:
64,192,171590,128,0,171621:0:0:0:0:
448,192,171590,1,0,0:0:0:0:
320,192,171717,1,0,0:0:0:0:
192,192,171759,1,0,0:0:0:0:
320,192,171802,1,0,0:0:0:0:
192,192,171844,128,0,171876:0:0:0:0:
64,192,171844,1,0,0:0:0:0:
320,192,172099,128,0,172130:0:0:0:0:
448,192,172162,1,0,0:0:0:0:
192,192,172226,1,0,0:0:0:0:
64,192,172226,1,0,0:0:0:0:
320,192,172289,1,0,0:0:0:0:
448,192,172353,128,0,172385:0:0:0:0:
192,192,172417,1,0,0:0:0:0:
320,192,172480,1,0,0:0:0:0:
64,192,172544,1,0,0:0:0:0:
320,192,172608,128,0,172639:0:0:0:0:
448,192,172671,1,0,0:0:0:0:
192,192,172735,1,0,0:0:0:0:
64,192,172735,1,0,0:0:0:0:
320,192,172798,1,0,0:0:0:0:
64,192,172862,128,0,172894:0:0:0:0:
192,192,172862,1,0,0:0:0:0:
448,192,172926,1,0,0:0:0:0:
320,192,172989,1,0,0:0:0:0:
192,192,173053,1,0,0:0:0:0:
448,192,173117,1,0,0:0:0:0:
320,192,173180,1,0,0:0:0:0:
64,192,173244,128,0,173276:0:0:0:0:
192,192,173244,1,0,0:0:0:0:
320,192,173307,1,0,0:0:0:0:
448,192,173371,128,0,173403:0:0:0:0:
192,192,173371,1,0,0:0:0:0:
64,192,173435,1,0,0:0:0:0:
320,192,173498,128,0,173530:0:0:0:0:
192,192,173498,1,0,0:0:0:0:
448,192,173562,1,0,0:0:0:0:
192,192,173626,128,0,173657:0:0:0:0:
320,192,173626,1,0,0:0:0:0:
64,192,173689,1,0,0:0:0:0:
448,192,173753,128,0,173785:0:0:0:0:
192,192,173753,1,0,0:0:0:0:
320,192,173816,1,0,0:0:0:0:
192,192,173880,128,0,173912:0:0:0:0:
64,192,173880,1,0,0:0:0:0:
448,192,173944,1,0,0:0:0:0:
320,192,174007,1,0,0:0:0:0:
192,192,174071,1,0,0:0:0:0:
320,192,174134,128,0,174166:0:0:0:0:
64,192,174134,1,0,0:0:0:0:
192,192,174198,1,0,0:0:0:0:
448,192,174262,1,0,0:0:0:0:
320,192,174325,1,0,0:0:0:0:
448,192,174389,128,0,174421:0:0:0:0:
64,192,174389,1,0,0:0:0:0:
192,192,174453,1,0,0:0:0:0:
320,192,174516,1,0,0:0:0:0:
64,192,174580,1,0,0:0:0:0:
192,192,174643,128,0,174675:0:0:0:0:
448,192,174643,1,0,0:0:0:0:
320,192,174707,1,0,0:0:0:0:
192,192,174771,1,0,0:0:0:0:
64,192,174834,1,0,0:0:0:0:
192,192,174898,128,0,174930:0:0:0:0:
448,192,174898,1,0,0:0:0:0:
320,192,174962,1,0,0:0:0:0:
192,192,175025,1,0,0:0:0:0:
64,192,175025,1,0,0:0:0:0:
448,192,175089,1,0,0:0:0:0:
320,192,175152,1,0,0:0:0:0:
192,192,175152,1,0,0:0:0:0:
64,192,175216,1,0,0:0:0:0:
448,192,175280,128,0,175311:0:0:0:0:
320,192,175280,1,0,0:0:0:0:
192,192,175343,128,0,175375:0:0:0:0:
64,192,175407,128,0,175439:0:0:0:0:
320,192,175407,1,0,0:0:0:0:
448,192,175534,1,0,0:0:0:0:
192,192,175534,1,0,0:0:0:0:
192,192,175661,1,0,0:0:0:0:
448,192,175661,1,0,0:0:0:0:
448,192,175789,1,0,0:0:0:0:
192,192,175789,1,0,0:0:0:0:
448,192,175916,5,0,0:0:0:0:
64,192,175916,1,0,0:0:0:0:
320,192,175916,1,0,0:0:0:0:
192,192,175979,1,0,0:0:0:0:
448,192,176043,1,0,0:0:0:0:
320,192,176043,1,0,0:0:0:0:
64,192,176107,1,0,0:0:0:0:
192,192,176170,1,0,0:0:0:0:
448,192,176170,1,0,0:0:0:0:
320,192,176234,1,0,0:0:0:0:
64,192,176298,1,0,0:0:0:0:
192,192,176298,1,0,0:0:0:0:
320,192,176361,1,0,0:0:0:0:
448,192,176425,1,0,0:0:0:0:
192,192,176425,1,0,0:0:0:0:
320,192,176488,1,0,0:0:0:0:
64,192,176552,1,0,0:0:0:0:
192,192,176552,1,0,0:0:0:0:
448,192,176616,1,0,0:0:0:0:
192,192,176679,1,0,0:0:0:0:
64,192,176679,1,0,0:0:0:0:
320,192,176679,1,0,0:0:0:0:
448,192,176743,1,0,0:0:0:0:
192,192,176807,1,0,0:0:0:0:
64,192,176807,1,0,0:0:0:0:
320,192,176807,1,0,0:0:0:0:
448,192,176870,1,0,0:0:0:0:
320,192,176934,1,0,0:0:0:0:
192,192,176934,1,0,0:0:0:0:
64,192,176934,1,0,0:0:0:0:
448,192,176997,1,0,0:0:0:0:
320,192,177061,1,0,0:0:0:0:
192,192,177061,1,0,0:0:0:0:
64,192,177125,1,0,0:0:0:0:
448,192,177188,1,0,0:0:0:0:
192,192,177188,1,0,0:0:0:0:
320,192,177188,1,0,0:0:0:0:
64,192,177252,1,0,0:0:0:0:
320,192,177315,1,0,0:0:0:0:
192,192,177315,1,0,0:0:0:0:
448,192,177379,1,0,0:0:0:0:
192,192,177443,1,0,0:0:0:0:
320,192,177443,1,0,0:0:0:0:
64,192,177443,1,0,0:0:0:0:
448,192,177506,1,0,0:0:0:0:
192,192,177570,1,0,0:0:0:0:
320,192,177570,1,0,0:0:0:0:
64,192,177634,1,0,0:0:0:0:
448,192,177697,1,0,0:0:0:0:
320,192,177697,1,0,0:0:0:0:
192,192,177697,1,0,0:0:0:0:
64,192,177761,1,0,0:0:0:0:
192,192,177824,1,0,0:0:0:0:
448,192,177824,1,0,0:0:0:0:
320,192,177888,1,0,0:0:0:0:
64,192,177952,1,0,0:0:0:0:
192,192,177952,1,0,0:0:0:0:
448,192,177952,1,0,0:0:0:0:
320,192,178015,1,0,0:0:0:0:
192,192,178079,1,0,0:0:0:0:
64,192,178079,1,0,0:0:0:0:
448,192,178143,1,0,0:0:0:0:
320,192,178206,1,0,0:0:0:0:
192,192,178206,1,0,0:0:0:0:
64,192,178270,1,0,0:0:0:0:
448,192,178333,1,0,0:0:0:0:
320,192,178333,1,0,0:0:0:0:
192,192,178397,1,0,0:0:0:0:
64,192,178461,1,0,0:0:0:0:
448,192,178461,1,0,0:0:0:0:
320,192,178524,1,0,0:0:0:0:
192,192,178588,1,0,0:0:0:0:
64,192,178588,1,0,0:0:0:0:
320,192,178651,1,0,0:0:0:0:
448,192,178715,1,0,0:0:0:0:
192,192,178715,1,0,0:0:0:0:
64,192,178715,1,0,0:0:0:0:
320,192,178779,1,0,0:0:0:0:
448,192,178842,1,0,0:0:0:0:
192,192,178842,1,0,0:0:0:0:
64,192,178842,1,0,0:0:0:0:
320,192,178906,1,0,0:0:0:0:
448,192,178970,1,0,0:0:0:0:
64,192,178970,1,0,0:0:0:0:
192,192,178970,1,0,0:0:0:0:
320,192,179033,1,0,0:0:0:0:
448,192,179097,1,0,0:0:0:0:
64,192,179097,1,0,0:0:0:0:
192,192,179160,1,0,0:0:0:0:
320,192,179224,1,0,0:0:0:0:
448,192,179224,1,0,0:0:0:0:
192,192,179288,1,0,0:0:0:0:
64,192,179288,1,0,0:0:0:0:
320,192,179351,1,0,0:0:0:0:
448,192,179351,1,0,0:0:0:0:
192,192,179415,1,0,0:0:0:0:
64,192,179415,1,0,0:0:0:0:
320,192,179479,1,0,0:0:0:0:
448,192,179479,1,0,0:0:0:0:
192,192,179542,1,0,0:0:0:0:
64,192,179606,1,0,0:0:0:0:
192,192,179648,1,0,0:0:0:0:
448,192,179691,1,0,0:0:0:0:
320,192,179733,1,0,0:0:0:0:
64,192,179733,1,0,0:0:0:0:
64,192,179860,1,0,0:0:0:0:
320,192,179860,1,0,0:0:0:0:
448,192,179988,1,0,0:0:0:0:
320,192,179988,1,0,0:0:0:0:
64,192,179988,1,0,0:0:0:0:
192,192,180051,1,0,0:0:0:0:
320,192,180115,1,0,0:0:0:0:
448,192,180115,1,0,0:0:0:0:
64,192,180178,1,0,0:0:0:0:
320,192,180242,1,0,0:0:0:0:
192,192,180242,1,0,0:0:0:0:
448,192,180242,1,0,0:0:0:0:
64,192,180306,1,0,0:0:0:0:
192,192,180369,1,0,0:0:0:0:
448,192,180369,1,0,0:0:0:0:
320,192,180433,1,0,0:0:0:0:
64,192,180496,1,0,0:0:0:0:
192,192,180496,1,0,0:0:0:0:
448,192,180496,1,0,0:0:0:0:
320,192,180560,1,0,0:0:0:0:
64,192,180624,1,0,0:0:0:0:
192,192,180624,1,0,0:0:0:0:
448,192,180687,1,0,0:0:0:0:
192,192,180751,1,0,0:0:0:0:
320,192,180751,1,0,0:0:0:0:
64,192,180751,1,0,0:0:0:0:
448,192,180815,1,0,0:0:0:0:
64,192,180878,1,0,0:0:0:0:
320,192,180878,1,0,0:0:0:0:
192,192,180942,1,0,0:0:0:0:
320,192,181005,1,0,0:0:0:0:
64,192,181005,1,0,0:0:0:0:
448,192,181005,1,0,0:0:0:0:
192,192,181069,1,0,0:0:0:0:
320,192,181133,1,0,0:0:0:0:
64,192,181133,1,0,0:0:0:0:
192,192,181196,1,0,0:0:0:0:
448,192,181260,1,0,0:0:0:0:
64,192,181260,1,0,0:0:0:0:
320,192,181324,1,0,0:0:0:0:
64,192,181387,1,0,0:0:0:0:
192,192,181387,1,0,0:0:0:0:
320,192,181451,1,0,0:0:0:0:
448,192,181514,1,0,0:0:0:0:
192,192,181514,1,0,0:0:0:0:
64,192,181514,1,0,0:0:0:0:
320,192,181578,1,0,0:0:0:0:
448,192,181642,1,0,0:0:0:0:
192,192,181642,1,0,0:0:0:0:
64,192,181642,1,0,0:0:0:0:
320,192,181705,1,0,0:0:0:0:
448,192,181769,1,0,0:0:0:0:
64,192,181769,1,0,0:0:0:0:
192,192,181769,1,0,0:0:0:0:
320,192,181832,1,0,0:0:0:0:
448,192,181896,1,0,0:0:0:0:
192,192,181896,1,0,0:0:0:0:
64,192,181896,1,0,0:0:0:0:
320,192,181960,1,0,0:0:0:0:
448,192,182023,1,0,0:0:0:0:
192,192,182023,1,0,0:0:0:0:
64,192,182023,1,0,0:0:0:0:
320,192,182087,1,0,0:0:0:0:
192,192,182151,1,0,0:0:0:0:
448,192,182151,1,0,0:0:0:0:
64,192,182214,1,0,0:0:0:0:
192,192,182278,1,0,0:0:0:0:
448,192,182278,1,0,0:0:0:0:
320,192,182341,1,0,0:0:0:0:
192,192,182405,1,0,0:0:0:0:
64,192,182405,1,0,0:0:0:0:
448,192,182405,1,0,0:0:0:0:
320,192,182469,1,0,0:0:0:0:
448,192,182532,1,0,0:0:0:0:
192,192,182532,1,0,0:0:0:0:
64,192,182532,1,0,0:0:0:0:
320,192,182596,1,0,0:0:0:0:
448,192,182660,1,0,0:0:0:0:
64,192,182660,1,0,0:0:0:0:
192,192,182723,1,0,0:0:0:0:
320,192,182787,1,0,0:0:0:0:
448,192,182787,1,0,0:0:0:0:
64,192,182787,1,0,0:0:0:0:
192,192,182850,1,0,0:0:0:0:
320,192,182914,1,0,0:0:0:0:
192,192,182978,1,0,0:0:0:0:
320,192,183041,1,0,0:0:0:0:
64,192,183041,1,0,0:0:0:0:
448,192,183041,1,0,0:0:0:0:
192,192,183105,1,0,0:0:0:0:
320,192,183169,1,0,0:0:0:0:
448,192,183169,1,0,0:0:0:0:
64,192,183232,1,0,0:0:0:0:
192,192,183296,1,0,0:0:0:0:
320,192,183296,1,0,0:0:0:0:
448,192,183359,1,0,0:0:0:0:
192,192,183423,1,0,0:0:0:0:
64,192,183423,1,0,0:0:0:0:
320,192,183487,1,0,0:0:0:0:
448,192,183550,1,0,0:0:0:0:
64,192,183550,1,0,0:0:0:0:
192,192,183614,1,0,0:0:0:0:
320,192,183677,1,0,0:0:0:0:
448,192,183677,1,0,0:0:0:0:
64,192,183741,1,0,0:0:0:0:
192,192,183805,1,0,0:0:0:0:
320,192,183805,1,0,0:0:0:0:
448,192,183868,1,0,0:0:0:0:
64,192,183932,1,0,0:0:0:0:
192,192,183932,1,0,0:0:0:0:
320,192,183996,1,0,0:0:0:0:
448,192,183996,1,0,0:0:0:0:
192,192,184059,1,0,0:0:0:0:
64,192,184059,1,0,0:0:0:0:
448,192,184123,1,0,0:0:0:0:
320,192,184186,1,0,0:0:0:0:
192,192,184186,1,0,0:0:0:0:
64,192,184250,1,0,0:0:0:0:
448,192,184314,1,0,0:0:0:0:
320,192,184314,1,0,0:0:0:0:
192,192,184377,1,0,0:0:0:0:
448,192,184441,1,0,0:0:0:0:
64,192,184441,1,0,0:0:0:0:
320,192,184505,1,0,0:0:0:0:
192,192,184568,1,0,0:0:0:0:
64,192,184568,1,0,0:0:0:0:
448,192,184632,1,0,0:0:0:0:
320,192,184695,1,0,0:0:0:0:
192,192,184695,1,0,0:0:0:0:
64,192,184759,1,0,0:0:0:0:
448,192,184823,1,0,0:0:0:0:
192,192,184823,1,0,0:0:0:0:
320,192,184886,1,0,0:0:0:0:
64,192,184950,1,0,0:0:0:0:
448,192,184950,1,0,0:0:0:0:
320,192,185013,1,0,0:0:0:0:
448,192,185077,1,0,0:0:0:0:
64,192,185077,1,0,0:0:0:0:
192,192,185077,1,0,0:0:0:0:
320,192,185141,1,0,0:0:0:0:
192,192,185204,1,0,0:0:0:0:
64,192,185204,1,0,0:0:0:0:
448,192,185268,1,0,0:0:0:0:
320,192,185332,1,0,0:0:0:0:
192,192,185332,1,0,0:0:0:0:
64,192,185395,1,0,0:0:0:0:
320,192,185459,1,0,0:0:0:0:
448,192,185459,1,0,0:0:0:0:
192,192,185522,1,0,0:0:0:0:
64,192,185586,1,0,0:0:0:0:
448,192,185586,1,0,0:0:0:0:
320,192,185650,1,0,0:0:0:0:
192,192,185713,1,0,0:0:0:0:
64,192,185713,1,0,0:0:0:0:
448,192,185777,1,0,0:0:0:0:
320,192,185841,1,0,0:0:0:0:
192,192,185841,1,0,0:0:0:0:
64,192,185904,1,0,0:0:0:0:
192,192,185968,1,0,0:0:0:0:
448,192,185968,1,0,0:0:0:0:
320,192,186031,1,0,0:0:0:0:
192,192,186095,1,0,0:0:0:0:
64,192,186095,1,0,0:0:0:0:
448,192,186159,1,0,0:0:0:0:
320,192,186159,1,0,0:0:0:0:
192,192,186222,1,0,0:0:0:0:
64,192,186222,1,0,0:0:0:0:
320,192,186286,1,0,0:0:0:0:
448,192,186286,1,0,0:0:0:0:
192,192,186350,1,0,0:0:0:0:
64,192,186350,1,0,0:0:0:0:
320,192,186413,1,0,0:0:0:0:
448,192,186413,1,0,0:0:0:0:
192,192,186477,1,0,0:0:0:0:
64,192,186477,1,0,0:0:0:0:
320,192,186540,1,0,0:0:0:0:
448,192,186540,1,0,0:0:0:0:
192,192,186604,1,0,0:0:0:0:
64,192,186668,1,0,0:0:0:0:
448,192,186668,1,0,0:0:0:0:
192,192,186731,1,0,0:0:0:0:
320,192,186731,1,0,0:0:0:0:
64,192,186795,1,0,0:0:0:0:
448,192,186795,1,0,0:0:0:0:
320,192,186858,1,0,0:0:0:0:
448,192,186922,1,0,0:0:0:0:
192,192,186922,1,0,0:0:0:0:
64,192,186986,1,0,0:0:0:0:
320,192,186986,1,0,0:0:0:0:
448,192,187049,1,0,0:0:0:0:
192,192,187049,1,0,0:0:0:0:
64,192,187113,128,0,189149:0:0:0:0:
320,192,187113,128,0,189149:0:0:0:0:
192,192,189149,1,0,0:0:0:0:
448,192,189212,1,0,0:0:0:0:
64,192,189276,1,0,0:0:0:0:
320,192,189340,1,0,0:0:0:0:
192,192,189403,1,0,0:0:0:0:
448,192,189467,1,0,0:0:0:0:
320,192,189531,1,0,0:0:0:0:
192,192,189594,1,0,0:0:0:0:
448,192,189658,1,0,0:0:0:0:
192,192,189721,1,0,0:0:0:0:
64,192,189785,1,0,0:0:0:0:
320,192,189849,1,0,0:0:0:0:
192,192,189912,1,0,0:0:0:0:
320,192,189976,1,0,0:0:0:0:
448,192,190039,5,0,0:0:0:0:
64,192,190103,1,0,0:0:0:0:
192,192,190167,1,0,0:0:0:0:
320,192,190230,1,0,0:0:0:0:
192,192,190294,1,0,0:0:0:0:
320,192,190358,1,0,0:0:0:0:
192,192,190421,1,0,0:0:0:0:
320,192,190485,1,0,0:0:0:0:
192,192,190548,1,0,0:0:0:0:
320,192,190612,1,0,0:0:0:0:
192,192,190676,1,0,0:0:0:0:
64,192,190718,1,0,0:0:0:0:
448,192,190760,1,0,0:0:0:0:
320,192,190803,1,0,0:0:0:0:
192,192,190845,1,0,0:0:0:0:
64,192,190888,1,0,0:0:0:0:
448,192,190930,1,0,0:0:0:0:
320,192,190973,1,0,0:0:0:0:
192,192,191015,1,0,0:0:0:0:
64,192,191057,1,0,0:0:0:0:
448,192,191100,1,0,0:0:0:0:
320,192,191142,1,0,0:0:0:0:
448,192,191185,128,0,191216:0:0:0:0:
192,192,191185,128,0,191216:0:0:0:0:
64,192,191185,128,0,191216:0:0:0:0:
