osu file format v14

[General]
AudioFilename: audio.mp3
AudioLeadIn: 0
PreviewTime: 643
Countdown: 0
SampleSet: Soft
StackLeniency: 0.7
Mode: 3
LetterboxInBreaks: 0
SpecialStyle: 0
WidescreenStoryboard: 1

[Editor]
DistanceSpacing: 1
BeatDivisor: 4
GridSize: 4
TimelineZoom: 1

[Metadata]
Title:Glorious Crown
TitleUnicode:Glorious Crown
Artist:xi
ArtistUnicode:xi
Creator:floodlord
Version:Basic
Source:maimai pink
Tags:xi Glorious Crown 4k maimai
BeatmapID:1364551
BeatmapSetID:643750

[Difficulty]
HPDrainRate:8.4
CircleSize:4
OverallDifficulty:7.7
ApproachRate:5
SliderMultiplier:1.5
SliderTickRate:1

[Events]
//Background and Video events
0,0,"BG.jpg",0,0
//Break Periods
//Storyboard Layer 0 (Background)
//Storyboard Layer 1 (Fail)
//Storyboard Layer 2 (Pass)
//Storyboard Layer 3 (Foreground)
//Storyboard Sound Samples

[TimingPoints]
0,266.666666666667,4,2,1,100,1,0
47066,-100,4,2,1,100,0,1
65200,-100,4,2,1,100,0,0
101333,-100,4,2,1,100,0,1
113066,-100,4,2,1,100,0,0

[HitObjects]
64,192,1333,5,0,0:0:0:0:
192,192,1600,1,0,0:0:0:0:
64,192,1866,1,0,0:0:0:0:
192,192,2133,1,0,0:0:0:0:
320,192,2266,1,0,0:0:0:0:
448,192,2400,1,0,0:0:0:0:
320,192,2666,1,0,0:0:0:0:
448,192,2933,1,0,0:0:0:0:
192,192,3466,1,0,0:0:0:0:
64,192,3733,1,0,0:0:0:0:
192,192,4000,1,0,0:0:0:0:
64,192,4266,1,0,0:0:0:0:
192,192,4400,1,0,0:0:0:0:
320,192,4533,1,0,0:0:0:0:
448,192,4800,1,0,0:0:0:0:
320,192,5066,1,0,0:0:0:0:
64,192,5600,1,0,0:0:0:0:
192,192,5866,1,0,0:0:0:0:
320,192,6133,1,0,0:0:0:0:
448,192,6266,1,0,0:0:0:0:
320,192,6400,1,0,0:0:0:0:
448,192,6666,1,0,0:0:0:0:
320,192,6933,1,0,0:0:0:0:
192,192,7200,1,0,0:0:0:0:
64,192,7333,1,0,0:0:0:0:
192,192,7466,1,0,0:0:0:0:
64,192,7733,1,0,0:0:0:0:
192,192,7866,1,0,0:0:0:0:
320,192,8000,1,0,0:0:0:0:
448,192,8266,1,0,0:0:0:0:
320,192,8400,1,0,0:0:0:0:
192,192,8533,1,0,0:0:0:0:
448,192,8800,1,0,0:0:0:0:
320,192,9066,1,0,0:0:0:0:
192,192,9333,1,0,0:0:0:0:
64,192,9600,1,0,0:0:0:0:
64,192,9866,1,0,0:0:0:0:
192,192,10000,1,0,0:0:0:0:
320,192,10133,1,0,0:0:0:0:
448,192,10266,1,0,0:0:0:0:
64,192,10400,1,0,0:0:0:0:
192,192,10533,1,0,0:0:0:0:
320,192,10666,1,0,0:0:0:0:
448,192,10800,1,0,0:0:0:0:
64,192,10933,1,0,0:0:0:0:
192,192,11066,1,0,0:0:0:0:
320,192,11200,1,0,0:0:0:0:
448,192,11333,1,0,0:0:0:0:
192,192,11466,1,0,0:0:0:0:
64,192,11466,1,0,0:0:0:0:
320,192,11733,1,0,0:0:0:0:
192,192,11733,1,0,0:0:0:0:
448,192,12000,1,0,0:0:0:0:
320,192,12000,1,0,0:0:0:0:
320,192,12800,1,0,0:0:0:0:
192,192,12933,1,0,0:0:0:0:
64,192,13066,1,0,0:0:0:0:
64,192,13333,1,0,0:0:0:0:
192,192,13600,1,0,0:0:0:0:
320,192,13866,1,0,0:0:0:0:
64,192,14133,1,0,0:0:0:0:
448,192,14133,1,0,0:0:0:0:
192,192,14800,1,0,0:0:0:0:
320,192,14933,1,0,0:0:0:0:
448,192,15066,1,0,0:0:0:0:
448,192,15333,1,0,0:0:0:0:
320,192,15600,1,0,0:0:0:0:
64,192,15866,1,0,0:0:0:0:
448,192,16133,1,0,0:0:0:0:
320,192,16400,1,0,0:0:0:0:
192,192,16666,1,0,0:0:0:0:
64,192,16933,1,0,0:0:0:0:
448,192,17200,1,0,0:0:0:0:
192,192,17466,1,0,0:0:0:0:
64,192,17733,1,0,0:0:0:0:
64,192,18266,128,0,18533:0:0:0:0:
320,192,18266,1,0,0:0:0:0:
192,192,18533,1,0,0:0:0:0:
192,192,18800,128,0,19066:0:0:0:0:
64,192,18800,1,0,0:0:0:0:
320,192,19066,1,0,0:0:0:0:
320,192,19333,128,0,19600:0:0:0:0:
192,192,19333,1,0,0:0:0:0:
448,192,19600,1,0,0:0:0:0:
192,192,19866,128,0,20400:0:0:0:0:
320,192,19866,128,0,20400:0:0:0:0:
448,192,19866,1,0,0:0:0:0:
64,192,19866,1,0,0:0:0:0:
64,192,20400,1,0,0:0:0:0:
448,192,20400,1,0,0:0:0:0:
448,192,21266,1,0,0:0:0:0:
192,192,21400,1,0,0:0:0:0:
320,192,21533,1,0,0:0:0:0:
192,192,21800,1,0,0:0:0:0:
64,192,22066,1,0,0:0:0:0:
320,192,22066,1,0,0:0:0:0:
448,192,22333,1,0,0:0:0:0:
192,192,22600,1,0,0:0:0:0:
64,192,22600,1,0,0:0:0:0:
448,192,23400,1,0,0:0:0:0:
64,192,23533,1,0,0:0:0:0:
320,192,23666,1,0,0:0:0:0:
320,192,23933,1,0,0:0:0:0:
448,192,24200,1,0,0:0:0:0:
192,192,24200,1,0,0:0:0:0:
64,192,24466,1,0,0:0:0:0:
192,192,24733,1,0,0:0:0:0:
448,192,24733,1,0,0:0:0:0:
64,192,25000,1,0,0:0:0:0:
320,192,25000,1,0,0:0:0:0:
192,192,25266,1,0,0:0:0:0:
448,192,25266,1,0,0:0:0:0:
320,192,25533,1,0,0:0:0:0:
448,192,25533,1,0,0:0:0:0:
320,192,25800,1,0,0:0:0:0:
64,192,25800,1,0,0:0:0:0:
192,192,26066,1,0,0:0:0:0:
320,192,26066,1,0,0:0:0:0:
64,192,26333,1,0,0:0:0:0:
448,192,26333,1,0,0:0:0:0:
64,192,26800,1,0,0:0:0:0:
192,192,26800,1,0,0:0:0:0:
192,192,27066,1,0,0:0:0:0:
320,192,27066,1,0,0:0:0:0:
320,192,27333,1,0,0:0:0:0:
448,192,27333,1,0,0:0:0:0:
192,192,27600,1,0,0:0:0:0:
64,192,27600,1,0,0:0:0:0:
448,192,27866,128,0,28400:0:0:0:0:
320,192,27866,1,0,0:0:0:0:
192,192,28400,128,0,28933:0:0:0:0:
448,192,28933,128,0,29466:0:0:0:0:
320,192,29466,1,0,0:0:0:0:
64,192,30000,1,0,0:0:0:0:
320,192,30133,1,0,0:0:0:0:
192,192,30266,1,0,0:0:0:0:
448,192,30533,1,0,0:0:0:0:
192,192,30666,1,0,0:0:0:0:
320,192,30800,1,0,0:0:0:0:
64,192,31066,1,0,0:0:0:0:
320,192,31200,1,0,0:0:0:0:
192,192,31333,1,0,0:0:0:0:
448,192,31466,1,0,0:0:0:0:
320,192,31600,1,0,0:0:0:0:
192,192,31733,1,0,0:0:0:0:
448,192,31866,1,0,0:0:0:0:
64,192,32133,1,0,0:0:0:0:
448,192,32266,1,0,0:0:0:0:
192,192,32400,1,0,0:0:0:0:
448,192,32666,1,0,0:0:0:0:
64,192,32800,1,0,0:0:0:0:
320,192,32933,1,0,0:0:0:0:
448,192,33200,1,0,0:0:0:0:
192,192,33333,1,0,0:0:0:0:
320,192,33466,1,0,0:0:0:0:
448,192,33600,1,0,0:0:0:0:
192,192,33733,1,0,0:0:0:0:
320,192,33866,1,0,0:0:0:0:
64,192,34000,1,0,0:0:0:0:
448,192,34266,1,0,0:0:0:0:
320,192,34400,1,0,0:0:0:0:
192,192,34533,1,0,0:0:0:0:
320,192,34666,1,0,0:0:0:0:
448,192,34800,1,0,0:0:0:0:
320,192,34933,1,0,0:0:0:0:
192,192,35066,1,0,0:0:0:0:
64,192,35333,1,0,0:0:0:0:
192,192,35466,1,0,0:0:0:0:
320,192,35600,1,0,0:0:0:0:
192,192,35733,1,0,0:0:0:0:
64,192,35866,1,0,0:0:0:0:
192,192,36000,1,0,0:0:0:0:
320,192,36133,1,0,0:0:0:0:
448,192,36400,1,0,0:0:0:0:
320,192,36533,1,0,0:0:0:0:
448,192,36666,1,0,0:0:0:0:
320,192,36800,1,0,0:0:0:0:
192,192,36933,1,0,0:0:0:0:
320,192,37066,1,0,0:0:0:0:
192,192,37200,1,0,0:0:0:0:
192,192,37466,1,0,0:0:0:0:
64,192,37600,1,0,0:0:0:0:
192,192,37733,1,0,0:0:0:0:
320,192,37866,1,0,0:0:0:0:
192,192,38000,1,0,0:0:0:0:
320,192,38133,1,0,0:0:0:0:
448,192,38266,1,0,0:0:0:0:
192,192,38533,1,0,0:0:0:0:
320,192,38533,1,0,0:0:0:0:
320,192,38800,1,0,0:0:0:0:
64,192,38800,1,0,0:0:0:0:
448,192,39066,1,0,0:0:0:0:
192,192,39066,1,0,0:0:0:0:
320,192,39333,1,0,0:0:0:0:
448,192,39333,1,0,0:0:0:0:
64,192,39600,1,0,0:0:0:0:
448,192,39600,1,0,0:0:0:0:
192,192,39866,1,0,0:0:0:0:
64,192,39866,1,0,0:0:0:0:
448,192,40133,1,0,0:0:0:0:
320,192,40133,1,0,0:0:0:0:
192,192,40400,1,0,0:0:0:0:
320,192,40400,1,0,0:0:0:0:
448,192,40666,1,0,0:0:0:0:
64,192,40666,1,0,0:0:0:0:
320,192,40933,1,0,0:0:0:0:
448,192,40933,1,0,0:0:0:0:
192,192,41200,1,0,0:0:0:0:
64,192,41200,1,0,0:0:0:0:
64,192,41466,1,0,0:0:0:0:
320,192,41466,1,0,0:0:0:0:
192,192,41733,1,0,0:0:0:0:
448,192,41733,1,0,0:0:0:0:
320,192,42000,1,0,0:0:0:0:
448,192,42000,1,0,0:0:0:0:
448,192,42266,1,0,0:0:0:0:
64,192,42266,1,0,0:0:0:0:
64,192,42800,128,0,43333:0:0:0:0:
448,192,42800,1,0,0:0:0:0:
448,192,43333,128,0,43866:0:0:0:0:
192,192,43333,1,0,0:0:0:0:
64,192,43866,128,0,44400:0:0:0:0:
320,192,43866,1,0,0:0:0:0:
448,192,44400,1,0,0:0:0:0:
64,192,44933,1,0,0:0:0:0:
192,192,45066,1,0,0:0:0:0:
448,192,45200,1,0,0:0:0:0:
320,192,45333,1,0,0:0:0:0:
192,192,45466,1,0,0:0:0:0:
64,192,45600,1,0,0:0:0:0:
320,192,45733,1,0,0:0:0:0:
448,192,45866,1,0,0:0:0:0:
64,192,46000,1,0,0:0:0:0:
192,192,46000,1,0,0:0:0:0:
192,192,46266,1,0,0:0:0:0:
320,192,46266,1,0,0:0:0:0:
448,192,46533,128,0,47066:0:0:0:0:
320,192,46800,128,0,47066:0:0:0:0:
192,192,47066,1,0,0:0:0:0:
448,192,47866,1,0,0:0:0:0:
320,192,48000,1,0,0:0:0:0:
192,192,48133,1,0,0:0:0:0:
64,192,48400,1,0,0:0:0:0:
192,192,48666,1,0,0:0:0:0:
320,192,48933,1,0,0:0:0:0:
64,192,49200,1,0,0:0:0:0:
448,192,49200,1,0,0:0:0:0:
320,192,49866,1,0,0:0:0:0:
448,192,50000,1,0,0:0:0:0:
192,192,50133,1,0,0:0:0:0:
320,192,50266,1,0,0:0:0:0:
448,192,50533,1,0,0:0:0:0:
320,192,50800,1,0,0:0:0:0:
192,192,51066,1,0,0:0:0:0:
64,192,51333,1,0,0:0:0:0:
320,192,51466,1,0,0:0:0:0:
64,192,51600,1,0,0:0:0:0:
192,192,51733,1,0,0:0:0:0:
448,192,51866,1,0,0:0:0:0:
320,192,52000,1,0,0:0:0:0:
64,192,52133,1,0,0:0:0:0:
192,192,52266,1,0,0:0:0:0:
64,192,52400,1,0,0:0:0:0:
320,192,52666,1,0,0:0:0:0:
448,192,52933,1,0,0:0:0:0:
64,192,52933,1,0,0:0:0:0:
64,192,53466,128,0,54000:0:0:0:0:
320,192,53466,1,0,0:0:0:0:
320,192,53733,1,0,0:0:0:0:
448,192,54000,128,0,54533:0:0:0:0:
192,192,54000,1,0,0:0:0:0:
192,192,54266,1,0,0:0:0:0:
64,192,54533,128,0,55066:0:0:0:0:
320,192,54533,1,0,0:0:0:0:
320,192,54800,1,0,0:0:0:0:
448,192,55066,128,0,55600:0:0:0:0:
192,192,55066,1,0,0:0:0:0:
64,192,55600,1,0,0:0:0:0:
448,192,56333,1,0,0:0:0:0:
320,192,56466,1,0,0:0:0:0:
192,192,56600,1,0,0:0:0:0:
64,192,56866,1,0,0:0:0:0:
192,192,57133,1,0,0:0:0:0:
320,192,57400,1,0,0:0:0:0:
448,192,57666,1,0,0:0:0:0:
64,192,57666,1,0,0:0:0:0:
448,192,58400,1,0,0:0:0:0:
64,192,58533,1,0,0:0:0:0:
448,192,58666,1,0,0:0:0:0:
64,192,58800,1,0,0:0:0:0:
320,192,59066,1,0,0:0:0:0:
192,192,59333,1,0,0:0:0:0:
448,192,59600,1,0,0:0:0:0:
64,192,59866,1,0,0:0:0:0:
320,192,60000,1,0,0:0:0:0:
192,192,60133,1,0,0:0:0:0:
320,192,60266,1,0,0:0:0:0:
448,192,60400,1,0,0:0:0:0:
320,192,60533,1,0,0:0:0:0:
192,192,60666,1,0,0:0:0:0:
320,192,60800,1,0,0:0:0:0:
64,192,60933,1,0,0:0:0:0:
192,192,61200,1,0,0:0:0:0:
320,192,61466,1,0,0:0:0:0:
448,192,61466,1,0,0:0:0:0:
448,192,62000,1,0,0:0:0:0:
320,192,62266,1,0,0:0:0:0:
192,192,62533,1,0,0:0:0:0:
64,192,62800,1,0,0:0:0:0:
448,192,63066,1,0,0:0:0:0:
320,192,63200,1,0,0:0:0:0:
448,192,63333,1,0,0:0:0:0:
320,192,63466,1,0,0:0:0:0:
192,192,63600,1,0,0:0:0:0:
64,192,63733,1,0,0:0:0:0:
192,192,63866,1,0,0:0:0:0:
64,192,64000,1,0,0:0:0:0:
320,192,64133,1,0,0:0:0:0:
192,192,64266,1,0,0:0:0:0:
64,192,64400,1,0,0:0:0:0:
192,192,64533,1,0,0:0:0:0:
320,192,64666,1,0,0:0:0:0:
448,192,64800,1,0,0:0:0:0:
320,192,64933,1,0,0:0:0:0:
192,192,65066,1,0,0:0:0:0:
64,192,65200,128,0,67066:0:0:0:0:
448,192,65200,1,0,0:0:0:0:
320,192,65466,1,0,0:0:0:0:
448,192,65733,1,0,0:0:0:0:
320,192,66000,1,0,0:0:0:0:
192,192,66266,1,0,0:0:0:0:
320,192,66533,1,0,0:0:0:0:
192,192,66800,1,0,0:0:0:0:
320,192,67066,1,0,0:0:0:0:
448,192,67333,128,0,69200:0:0:0:0:
192,192,67333,1,0,0:0:0:0:
64,192,67600,1,0,0:0:0:0:
192,192,67866,1,0,0:0:0:0:
320,192,68133,1,0,0:0:0:0:
192,192,68400,1,0,0:0:0:0:
64,192,68666,1,0,0:0:0:0:
192,192,68933,1,0,0:0:0:0:
320,192,69200,1,0,0:0:0:0:
64,192,69466,128,0,70266:0:0:0:0:
192,192,69466,1,0,0:0:0:0:
192,192,69733,1,0,0:0:0:0:
320,192,70000,1,0,0:0:0:0:
320,192,70266,1,0,0:0:0:0:
192,192,70533,128,0,71333:0:0:0:0:
448,192,70533,1,0,0:0:0:0:
448,192,70800,1,0,0:0:0:0:
320,192,71066,1,0,0:0:0:0:
320,192,71333,1,0,0:0:0:0:
320,192,71600,128,0,72400:0:0:0:0:
192,192,71600,1,0,0:0:0:0:
192,192,71866,1,0,0:0:0:0:
448,192,72133,1,0,0:0:0:0:
448,192,72400,1,0,0:0:0:0:
192,192,72666,1,0,0:0:0:0:
64,192,72666,1,0,0:0:0:0:
192,192,72933,1,0,0:0:0:0:
448,192,72933,1,0,0:0:0:0:
448,192,73200,1,0,0:0:0:0:
320,192,73200,1,0,0:0:0:0:
448,192,73466,1,0,0:0:0:0:
192,192,73466,1,0,0:0:0:0:
192,192,73733,1,0,0:0:0:0:
64,192,73733,1,0,0:0:0:0:
448,192,74000,1,0,0:0:0:0:
320,192,74000,1,0,0:0:0:0:
64,192,74266,1,0,0:0:0:0:
320,192,74266,1,0,0:0:0:0:
192,192,74533,1,0,0:0:0:0:
448,192,74533,1,0,0:0:0:0:
320,192,74666,1,0,0:0:0:0:
64,192,74800,1,0,0:0:0:0:
192,192,74800,1,0,0:0:0:0:
320,192,75066,1,0,0:0:0:0:
448,192,75066,1,0,0:0:0:0:
64,192,75333,1,0,0:0:0:0:
320,192,75333,1,0,0:0:0:0:
192,192,75600,1,0,0:0:0:0:
448,192,75600,1,0,0:0:0:0:
448,192,75866,1,0,0:0:0:0:
320,192,75866,1,0,0:0:0:0:
64,192,76133,1,0,0:0:0:0:
320,192,76133,1,0,0:0:0:0:
320,192,76400,1,0,0:0:0:0:
448,192,76400,1,0,0:0:0:0:
192,192,76666,1,0,0:0:0:0:
320,192,76666,1,0,0:0:0:0:
448,192,76800,1,0,0:0:0:0:
64,192,76933,1,0,0:0:0:0:
192,192,76933,1,0,0:0:0:0:
192,192,77200,1,0,0:0:0:0:
448,192,77200,1,0,0:0:0:0:
192,192,77466,1,0,0:0:0:0:
64,192,77466,1,0,0:0:0:0:
192,192,77733,1,0,0:0:0:0:
448,192,77733,1,0,0:0:0:0:
64,192,78000,1,0,0:0:0:0:
192,192,78133,1,0,0:0:0:0:
320,192,78266,1,0,0:0:0:0:
64,192,78266,1,0,0:0:0:0:
192,192,78400,1,0,0:0:0:0:
64,192,78533,1,0,0:0:0:0:
448,192,78533,1,0,0:0:0:0:
192,192,78666,1,0,0:0:0:0:
64,192,78800,1,0,0:0:0:0:
320,192,78800,1,0,0:0:0:0:
448,192,79066,1,0,0:0:0:0:
320,192,79200,1,0,0:0:0:0:
448,192,79333,1,0,0:0:0:0:
192,192,79333,1,0,0:0:0:0:
320,192,79466,1,0,0:0:0:0:
64,192,79600,1,0,0:0:0:0:
448,192,79600,1,0,0:0:0:0:
320,192,79733,1,0,0:0:0:0:
192,192,79866,1,0,0:0:0:0:
448,192,79866,1,0,0:0:0:0:
64,192,80133,1,0,0:0:0:0:
192,192,80266,1,0,0:0:0:0:
320,192,80400,1,0,0:0:0:0:
448,192,80533,1,0,0:0:0:0:
64,192,80666,1,0,0:0:0:0:
192,192,80800,1,0,0:0:0:0:
320,192,80933,1,0,0:0:0:0:
448,192,81066,1,0,0:0:0:0:
64,192,81200,1,0,0:0:0:0:
192,192,81333,1,0,0:0:0:0:
320,192,81466,1,0,0:0:0:0:
448,192,81600,1,0,0:0:0:0:
64,192,81733,1,0,0:0:0:0:
192,192,81866,1,0,0:0:0:0:
320,192,82000,1,0,0:0:0:0:
448,192,82133,1,0,0:0:0:0:
64,192,82266,1,0,0:0:0:0:
448,192,82266,1,0,0:0:0:0:
64,192,82800,128,0,83333:0:0:0:0:
192,192,82800,1,0,0:0:0:0:
192,192,83333,128,0,83866:0:0:0:0:
320,192,83333,1,0,0:0:0:0:
320,192,83866,128,0,84400:0:0:0:0:
448,192,83866,1,0,0:0:0:0:
448,192,84400,128,0,84933:0:0:0:0:
192,192,84400,1,0,0:0:0:0:
320,192,84933,128,0,85466:0:0:0:0:
192,192,84933,1,0,0:0:0:0:
192,192,85466,128,0,86000:0:0:0:0:
64,192,85466,1,0,0:0:0:0:
64,192,86000,1,0,0:0:0:0:
320,192,86533,1,0,0:0:0:0:
192,192,86666,1,0,0:0:0:0:
64,192,86800,1,0,0:0:0:0:
320,192,86933,1,0,0:0:0:0:
64,192,87200,1,0,0:0:0:0:
448,192,87466,1,0,0:0:0:0:
320,192,87600,1,0,0:0:0:0:
192,192,87733,1,0,0:0:0:0:
64,192,87866,1,0,0:0:0:0:
192,192,88000,1,0,0:0:0:0:
448,192,88266,1,0,0:0:0:0:
192,192,88533,1,0,0:0:0:0:
448,192,88666,1,0,0:0:0:0:
320,192,88800,1,0,0:0:0:0:
192,192,88933,1,0,0:0:0:0:
64,192,89066,1,0,0:0:0:0:
192,192,89200,1,0,0:0:0:0:
448,192,89333,1,0,0:0:0:0:
320,192,89466,1,0,0:0:0:0:
192,192,89600,1,0,0:0:0:0:
64,192,89866,1,0,0:0:0:0:
320,192,90133,1,0,0:0:0:0:
192,192,90400,1,0,0:0:0:0:
448,192,90666,128,0,91200:0:0:0:0:
64,192,90666,1,0,0:0:0:0:
64,192,91200,128,0,91733:0:0:0:0:
448,192,91733,1,0,0:0:0:0:
64,192,92266,1,0,0:0:0:0:
192,192,92266,128,0,92533:0:0:0:0:
320,192,92533,128,0,92800:0:0:0:0:
448,192,92800,1,0,0:0:0:0:
320,192,93600,1,0,0:0:0:0:
192,192,93733,1,0,0:0:0:0:
64,192,93866,1,0,0:0:0:0:
448,192,94133,1,0,0:0:0:0:
320,192,94400,1,0,0:0:0:0:
448,192,94400,1,0,0:0:0:0:
448,192,94666,1,0,0:0:0:0:
320,192,94666,1,0,0:0:0:0:
192,192,94666,1,0,0:0:0:0:
192,192,94933,1,0,0:0:0:0:
64,192,94933,1,0,0:0:0:0:
320,192,94933,1,0,0:0:0:0:
448,192,94933,1,0,0:0:0:0:
320,192,95600,1,0,0:0:0:0:
448,192,95733,1,0,0:0:0:0:
320,192,95866,1,0,0:0:0:0:
448,192,96000,1,0,0:0:0:0:
192,192,96266,1,0,0:0:0:0:
448,192,96266,1,0,0:0:0:0:
64,192,96533,1,0,0:0:0:0:
320,192,96533,1,0,0:0:0:0:
192,192,96800,1,0,0:0:0:0:
320,192,96800,1,0,0:0:0:0:
64,192,97066,1,0,0:0:0:0:
192,192,97200,1,0,0:0:0:0:
448,192,97333,1,0,0:0:0:0:
320,192,97466,1,0,0:0:0:0:
192,192,97600,1,0,0:0:0:0:
64,192,97733,1,0,0:0:0:0:
320,192,97866,1,0,0:0:0:0:
448,192,98000,1,0,0:0:0:0:
192,192,98133,128,0,98400:0:0:0:0:
64,192,98133,1,0,0:0:0:0:
320,192,98400,128,0,98666:0:0:0:0:
448,192,98666,1,0,0:0:0:0:
320,192,99200,1,0,0:0:0:0:
192,192,99333,1,0,0:0:0:0:
64,192,99466,1,0,0:0:0:0:
192,192,99600,1,0,0:0:0:0:
320,192,99733,1,0,0:0:0:0:
448,192,99866,1,0,0:0:0:0:
320,192,100000,1,0,0:0:0:0:
192,192,100133,1,0,0:0:0:0:
320,192,100266,128,0,100533:0:0:0:0:
448,192,100266,1,0,0:0:0:0:
192,192,100533,128,0,100800:0:0:0:0:
64,192,100800,1,0,0:0:0:0:
448,192,101333,1,0,0:0:0:0:
320,192,101466,1,0,0:0:0:0:
192,192,101600,1,0,0:0:0:0:
64,192,101733,1,0,0:0:0:0:
448,192,101866,1,0,0:0:0:0:
320,192,102000,1,0,0:0:0:0:
192,192,102133,1,0,0:0:0:0:
64,192,102266,1,0,0:0:0:0:
320,192,102400,1,0,0:0:0:0:
448,192,102533,1,0,0:0:0:0:
320,192,102666,1,0,0:0:0:0:
448,192,102800,1,0,0:0:0:0:
192,192,102933,1,0,0:0:0:0:
64,192,103066,1,0,0:0:0:0:
192,192,103200,1,0,0:0:0:0:
64,192,103333,1,0,0:0:0:0:
448,192,103466,1,0,0:0:0:0:
320,192,103600,1,0,0:0:0:0:
192,192,103733,1,0,0:0:0:0:
320,192,103866,1,0,0:0:0:0:
192,192,104000,1,0,0:0:0:0:
64,192,104133,1,0,0:0:0:0:
192,192,104266,1,0,0:0:0:0:
320,192,104400,1,0,0:0:0:0:
192,192,104533,1,0,0:0:0:0:
448,192,104666,1,0,0:0:0:0:
64,192,104800,1,0,0:0:0:0:
320,192,104933,1,0,0:0:0:0:
192,192,105066,1,0,0:0:0:0:
320,192,105200,1,0,0:0:0:0:
64,192,105333,1,0,0:0:0:0:
192,192,105466,1,0,0:0:0:0:
448,192,105600,1,0,0:0:0:0:
320,192,105733,1,0,0:0:0:0:
64,192,105866,1,0,0:0:0:0:
320,192,106000,1,0,0:0:0:0:
448,192,106133,1,0,0:0:0:0:
320,192,106266,1,0,0:0:0:0:
64,192,106400,1,0,0:0:0:0:
192,192,106533,1,0,0:0:0:0:
320,192,106666,1,0,0:0:0:0:
192,192,106800,1,0,0:0:0:0:
64,192,106933,1,0,0:0:0:0:
448,192,107066,1,0,0:0:0:0:
320,192,107200,1,0,0:0:0:0:
192,192,107333,1,0,0:0:0:0:
448,192,107466,1,0,0:0:0:0:
320,192,107600,1,0,0:0:0:0:
64,192,107733,1,0,0:0:0:0:
192,192,107866,1,0,0:0:0:0:
448,192,108000,1,0,0:0:0:0:
320,192,108133,1,0,0:0:0:0:
448,192,108266,1,0,0:0:0:0:
320,192,108400,1,0,0:0:0:0:
64,192,108533,1,0,0:0:0:0:
192,192,108666,1,0,0:0:0:0:
448,192,108800,128,0,109866:0:0:0:0:
320,192,109333,128,0,109866:0:0:0:0:
64,192,109866,128,0,110933:0:0:0:0:
192,192,110400,128,0,110933:0:0:0:0:
448,192,110933,128,0,112000:0:0:0:0:
192,192,111466,128,0,112000:0:0:0:0:
64,192,112000,128,0,113066:0:0:0:0:
448,192,112533,128,0,113066:0:0:0:0:
192,192,113066,128,0,114933:0:0:0:0:
320,192,113066,128,0,114933:0:0:0:0:
320,192,115200,1,0,0:0:0:0:
192,192,115200,1,0,0:0:0:0:
448,192,115466,1,0,0:0:0:0:
64,192,115466,1,0,0:0:0:0:
192,192,115733,1,0,0:0:0:0:
320,192,115733,1,0,0:0:0:0:
64,192,116000,1,0,0:0:0:0:
448,192,116000,1,0,0:0:0:0:
192,192,116266,1,0,0:0:0:0:
448,192,116400,1,0,0:0:0:0:
64,192,116533,1,0,0:0:0:0:
320,192,116666,1,0,0:0:0:0:
192,192,116800,1,0,0:0:0:0:
448,192,116933,1,0,0:0:0:0:
64,192,117066,1,0,0:0:0:0:
320,192,117200,1,0,0:0:0:0:
448,192,117333,1,0,0:0:0:0:
64,192,117333,1,0,0:0:0:0:
