osu file format v14

[General]
AudioFilename: audio.mp3
AudioLeadIn: 0
PreviewTime: 643
Countdown: 0
SampleSet: Soft
StackLeniency: 0.7
Mode: 3
LetterboxInBreaks: 0
SpecialStyle: 0
WidescreenStoryboard: 1

[Editor]
DistanceSpacing: 1
BeatDivisor: 4
GridSize: 4
TimelineZoom: 1

[Metadata]
Title:Glorious Crown
TitleUnicode:Glorious Crown
Artist:xi
ArtistUnicode:xi
Creator:floodlord
Version:Advanced
Source:maimai pink
Tags:xi Glorious Crown 4k maimai
BeatmapID:1364550
BeatmapSetID:643750

[Difficulty]
HPDrainRate:8.5
CircleSize:4
OverallDifficulty:8
ApproachRate:5
SliderMultiplier:1.5
SliderTickRate:1

[Events]
//Background and Video events
0,0,"BG.jpg",0,0
//Break Periods
//Storyboard Layer 0 (Background)
//Storyboard Layer 1 (Fail)
//Storyboard Layer 2 (Pass)
//Storyboard Layer 3 (Foreground)
//Storyboard Sound Samples

[TimingPoints]
0,266.666666666667,4,2,1,100,1,0
47066,-100,4,2,1,100,0,1
65200,-100,4,2,1,100,0,0
101333,-100,4,2,1,100,0,1
113066,-100,4,2,1,100,0,0

[HitObjects]
64,192,1333,5,0,0:0:0:0:
192,192,1422,1,0,0:0:0:0:
64,192,1511,1,0,0:0:0:0:
448,192,1600,1,0,0:0:0:0:
320,192,1688,1,0,0:0:0:0:
448,192,1777,1,0,0:0:0:0:
64,192,1866,1,0,0:0:0:0:
192,192,1955,1,0,0:0:0:0:
64,192,2044,1,0,0:0:0:0:
192,192,2133,1,0,0:0:0:0:
320,192,2266,1,0,0:0:0:0:
448,192,2400,1,0,0:0:0:0:
320,192,2488,1,0,0:0:0:0:
448,192,2577,1,0,0:0:0:0:
64,192,2666,1,0,0:0:0:0:
192,192,2755,1,0,0:0:0:0:
64,192,2844,1,0,0:0:0:0:
448,192,2933,1,0,0:0:0:0:
320,192,3022,1,0,0:0:0:0:
448,192,3111,1,0,0:0:0:0:
192,192,3200,1,0,0:0:0:0:
320,192,3466,1,0,0:0:0:0:
192,192,3555,1,0,0:0:0:0:
320,192,3644,1,0,0:0:0:0:
64,192,3733,1,0,0:0:0:0:
448,192,3822,1,0,0:0:0:0:
64,192,3911,1,0,0:0:0:0:
320,192,4000,1,0,0:0:0:0:
192,192,4088,1,0,0:0:0:0:
320,192,4177,1,0,0:0:0:0:
448,192,4266,1,0,0:0:0:0:
64,192,4400,1,0,0:0:0:0:
448,192,4533,1,0,0:0:0:0:
64,192,4622,1,0,0:0:0:0:
448,192,4711,1,0,0:0:0:0:
192,192,4800,1,0,0:0:0:0:
320,192,4888,1,0,0:0:0:0:
192,192,4977,1,0,0:0:0:0:
448,192,5066,1,0,0:0:0:0:
64,192,5155,1,0,0:0:0:0:
448,192,5244,1,0,0:0:0:0:
320,192,5333,1,0,0:0:0:0:
64,192,5600,1,0,0:0:0:0:
192,192,5688,1,0,0:0:0:0:
320,192,5777,1,0,0:0:0:0:
448,192,5866,1,0,0:0:0:0:
320,192,5955,1,0,0:0:0:0:
192,192,6044,1,0,0:0:0:0:
64,192,6133,1,0,0:0:0:0:
192,192,6222,1,0,0:0:0:0:
320,192,6311,1,0,0:0:0:0:
192,192,6400,1,0,0:0:0:0:
320,192,6533,1,0,0:0:0:0:
448,192,6666,1,0,0:0:0:0:
320,192,6755,1,0,0:0:0:0:
192,192,6844,1,0,0:0:0:0:
64,192,6933,1,0,0:0:0:0:
192,192,7022,1,0,0:0:0:0:
320,192,7111,1,0,0:0:0:0:
448,192,7200,1,0,0:0:0:0:
320,192,7288,1,0,0:0:0:0:
192,192,7377,1,0,0:0:0:0:
320,192,7466,1,0,0:0:0:0:
192,192,7600,1,0,0:0:0:0:
192,192,7733,1,0,0:0:0:0:
320,192,7822,1,0,0:0:0:0:
192,192,7911,1,0,0:0:0:0:
320,192,8000,1,0,0:0:0:0:
192,192,8133,1,0,0:0:0:0:
448,192,8266,1,0,0:0:0:0:
64,192,8355,1,0,0:0:0:0:
448,192,8444,1,0,0:0:0:0:
320,192,8533,1,0,0:0:0:0:
192,192,8666,1,0,0:0:0:0:
448,192,8800,1,0,0:0:0:0:
320,192,8866,1,0,0:0:0:0:
192,192,8933,1,0,0:0:0:0:
64,192,9000,1,0,0:0:0:0:
448,192,9066,1,0,0:0:0:0:
320,192,9133,1,0,0:0:0:0:
192,192,9200,1,0,0:0:0:0:
64,192,9266,1,0,0:0:0:0:
448,192,9333,1,0,0:0:0:0:
320,192,9400,1,0,0:0:0:0:
192,192,9466,1,0,0:0:0:0:
64,192,9533,1,0,0:0:0:0:
448,192,9600,1,0,0:0:0:0:
320,192,9666,1,0,0:0:0:0:
192,192,9733,1,0,0:0:0:0:
64,192,9800,1,0,0:0:0:0:
64,192,9866,128,0,11200:0:0:0:0:
448,192,9866,128,0,11200:0:0:0:0:
448,192,11466,1,0,0:0:0:0:
64,192,11466,1,0,0:0:0:0:
320,192,11600,1,0,0:0:0:0:
192,192,11600,1,0,0:0:0:0:
64,192,11733,1,0,0:0:0:0:
192,192,11733,1,0,0:0:0:0:
320,192,11866,1,0,0:0:0:0:
448,192,11866,1,0,0:0:0:0:
64,192,12000,1,0,0:0:0:0:
192,192,12000,1,0,0:0:0:0:
448,192,12000,1,0,0:0:0:0:
320,192,12000,1,0,0:0:0:0:
320,192,12800,1,0,0:0:0:0:
192,192,12933,1,0,0:0:0:0:
64,192,13066,1,0,0:0:0:0:
192,192,13333,1,0,0:0:0:0:
320,192,13333,1,0,0:0:0:0:
320,192,13600,1,0,0:0:0:0:
448,192,13600,1,0,0:0:0:0:
64,192,13600,1,0,0:0:0:0:
192,192,13866,1,0,0:0:0:0:
320,192,13866,1,0,0:0:0:0:
64,192,14133,1,0,0:0:0:0:
448,192,14133,1,0,0:0:0:0:
192,192,14133,1,0,0:0:0:0:
192,192,14800,1,0,0:0:0:0:
320,192,14933,1,0,0:0:0:0:
448,192,15066,1,0,0:0:0:0:
320,192,15333,1,0,0:0:0:0:
448,192,15333,1,0,0:0:0:0:
192,192,15600,1,0,0:0:0:0:
320,192,15600,1,0,0:0:0:0:
64,192,15866,1,0,0:0:0:0:
192,192,15866,1,0,0:0:0:0:
448,192,16133,1,0,0:0:0:0:
320,192,16133,1,0,0:0:0:0:
320,192,16266,1,0,0:0:0:0:
320,192,16400,1,0,0:0:0:0:
192,192,16400,1,0,0:0:0:0:
320,192,16533,1,0,0:0:0:0:
320,192,16666,1,0,0:0:0:0:
64,192,16666,1,0,0:0:0:0:
320,192,16800,1,0,0:0:0:0:
320,192,16933,1,0,0:0:0:0:
192,192,16933,1,0,0:0:0:0:
320,192,17066,1,0,0:0:0:0:
320,192,17200,1,0,0:0:0:0:
448,192,17200,1,0,0:0:0:0:
320,192,17333,1,0,0:0:0:0:
320,192,17466,1,0,0:0:0:0:
192,192,17466,1,0,0:0:0:0:
320,192,17600,1,0,0:0:0:0:
320,192,17733,1,0,0:0:0:0:
64,192,17733,1,0,0:0:0:0:
64,192,18266,128,0,18533:0:0:0:0:
192,192,18266,1,0,0:0:0:0:
192,192,18533,128,0,18800:0:0:0:0:
320,192,18800,128,0,19066:0:0:0:0:
448,192,19066,128,0,19333:0:0:0:0:
320,192,19333,128,0,19600:0:0:0:0:
192,192,19600,128,0,19866:0:0:0:0:
448,192,19866,128,0,20400:0:0:0:0:
64,192,19866,128,0,20400:0:0:0:0:
192,192,20400,1,0,0:0:0:0:
320,192,20400,1,0,0:0:0:0:
448,192,21266,1,0,0:0:0:0:
192,192,21400,1,0,0:0:0:0:
320,192,21533,1,0,0:0:0:0:
192,192,21800,1,0,0:0:0:0:
320,192,21800,1,0,0:0:0:0:
64,192,22066,1,0,0:0:0:0:
320,192,22066,1,0,0:0:0:0:
192,192,22066,1,0,0:0:0:0:
192,192,22333,1,0,0:0:0:0:
320,192,22333,1,0,0:0:0:0:
320,192,22600,1,0,0:0:0:0:
448,192,22600,1,0,0:0:0:0:
192,192,22600,1,0,0:0:0:0:
448,192,23400,1,0,0:0:0:0:
64,192,23533,1,0,0:0:0:0:
320,192,23666,1,0,0:0:0:0:
192,192,23933,1,0,0:0:0:0:
320,192,23933,1,0,0:0:0:0:
448,192,24200,1,0,0:0:0:0:
320,192,24200,1,0,0:0:0:0:
320,192,24466,1,0,0:0:0:0:
192,192,24466,1,0,0:0:0:0:
192,192,24733,1,0,0:0:0:0:
448,192,24733,1,0,0:0:0:0:
192,192,24866,1,0,0:0:0:0:
192,192,25000,1,0,0:0:0:0:
320,192,25000,1,0,0:0:0:0:
192,192,25133,1,0,0:0:0:0:
192,192,25266,1,0,0:0:0:0:
64,192,25266,1,0,0:0:0:0:
192,192,25400,1,0,0:0:0:0:
192,192,25533,1,0,0:0:0:0:
320,192,25533,1,0,0:0:0:0:
192,192,25666,1,0,0:0:0:0:
192,192,25800,1,0,0:0:0:0:
448,192,25800,1,0,0:0:0:0:
192,192,25933,1,0,0:0:0:0:
192,192,26066,1,0,0:0:0:0:
320,192,26066,1,0,0:0:0:0:
192,192,26200,1,0,0:0:0:0:
64,192,26333,1,0,0:0:0:0:
192,192,26333,1,0,0:0:0:0:
64,192,26800,1,0,0:0:0:0:
64,192,26933,1,0,0:0:0:0:
192,192,27066,1,0,0:0:0:0:
192,192,27200,1,0,0:0:0:0:
320,192,27333,1,0,0:0:0:0:
320,192,27466,1,0,0:0:0:0:
448,192,27600,1,0,0:0:0:0:
448,192,27733,1,0,0:0:0:0:
448,192,27866,1,0,0:0:0:0:
320,192,27933,1,0,0:0:0:0:
192,192,28000,1,0,0:0:0:0:
64,192,28066,1,0,0:0:0:0:
448,192,28133,1,0,0:0:0:0:
320,192,28200,1,0,0:0:0:0:
192,192,28266,1,0,0:0:0:0:
64,192,28333,1,0,0:0:0:0:
64,192,28400,1,0,0:0:0:0:
192,192,28466,1,0,0:0:0:0:
320,192,28533,1,0,0:0:0:0:
448,192,28600,1,0,0:0:0:0:
64,192,28666,1,0,0:0:0:0:
192,192,28733,1,0,0:0:0:0:
320,192,28800,1,0,0:0:0:0:
448,192,28866,1,0,0:0:0:0:
64,192,28933,1,0,0:0:0:0:
448,192,29000,1,0,0:0:0:0:
192,192,29066,1,0,0:0:0:0:
320,192,29133,1,0,0:0:0:0:
64,192,29200,1,0,0:0:0:0:
448,192,29266,1,0,0:0:0:0:
192,192,29333,1,0,0:0:0:0:
320,192,29400,1,0,0:0:0:0:
64,192,29466,1,0,0:0:0:0:
448,192,29466,1,0,0:0:0:0:
64,192,30000,128,0,30266:0:0:0:0:
320,192,30133,1,0,0:0:0:0:
192,192,30266,1,0,0:0:0:0:
448,192,30533,128,0,30800:0:0:0:0:
320,192,30666,1,0,0:0:0:0:
192,192,30800,1,0,0:0:0:0:
64,192,31066,1,0,0:0:0:0:
64,192,31200,1,0,0:0:0:0:
192,192,31333,1,0,0:0:0:0:
192,192,31466,1,0,0:0:0:0:
320,192,31600,1,0,0:0:0:0:
320,192,31733,1,0,0:0:0:0:
448,192,31866,1,0,0:0:0:0:
64,192,32133,128,0,32400:0:0:0:0:
448,192,32266,1,0,0:0:0:0:
192,192,32400,1,0,0:0:0:0:
448,192,32666,128,0,32933:0:0:0:0:
64,192,32800,1,0,0:0:0:0:
320,192,32933,1,0,0:0:0:0:
448,192,33200,1,0,0:0:0:0:
320,192,33333,1,0,0:0:0:0:
192,192,33466,1,0,0:0:0:0:
64,192,33600,1,0,0:0:0:0:
64,192,33777,1,0,0:0:0:0:
192,192,33955,1,0,0:0:0:0:
320,192,34133,1,0,0:0:0:0:
448,192,34266,1,0,0:0:0:0:
320,192,34400,1,0,0:0:0:0:
192,192,34533,1,0,0:0:0:0:
320,192,34666,1,0,0:0:0:0:
448,192,34800,1,0,0:0:0:0:
320,192,34800,1,0,0:0:0:0:
320,192,34933,1,0,0:0:0:0:
192,192,34933,1,0,0:0:0:0:
192,192,35066,1,0,0:0:0:0:
64,192,35066,1,0,0:0:0:0:
64,192,35333,1,0,0:0:0:0:
192,192,35466,1,0,0:0:0:0:
320,192,35600,1,0,0:0:0:0:
192,192,35733,1,0,0:0:0:0:
64,192,35866,1,0,0:0:0:0:
192,192,35866,1,0,0:0:0:0:
192,192,36000,1,0,0:0:0:0:
320,192,36000,1,0,0:0:0:0:
320,192,36133,1,0,0:0:0:0:
448,192,36133,1,0,0:0:0:0:
448,192,36400,1,0,0:0:0:0:
320,192,36533,1,0,0:0:0:0:
448,192,36666,1,0,0:0:0:0:
320,192,36800,1,0,0:0:0:0:
192,192,36933,1,0,0:0:0:0:
64,192,36933,1,0,0:0:0:0:
320,192,37066,1,0,0:0:0:0:
448,192,37066,1,0,0:0:0:0:
192,192,37200,1,0,0:0:0:0:
64,192,37200,1,0,0:0:0:0:
192,192,37466,1,0,0:0:0:0:
64,192,37466,1,0,0:0:0:0:
64,192,37600,1,0,0:0:0:0:
192,192,37600,1,0,0:0:0:0:
192,192,37733,1,0,0:0:0:0:
320,192,37733,1,0,0:0:0:0:
320,192,37866,1,0,0:0:0:0:
192,192,37866,1,0,0:0:0:0:
320,192,38000,1,0,0:0:0:0:
448,192,38000,1,0,0:0:0:0:
320,192,38133,1,0,0:0:0:0:
448,192,38133,1,0,0:0:0:0:
448,192,38266,1,0,0:0:0:0:
64,192,38266,1,0,0:0:0:0:
448,192,38533,1,0,0:0:0:0:
192,192,38533,1,0,0:0:0:0:
320,192,38666,1,0,0:0:0:0:
320,192,38800,1,0,0:0:0:0:
64,192,38800,1,0,0:0:0:0:
192,192,38933,1,0,0:0:0:0:
448,192,39066,1,0,0:0:0:0:
192,192,39066,1,0,0:0:0:0:
320,192,39200,1,0,0:0:0:0:
320,192,39333,1,0,0:0:0:0:
64,192,39333,1,0,0:0:0:0:
448,192,39466,1,0,0:0:0:0:
64,192,39600,1,0,0:0:0:0:
448,192,39600,1,0,0:0:0:0:
192,192,39733,1,0,0:0:0:0:
192,192,39866,1,0,0:0:0:0:
448,192,39866,1,0,0:0:0:0:
320,192,40000,1,0,0:0:0:0:
64,192,40133,1,0,0:0:0:0:
320,192,40133,1,0,0:0:0:0:
448,192,40266,1,0,0:0:0:0:
192,192,40400,1,0,0:0:0:0:
448,192,40400,1,0,0:0:0:0:
320,192,40533,1,0,0:0:0:0:
64,192,40666,1,0,0:0:0:0:
192,192,40666,1,0,0:0:0:0:
192,192,40800,1,0,0:0:0:0:
320,192,40933,1,0,0:0:0:0:
448,192,40933,1,0,0:0:0:0:
320,192,41066,1,0,0:0:0:0:
192,192,41200,1,0,0:0:0:0:
64,192,41200,1,0,0:0:0:0:
320,192,41333,1,0,0:0:0:0:
64,192,41466,1,0,0:0:0:0:
320,192,41466,1,0,0:0:0:0:
192,192,41600,1,0,0:0:0:0:
192,192,41733,1,0,0:0:0:0:
448,192,41733,1,0,0:0:0:0:
448,192,41866,1,0,0:0:0:0:
320,192,42000,1,0,0:0:0:0:
448,192,42000,1,0,0:0:0:0:
192,192,42133,1,0,0:0:0:0:
448,192,42266,1,0,0:0:0:0:
64,192,42266,1,0,0:0:0:0:
64,192,42800,128,0,43333:0:0:0:0:
320,192,42800,1,0,0:0:0:0:
192,192,43066,1,0,0:0:0:0:
448,192,43333,128,0,43866:0:0:0:0:
320,192,43333,1,0,0:0:0:0:
192,192,43600,1,0,0:0:0:0:
64,192,43866,128,0,44400:0:0:0:0:
320,192,43866,1,0,0:0:0:0:
192,192,44133,1,0,0:0:0:0:
320,192,44400,1,0,0:0:0:0:
320,192,44622,1,0,0:0:0:0:
192,192,44800,1,0,0:0:0:0:
64,192,44933,1,0,0:0:0:0:
192,192,45066,1,0,0:0:0:0:
448,192,45200,1,0,0:0:0:0:
320,192,45333,1,0,0:0:0:0:
192,192,45466,1,0,0:0:0:0:
64,192,45600,1,0,0:0:0:0:
320,192,45733,1,0,0:0:0:0:
448,192,45866,1,0,0:0:0:0:
192,192,46044,1,0,0:0:0:0:
64,192,46044,1,0,0:0:0:0:
192,192,46222,1,0,0:0:0:0:
320,192,46222,1,0,0:0:0:0:
320,192,46400,1,0,0:0:0:0:
448,192,46400,1,0,0:0:0:0:
448,192,46533,1,0,0:0:0:0:
320,192,46600,1,0,0:0:0:0:
192,192,46666,1,0,0:0:0:0:
64,192,46733,1,0,0:0:0:0:
448,192,46800,1,0,0:0:0:0:
320,192,46866,1,0,0:0:0:0:
192,192,46933,1,0,0:0:0:0:
64,192,47000,1,0,0:0:0:0:
448,192,47066,1,0,0:0:0:0:
320,192,47066,1,0,0:0:0:0:
192,192,47066,1,0,0:0:0:0:
448,192,47866,1,0,0:0:0:0:
320,192,48000,1,0,0:0:0:0:
192,192,48133,1,0,0:0:0:0:
192,192,48400,1,0,0:0:0:0:
64,192,48400,128,0,48600:0:0:0:0:
192,192,48666,1,0,0:0:0:0:
64,192,48666,128,0,48866:0:0:0:0:
320,192,48933,1,0,0:0:0:0:
64,192,48933,128,0,49133:0:0:0:0:
64,192,49200,1,0,0:0:0:0:
448,192,49200,1,0,0:0:0:0:
320,192,49866,1,0,0:0:0:0:
448,192,50000,1,0,0:0:0:0:
192,192,50133,1,0,0:0:0:0:
320,192,50266,1,0,0:0:0:0:
192,192,50533,1,0,0:0:0:0:
64,192,50533,128,0,50733:0:0:0:0:
320,192,50800,1,0,0:0:0:0:
192,192,50800,128,0,51000:0:0:0:0:
320,192,51066,128,0,51266:0:0:0:0:
448,192,51066,1,0,0:0:0:0:
448,192,51333,1,0,0:0:0:0:
192,192,51333,1,0,0:0:0:0:
320,192,51466,1,0,0:0:0:0:
192,192,51466,1,0,0:0:0:0:
64,192,51600,1,0,0:0:0:0:
320,192,51600,1,0,0:0:0:0:
192,192,51733,1,0,0:0:0:0:
448,192,51733,1,0,0:0:0:0:
448,192,51866,1,0,0:0:0:0:
320,192,51866,1,0,0:0:0:0:
64,192,52000,1,0,0:0:0:0:
192,192,52000,1,0,0:0:0:0:
64,192,52133,1,0,0:0:0:0:
320,192,52133,1,0,0:0:0:0:
192,192,52266,1,0,0:0:0:0:
448,192,52266,1,0,0:0:0:0:
320,192,52400,1,0,0:0:0:0:
448,192,52400,1,0,0:0:0:0:
64,192,52622,1,0,0:0:0:0:
192,192,52622,1,0,0:0:0:0:
448,192,52800,1,0,0:0:0:0:
64,192,52800,1,0,0:0:0:0:
320,192,52933,1,0,0:0:0:0:
192,192,52933,1,0,0:0:0:0:
448,192,53466,1,0,0:0:0:0:
320,192,53533,1,0,0:0:0:0:
64,192,53600,1,0,0:0:0:0:
192,192,53666,1,0,0:0:0:0:
320,192,53733,1,0,0:0:0:0:
448,192,53800,1,0,0:0:0:0:
192,192,53866,1,0,0:0:0:0:
64,192,53933,1,0,0:0:0:0:
448,192,54000,1,0,0:0:0:0:
320,192,54066,1,0,0:0:0:0:
192,192,54133,1,0,0:0:0:0:
64,192,54200,1,0,0:0:0:0:
448,192,54266,1,0,0:0:0:0:
320,192,54333,1,0,0:0:0:0:
192,192,54400,1,0,0:0:0:0:
64,192,54466,1,0,0:0:0:0:
64,192,54533,128,0,55066:0:0:0:0:
448,192,54533,1,0,0:0:0:0:
448,192,55066,128,0,55600:0:0:0:0:
64,192,55600,1,0,0:0:0:0:
448,192,56400,1,0,0:0:0:0:
320,192,56533,1,0,0:0:0:0:
192,192,56666,1,0,0:0:0:0:
64,192,56933,1,0,0:0:0:0:
192,192,56933,128,0,57133:0:0:0:0:
192,192,57200,1,0,0:0:0:0:
320,192,57200,128,0,57400:0:0:0:0:
320,192,57466,1,0,0:0:0:0:
448,192,57466,128,0,57666:0:0:0:0:
448,192,57733,1,0,0:0:0:0:
64,192,57733,1,0,0:0:0:0:
448,192,58400,1,0,0:0:0:0:
64,192,58533,1,0,0:0:0:0:
448,192,58666,1,0,0:0:0:0:
64,192,58800,1,0,0:0:0:0:
320,192,59066,1,0,0:0:0:0:
448,192,59066,128,0,59266:0:0:0:0:
192,192,59333,1,0,0:0:0:0:
320,192,59333,128,0,59533:0:0:0:0:
192,192,59600,128,0,59800:0:0:0:0:
64,192,59600,1,0,0:0:0:0:
64,192,59866,1,0,0:0:0:0:
448,192,59866,1,0,0:0:0:0:
320,192,60000,1,0,0:0:0:0:
448,192,60000,1,0,0:0:0:0:
192,192,60133,1,0,0:0:0:0:
320,192,60133,1,0,0:0:0:0:
192,192,60266,1,0,0:0:0:0:
64,192,60266,1,0,0:0:0:0:
64,192,60400,1,0,0:0:0:0:
448,192,60400,1,0,0:0:0:0:
192,192,60533,1,0,0:0:0:0:
64,192,60533,1,0,0:0:0:0:
320,192,60666,1,0,0:0:0:0:
192,192,60666,1,0,0:0:0:0:
448,192,60800,1,0,0:0:0:0:
320,192,60800,1,0,0:0:0:0:
448,192,60933,1,0,0:0:0:0:
64,192,60933,1,0,0:0:0:0:
64,192,61155,1,0,0:0:0:0:
448,192,61155,1,0,0:0:0:0:
320,192,61333,1,0,0:0:0:0:
192,192,61333,1,0,0:0:0:0:
192,192,61466,1,0,0:0:0:0:
320,192,61466,1,0,0:0:0:0:
448,192,62000,1,0,0:0:0:0:
448,192,62133,1,0,0:0:0:0:
320,192,62266,1,0,0:0:0:0:
320,192,62400,1,0,0:0:0:0:
192,192,62533,1,0,0:0:0:0:
192,192,62666,1,0,0:0:0:0:
64,192,62800,1,0,0:0:0:0:
64,192,62933,1,0,0:0:0:0:
448,192,63066,1,0,0:0:0:0:
320,192,63133,1,0,0:0:0:0:
192,192,63200,1,0,0:0:0:0:
320,192,63266,1,0,0:0:0:0:
64,192,63333,1,0,0:0:0:0:
192,192,63400,1,0,0:0:0:0:
320,192,63466,1,0,0:0:0:0:
192,192,63533,1,0,0:0:0:0:
448,192,63600,1,0,0:0:0:0:
192,192,63666,1,0,0:0:0:0:
64,192,63733,1,0,0:0:0:0:
320,192,63800,1,0,0:0:0:0:
192,192,63866,1,0,0:0:0:0:
320,192,63933,1,0,0:0:0:0:
64,192,64000,1,0,0:0:0:0:
448,192,64066,1,0,0:0:0:0:
64,192,64133,1,0,0:0:0:0:
192,192,64200,1,0,0:0:0:0:
448,192,64266,1,0,0:0:0:0:
64,192,64333,1,0,0:0:0:0:
192,192,64400,1,0,0:0:0:0:
320,192,64466,1,0,0:0:0:0:
448,192,64533,1,0,0:0:0:0:
192,192,64600,1,0,0:0:0:0:
64,192,64666,1,0,0:0:0:0:
320,192,64733,1,0,0:0:0:0:
448,192,64800,1,0,0:0:0:0:
320,192,64866,1,0,0:0:0:0:
64,192,64933,1,0,0:0:0:0:
192,192,65000,1,0,0:0:0:0:
448,192,65066,1,0,0:0:0:0:
320,192,65133,1,0,0:0:0:0:
64,192,65200,128,0,66933:0:0:0:0:
448,192,65200,128,0,66933:0:0:0:0:
64,192,67066,1,0,0:0:0:0:
448,192,67066,1,0,0:0:0:0:
320,192,67066,1,0,0:0:0:0:
192,192,67066,1,0,0:0:0:0:
192,192,67333,128,0,69066:0:0:0:0:
320,192,67333,128,0,69066:0:0:0:0:
64,192,69200,1,0,0:0:0:0:
192,192,69200,1,0,0:0:0:0:
320,192,69200,1,0,0:0:0:0:
448,192,69200,1,0,0:0:0:0:
192,192,69466,128,0,70133:0:0:0:0:
64,192,69466,128,0,70133:0:0:0:0:
64,192,70266,1,0,0:0:0:0:
192,192,70266,1,0,0:0:0:0:
320,192,70266,1,0,0:0:0:0:
448,192,70266,1,0,0:0:0:0:
192,192,70533,128,0,70933:0:0:0:0:
320,192,70533,128,0,70933:0:0:0:0:
320,192,71066,1,0,0:0:0:0:
192,192,71066,1,0,0:0:0:0:
64,192,71200,1,0,0:0:0:0:
320,192,71200,1,0,0:0:0:0:
448,192,71333,1,0,0:0:0:0:
192,192,71333,1,0,0:0:0:0:
320,192,71600,128,0,72000:0:0:0:0:
448,192,71600,128,0,72000:0:0:0:0:
448,192,72133,1,0,0:0:0:0:
320,192,72133,1,0,0:0:0:0:
448,192,72266,1,0,0:0:0:0:
192,192,72266,1,0,0:0:0:0:
448,192,72400,1,0,0:0:0:0:
64,192,72400,1,0,0:0:0:0:
192,192,72666,1,0,0:0:0:0:
64,192,72666,128,0,72933:0:0:0:0:
192,192,72933,128,0,73200:0:0:0:0:
320,192,72933,1,0,0:0:0:0:
320,192,73200,128,0,73466:0:0:0:0:
448,192,73200,1,0,0:0:0:0:
448,192,73466,128,0,73733:0:0:0:0:
192,192,73733,1,0,0:0:0:0:
64,192,73733,1,0,0:0:0:0:
448,192,74000,1,0,0:0:0:0:
320,192,74000,1,0,0:0:0:0:
192,192,74000,1,0,0:0:0:0:
64,192,74266,1,0,0:0:0:0:
320,192,74266,1,0,0:0:0:0:
64,192,74533,1,0,0:0:0:0:
448,192,74666,1,0,0:0:0:0:
64,192,74800,1,0,0:0:0:0:
192,192,74800,1,0,0:0:0:0:
320,192,75066,1,0,0:0:0:0:
448,192,75066,1,0,0:0:0:0:
192,192,75066,1,0,0:0:0:0:
64,192,75333,1,0,0:0:0:0:
320,192,75333,1,0,0:0:0:0:
448,192,75866,1,0,0:0:0:0:
320,192,75866,1,0,0:0:0:0:
64,192,76133,1,0,0:0:0:0:
320,192,76133,1,0,0:0:0:0:
192,192,76133,1,0,0:0:0:0:
320,192,76400,1,0,0:0:0:0:
448,192,76400,1,0,0:0:0:0:
192,192,76666,1,0,0:0:0:0:
448,192,76800,1,0,0:0:0:0:
64,192,76933,1,0,0:0:0:0:
192,192,76933,1,0,0:0:0:0:
192,192,77200,1,0,0:0:0:0:
448,192,77200,1,0,0:0:0:0:
320,192,77200,1,0,0:0:0:0:
192,192,77466,1,0,0:0:0:0:
64,192,77466,1,0,0:0:0:0:
448,192,78000,1,0,0:0:0:0:
64,192,78066,1,0,0:0:0:0:
448,192,78133,1,0,0:0:0:0:
64,192,78200,1,0,0:0:0:0:
448,192,78266,1,0,0:0:0:0:
64,192,78333,1,0,0:0:0:0:
448,192,78400,1,0,0:0:0:0:
64,192,78466,1,0,0:0:0:0:
448,192,78533,1,0,0:0:0:0:
64,192,78600,1,0,0:0:0:0:
448,192,78666,1,0,0:0:0:0:
64,192,78733,1,0,0:0:0:0:
448,192,78800,1,0,0:0:0:0:
320,192,79066,1,0,0:0:0:0:
192,192,79133,1,0,0:0:0:0:
320,192,79200,1,0,0:0:0:0:
192,192,79266,1,0,0:0:0:0:
320,192,79333,1,0,0:0:0:0:
192,192,79400,1,0,0:0:0:0:
320,192,79466,1,0,0:0:0:0:
192,192,79533,1,0,0:0:0:0:
320,192,79600,1,0,0:0:0:0:
192,192,79666,1,0,0:0:0:0:
320,192,79733,1,0,0:0:0:0:
192,192,79800,1,0,0:0:0:0:
320,192,79866,1,0,0:0:0:0:
64,192,80133,1,0,0:0:0:0:
192,192,80266,1,0,0:0:0:0:
320,192,80400,1,0,0:0:0:0:
448,192,80533,1,0,0:0:0:0:
64,192,80666,1,0,0:0:0:0:
192,192,80800,1,0,0:0:0:0:
320,192,80933,1,0,0:0:0:0:
448,192,81066,1,0,0:0:0:0:
64,192,81200,1,0,0:0:0:0:
192,192,81266,1,0,0:0:0:0:
320,192,81333,1,0,0:0:0:0:
448,192,81400,1,0,0:0:0:0:
64,192,81466,1,0,0:0:0:0:
192,192,81533,1,0,0:0:0:0:
320,192,81600,1,0,0:0:0:0:
448,192,81666,1,0,0:0:0:0:
64,192,81733,1,0,0:0:0:0:
192,192,81800,1,0,0:0:0:0:
320,192,81866,1,0,0:0:0:0:
448,192,81933,1,0,0:0:0:0:
64,192,82000,1,0,0:0:0:0:
192,192,82066,1,0,0:0:0:0:
320,192,82133,1,0,0:0:0:0:
448,192,82200,1,0,0:0:0:0:
64,192,82266,1,0,0:0:0:0:
448,192,82266,1,0,0:0:0:0:
64,192,82800,128,0,83333:0:0:0:0:
192,192,83333,128,0,83866:0:0:0:0:
320,192,83866,128,0,84400:0:0:0:0:
448,192,84400,128,0,84933:0:0:0:0:
320,192,84933,128,0,85466:0:0:0:0:
192,192,85466,128,0,86000:0:0:0:0:
64,192,86000,1,0,0:0:0:0:
64,192,86533,1,0,0:0:0:0:
320,192,86666,1,0,0:0:0:0:
192,192,86800,1,0,0:0:0:0:
64,192,86933,1,0,0:0:0:0:
192,192,87133,1,0,0:0:0:0:
320,192,87333,1,0,0:0:0:0:
448,192,87466,1,0,0:0:0:0:
320,192,87600,1,0,0:0:0:0:
192,192,87733,1,0,0:0:0:0:
320,192,87866,1,0,0:0:0:0:
448,192,88066,1,0,0:0:0:0:
320,192,88266,1,0,0:0:0:0:
64,192,88400,1,0,0:0:0:0:
192,192,88533,1,0,0:0:0:0:
320,192,88666,1,0,0:0:0:0:
448,192,88800,1,0,0:0:0:0:
320,192,88933,1,0,0:0:0:0:
192,192,89066,1,0,0:0:0:0:
320,192,89200,1,0,0:0:0:0:
448,192,89333,1,0,0:0:0:0:
320,192,89466,1,0,0:0:0:0:
64,192,89600,1,0,0:0:0:0:
320,192,89600,1,0,0:0:0:0:
64,192,89800,1,0,0:0:0:0:
64,192,90000,1,0,0:0:0:0:
192,192,90133,1,0,0:0:0:0:
448,192,90133,1,0,0:0:0:0:
448,192,90333,1,0,0:0:0:0:
448,192,90533,1,0,0:0:0:0:
448,192,90666,128,0,91200:0:0:0:0:
64,192,90666,1,0,0:0:0:0:
64,192,91200,128,0,91733:0:0:0:0:
448,192,91733,1,0,0:0:0:0:
64,192,92266,1,0,0:0:0:0:
320,192,92266,1,0,0:0:0:0:
192,192,92400,1,0,0:0:0:0:
64,192,92400,1,0,0:0:0:0:
320,192,92533,1,0,0:0:0:0:
448,192,92533,1,0,0:0:0:0:
448,192,92666,1,0,0:0:0:0:
192,192,92666,1,0,0:0:0:0:
448,192,92800,1,0,0:0:0:0:
64,192,92800,1,0,0:0:0:0:
320,192,93600,1,0,0:0:0:0:
192,192,93733,1,0,0:0:0:0:
64,192,93866,1,0,0:0:0:0:
448,192,94133,1,0,0:0:0:0:
320,192,94133,1,0,0:0:0:0:
64,192,94400,1,0,0:0:0:0:
192,192,94400,1,0,0:0:0:0:
448,192,94666,1,0,0:0:0:0:
320,192,94666,1,0,0:0:0:0:
192,192,94666,1,0,0:0:0:0:
192,192,94933,1,0,0:0:0:0:
64,192,94933,1,0,0:0:0:0:
320,192,94933,1,0,0:0:0:0:
320,192,95600,1,0,0:0:0:0:
448,192,95733,1,0,0:0:0:0:
320,192,95866,1,0,0:0:0:0:
448,192,96000,1,0,0:0:0:0:
192,192,96266,1,0,0:0:0:0:
320,192,96266,1,0,0:0:0:0:
64,192,96533,1,0,0:0:0:0:
192,192,96533,1,0,0:0:0:0:
192,192,96800,1,0,0:0:0:0:
320,192,96800,1,0,0:0:0:0:
448,192,96800,1,0,0:0:0:0:
64,192,97066,1,0,0:0:0:0:
192,192,97066,1,0,0:0:0:0:
192,192,97200,1,0,0:0:0:0:
448,192,97333,1,0,0:0:0:0:
320,192,97333,1,0,0:0:0:0:
320,192,97466,1,0,0:0:0:0:
192,192,97600,1,0,0:0:0:0:
64,192,97600,1,0,0:0:0:0:
64,192,97733,1,0,0:0:0:0:
320,192,97866,1,0,0:0:0:0:
448,192,97866,1,0,0:0:0:0:
448,192,98000,1,0,0:0:0:0:
192,192,98133,1,0,0:0:0:0:
64,192,98133,1,0,0:0:0:0:
320,192,98400,1,0,0:0:0:0:
192,192,98400,1,0,0:0:0:0:
64,192,98400,1,0,0:0:0:0:
448,192,98666,1,0,0:0:0:0:
320,192,98666,1,0,0:0:0:0:
192,192,98666,1,0,0:0:0:0:
64,192,99200,1,0,0:0:0:0:
192,192,99266,1,0,0:0:0:0:
64,192,99333,1,0,0:0:0:0:
192,192,99400,1,0,0:0:0:0:
320,192,99466,1,0,0:0:0:0:
448,192,99533,1,0,0:0:0:0:
320,192,99600,1,0,0:0:0:0:
448,192,99666,1,0,0:0:0:0:
192,192,99733,1,0,0:0:0:0:
64,192,99800,1,0,0:0:0:0:
192,192,99866,1,0,0:0:0:0:
64,192,99933,1,0,0:0:0:0:
320,192,100000,1,0,0:0:0:0:
448,192,100066,1,0,0:0:0:0:
320,192,100133,1,0,0:0:0:0:
448,192,100200,1,0,0:0:0:0:
320,192,100266,128,0,100533:0:0:0:0:
192,192,100533,128,0,100800:0:0:0:0:
64,192,100800,1,0,0:0:0:0:
448,192,101333,1,0,0:0:0:0:
320,192,101400,1,0,0:0:0:0:
192,192,101466,1,0,0:0:0:0:
64,192,101533,1,0,0:0:0:0:
448,192,101600,1,0,0:0:0:0:
192,192,101666,1,0,0:0:0:0:
320,192,101733,1,0,0:0:0:0:
64,192,101800,1,0,0:0:0:0:
192,192,101866,1,0,0:0:0:0:
448,192,101933,1,0,0:0:0:0:
320,192,102000,1,0,0:0:0:0:
64,192,102066,1,0,0:0:0:0:
192,192,102133,1,0,0:0:0:0:
320,192,102200,1,0,0:0:0:0:
448,192,102266,1,0,0:0:0:0:
64,192,102333,1,0,0:0:0:0:
192,192,102400,1,0,0:0:0:0:
448,192,102466,1,0,0:0:0:0:
320,192,102533,1,0,0:0:0:0:
192,192,102600,1,0,0:0:0:0:
448,192,102666,1,0,0:0:0:0:
64,192,102733,1,0,0:0:0:0:
320,192,102800,1,0,0:0:0:0:
448,192,102866,1,0,0:0:0:0:
192,192,102933,1,0,0:0:0:0:
320,192,103000,1,0,0:0:0:0:
192,192,103066,1,0,0:0:0:0:
64,192,103133,1,0,0:0:0:0:
448,192,103200,1,0,0:0:0:0:
320,192,103266,1,0,0:0:0:0:
192,192,103333,1,0,0:0:0:0:
448,192,103400,1,0,0:0:0:0:
192,192,103466,1,0,0:0:0:0:
320,192,103533,1,0,0:0:0:0:
64,192,103600,1,0,0:0:0:0:
448,192,103666,1,0,0:0:0:0:
192,192,103733,1,0,0:0:0:0:
64,192,103800,1,0,0:0:0:0:
320,192,103866,1,0,0:0:0:0:
448,192,103933,1,0,0:0:0:0:
192,192,104000,1,0,0:0:0:0:
64,192,104066,1,0,0:0:0:0:
320,192,104133,1,0,0:0:0:0:
192,192,104200,1,0,0:0:0:0:
448,192,104266,1,0,0:0:0:0:
64,192,104333,1,0,0:0:0:0:
320,192,104400,1,0,0:0:0:0:
448,192,104466,1,0,0:0:0:0:
192,192,104533,1,0,0:0:0:0:
320,192,104600,1,0,0:0:0:0:
64,192,104666,1,0,0:0:0:0:
320,192,104733,1,0,0:0:0:0:
64,192,104800,1,0,0:0:0:0:
320,192,104866,1,0,0:0:0:0:
448,192,104933,1,0,0:0:0:0:
320,192,105000,1,0,0:0:0:0:
192,192,105066,1,0,0:0:0:0:
64,192,105133,1,0,0:0:0:0:
192,192,105200,1,0,0:0:0:0:
448,192,105266,1,0,0:0:0:0:
320,192,105333,1,0,0:0:0:0:
192,192,105400,1,0,0:0:0:0:
320,192,105466,1,0,0:0:0:0:
64,192,105533,1,0,0:0:0:0:
320,192,105600,1,0,0:0:0:0:
192,192,105600,1,0,0:0:0:0:
448,192,105600,1,0,0:0:0:0:
320,192,105733,1,0,0:0:0:0:
192,192,105733,1,0,0:0:0:0:
192,192,105866,1,0,0:0:0:0:
320,192,105866,1,0,0:0:0:0:
64,192,105866,1,0,0:0:0:0:
320,192,106000,1,0,0:0:0:0:
192,192,106000,1,0,0:0:0:0:
192,192,106133,1,0,0:0:0:0:
320,192,106133,1,0,0:0:0:0:
448,192,106133,1,0,0:0:0:0:
320,192,106266,1,0,0:0:0:0:
192,192,106266,1,0,0:0:0:0:
64,192,106400,1,0,0:0:0:0:
192,192,106400,1,0,0:0:0:0:
320,192,106400,1,0,0:0:0:0:
192,192,106533,1,0,0:0:0:0:
320,192,106533,1,0,0:0:0:0:
448,192,106666,1,0,0:0:0:0:
192,192,106666,128,0,107200:0:0:0:0:
320,192,106666,128,0,107200:0:0:0:0:
64,192,106933,1,0,0:0:0:0:
448,192,107200,1,0,0:0:0:0:
64,192,107733,1,0,0:0:0:0:
64,192,107866,1,0,0:0:0:0:
192,192,108000,1,0,0:0:0:0:
192,192,108133,1,0,0:0:0:0:
320,192,108266,1,0,0:0:0:0:
320,192,108400,1,0,0:0:0:0:
448,192,108533,1,0,0:0:0:0:
448,192,108666,1,0,0:0:0:0:
448,192,108800,128,0,109733:0:0:0:0:
320,192,108800,1,0,0:0:0:0:
320,192,108933,1,0,0:0:0:0:
192,192,109066,1,0,0:0:0:0:
192,192,109200,1,0,0:0:0:0:
64,192,109333,1,0,0:0:0:0:
64,192,109466,1,0,0:0:0:0:
192,192,109600,1,0,0:0:0:0:
192,192,109733,1,0,0:0:0:0:
64,192,109866,128,0,110800:0:0:0:0:
320,192,109866,1,0,0:0:0:0:
320,192,110000,1,0,0:0:0:0:
448,192,110133,1,0,0:0:0:0:
448,192,110266,1,0,0:0:0:0:
320,192,110400,1,0,0:0:0:0:
320,192,110533,1,0,0:0:0:0:
192,192,110666,1,0,0:0:0:0:
192,192,110800,1,0,0:0:0:0:
448,192,110933,128,0,111866:0:0:0:0:
320,192,110933,1,0,0:0:0:0:
320,192,111066,1,0,0:0:0:0:
192,192,111200,1,0,0:0:0:0:
192,192,111333,1,0,0:0:0:0:
64,192,111466,1,0,0:0:0:0:
64,192,111600,1,0,0:0:0:0:
192,192,111733,1,0,0:0:0:0:
192,192,111866,1,0,0:0:0:0:
64,192,112000,128,0,112933:0:0:0:0:
320,192,112000,1,0,0:0:0:0:
320,192,112133,1,0,0:0:0:0:
448,192,112266,1,0,0:0:0:0:
448,192,112400,1,0,0:0:0:0:
320,192,112533,1,0,0:0:0:0:
320,192,112666,1,0,0:0:0:0:
192,192,112800,1,0,0:0:0:0:
192,192,112933,1,0,0:0:0:0:
192,192,113066,128,0,115066:0:0:0:0:
320,192,113066,128,0,115066:0:0:0:0:
64,192,115200,1,0,0:0:0:0:
448,192,115200,1,0,0:0:0:0:
192,192,115333,1,0,0:0:0:0:
320,192,115333,1,0,0:0:0:0:
64,192,115466,1,0,0:0:0:0:
448,192,115466,1,0,0:0:0:0:
320,192,115600,1,0,0:0:0:0:
192,192,115600,1,0,0:0:0:0:
64,192,115733,1,0,0:0:0:0:
448,192,115733,1,0,0:0:0:0:
192,192,115866,1,0,0:0:0:0:
320,192,115866,1,0,0:0:0:0:
64,192,116000,1,0,0:0:0:0:
448,192,116000,1,0,0:0:0:0:
192,192,116133,1,0,0:0:0:0:
320,192,116133,1,0,0:0:0:0:
64,192,116266,1,0,0:0:0:0:
192,192,116266,1,0,0:0:0:0:
320,192,116333,1,0,0:0:0:0:
448,192,116333,1,0,0:0:0:0:
192,192,116400,1,0,0:0:0:0:
64,192,116400,1,0,0:0:0:0:
320,192,116466,1,0,0:0:0:0:
448,192,116466,1,0,0:0:0:0:
64,192,116533,1,0,0:0:0:0:
192,192,116533,1,0,0:0:0:0:
320,192,116600,1,0,0:0:0:0:
448,192,116600,1,0,0:0:0:0:
192,192,116666,1,0,0:0:0:0:
64,192,116666,1,0,0:0:0:0:
320,192,116733,1,0,0:0:0:0:
448,192,116733,1,0,0:0:0:0:
448,192,116800,128,0,117333:0:0:0:0:
320,192,116800,128,0,117333:0:0:0:0:
192,192,116800,128,0,117333:0:0:0:0:
64,192,116800,128,0,117333:0:0:0:0:
