osu file format v14

[General]
AudioFilename: Glorious Crown.mp3
AudioLeadIn: 0
PreviewTime: 46237
Countdown: 0
SampleSet: Soft
StackLeniency: 0.7
Mode: 3
LetterboxInBreaks: 0
SpecialStyle: 0
WidescreenStoryboard: 0

[Editor]
DistanceSpacing: 1
BeatDivisor: 6
GridSize: 4
TimelineZoom: 2.82

[Metadata]
Title:Glorious Crown
TitleUnicode:Glorious Crown
Artist:xi
ArtistUnicode:xi
Creator:Kuo Kyoka
Version:richard's 7K Hyper
Source:maimai PiNK
Tags:FREEDOM DiVE↓ Happy Hardcore ORIGINAL & JOYPOLIS Diverse System Evolved Chronicles C91 DVSP-0169 4th solo album Yusuke Ishiwata SEGA ExPew richardfeder DE-CADE R1 Rizqy Zan_- Ichigaki [_A_v_a_l_o_n_] Critical_Star Fresh_Chicken Arzenvald
BeatmapID:1014642
BeatmapSetID:474900

[Difficulty]
HPDrainRate:7
CircleSize:7
OverallDifficulty:7.5
ApproachRate:5
SliderMultiplier:1.4
SliderTickRate:1

[Events]
//Background and Video events
0,0,"BG.jpg",0,0
//Break Periods
//Storyboard Layer 0 (Background)
//Storyboard Layer 1 (Fail)
//Storyboard Layer 2 (Pass)
//Storyboard Layer 3 (Foreground)
//Storyboard Sound Samples
Sample,1005,0,"bell.wav",40
Sample,2767,0,"drum.wav",40
Sample,2801,0,"drum.wav",40
Sample,2834,0,"drum.wav",40
Sample,3133,0,"bell.wav",40
Sample,4463,0,"bell.wav",40
Sample,4730,0,"bell.wav",40
Sample,4896,0,"drum.wav",40
Sample,4929,0,"drum.wav",40
Sample,4962,0,"drum.wav",40
Sample,4996,0,"drum.wav",40
Sample,5162,0,"drum.wav",40
Sample,5228,0,"drum.wav",40
Sample,5395,0,"hihat.wav",40
Sample,5661,0,"hihat.wav",40
Sample,5927,0,"hihat.wav",40
Sample,6193,0,"hihat.wav",40
Sample,6459,0,"hihat.wav",40
Sample,6725,0,"hihat.wav",40
Sample,6991,0,"hihat.wav",40
Sample,6991,0,"drum.wav",40
Sample,7058,0,"drum.wav",40
Sample,7124,0,"drum.wav",40
Sample,7257,0,"hihat.wav",40
Sample,7257,0,"drum.wav",40
Sample,7291,0,"drum.wav",40
Sample,7324,0,"drum.wav",40
Sample,7357,0,"drum.wav",40
Sample,7656,0,"snare.wav",55
Sample,7922,0,"crash.wav",55
Sample,8189,0,"snare.wav",55
Sample,8721,0,"snare.wav",55
Sample,8721,0,"crash.wav",55
Sample,8987,0,"crash.wav",55
Sample,9253,0,"crash.wav",55
Sample,9253,0,"snare.wav",55
Sample,9519,0,"crash.wav",55
Sample,11648,0,"bell.wav",40
Sample,20162,0,"bell.wav",40
Sample,20295,0,"hihat.wav",40
Sample,20428,0,"clap.wav",55
Sample,20561,0,"hihat.wav",40
Sample,20694,0,"clap.wav",55
Sample,20827,0,"hihat.wav",40
Sample,20960,0,"clap.wav",55
Sample,21093,0,"hihat.wav",40
Sample,21359,0,"hihat.wav",40
Sample,21492,0,"clap.wav",55
Sample,21625,0,"hihat.wav",40
Sample,21758,0,"clap.wav",55
Sample,21891,0,"hihat.wav",40
Sample,22024,0,"clap.wav",55
Sample,22157,0,"kick.wav",55
Sample,22424,0,"hihat.wav",40
Sample,22690,0,"hihat.wav",40
Sample,22823,0,"kick.wav",55
Sample,22823,0,"crash.wav",55
Sample,22956,0,"hihat.wav",40
Sample,23222,0,"hihat.wav",40
Sample,23355,0,"crash.wav",55
Sample,23488,0,"hihat.wav",40
Sample,23754,0,"hihat.wav",40
Sample,23887,0,"crash.wav",55
Sample,24020,0,"hihat.wav",40
Sample,24286,0,"kick.wav",55
Sample,24552,0,"hihat.wav",40
Sample,24685,0,"clap.wav",55
Sample,24818,0,"hihat.wav",40
Sample,24951,0,"clap.wav",55
Sample,25084,0,"hihat.wav",40
Sample,25217,0,"clap.wav",55
Sample,25350,0,"hihat.wav",40
Sample,25616,0,"hihat.wav",40
Sample,25750,0,"clap.wav",55
Sample,25883,0,"hihat.wav",40
Sample,26149,0,"hihat.wav",40
Sample,26282,0,"clap.wav",55
Sample,26415,0,"hihat.wav",40
Sample,26681,0,"hihat.wav",40
Sample,26814,0,"clap.wav",55
Sample,26947,0,"hihat.wav",40
Sample,27080,0,"crash.wav",55
Sample,27213,0,"hihat.wav",40
Sample,27346,0,"kick.wav",55
Sample,27346,0,"crash.wav",55
Sample,27479,0,"hihat.wav",40
Sample,27612,0,"bell.wav",40
Sample,27612,0,"crash.wav",55
Sample,27745,0,"hihat.wav",40
Sample,27878,0,"clap.wav",55
Sample,28011,0,"hihat.wav",40
Sample,28144,0,"bell.wav",40
Sample,28277,0,"hihat.wav",40
Sample,28410,0,"clap.wav",55
Sample,28543,0,"hihat.wav",40
Sample,28676,0,"bell.wav",40
Sample,28809,0,"hihat.wav",40
Sample,28942,0,"clap.wav",55
Sample,29075,0,"hihat.wav",40
Sample,29208,0,"bell.wav",40
Sample,29208,0,"kick.wav",55
Sample,29275,0,"kick.wav",55
Sample,29541,0,"kick.wav",55
Sample,29608,0,"kick.wav",55
Sample,29674,0,"kick.wav",55
Sample,29741,0,"boom.wav",55
Sample,30938,0,"hihat.wav",40
Sample,31204,0,"hihat.wav",40
Sample,32934,0,"kick.wav",55
Sample,33599,0,"hihat.wav",40
Sample,33732,0,"snare.wav",55
Sample,33865,0,"hihat.wav",40
Sample,34929,0,"hihat.wav",40
Sample,38122,0,"hihat.wav",40
Sample,42246,0,"kick.wav",55
Sample,42379,0,"hihat.wav",40
Sample,43976,0,"hihat.wav",40
Sample,44242,0,"hihat.wav",40
Sample,44375,0,"snare.wav",55
Sample,44508,0,"hihat.wav",40
Sample,44641,0,"kick.wav",55
Sample,44907,0,"snare.wav",55
Sample,45173,0,"bell.wav",40
Sample,45240,0,"kick.wav",55
Sample,45439,0,"snare.wav",55
Sample,45705,0,"bell.wav",40
Sample,46503,0,"boom.wav",55
Sample,46769,0,"kick.wav",55
Sample,46903,0,"hihat.wav",40
Sample,47169,0,"hihat.wav",40
Sample,47967,0,"hihat.wav",40
Sample,48233,0,"hihat.wav",40
Sample,48499,0,"hihat.wav",40
Sample,48765,0,"hihat.wav",40
Sample,49031,0,"hihat.wav",40
Sample,49297,0,"hihat.wav",40
Sample,50095,0,"hihat.wav",40
Sample,50361,0,"hihat.wav",40
Sample,50628,0,"hihat.wav",40
Sample,50894,0,"hihat.wav",40
Sample,51160,0,"hihat.wav",40
Sample,51426,0,"hihat.wav",40
Sample,51692,0,"hihat.wav",40
Sample,51958,0,"hihat.wav",40
Sample,52224,0,"hihat.wav",40
Sample,52490,0,"hihat.wav",40
Sample,52756,0,"hihat.wav",40
Sample,53022,0,"hihat.wav",40
Sample,53288,0,"hihat.wav",40
Sample,53554,0,"hihat.wav",40
Sample,53820,0,"hihat.wav",40
Sample,54020,0,"kick.wav",55
Sample,54087,0,"hihat.wav",40
Sample,54153,0,"kick.wav",55
Sample,54951,0,"crash.wav",55
Sample,55151,0,"crash.wav",55
Sample,55284,0,"kick.wav",55
Sample,55417,0,"hihat.wav",40
Sample,55683,0,"hihat.wav",40
Sample,56481,0,"hihat.wav",40
Sample,56747,0,"hihat.wav",40
Sample,57013,0,"hihat.wav",40
Sample,57279,0,"hihat.wav",40
Sample,57546,0,"hihat.wav",40
Sample,57812,0,"hihat.wav",40
Sample,58610,0,"hihat.wav",40
Sample,58876,0,"hihat.wav",40
Sample,59142,0,"hihat.wav",40
Sample,59408,0,"hihat.wav",40
Sample,59674,0,"hihat.wav",40
Sample,59940,0,"hihat.wav",40
Sample,60206,0,"hihat.wav",40
Sample,60472,0,"hihat.wav",40
Sample,60738,0,"hihat.wav",40
Sample,61005,0,"hihat.wav",40
Sample,61271,0,"hihat.wav",40
Sample,61404,0,"snare.wav",55
Sample,61537,0,"hihat.wav",40
Sample,62468,0,"crash.wav",55
Sample,63266,0,"bell.wav",40
Sample,63865,0,"kick.wav",55
Sample,63931,0,"kick.wav",55
Sample,64064,0,"kick.wav",55
Sample,64064,0,"snare.wav",55
Sample,64131,0,"kick.wav",55
Sample,64264,0,"kick.wav",55
Sample,64330,0,"bell.wav",40
Sample,64397,0,"kick.wav",55
Sample,64463,0,"kick.wav",55
Sample,64530,0,"crash.wav",55
Sample,64530,0,"kick.wav",55
Sample,64597,0,"kick.wav",55
Sample,64597,0,"snare.wav",55
Sample,64663,0,"kick.wav",55
Sample,64730,0,"kick.wav",55
Sample,64730,0,"crash.wav",55
Sample,64796,0,"kick.wav",55
Sample,64863,0,"bell.wav",40
Sample,66725,0,"crash.wav",55
Sample,66991,0,"bell.wav",40
Sample,68322,0,"bell.wav",40
Sample,68588,0,"bell.wav",40
Sample,68765,0,"kick.wav",55
Sample,68854,0,"bell.wav",40
Sample,69120,0,"bell.wav",40
Sample,70184,0,"bell.wav",40
Sample,70184,0,"crash.wav",55
Sample,71248,0,"bell.wav",40
Sample,71248,0,"crash.wav",55
Sample,72313,0,"crash.wav",55
Sample,72490,0,"kick.wav",55
Sample,72579,0,"crash.wav",55
Sample,72756,0,"kick.wav",55
Sample,72845,0,"crash.wav",55
Sample,73022,0,"kick.wav",55
Sample,73111,0,"clap.wav",55
Sample,73111,0,"crash.wav",55
Sample,73377,0,"bell.wav",40
Sample,75417,0,"kick.wav",55
Sample,75506,0,"bell.wav",40
Sample,77546,0,"kick.wav",55
Sample,77634,0,"bell.wav",40
Sample,77634,0,"crash.wav",55
Sample,79630,0,"kick.wav",55
Sample,79696,0,"kick.wav",55
Sample,79763,0,"crash.wav",55
Sample,80029,0,"snare.wav",55
Sample,80295,0,"crash.wav",55
Sample,80561,0,"snare.wav",55
Sample,80827,0,"crash.wav",55
Sample,81093,0,"snare.wav",55
Sample,81359,0,"crash.wav",55
Sample,81625,0,"snare.wav",55
Sample,81891,0,"bell.wav",40
Sample,81891,0,"crash.wav",55
Sample,82424,0,"bell.wav",40
Sample,82956,0,"bell.wav",40
Sample,83488,0,"bell.wav",40
Sample,84020,0,"bell.wav",40
Sample,84552,0,"bell.wav",40
Sample,85084,0,"bell.wav",40
Sample,85616,0,"bell.wav",40
Sample,86149,0,"bell.wav",40
Sample,87213,0,"bell.wav",40
Sample,88277,0,"bell.wav",40
Sample,92268,0,"snare.wav",55
Sample,92268,0,"clap.wav",55
Sample,92534,0,"drum.wav",30
Sample,92534,0,"bell.wav",40
Sample,92601,0,"drum.wav",30
Sample,92667,0,"drum.wav",30
Sample,92734,0,"drum.wav",30
Sample,92801,0,"drum.wav",30
Sample,92867,0,"drum.wav",30
Sample,92934,0,"drum.wav",30
Sample,93000,0,"drum.wav",30
Sample,93067,0,"drum.wav",30
Sample,93133,0,"drum.wav",30
Sample,93200,0,"drum.wav",30
Sample,93266,0,"drum.wav",30
Sample,93399,0,"drum.wav",30
Sample,93532,0,"drum.wav",30
Sample,93665,0,"drum.wav",30
Sample,93732,0,"drum.wav",30
Sample,93798,0,"drum.wav",30
Sample,93931,0,"drum.wav",30
Sample,93998,0,"drum.wav",30
Sample,94064,0,"drum.wav",30
Sample,94197,0,"drum.wav",30
Sample,94264,0,"drum.wav",30
Sample,94330,0,"drum.wav",30
Sample,94463,0,"drum.wav",30
Sample,94530,0,"drum.wav",30
Sample,94597,0,"drum.wav",30
Sample,94730,0,"drum.wav",30
Sample,94796,0,"drum.wav",30
Sample,94863,0,"drum.wav",30
Sample,94929,0,"drum.wav",30
Sample,94996,0,"drum.wav",30
Sample,95062,0,"drum.wav",30
Sample,95129,0,"drum.wav",30
Sample,95195,0,"drum.wav",30
Sample,95262,0,"drum.wav",30
Sample,95395,0,"drum.wav",30
Sample,95528,0,"drum.wav",30
Sample,95661,0,"drum.wav",30
Sample,96426,0,"drum.wav",40
Sample,96459,0,"drum.wav",40
Sample,96492,0,"drum.wav",40
Sample,96526,0,"drum.wav",40
Sample,96659,0,"drum.wav",40
Sample,96692,0,"drum.wav",40
Sample,96725,0,"drum.wav",40
Sample,96758,0,"drum.wav",40
Sample,96792,0,"crash.wav",55
Sample,96792,0,"bell.wav",40
Sample,96925,0,"hihat.wav",40
Sample,97191,0,"hihat.wav",40
Sample,97457,0,"hihat.wav",40
Sample,97723,0,"hihat.wav",40
Sample,97989,0,"hihat.wav",40
Sample,98255,0,"hihat.wav",40
Sample,98521,0,"hihat.wav",40
Sample,98787,0,"hihat.wav",40
Sample,99053,0,"hihat.wav",40
Sample,99186,0,"snare.wav",55
Sample,99319,0,"hihat.wav",40
Sample,99585,0,"hihat.wav",40
Sample,99718,0,"snare.wav",55
Sample,99785,0,"kick.wav",55
Sample,99852,0,"kick.wav",55
Sample,99852,0,"hihat.wav",40
Sample,99918,0,"kick.wav",55
Sample,100251,0,"kick.wav",55
Sample,100716,0,"crash.wav",55
Sample,100916,0,"crash.wav",55
Sample,101049,0,"bell.wav",40
Sample,101049,0,"kick.wav",55
Sample,105040,0,"snare.wav",55
Sample,105173,0,"hihat.wav",40
Sample,105306,0,"kick.wav",55
Sample,106104,0,"kick.wav",55
Sample,106237,0,"hihat.wav",40
Sample,106370,0,"kick.wav",55
Sample,106636,0,"snare.wav",55
Sample,106769,0,"hihat.wav",40
Sample,106903,0,"bell.wav",40
Sample,107169,0,"snare.wav",55
Sample,107302,0,"hihat.wav",40
Sample,107435,0,"bell.wav",40
Sample,107701,0,"kick.wav",55
Sample,107967,0,"bell.wav",40
Sample,108233,0,"kick.wav",55
Sample,108499,0,"bell.wav",40
Sample,108765,0,"snare.wav",55
Sample,108765,0,"crash.wav",55
Sample,109031,0,"crash.wav",55
Sample,109297,0,"crash.wav",55
Sample,109297,0,"snare.wav",55
Sample,109829,0,"crash.wav",55
Sample,109829,0,"snare.wav",55
Sample,110095,0,"crash.wav",55
Sample,110295,0,"crash.wav",55
Sample,110361,0,"snare.wav",55
Sample,110495,0,"drum.wav",40
Sample,110528,0,"drum.wav",40
Sample,110594,0,"drum.wav",40
Sample,110628,0,"bell.wav",40
Sample,110894,0,"snare.wav",55
Sample,111160,0,"crash.wav",55
Sample,111426,0,"snare.wav",55
Sample,111692,0,"bell.wav",40
Sample,111958,0,"snare.wav",55
Sample,112490,0,"snare.wav",55
Sample,112756,0,"bell.wav",40
Sample,114619,0,"kick.wav",55
Sample,114752,0,"kick.wav",55
Sample,114885,0,"bell.wav",40
Sample,114951,0,"kick.wav",55
Sample,115018,0,"kick.wav",55
Sample,115084,0,"kick.wav",55
Sample,115151,0,"kick.wav",55
Sample,115217,0,"kick.wav",55
Sample,115284,0,"kick.wav",55
Sample,115350,0,"kick.wav",55
Sample,115417,0,"kick.wav",55
Sample,115483,0,"kick.wav",55
Sample,115550,0,"kick.wav",55
Sample,115616,0,"kick.wav",55
Sample,115683,0,"kick.wav",55
Sample,115750,0,"kick.wav",55
Sample,115816,0,"drum.wav",40
Sample,115849,0,"drum.wav",40
Sample,115883,0,"drum.wav",40
Sample,115916,0,"drum.wav",40
Sample,115949,0,"kick.wav",55
Sample,116016,0,"kick.wav",55
Sample,116016,0,"softbell.wav",40
Sample,116082,0,"drum.wav",40
Sample,116115,0,"drum.wav",40
Sample,116149,0,"softbell.wav",40
Sample,116149,0,"drum.wav",40
Sample,116182,0,"drum.wav",40
Sample,116215,0,"kick.wav",55
Sample,116282,0,"kick.wav",55
Sample,116282,0,"softbell.wav",40
Sample,116348,0,"drum.wav",40
Sample,116381,0,"drum.wav",40
Sample,116415,0,"softbell.wav",40
Sample,116415,0,"drum.wav",40
Sample,116448,0,"drum.wav",40
Sample,116481,0,"kick.wav",55
Sample,116880,0,"kick.wav",55
Sample,116947,0,"kick.wav",55
Sample,117013,0,"boom.wav",55

[TimingPoints]
1005,266.075388026608,4,2,1,40,1,0
46769,-100,4,2,1,40,0,1
54752,-100,4,2,1,40,0,0
55284,-100,4,2,1,40,0,1
64863,-100,4,2,1,40,0,0
81891,-100,4,2,1,15,0,0
92002,-100,4,2,1,40,0,0
96792,-100,4,2,1,40,0,1
100517,-100,4,2,1,40,0,0
101049,-100,4,2,1,40,0,1
112756,-100,4,2,1,40,0,0
114885,-100,4,2,1,40,0,1
117013,-100,4,2,1,40,0,0

[HitObjects]
36,192,1005,5,0,0:0:0:55:crash.wav
475,192,1005,1,0,0:0:0:55:kick.wav
36,192,1404,1,0,0:0:0:55:kick.wav
475,192,1803,1,0,0:0:0:55:kick.wav
36,192,2202,1,0,0:0:0:55:kick.wav
475,192,2335,1,0,0:0:0:55:kick.wav
36,192,2468,1,0,0:0:0:55:kick.wav
475,192,2601,1,0,0:0:0:55:kick.wav
36,192,2734,128,0,2867:0:0:0:40:drum.wav
182,192,2867,1,0,0:0:0:40:drum.wav
329,192,2934,1,0,0:0:0:40:drum.wav
182,192,3000,1,0,0:0:0:40:drum.wav
329,192,3067,1,0,0:0:0:40:drum.wav
36,192,3133,1,0,0:0:0:55:kick.wav
475,192,3133,1,0,0:0:0:55:crash.wav
475,192,3532,1,0,0:0:0:55:kick.wav
36,192,3931,1,0,0:0:0:55:kick.wav
475,192,4330,1,0,0:0:0:55:kick.wav
36,192,4463,1,0,0:0:0:55:kick.wav
475,192,4597,1,0,0:0:0:55:kick.wav
36,192,4730,1,0,0:0:0:55:kick.wav
475,192,4863,128,0,4996:0:0:0:40:drum.wav
329,192,4996,1,0,0:0:0:40:bell.wav
182,192,5062,1,0,0:0:0:40:drum.wav
329,192,5129,1,0,0:0:0:40:drum.wav
182,192,5195,1,0,0:0:0:40:drum.wav
475,192,5262,1,0,0:0:0:55:crash.wav
36,192,5262,1,0,0:0:0:55:kick.wav
402,192,5528,1,0,0:0:0:55:snare.wav
109,192,5794,1,0,0:0:0:55:kick.wav
402,192,6060,1,0,0:0:0:55:snare.wav
36,192,6326,1,0,0:0:0:55:kick.wav
475,192,6326,1,0,0:0:0:55:crash.wav
182,192,6592,1,0,0:0:0:55:snare.wav
329,192,6858,1,0,0:0:0:55:kick.wav
182,192,7124,1,0,0:0:0:55:snare.wav
36,192,7390,1,0,0:0:0:55:kick.wav
475,192,7390,1,0,0:0:0:55:crash.wav
182,192,7523,1,0,0:0:0:55:kick.wav
329,192,7656,1,0,0:0:0:55:kick.wav
109,192,7789,1,0,0:0:0:55:kick.wav
256,192,7856,1,0,0:0:0:55:kick.wav
402,192,7922,1,0,0:0:0:55:kick.wav
182,192,8055,1,0,0:0:0:55:kick.wav
109,192,8189,1,0,0:0:0:55:kick.wav
256,192,8255,1,0,0:0:0:55:kick.wav
402,192,8322,1,0,0:0:0:55:kick.wav
182,192,8388,1,0,0:0:0:55:kick.wav
36,192,8455,1,0,0:0:0:55:kick.wav
475,192,8455,1,0,0:0:0:55:crash.wav
402,192,8521,1,0,0:0:0:55:kick.wav
329,192,8588,1,0,0:0:0:55:kick.wav
256,192,8654,1,0,0:0:0:55:kick.wav
402,192,8721,1,0,0:0:0:55:kick.wav
329,192,8787,1,0,0:0:0:55:kick.wav
256,192,8854,1,0,0:0:0:55:kick.wav
182,192,8920,1,0,0:0:0:55:kick.wav
329,192,8987,1,0,0:0:0:55:kick.wav
256,192,9053,1,0,0:0:0:55:kick.wav
182,192,9120,1,0,0:0:0:55:kick.wav
109,192,9186,1,0,0:0:0:55:kick.wav
256,192,9253,1,0,0:0:0:55:kick.wav
182,192,9319,1,0,0:0:0:55:kick.wav
109,192,9386,1,0,0:0:0:55:kick.wav
36,192,9452,1,0,0:0:0:55:kick.wav
182,192,9519,1,0,0:0:0:55:kick.wav
329,192,9585,1,0,0:0:0:0:
256,192,9652,1,0,0:0:0:0:
402,192,9718,1,0,0:0:0:0:
109,192,9785,1,0,0:0:0:0:
256,192,9852,1,0,0:0:0:0:
36,192,9918,1,0,0:0:0:0:
182,192,9985,1,0,0:0:0:0:
329,192,10051,1,0,0:0:0:0:
109,192,10118,1,0,0:0:0:0:
256,192,10184,1,0,0:0:0:0:
402,192,10251,1,0,0:0:0:0:
182,192,10317,1,0,0:0:0:0:
329,192,10384,1,0,0:0:0:0:
475,192,10450,1,0,0:0:0:0:
256,192,10517,1,0,0:0:0:0:
36,192,10583,1,0,0:0:0:0:
182,192,10650,1,0,0:0:0:0:
256,192,10716,1,0,0:0:0:0:
329,192,10783,1,0,0:0:0:0:
109,192,10849,1,0,0:0:0:0:
256,192,10916,1,0,0:0:0:0:
329,192,10982,1,0,0:0:0:0:
402,192,11049,1,0,0:0:0:0:
475,192,11115,128,0,11248:0:0:0:0:
329,192,11248,128,0,11381:0:0:0:0:
182,192,11381,128,0,11514:0:0:0:0:
36,192,11514,128,0,11648:0:0:0:0:
329,192,11648,1,0,0:0:0:55:crash.wav
475,192,11648,128,0,12712:0:0:0:55:kick.wav
109,192,12712,128,0,13776:0:0:0:0:
402,192,13776,128,0,14840:0:0:0:0:
256,192,14840,128,0,15373:0:0:0:40:bell.wav
109,192,15373,128,0,15905:0:0:0:40:bell.wav
329,192,15905,128,0,16969:0:0:0:40:bell.wav
36,192,16969,128,0,17501:0:0:0:40:bell.wav
256,192,17501,128,0,18033:0:0:0:40:bell.wav
475,192,18033,128,0,18565:0:0:0:40:bell.wav
182,192,18565,128,0,19098:0:0:0:40:bell.wav
402,192,19098,128,0,19630:0:0:0:40:bell.wav
256,192,19630,128,0,20162:0:0:0:40:bell.wav
36,192,20029,1,0,0:0:0:55:kick.wav
109,192,20095,1,0,0:0:0:55:kick.wav
475,192,20162,1,0,0:0:0:55:kick.wav
329,192,20162,128,0,21226:0:0:0:55:crash.wav
36,192,20162,1,0,0:0:0:55:clap.wav
109,192,21226,128,0,22291:0:0:0:55:clap.wav
256,192,22157,1,0,0:0:0:40:hihat.wav
402,192,22291,128,0,23355:0:0:0:55:clap.wav
36,192,22291,1,0,0:0:0:55:kick.wav
475,192,22291,1,0,0:0:0:55:crash.wav
182,192,22557,1,0,0:0:0:55:clap.wav
36,192,22823,1,0,0:0:0:55:clap.wav
182,192,23089,1,0,0:0:0:55:clap.wav
256,192,23355,128,0,23887:0:0:0:55:clap.wav
36,192,23355,1,0,0:0:0:55:kick.wav
402,192,23621,1,0,0:0:0:55:clap.wav
109,192,23887,128,0,24419:0:0:0:55:clap.wav
36,192,23887,1,0,0:0:0:55:kick.wav
402,192,24153,1,0,0:0:0:55:clap.wav
256,192,24286,1,0,0:0:0:40:hihat.wav
256,192,24353,1,0,0:0:0:55:kick.wav
329,192,24419,128,0,25483:0:0:0:55:clap.wav
36,192,24419,1,0,0:0:0:55:kick.wav
475,192,24419,1,0,0:0:0:55:crash.wav
36,192,25483,128,0,26016:0:0:0:55:clap.wav
256,192,25483,1,0,0:0:0:55:kick.wav
109,192,25483,1,0,0:0:0:55:crash.wav
256,192,26016,128,0,26548:0:0:0:55:clap.wav
475,192,26016,1,0,0:0:0:55:kick.wav
329,192,26016,1,0,0:0:0:55:crash.wav
475,192,26548,128,0,27080:0:0:0:55:clap.wav
36,192,26548,1,0,0:0:0:55:kick.wav
182,192,26548,1,0,0:0:0:55:crash.wav
182,192,27080,128,0,27612:0:0:0:55:clap.wav
36,192,27080,1,0,0:0:0:55:kick.wav
475,192,27346,1,0,0:0:0:55:clap.wav
402,192,27612,128,0,28144:0:0:0:55:clap.wav
36,192,27612,1,0,0:0:0:55:kick.wav
109,192,28144,128,0,28676:0:0:0:55:clap.wav
475,192,28676,128,0,29208:0:0:0:55:clap.wav
182,192,29208,128,0,29275:0:0:0:55:clap.wav
182,192,29342,1,0,0:0:0:55:kick.wav
402,192,29741,1,0,0:0:0:55:kick.wav
256,192,29741,1,0,0:0:0:55:crash.wav
36,192,29874,1,0,0:0:0:40:hihat.wav
109,192,29940,1,0,0:0:0:0:
182,192,30007,1,0,0:0:0:55:snare.wav
256,192,30073,1,0,0:0:0:0:
329,192,30140,1,0,0:0:0:40:hihat.wav
475,192,30140,1,0,0:0:0:0:
36,192,30273,1,0,0:0:0:55:kick.wav
109,192,30339,1,0,0:0:0:0:
182,192,30406,1,0,0:0:0:40:hihat.wav
256,192,30472,1,0,0:0:0:0:
329,192,30539,1,0,0:0:0:55:snare.wav
475,192,30539,1,0,0:0:0:0:
109,192,30672,1,0,0:0:0:40:hihat.wav
402,192,30805,1,0,0:0:0:55:kick.wav
36,192,30805,1,0,0:0:0:0:
329,192,31005,1,0,0:0:0:0:
182,192,31071,1,0,0:0:0:55:snare.wav
256,192,31271,1,0,0:0:0:0:
109,192,31337,1,0,0:0:0:55:kick.wav
182,192,31470,1,0,0:0:0:40:hihat.wav
109,192,31537,1,0,0:0:0:0:
36,192,31603,1,0,0:0:0:55:snare.wav
256,192,31736,1,0,0:0:0:40:hihat.wav
182,192,31803,1,0,0:0:0:0:
329,192,31869,1,0,0:0:0:55:kick.wav
109,192,31869,1,0,0:0:0:0:
36,192,32002,1,0,0:0:0:40:hihat.wav
182,192,32069,1,0,0:0:0:0:
329,192,32135,1,0,0:0:0:55:snare.wav
402,192,32202,1,0,0:0:0:0:
109,192,32268,1,0,0:0:0:40:hihat.wav
182,192,32335,1,0,0:0:0:0:
256,192,32401,1,0,0:0:0:55:kick.wav
475,192,32401,1,0,0:0:0:0:
329,192,32534,1,0,0:0:0:40:hihat.wav
109,192,32534,1,0,0:0:0:0:
182,192,32667,1,0,0:0:0:55:snare.wav
402,192,32667,1,0,0:0:0:0:
36,192,32801,1,0,0:0:0:40:hihat.wav
256,192,32801,1,0,0:0:0:0:
109,192,33000,1,0,0:0:0:0:
329,192,33067,1,0,0:0:0:40:hihat.wav
402,192,33133,1,0,0:0:0:0:
36,192,33200,1,0,0:0:0:55:snare.wav
182,192,33266,1,0,0:0:0:0:
402,192,33333,1,0,0:0:0:40:hihat.wav
109,192,33377,1,0,0:0:0:0:
256,192,33421,1,0,0:0:0:0:
475,192,33466,1,0,0:0:0:55:kick.wav
329,192,33643,1,0,0:0:0:0:
182,192,33820,1,0,0:0:0:0:
36,192,33998,1,0,0:0:0:55:kick.wav
256,192,33998,1,0,0:0:0:0:
109,192,34131,1,0,0:0:0:40:hihat.wav
182,192,34197,1,0,0:0:0:0:
256,192,34264,1,0,0:0:0:55:snare.wav
329,192,34330,1,0,0:0:0:0:
402,192,34397,1,0,0:0:0:40:hihat.wav
36,192,34530,1,0,0:0:0:55:kick.wav
182,192,34530,1,0,0:0:0:0:
109,192,34663,1,0,0:0:0:40:hihat.wav
256,192,34730,1,0,0:0:0:0:
475,192,34796,1,0,0:0:0:55:snare.wav
329,192,34796,1,0,0:0:0:0:
109,192,35062,1,0,0:0:0:55:kick.wav
329,192,35062,1,0,0:0:0:0:
109,192,35195,1,0,0:0:0:40:hihat.wav
329,192,35195,1,0,0:0:0:0:
36,192,35328,1,0,0:0:0:55:snare.wav
182,192,35395,1,0,0:0:0:0:
256,192,35461,1,0,0:0:0:40:hihat.wav
329,192,35528,1,0,0:0:0:0:
475,192,35594,1,0,0:0:0:55:kick.wav
402,192,35727,1,0,0:0:0:40:hihat.wav
329,192,35860,1,0,0:0:0:55:snare.wav
256,192,35993,1,0,0:0:0:40:hihat.wav
182,192,36126,1,0,0:0:0:55:kick.wav
256,192,36193,1,0,0:0:0:0:
329,192,36259,1,0,0:0:0:40:hihat.wav
182,192,36393,1,0,0:0:0:55:snare.wav
36,192,36393,1,0,0:0:0:0:
329,192,36526,1,0,0:0:0:40:hihat.wav
256,192,36592,1,0,0:0:0:0:
182,192,36659,1,0,0:0:0:55:kick.wav
329,192,36792,1,0,0:0:0:40:hihat.wav
475,192,36792,1,0,0:0:0:0:
109,192,36925,1,0,0:0:0:55:snare.wav
182,192,36991,1,0,0:0:0:0:
329,192,37058,1,0,0:0:0:40:hihat.wav
402,192,37124,1,0,0:0:0:0:
36,192,37191,1,0,0:0:0:55:kick.wav
182,192,37257,1,0,0:0:0:0:
402,192,37324,1,0,0:0:0:40:hihat.wav
256,192,37390,1,0,0:0:0:0:
36,192,37457,1,0,0:0:0:55:snare.wav
475,192,37523,1,0,0:0:0:0:
329,192,37590,1,0,0:0:0:40:hihat.wav
109,192,37656,1,0,0:0:0:0:
256,192,37723,1,0,0:0:0:55:kick.wav
402,192,37723,1,0,0:0:0:0:
36,192,37856,1,0,0:0:0:40:hihat.wav
182,192,37900,1,0,0:0:0:0:
329,192,37945,1,0,0:0:0:0:
475,192,37989,1,0,0:0:0:55:snare.wav
475,192,38255,1,0,0:0:0:55:crash.wav
256,192,38255,1,0,0:0:0:55:kick.wav
329,192,38388,1,0,0:0:0:40:hihat.wav
256,192,38455,1,0,0:0:0:0:
402,192,38521,1,0,0:0:0:55:snare.wav
182,192,38521,1,0,0:0:0:0:
256,192,38654,1,0,0:0:0:40:hihat.wav
182,192,38721,1,0,0:0:0:0:
329,192,38787,1,0,0:0:0:55:kick.wav
109,192,38787,1,0,0:0:0:0:
182,192,38920,1,0,0:0:0:40:hihat.wav
109,192,38987,1,0,0:0:0:0:
36,192,39053,1,0,0:0:0:55:snare.wav
256,192,39053,1,0,0:0:0:0:
182,192,39186,1,0,0:0:0:40:hihat.wav
256,192,39253,1,0,0:0:0:0:
329,192,39319,1,0,0:0:0:55:kick.wav
109,192,39319,1,0,0:0:0:0:
256,192,39452,1,0,0:0:0:40:hihat.wav
329,192,39519,1,0,0:0:0:0:
402,192,39585,1,0,0:0:0:55:snare.wav
182,192,39585,1,0,0:0:0:0:
329,192,39718,1,0,0:0:0:40:hihat.wav
402,192,39785,1,0,0:0:0:0:
475,192,39852,1,0,0:0:0:55:kick.wav
256,192,39852,1,0,0:0:0:0:
36,192,39985,1,0,0:0:0:40:hihat.wav
109,192,40051,1,0,0:0:0:0:
182,192,40118,1,0,0:0:0:55:snare.wav
402,192,40118,1,0,0:0:0:0:
329,192,40251,1,0,0:0:0:40:hihat.wav
402,192,40317,1,0,0:0:0:0:
475,192,40384,1,0,0:0:0:55:kick.wav
256,192,40384,1,0,0:0:0:0:
109,192,40517,1,0,0:0:0:40:hihat.wav
182,192,40583,1,0,0:0:0:0:
36,192,40650,1,0,0:0:0:55:snare.wav
329,192,40650,1,0,0:0:0:0:
182,192,40716,1,0,0:0:0:0:
256,192,40783,1,0,0:0:0:40:hihat.wav
329,192,40849,1,0,0:0:0:0:
475,192,40916,1,0,0:0:0:55:kick.wav
109,192,40982,1,0,0:0:0:0:
256,192,41049,1,0,0:0:0:40:hihat.wav
329,192,41115,1,0,0:0:0:0:
402,192,41182,1,0,0:0:0:55:snare.wav
182,192,41248,1,0,0:0:0:0:
256,192,41315,1,0,0:0:0:40:hihat.wav
329,192,41381,1,0,0:0:0:0:
36,192,41448,1,0,0:0:0:55:kick.wav
256,192,41448,1,0,0:0:0:0:
475,192,41581,1,0,0:0:0:40:hihat.wav
402,192,41648,1,0,0:0:0:0:
329,192,41714,1,0,0:0:0:55:snare.wav
256,192,41781,1,0,0:0:0:0:
182,192,41847,1,0,0:0:0:40:hihat.wav
256,192,41914,1,0,0:0:0:0:
329,192,41980,1,0,0:0:0:55:kick.wav
109,192,41980,1,0,0:0:0:0:
256,192,42113,1,0,0:0:0:40:hihat.wav
182,192,42180,1,0,0:0:0:0:
109,192,42246,1,0,0:0:0:55:snare.wav
256,192,42313,1,0,0:0:0:0:
182,192,42379,1,0,0:0:0:55:kick.wav
109,192,42446,1,0,0:0:0:0:
36,192,42512,1,0,0:0:0:55:kick.wav
329,192,42512,1,0,0:0:0:0:
182,192,42645,1,0,0:0:0:40:hihat.wav
329,192,42712,1,0,0:0:0:0:
402,192,42778,1,0,0:0:0:55:snare.wav
182,192,42845,1,0,0:0:0:0:
256,192,42911,1,0,0:0:0:40:hihat.wav
329,192,42978,1,0,0:0:0:0:
475,192,43044,1,0,0:0:0:55:kick.wav
329,192,43111,1,0,0:0:0:0:
256,192,43177,1,0,0:0:0:40:hihat.wav
182,192,43244,1,0,0:0:0:0:
402,192,43310,1,0,0:0:0:55:snare.wav
256,192,43377,1,0,0:0:0:0:
182,192,43444,1,0,0:0:0:40:hihat.wav
109,192,43510,1,0,0:0:0:0:
36,192,43577,1,0,0:0:0:55:kick.wav
329,192,43577,1,0,0:0:0:0:
109,192,43710,1,0,0:0:0:40:hihat.wav
402,192,43776,1,0,0:0:0:0:
475,192,43843,1,0,0:0:0:55:snare.wav
256,192,43843,1,0,0:0:0:55:kick.wav
182,192,43976,1,0,0:0:0:55:kick.wav
329,192,44042,1,0,0:0:0:0:
475,192,44109,1,0,0:0:0:55:kick.wav
256,192,44175,1,0,0:0:0:0:
109,192,44242,1,0,0:0:0:55:kick.wav
329,192,44308,1,0,0:0:0:55:kick.wav
256,192,44441,1,0,0:0:0:55:kick.wav
109,192,44508,1,0,0:0:0:55:kick.wav
182,192,44574,1,0,0:0:0:0:
36,192,44641,1,0,0:0:0:55:crash.wav
329,192,44641,1,0,0:0:0:40:bell.wav
182,192,44774,1,0,0:0:0:55:kick.wav
256,192,44840,1,0,0:0:0:0:
329,192,44907,1,0,0:0:0:55:kick.wav
109,192,44973,1,0,0:0:0:0:
256,192,45040,1,0,0:0:0:55:kick.wav
402,192,45106,1,0,0:0:0:0:
182,192,45173,1,0,0:0:0:55:kick.wav
36,192,45173,1,0,0:0:0:55:crash.wav
475,192,45306,1,0,0:0:0:55:kick.wav
256,192,45373,1,0,0:0:0:55:kick.wav
402,192,45439,1,0,0:0:0:55:kick.wav
256,192,45506,1,0,0:0:0:55:kick.wav
182,192,45572,1,0,0:0:0:55:kick.wav
109,192,45639,1,0,0:0:0:55:kick.wav
36,192,45705,1,0,0:0:0:55:kick.wav
256,192,45705,1,0,0:0:0:55:crash.wav
329,192,45772,1,0,0:0:0:55:kick.wav
475,192,45772,1,0,0:0:0:0:
329,192,45905,1,0,0:0:0:55:kick.wav
475,192,45905,1,0,0:0:0:55:crash.wav
256,192,45971,1,0,0:0:0:55:kick.wav
109,192,45971,1,0,0:0:0:0:
475,192,46104,1,0,0:0:0:55:kick.wav
329,192,46104,1,0,0:0:0:55:crash.wav
256,192,46171,1,0,0:0:0:55:kick.wav
109,192,46171,1,0,0:0:0:0:
329,192,46304,1,0,0:0:0:55:kick.wav
475,192,46304,1,0,0:0:0:0:
256,192,46370,1,0,0:0:0:55:kick.wav
109,192,46370,1,0,0:0:0:0:
182,192,46503,1,0,0:0:0:55:clap.wav
36,192,46503,1,0,0:0:0:55:snare.wav
256,192,46769,128,0,47435:0:0:0:55:crash.wav
109,192,46769,1,0,0:0:0:55:boom.wav
402,192,46769,1,0,0:0:0:40:bell.wav
475,192,47036,1,0,0:0:0:55:snare.wav
36,192,47036,1,0,0:0:0:0:
402,192,47302,1,0,0:0:0:55:kick.wav
109,192,47435,128,0,47568:0:0:0:40:hihat.wav
256,192,47568,128,0,47701:0:0:0:55:snare.wav
475,192,47568,1,0,0:0:0:0:
36,192,47568,1,0,0:0:0:0:
402,192,47701,128,0,47834:0:0:0:40:hihat.wav
182,192,47834,128,0,48100:0:0:0:55:kick.wav
109,192,47834,1,0,0:0:0:0:
36,192,48100,128,0,48366:0:0:0:55:snare.wav
329,192,48100,1,0,0:0:0:0:
475,192,48100,1,0,0:0:0:0:
475,192,48366,128,0,48632:0:0:0:55:kick.wav
256,192,48366,1,0,0:0:0:0:
329,192,48632,128,0,48898:0:0:0:55:snare.wav
182,192,48632,1,0,0:0:0:0:
36,192,48632,1,0,0:0:0:0:
182,192,48898,128,0,49430:0:0:0:55:kick.wav
36,192,48898,1,0,0:0:0:0:
329,192,49164,1,0,0:0:0:55:snare.wav
475,192,49164,1,0,0:0:0:0:
256,192,49430,1,0,0:0:0:55:kick.wav
182,192,49563,128,0,49696:0:0:0:40:hihat.wav
329,192,49696,128,0,49829:0:0:0:55:snare.wav
402,192,49696,1,0,0:0:0:0:
109,192,49696,1,0,0:0:0:0:
475,192,49829,128,0,49962:0:0:0:40:hihat.wav
36,192,49962,128,0,50228:0:0:0:55:kick.wav
256,192,49962,1,0,0:0:0:0:
329,192,50228,128,0,50495:0:0:0:55:snare.wav
182,192,50228,1,0,0:0:0:0:
475,192,50228,1,0,0:0:0:0:
109,192,50495,128,0,50761:0:0:0:55:kick.wav
256,192,50495,1,0,0:0:0:0:
475,192,50628,1,0,0:0:0:55:kick.wav
402,192,50761,128,0,51027:0:0:0:55:snare.wav
36,192,50761,1,0,0:0:0:55:kick.wav
329,192,50761,1,0,0:0:0:0:
182,192,50894,1,0,0:0:0:55:kick.wav
256,192,51027,128,0,51293:0:0:0:55:crash.wav
36,192,51027,1,0,0:0:0:55:kick.wav
475,192,51027,1,0,0:0:0:0:
36,192,51293,128,0,51559:0:0:0:55:snare.wav
329,192,51293,1,0,0:0:0:0:
475,192,51293,1,0,0:0:0:0:
256,192,51559,128,0,51825:0:0:0:55:kick.wav
402,192,51559,1,0,0:0:0:0:
475,192,51825,128,0,52091:0:0:0:55:snare.wav
182,192,51825,1,0,0:0:0:0:
36,192,51825,1,0,0:0:0:0:
109,192,52091,128,0,52623:0:0:0:55:kick.wav
256,192,52091,1,0,0:0:0:0:
329,192,52357,1,0,0:0:0:55:snare.wav
475,192,52357,1,0,0:0:0:0:
329,192,52623,128,0,53155:0:0:0:55:kick.wav
36,192,52623,1,0,0:0:0:0:
182,192,52889,1,0,0:0:0:55:snare.wav
475,192,52889,1,0,0:0:0:55:kick.wav
109,192,53022,1,0,0:0:0:55:kick.wav
475,192,53155,128,0,53421:0:0:0:55:crash.wav
36,192,53155,1,0,0:0:0:55:kick.wav
256,192,53155,1,0,0:0:0:0:
329,192,53421,128,0,53687:0:0:0:55:kick.wav
182,192,53421,1,0,0:0:0:55:snare.wav
109,192,53554,1,0,0:0:0:55:kick.wav
182,192,53687,128,0,53954:0:0:0:55:kick.wav
36,192,53687,1,0,0:0:0:55:crash.wav
475,192,53687,1,0,0:0:0:0:
36,192,53954,128,0,54220:0:0:0:55:kick.wav
402,192,53954,1,0,0:0:0:55:snare.wav
329,192,54087,1,0,0:0:0:55:kick.wav
402,192,54220,128,0,54752:0:0:0:55:crash.wav
256,192,54220,1,0,0:0:0:55:kick.wav
475,192,54220,1,0,0:0:0:0:
36,192,54486,1,0,0:0:0:55:snare.wav
256,192,54486,1,0,0:0:0:55:kick.wav
182,192,54752,128,0,55151:0:0:0:55:kick.wav
256,192,54752,1,0,0:0:0:55:crash.wav
475,192,54752,1,0,0:0:0:0:
256,192,55284,128,0,55949:0:0:0:55:crash.wav
36,192,55284,1,0,0:0:0:55:boom.wav
475,192,55284,1,0,0:0:0:40:bell.wav
109,192,55550,1,0,0:0:0:55:snare.wav
402,192,55550,1,0,0:0:0:0:
329,192,55816,1,0,0:0:0:55:kick.wav
109,192,55949,128,0,56082:0:0:0:40:hihat.wav
256,192,56082,128,0,56215:0:0:0:55:snare.wav
36,192,56082,1,0,0:0:0:0:
475,192,56082,1,0,0:0:0:0:
402,192,56215,128,0,56348:0:0:0:40:hihat.wav
182,192,56348,128,0,56614:0:0:0:55:kick.wav
109,192,56348,1,0,0:0:0:0:
36,192,56614,128,0,56880:0:0:0:55:snare.wav
329,192,56614,1,0,0:0:0:0:
475,192,56614,1,0,0:0:0:0:
475,192,56880,128,0,57146:0:0:0:55:kick.wav
256,192,56880,1,0,0:0:0:0:
329,192,57146,128,0,57412:0:0:0:55:snare.wav
182,192,57146,1,0,0:0:0:0:
36,192,57146,1,0,0:0:0:0:
182,192,57412,128,0,57945:0:0:0:55:kick.wav
475,192,57412,1,0,0:0:0:0:
475,192,57679,1,0,0:0:0:55:snare.wav
36,192,57679,1,0,0:0:0:0:
329,192,57945,1,0,0:0:0:55:kick.wav
182,192,58078,128,0,58211:0:0:0:40:hihat.wav
329,192,58211,128,0,58344:0:0:0:55:snare.wav
402,192,58211,1,0,0:0:0:0:
109,192,58211,1,0,0:0:0:0:
475,192,58344,128,0,58477:0:0:0:40:hihat.wav
36,192,58477,128,0,58743:0:0:0:55:kick.wav
256,192,58477,1,0,0:0:0:0:
329,192,58743,128,0,59009:0:0:0:55:snare.wav
182,192,58743,1,0,0:0:0:0:
475,192,58743,1,0,0:0:0:0:
109,192,59009,128,0,59275:0:0:0:55:kick.wav
256,192,59009,1,0,0:0:0:0:
402,192,59275,128,0,59541:0:0:0:55:snare.wav
329,192,59275,1,0,0:0:0:55:kick.wav
36,192,59275,1,0,0:0:0:0:
182,192,59408,1,0,0:0:0:55:kick.wav
256,192,59541,128,0,59807:0:0:0:55:crash.wav
36,192,59541,1,0,0:0:0:55:kick.wav
475,192,59541,1,0,0:0:0:0:
36,192,59807,128,0,60073:0:0:0:55:snare.wav
475,192,59807,1,0,0:0:0:0:
329,192,59807,1,0,0:0:0:0:
256,192,60073,128,0,60339:0:0:0:55:kick.wav
402,192,60073,1,0,0:0:0:0:
475,192,60339,128,0,60605:0:0:0:55:snare.wav
182,192,60339,1,0,0:0:0:55:kick.wav
36,192,60339,1,0,0:0:0:0:
256,192,60472,1,0,0:0:0:55:kick.wav
109,192,60605,128,0,61138:0:0:0:55:crash.wav
329,192,60605,1,0,0:0:0:55:kick.wav
36,192,60605,1,0,0:0:0:0:
329,192,60871,1,0,0:0:0:55:kick.wav
475,192,60871,1,0,0:0:0:55:snare.wav
256,192,61005,1,0,0:0:0:55:kick.wav
329,192,61138,128,0,61670:0:0:0:55:kick.wav
182,192,61138,1,0,0:0:0:55:crash.wav
36,192,61138,1,0,0:0:0:0:
402,192,61404,1,0,0:0:0:55:kick.wav
256,192,61537,1,0,0:0:0:55:kick.wav
475,192,61670,128,0,61936:0:0:0:55:crash.wav
182,192,61670,1,0,0:0:0:55:kick.wav
36,192,61670,1,0,0:0:0:0:
109,192,61803,1,0,0:0:0:55:kick.wav
329,192,61936,128,0,62202:0:0:0:55:snare.wav
256,192,61936,1,0,0:0:0:55:kick.wav
109,192,62069,1,0,0:0:0:55:kick.wav
182,192,62202,128,0,62468:0:0:0:55:kick.wav
475,192,62202,1,0,0:0:0:55:crash.wav
329,192,62335,1,0,0:0:0:55:kick.wav
36,192,62468,128,0,62734:0:0:0:55:snare.wav
475,192,62468,1,0,0:0:0:55:kick.wav
402,192,62601,1,0,0:0:0:55:kick.wav
329,192,62667,1,0,0:0:0:55:kick.wav
475,192,62734,128,0,63266:0:0:0:55:kick.wav
256,192,62734,1,0,0:0:0:55:crash.wav
109,192,62734,1,0,0:0:0:40:bell.wav
182,192,62867,1,0,0:0:0:55:kick.wav
36,192,63000,1,0,0:0:0:55:kick.wav
329,192,63000,1,0,0:0:0:55:snare.wav
256,192,63133,1,0,0:0:0:55:kick.wav
182,192,63200,1,0,0:0:0:55:kick.wav
36,192,63266,128,0,63798:0:0:0:55:kick.wav
109,192,63266,1,0,0:0:0:55:crash.wav
256,192,63399,1,0,0:0:0:55:kick.wav
329,192,63532,1,0,0:0:0:55:kick.wav
475,192,63532,1,0,0:0:0:55:snare.wav
256,192,63665,1,0,0:0:0:55:kick.wav
329,192,63732,1,0,0:0:0:55:kick.wav
402,192,63798,1,0,0:0:0:55:crash.wav
475,192,63798,128,0,64330:0:0:0:55:kick.wav
182,192,63798,1,0,0:0:0:40:bell.wav
402,192,63998,1,0,0:0:0:55:kick.wav
182,192,63998,1,0,0:0:0:0:
402,192,64197,1,0,0:0:0:55:kick.wav
182,192,64197,1,0,0:0:0:0:
36,192,64330,128,0,64863:0:0:0:55:kick.wav
109,192,64330,1,0,0:0:0:40:bell.wav
329,192,64330,1,0,0:0:0:55:crash.wav
109,192,64530,1,0,0:0:0:0:
329,192,64530,1,0,0:0:0:55:kick.wav
109,192,64730,1,0,0:0:0:0:
329,192,64730,1,0,0:0:0:55:kick.wav
256,192,64863,1,0,0:0:0:55:crash.wav
475,192,64863,1,0,0:0:0:55:kick.wav
256,192,66725,1,0,0:0:0:55:kick.wav
256,192,66903,1,0,0:0:0:55:kick.wav
36,192,66991,1,0,0:0:0:55:kick.wav
475,192,66991,1,0,0:0:0:55:crash.wav
256,192,68765,1,0,0:0:0:55:crash.wav
256,192,69031,1,0,0:0:0:55:kick.wav
36,192,69120,1,0,0:0:0:55:kick.wav
475,192,69120,1,0,0:0:0:55:crash.wav
109,192,69386,1,0,0:0:0:55:snare.wav
402,192,69386,1,0,0:0:0:0:
256,192,69563,1,0,0:0:0:55:kick.wav
256,192,69829,1,0,0:0:0:55:kick.wav
109,192,69918,1,0,0:0:0:55:snare.wav
402,192,69918,1,0,0:0:0:0:
256,192,70095,1,0,0:0:0:55:kick.wav
256,192,70361,1,0,0:0:0:55:kick.wav
182,192,70450,1,0,0:0:0:55:snare.wav
329,192,70450,1,0,0:0:0:0:
256,192,70628,1,0,0:0:0:55:kick.wav
256,192,70894,1,0,0:0:0:55:kick.wav
182,192,70982,1,0,0:0:0:55:snare.wav
329,192,70982,1,0,0:0:0:40:bell.wav
256,192,71248,1,0,0:0:0:55:kick.wav
36,192,71514,1,0,0:0:0:55:snare.wav
475,192,71514,1,0,0:0:0:0:
256,192,71692,1,0,0:0:0:55:kick.wav
256,192,71958,1,0,0:0:0:55:kick.wav
36,192,72047,1,0,0:0:0:55:snare.wav
475,192,72047,1,0,0:0:0:0:
256,192,72224,1,0,0:0:0:55:kick.wav
256,192,72313,128,0,72490:0:0:0:55:kick.wav
329,192,72579,128,0,72756:0:0:0:55:snare.wav
402,192,72845,128,0,73022:0:0:0:55:kick.wav
475,192,73111,128,0,73288:0:0:0:55:snare.wav
256,192,73377,1,0,0:0:0:55:kick.wav
36,192,73377,1,0,0:0:0:55:crash.wav
256,192,73643,1,0,0:0:0:55:kick.wav
475,192,73643,1,0,0:0:0:0:
256,192,73909,1,0,0:0:0:55:kick.wav
36,192,73909,1,0,0:0:0:0:
256,192,74175,1,0,0:0:0:55:kick.wav
475,192,74175,1,0,0:0:0:0:
256,192,74441,1,0,0:0:0:55:kick.wav
36,192,74441,1,0,0:0:0:0:
256,192,74707,1,0,0:0:0:55:kick.wav
475,192,74707,1,0,0:0:0:0:
256,192,74973,1,0,0:0:0:55:kick.wav
36,192,74973,1,0,0:0:0:0:
256,192,75240,1,0,0:0:0:55:kick.wav
475,192,75240,1,0,0:0:0:0:
109,192,75506,1,0,0:0:0:55:kick.wav
329,192,75506,1,0,0:0:0:55:crash.wav
182,192,75772,1,0,0:0:0:55:kick.wav
402,192,75772,1,0,0:0:0:0:
109,192,76038,1,0,0:0:0:55:kick.wav
329,192,76038,1,0,0:0:0:0:
182,192,76304,1,0,0:0:0:55:kick.wav
402,192,76304,1,0,0:0:0:0:
329,192,76570,1,0,0:0:0:55:kick.wav
109,192,76570,1,0,0:0:0:0:
182,192,76836,1,0,0:0:0:55:kick.wav
402,192,76836,1,0,0:0:0:40:bell.wav
329,192,77102,1,0,0:0:0:55:kick.wav
109,192,77102,1,0,0:0:0:40:bell.wav
182,192,77368,1,0,0:0:0:55:kick.wav
402,192,77368,1,0,0:0:0:40:bell.wav
36,192,77634,1,0,0:0:0:55:kick.wav
256,192,77723,1,0,0:0:0:55:kick.wav
109,192,77812,1,0,0:0:0:55:kick.wav
329,192,77900,1,0,0:0:0:55:kick.wav
182,192,77989,1,0,0:0:0:55:kick.wav
402,192,78078,1,0,0:0:0:55:kick.wav
256,192,78166,1,0,0:0:0:55:kick.wav
475,192,78255,1,0,0:0:0:55:kick.wav
329,192,78344,1,0,0:0:0:55:kick.wav
475,192,78432,1,0,0:0:0:55:kick.wav
182,192,78610,1,0,0:0:0:55:kick.wav
475,192,78699,1,0,0:0:0:55:kick.wav
256,192,78787,1,0,0:0:0:55:kick.wav
402,192,78876,1,0,0:0:0:55:kick.wav
182,192,78965,1,0,0:0:0:55:kick.wav
329,192,79053,1,0,0:0:0:55:kick.wav
109,192,79142,1,0,0:0:0:55:kick.wav
256,192,79231,1,0,0:0:0:55:kick.wav
36,192,79319,1,0,0:0:0:55:kick.wav
182,192,79408,1,0,0:0:0:55:kick.wav
36,192,79497,1,0,0:0:0:55:kick.wav
36,192,79763,1,0,0:0:0:55:kick.wav
109,192,79829,1,0,0:0:0:0:
182,192,79896,1,0,0:0:0:55:kick.wav
256,192,79962,1,0,0:0:0:0:
109,192,80029,1,0,0:0:0:55:kick.wav
182,192,80095,1,0,0:0:0:0:
256,192,80162,1,0,0:0:0:55:kick.wav
329,192,80228,1,0,0:0:0:55:kick.wav
182,192,80295,1,0,0:0:0:55:kick.wav
256,192,80361,1,0,0:0:0:0:
329,192,80428,1,0,0:0:0:55:kick.wav
402,192,80495,1,0,0:0:0:0:
256,192,80561,1,0,0:0:0:55:kick.wav
329,192,80628,1,0,0:0:0:55:kick.wav
402,192,80694,1,0,0:0:0:55:kick.wav
475,192,80761,1,0,0:0:0:55:kick.wav
36,192,80827,1,0,0:0:0:55:kick.wav
182,192,80894,1,0,0:0:0:55:kick.wav
329,192,80960,1,0,0:0:0:55:kick.wav
475,192,81027,1,0,0:0:0:55:kick.wav
109,192,81093,1,0,0:0:0:55:kick.wav
256,192,81160,1,0,0:0:0:55:kick.wav
402,192,81226,1,0,0:0:0:55:kick.wav
36,192,81293,1,0,0:0:0:55:kick.wav
182,192,81359,1,0,0:0:0:55:kick.wav
329,192,81426,1,0,0:0:0:55:kick.wav
475,192,81492,1,0,0:0:0:55:kick.wav
109,192,81559,1,0,0:0:0:55:kick.wav
256,192,81625,1,0,0:0:0:55:kick.wav
402,192,81692,1,0,0:0:0:55:kick.wav
182,192,81758,1,0,0:0:0:55:kick.wav
329,192,81825,1,0,0:0:0:55:kick.wav
256,192,81891,128,0,85084:0:0:0:55:kick.wav
329,192,86282,1,0,0:0:0:0:
182,192,86415,1,0,0:0:0:0:
109,192,86548,1,0,0:0:0:0:
329,192,86681,1,0,0:0:0:40:bell.wav
36,192,86814,1,0,0:0:0:0:
329,192,86947,1,0,0:0:0:0:
402,192,87080,1,0,0:0:0:0:
329,192,87346,1,0,0:0:0:0:
182,192,87479,1,0,0:0:0:0:
329,192,87612,1,0,0:0:0:0:
475,192,87745,1,0,0:0:0:40:bell.wav
402,192,87945,1,0,0:0:0:0:
109,192,88144,1,0,0:0:0:0:
109,192,88410,1,0,0:0:0:0:
36,192,88543,1,0,0:0:0:0:
109,192,88676,1,0,0:0:0:0:
329,192,88809,1,0,0:0:0:40:bell.wav
256,192,88942,1,0,0:0:0:0:
182,192,89075,1,0,0:0:0:0:
402,192,89208,1,0,0:0:0:0:
475,192,89342,1,0,0:0:0:40:bell.wav
475,192,89541,1,0,0:0:0:0:
475,192,89741,1,0,0:0:0:0:
182,192,89874,1,0,0:0:0:40:bell.wav
182,192,90073,1,0,0:0:0:0:
182,192,90273,1,0,0:0:0:0:
329,192,90406,128,0,90672:0:0:0:40:bell.wav
475,192,90938,128,0,91204:0:0:0:0:
475,192,91470,128,0,92002:0:0:0:0:
329,192,92002,1,0,0:0:0:0:
256,192,92135,1,0,0:0:0:0:
182,192,92268,1,0,0:0:0:55:boom.wav
109,192,92401,1,0,0:0:0:0:
36,192,92534,128,0,93333:0:0:0:55:crash.wav
109,192,93333,1,0,0:0:0:30:drum.wav
475,192,93466,1,0,0:0:0:30:drum.wav
402,192,93599,128,0,93865:0:0:0:30:drum.wav
329,192,93865,128,0,94131:0:0:0:30:drum.wav
109,192,94131,128,0,94397:0:0:0:30:drum.wav
36,192,94397,128,0,94663:0:0:0:30:drum.wav
329,192,94663,128,0,95195:0:0:0:30:drum.wav
329,192,95328,1,0,0:0:0:30:drum.wav
402,192,95461,1,0,0:0:0:30:drum.wav
475,192,95594,1,0,0:0:0:30:drum.wav
36,192,95727,128,0,95993:0:0:0:30:drum.wav
182,192,95993,128,0,96259:0:0:0:0:
329,192,96259,128,0,96326:0:0:0:55:kick.wav
329,192,96393,1,0,0:0:0:40:drum.wav
36,192,96792,1,0,0:0:0:55:kick.wav
329,192,96792,1,0,0:0:0:55:boom.wav
109,192,97058,1,0,0:0:0:55:snare.wav
256,192,97058,1,0,0:0:0:0:
475,192,97058,1,0,0:0:0:0:
329,192,97324,1,0,0:0:0:55:kick.wav
182,192,97590,1,0,0:0:0:55:snare.wav
475,192,97590,1,0,0:0:0:0:
36,192,97590,1,0,0:0:0:0:
329,192,97856,1,0,0:0:0:55:kick.wav
402,192,98122,1,0,0:0:0:55:snare.wav
109,192,98122,1,0,0:0:0:0:
256,192,98122,1,0,0:0:0:0:
182,192,98388,1,0,0:0:0:55:kick.wav
329,192,98654,1,0,0:0:0:55:snare.wav
36,192,98654,1,0,0:0:0:55:kick.wav
475,192,98654,1,0,0:0:0:0:
182,192,98787,1,0,0:0:0:55:kick.wav
329,192,98920,1,0,0:0:0:55:crash.wav
36,192,98920,1,0,0:0:0:55:kick.wav
475,192,98920,1,0,0:0:0:0:
182,192,99186,1,0,0:0:0:55:kick.wav
329,192,99319,1,0,0:0:0:55:kick.wav
182,192,99452,1,0,0:0:0:55:kick.wav
475,192,99452,1,0,0:0:0:55:crash.wav
36,192,99452,1,0,0:0:0:0:
256,192,99718,128,0,99985:0:0:0:55:kick.wav
36,192,99985,1,0,0:0:0:55:crash.wav
475,192,99985,1,0,0:0:0:55:kick.wav
329,192,99985,1,0,0:0:0:0:
256,192,100251,1,0,0:0:0:55:snare.wav
36,192,100517,1,0,0:0:0:55:kick.wav
475,192,100517,1,0,0:0:0:55:crash.wav
182,192,100517,1,0,0:0:0:0:
36,192,101049,1,0,0:0:0:55:crash.wav
475,192,101049,1,0,0:0:0:55:boom.wav
182,192,101115,1,0,0:0:0:0:
256,192,101182,1,0,0:0:0:40:hihat.wav
402,192,101248,1,0,0:0:0:0:
109,192,101315,1,0,0:0:0:55:snare.wav
329,192,101381,1,0,0:0:0:0:
402,192,101448,1,0,0:0:0:40:hihat.wav
475,192,101514,1,0,0:0:0:0:
256,192,101581,1,0,0:0:0:55:kick.wav
36,192,101648,1,0,0:0:0:0:
329,192,101714,1,0,0:0:0:40:hihat.wav
109,192,101781,1,0,0:0:0:0:
402,192,101847,1,0,0:0:0:55:snare.wav
256,192,101914,1,0,0:0:0:0:
329,192,101980,1,0,0:0:0:40:hihat.wav
109,192,102047,1,0,0:0:0:0:
402,192,102113,1,0,0:0:0:55:kick.wav
256,192,102180,1,0,0:0:0:0:
182,192,102246,1,0,0:0:0:40:hihat.wav
109,192,102313,1,0,0:0:0:0:
475,192,102379,1,0,0:0:0:55:snare.wav
402,192,102446,1,0,0:0:0:0:
329,192,102512,1,0,0:0:0:40:hihat.wav
182,192,102579,1,0,0:0:0:0:
402,192,102645,1,0,0:0:0:55:kick.wav
109,192,102712,1,0,0:0:0:0:
256,192,102778,1,0,0:0:0:40:hihat.wav
182,192,102845,1,0,0:0:0:0:
36,192,102911,1,0,0:0:0:55:snare.wav
256,192,102978,1,0,0:0:0:0:
109,192,103044,1,0,0:0:0:40:hihat.wav
329,192,103111,1,0,0:0:0:0:
475,192,103177,1,0,0:0:0:55:kick.wav
182,192,103244,1,0,0:0:0:0:
402,192,103310,1,0,0:0:0:40:hihat.wav
36,192,103377,1,0,0:0:0:0:
109,192,103444,1,0,0:0:0:55:snare.wav
256,192,103510,1,0,0:0:0:0:
329,192,103577,1,0,0:0:0:40:hihat.wav
182,192,103643,1,0,0:0:0:0:
402,192,103710,1,0,0:0:0:55:kick.wav
256,192,103776,1,0,0:0:0:0:
109,192,103843,1,0,0:0:0:40:hihat.wav
36,192,103909,1,0,0:0:0:0:
182,192,103976,1,0,0:0:0:55:snare.wav
329,192,104042,1,0,0:0:0:0:
402,192,104109,1,0,0:0:0:40:hihat.wav
475,192,104175,1,0,0:0:0:0:
256,192,104242,1,0,0:0:0:55:kick.wav
182,192,104308,1,0,0:0:0:0:
36,192,104375,1,0,0:0:0:40:hihat.wav
256,192,104441,1,0,0:0:0:0:
402,192,104508,1,0,0:0:0:55:snare.wav
329,192,104574,1,0,0:0:0:0:
256,192,104641,1,0,0:0:0:40:hihat.wav
182,192,104707,1,0,0:0:0:0:
329,192,104774,1,0,0:0:0:55:kick.wav
109,192,104840,1,0,0:0:0:0:
475,192,104907,1,0,0:0:0:40:hihat.wav
256,192,104973,1,0,0:0:0:0:
182,192,105040,1,0,0:0:0:55:kick.wav
36,192,105106,1,0,0:0:0:0:
402,192,105173,1,0,0:0:0:55:kick.wav
256,192,105240,1,0,0:0:0:0:
109,192,105306,1,0,0:0:0:55:crash.wav
475,192,105306,1,0,0:0:0:40:bell.wav
329,192,105373,1,0,0:0:0:0:
182,192,105439,1,0,0:0:0:40:hihat.wav
36,192,105506,1,0,0:0:0:0:
256,192,105572,1,0,0:0:0:55:snare.wav
109,192,105639,1,0,0:0:0:0:
329,192,105705,1,0,0:0:0:40:hihat.wav
402,192,105772,1,0,0:0:0:0:
182,192,105838,1,0,0:0:0:55:kick.wav
256,192,105905,1,0,0:0:0:0:
329,192,105971,1,0,0:0:0:40:hihat.wav
402,192,106038,1,0,0:0:0:0:
475,192,106104,1,0,0:0:0:55:snare.wav
329,192,106171,1,0,0:0:0:0:
182,192,106237,1,0,0:0:0:55:kick.wav
109,192,106304,1,0,0:0:0:0:
36,192,106370,1,0,0:0:0:55:crash.wav
329,192,106370,1,0,0:0:0:40:bell.wav
182,192,106437,1,0,0:0:0:0:
402,192,106503,1,0,0:0:0:40:hihat.wav
256,192,106570,1,0,0:0:0:0:
36,192,106636,1,0,0:0:0:55:kick.wav
182,192,106703,1,0,0:0:0:0:
109,192,106769,1,0,0:0:0:55:kick.wav
256,192,106836,1,0,0:0:0:0:
475,192,106903,1,0,0:0:0:55:kick.wav
329,192,106903,1,0,0:0:0:55:crash.wav
182,192,106969,1,0,0:0:0:0:
109,192,107036,1,0,0:0:0:40:hihat.wav
329,192,107102,1,0,0:0:0:0:
256,192,107169,1,0,0:0:0:55:kick.wav
36,192,107235,1,0,0:0:0:0:
182,192,107302,1,0,0:0:0:55:kick.wav
256,192,107368,1,0,0:0:0:0:
109,192,107435,1,0,0:0:0:55:kick.wav
475,192,107435,1,0,0:0:0:55:crash.wav
182,192,107501,1,0,0:0:0:0:
329,192,107568,1,0,0:0:0:55:kick.wav
402,192,107634,1,0,0:0:0:0:
36,192,107701,1,0,0:0:0:55:snare.wav
182,192,107767,1,0,0:0:0:0:
256,192,107834,1,0,0:0:0:55:kick.wav
109,192,107900,1,0,0:0:0:0:
402,192,107967,1,0,0:0:0:55:kick.wav
36,192,107967,1,0,0:0:0:55:crash.wav
256,192,108033,1,0,0:0:0:0:
475,192,108100,1,0,0:0:0:55:kick.wav
182,192,108166,1,0,0:0:0:0:
329,192,108233,1,0,0:0:0:55:snare.wav
256,192,108299,1,0,0:0:0:0:
109,192,108366,1,0,0:0:0:55:kick.wav
182,192,108432,1,0,0:0:0:55:kick.wav
329,192,108499,1,0,0:0:0:55:kick.wav
475,192,108499,1,0,0:0:0:55:crash.wav
36,192,108565,1,0,0:0:0:0:
402,192,108632,1,0,0:0:0:55:kick.wav
182,192,108699,1,0,0:0:0:0:
256,192,108765,1,0,0:0:0:55:kick.wav
109,192,108832,1,0,0:0:0:0:
182,192,108898,1,0,0:0:0:55:kick.wav
329,192,108965,1,0,0:0:0:55:kick.wav
402,192,109031,1,0,0:0:0:55:kick.wav
36,192,109098,1,0,0:0:0:0:
182,192,109164,1,0,0:0:0:55:kick.wav
256,192,109231,1,0,0:0:0:0:
402,192,109297,1,0,0:0:0:55:kick.wav
109,192,109364,1,0,0:0:0:0:
256,192,109430,1,0,0:0:0:55:kick.wav
329,192,109497,1,0,0:0:0:55:kick.wav
475,192,109563,1,0,0:0:0:55:kick.wav
36,192,109563,1,0,0:0:0:55:crash.wav
402,192,109630,1,0,0:0:0:55:kick.wav
256,192,109696,1,0,0:0:0:55:kick.wav
182,192,109763,1,0,0:0:0:55:kick.wav
402,192,109829,1,0,0:0:0:55:kick.wav
329,192,109896,1,0,0:0:0:55:kick.wav
182,192,109962,1,0,0:0:0:55:kick.wav
36,192,110029,1,0,0:0:0:55:kick.wav
475,192,110095,1,0,0:0:0:55:kick.wav
329,192,110162,1,0,0:0:0:55:kick.wav
182,192,110228,1,0,0:0:0:55:kick.wav
109,192,110295,1,0,0:0:0:55:kick.wav
402,192,110361,1,0,0:0:0:55:kick.wav
329,192,110428,1,0,0:0:0:55:kick.wav
182,192,110495,1,0,0:0:0:55:crash.wav
36,192,110561,1,0,0:0:0:40:drum.wav
109,192,110628,1,0,0:0:0:55:kick.wav
402,192,110628,1,0,0:0:0:55:crash.wav
182,192,110694,1,0,0:0:0:0:
256,192,110761,1,0,0:0:0:55:kick.wav
329,192,110827,1,0,0:0:0:0:
182,192,110894,1,0,0:0:0:55:kick.wav
256,192,110960,1,0,0:0:0:0:
329,192,111027,1,0,0:0:0:55:kick.wav
402,192,111093,1,0,0:0:0:55:kick.wav
109,192,111160,1,0,0:0:0:55:kick.wav
182,192,111226,1,0,0:0:0:0:
329,192,111293,1,0,0:0:0:55:kick.wav
256,192,111359,1,0,0:0:0:0:
329,192,111426,1,0,0:0:0:55:kick.wav
402,192,111492,1,0,0:0:0:0:
475,192,111559,1,0,0:0:0:55:kick.wav
329,192,111625,1,0,0:0:0:55:kick.wav
36,192,111692,1,0,0:0:0:55:kick.wav
109,192,111692,1,0,0:0:0:55:crash.wav
182,192,111758,1,0,0:0:0:55:kick.wav
256,192,111825,1,0,0:0:0:55:kick.wav
402,192,111891,1,0,0:0:0:55:kick.wav
109,192,111958,1,0,0:0:0:55:kick.wav
256,192,112024,1,0,0:0:0:55:kick.wav
329,192,112091,1,0,0:0:0:55:kick.wav
475,192,112157,1,0,0:0:0:55:kick.wav
182,192,112224,1,0,0:0:0:55:kick.wav
256,192,112291,1,0,0:0:0:55:kick.wav
402,192,112357,1,0,0:0:0:55:kick.wav
475,192,112424,1,0,0:0:0:55:kick.wav
256,192,112490,1,0,0:0:0:55:kick.wav
329,192,112557,1,0,0:0:0:55:kick.wav
402,192,112623,1,0,0:0:0:55:kick.wav
475,192,112690,1,0,0:0:0:55:kick.wav
182,192,112756,128,0,114885:0:0:0:55:kick.wav
36,192,112756,128,0,114885:0:0:0:55:crash.wav
329,192,114885,128,0,117013:0:0:0:55:kick.wav
475,192,114885,128,0,117013:0:0:0:55:crash.wav
36,192,117013,1,0,0:0:0:55:kick.wav
182,192,117013,1,0,0:0:0:55:crash.wav
