osu file format v14

[General]
AudioFilename: audio.mp3
AudioLeadIn: 0
PreviewTime: 125603
Countdown: 0
SampleSet: Normal
StackLeniency: 0.3
Mode: 0
LetterboxInBreaks: 0
WidescreenStoryboard: 1

[Editor]
DistanceSpacing: 1
BeatDivisor: 4
GridSize: 4
TimelineZoom: 2.2

[Metadata]
Title:Glorious Crown
TitleUnicode:Glorious Crown
Artist:xi
ArtistUnicode:xi
Creator:Bloxi
Version:kolik's Normal
Source:maimai PiNK
Tags:fa featured artist FREEDOM DiVE↓ Diverse System Evolved Chronicles Full LONG Version Happy Hardcore Electronic Piano Instrumental BMS ORIGINAL & JOYPOLIS C91 DVSP-0169 4th solo album Yusuke Ishiwata SEGA DX ALL PERFECT COLLECTiON Cytus II Chizu-Kun PaRaDogi Nagatoro Urghi stzur kolik kolikiscool
BeatmapID:3613339
BeatmapSetID:1697518

[Difficulty]
HPDrainRate:3.6
CircleSize:3.2
OverallDifficulty:5
ApproachRate:6
SliderMultiplier:1
SliderTickRate:1

[Events]
//Background and Video events
0,0,"bg.jpg",0,0
//Break Periods
2,28951,36216
2,86424,97945
2,147089,154353
2,182210,188411
//Storyboard Layer 0 (Background)
//Storyboard Layer 1 (Fail)
//Storyboard Layer 2 (Pass)
//Storyboard Layer 3 (Foreground)
//Storyboard Layer 4 (Overlay)
//Storyboard Sound Samples

[TimingPoints]
1080,266.075388026608,4,1,1,80,1,0
26623,-100,4,1,1,70,0,0
28219,-100,4,1,1,75,0,0
28751,-100,4,1,1,80,0,0
44716,-100,4,1,1,70,0,0
63873,-100,4,1,1,80,0,1
81966,-100,4,1,1,80,0,0
86224,-100,4,1,1,65,0,0
103252,-100,4,1,1,70,0,0
105381,-100,4,1,1,75,0,0
106978,-100,4,1,1,80,0,0
142632,-100,4,1,1,70,0,0
162853,-100,4,1,1,75,0,0
163918,-100,4,1,1,80,0,0
180946,-111.111111111111,4,1,1,80,0,0
189461,-125,4,1,1,80,0,0
189527,-125,4,2,1,65,0,0
195980,-125,4,2,1,70,0,0
197975,-111.111111111111,4,2,1,70,0,0
199039,-111.111111111111,4,2,1,80,0,0
200104,-111.111111111111,4,2,1,50,0,0
201168,-111.111111111111,4,2,1,55,0,0
202232,-111.111111111111,4,2,1,60,0,0
204361,-100,4,2,1,65,0,0
217133,-100,4,2,1,80,0,1
233097,-100,4,2,1,80,0,0
237354,-100,4,2,1,80,0,1
239216,-100,4,2,1,35,0,1
239483,-100,4,2,1,80,0,1
241612,-100,4,2,1,80,0,0
241878,-100,4,2,1,25,0,0

[Colours]
Combo1 : 255,128,128
Combo2 : 128,255,0
Combo3 : 0,128,192
Combo4 : 255,255,128

[HitObjects]
186,66,1080,6,0,B|134:90|110:138|130:206,2,150,4|0|0,1:0|1:0|1:0,1:0:0:0:
286,178,2277,2,0,B|314:194|334:230|318:274,1,100,0|0,1:0|1:0,1:0:0:0:
286,298,2676,2,0,L|230:298,2,50,0|0|0,1:0|1:0|1:0,1:0:0:0:
361,363,3208,6,0,P|452:347|526:344,2,150,4|0|0,1:0|1:0|1:0,1:0:0:0:
234,282,4405,2,0,P|168:272|134:257,1,100,0|0,1:0|1:0,1:0:0:0:
126,209,4805,2,0,L|123:156,2,50,0|4|0,1:0|1:2|1:0,1:0:0:0:
26,198,5337,6,0,B|11:38,2,150,4|0|0,1:0|1:0|1:0,1:0:0:0:
125,310,6534,2,0,B|162:301|196:312|213:349,1,100,0|0,1:0|1:0,1:0:0:0:
255,363,6933,2,0,B|284:363|307:344,2,50,0|0|0,1:0|1:0|1:0,1:0:0:0:
253,263,7465,6,0,L|255:160,1,100,4|0,1:0|1:0,1:0:0:0:
160,130,7997,2,0,L|158:229,1,100,4|0,1:0|1:0,1:0:0:0:
63,197,8530,2,0,B|64:99|64:99|88:38|149:35|149:35,1,200,4|4,1:0|1:0,1:0:0:0:
238,43,9328,1,0,1:0:0:0:
328,86,9594,6,0,B|375:69|424:43,2,100,4|0|0,1:0|1:0|1:0,1:0:0:0:
253,152,10392,1,0,1:0:0:0:
171,209,10658,2,0,B|124:192|75:166,2,100,0|0|0,1:0|1:0|1:0,1:0:0:0:
182,308,11456,1,4,1:2:0:0:
271,353,11723,6,0,B|323:358|323:358|373:336,1,100,4|0,1:0|1:0,1:0:0:0:
395,243,12255,2,0,B|343:238|343:238|293:260,1,100,0|0,1:0|1:0,1:0:0:0:
199,257,12787,6,0,B|147:262|147:262|97:240,1,100,0|0,1:0|1:0,1:0:0:0:
93,143,13319,1,0,1:0:0:0:
188,114,13585,1,0,1:0:0:0:
269,176,13851,6,0,B|346:213|419:182|426:93,1,200,4|0,1:0|1:0,1:0:0:0:
326,88,14649,1,0,1:0:0:0:
229,61,14915,2,0,B|151:66|151:66|113:104|113:104|31:109,1,200,4|0,1:0|1:0,1:0:0:0:
54,208,15714,1,0,1:0:0:0:
64,307,15980,6,0,L|70:365,2,50,4|0|0,1:0|1:0|1:0,1:0:0:0:
154,265,16512,2,0,L|160:323,2,50,4|0|0,1:0|1:0|1:0,1:0:0:0:
237,209,17044,2,0,B|343:138|495:182|512:326,1,350,4|4,1:0|1:2,1:0:0:0:
489,359,18108,6,0,L|371:371,1,100,4|0,1:0|1:0,1:0:0:0:
304,315,18640,2,0,L|191:328,1,100,0|0,1:0|1:0,1:0:0:0:
116,278,19173,6,0,B|89:238|106:171,1,100,0|0,1:0|1:0,1:0:0:0:
150,93,19705,2,0,B|152:66|146:44,2,50,0|0|4,1:0|1:0|1:2,1:0:0:0:
242,130,20237,5,4,1:0:0:0:
317,64,20503,1,0,1:0:0:0:
416,72,20769,2,0,L|428:193,1,100,0|0,1:0|1:0,1:0:0:0:
337,211,21301,2,0,L|412:280,1,100,0|0,1:0|1:0,1:0:0:0:
460,361,21833,2,0,B|488:347|488:347|517:347,2,50,0|4|0,1:0|1:2|1:0,1:0:0:0:
360,373,22366,6,0,B|291:371|291:371|256:333,1,100,4|0,1:0|1:0,1:0:0:0:
212,266,22898,2,0,B|191:243|191:243|122:241,1,100,0|0,1:0|1:0,1:0:0:0:
123,141,23430,6,0,B|192:142|192:142|214:120,1,100,4|0,1:0|1:0,1:0:0:0:
289,55,23962,2,0,B|311:33|311:33|380:34,1,100,0|0,1:0|1:0,1:0:0:0:
422,125,24494,1,4,1:0:0:0:
385,217,24760,1,0,1:0:0:0:
429,306,25026,6,0,B|385:339|320:296,1,100,4|0,1:0|1:0,1:0:0:0:
273,226,25558,6,0,B|183:153|44:235|99:356,1,300,4|4,1:0|1:0,1:0:0:0:
184,302,26623,2,0,B|284:381|417:305|382:180|382:180|347:29|504:-1,1,550,2|0,2:0|2:0,2:0:0:0:
483,53,28219,6,0,L|477:108,1,50,0|0,1:0|1:0,2:0:0:0:
471,152,28485,2,0,L|466:217,1,50,0|0,1:0|1:0,2:0:0:0:
463,248,28751,1,4,1:0:0:0:
473,350,37266,6,0,B|209:389|347:270|60:343,1,400,4|0,1:0|1:0,1:0:0:0:
29,144,38862,1,0,1:0:0:0:
208,54,39394,6,0,B|339:73|270:13|414:50,2,200,4|4|4,1:0|1:0|1:0,1:0:0:0:
297,230,40991,1,4,1:0:0:0:
129,338,41523,2,0,B|75:250|120:140,1,200,4|0,1:0|1:0,1:0:0:0:
318,144,42587,2,0,B|371:225|326:341,1,200,4|4,1:0|1:0,1:0:0:0:
127,344,43652,6,0,B|61:371|-13:313|5:234,1,200,4|4,1:0|1:0,1:0:0:0:
46,146,44450,1,4,1:0:0:0:
134,193,44716,6,0,B|281:375|560:278|512:10,1,600,6|2,2:0|2:0,2:0:0:0:
462,19,46445,1,0,1:0:0:0:
294,147,46844,6,0,B|261:72|322:87|276:-12,2,150,4|0|8,1:0|1:0|1:0,1:0:0:0:
373,207,47909,2,0,B|411:189|411:189|473:189,1,100,0|8,1:0|1:0,1:0:0:0:
451,287,48441,2,0,B|413:305|413:305|351:305,1,100,0|8,1:0|1:0,1:0:0:0:
255,299,48973,6,0,B|215:229|123:230|77:301,1,200,0|0,1:0|1:0,1:0:0:0:
14,226,49771,1,8,1:0:0:0:
14,226,50037,2,0,L|15:120,1,100,0|8,1:0|1:0,1:0:0:0:
98,70,50570,2,0,L|100:-7,2,66.6666666666667,0|0|0,1:0|1:0|1:0,1:0:0:0:
146,116,51102,6,0,B|249:83|222:151|340:117,1,200,0|0,1:0|1:0,1:0:0:0:
424,64,51900,1,8,1:0:0:0:
505,121,52166,2,0,B|531:181|499:235,1,100,0|8,1:0|1:0,1:0:0:0:
428,279,52698,2,0,L|370:273,2,50,0|0|8,1:0|1:0|1:0,1:0:0:0:
390,371,53230,6,0,B|269:360|269:360|232:311|232:311|111:293,1,300,0|8,1:0|1:0,1:0:0:0:
131,194,54295,2,0,B|251:207|251:207|296:165|296:165|418:171,1,300,0|8,1:0|1:0,1:0:0:0:
492,231,55359,6,0,B|493:290|444:339,1,100,4|8,1:0|1:0,1:0:0:0:
372,373,55891,1,0,1:0:0:0:
273,354,56157,1,8,1:0:0:0:
207,286,56423,2,0,B|213:227|251:181,1,100,0|8,1:0|1:0,1:0:0:0:
297,110,56955,1,0,1:0:0:0:
226,38,57221,1,8,1:0:0:0:
137,102,57487,6,0,B|44:125|-2:215|59:354,1,300,0|8,1:0|1:0,1:0:0:0:
163,345,58552,2,0,B|281:376|248:301|364:325,1,200,0|0,1:0|1:0,1:0:0:0:
448,360,59350,1,8,1:0:0:0:
489,268,59616,6,0,L|502:160,1,100,0|8,1:0|1:0,1:0:0:0:
439,89,60148,1,0,1:0:0:0:
342,113,60414,1,8,1:0:0:0:
311,208,60680,2,0,B|263:228|263:228|200:209,1,100,0|8,1:0|1:0,1:0:0:0:
153,131,61213,2,0,B|143:61,2,66.6666666666667,0|0|0,1:0|1:0|1:0,1:0:0:0:
101,173,61745,6,0,B|123:224|86:266,1,100,4|8,1:0|1:0,1:0:0:0:
138,350,62277,2,0,B|190:328|232:365,1,100,4|8,1:0|1:0,1:0:0:0:
284,279,62809,2,0,B|264:240|284:200,2,75,0|0|0,1:0|1:0|1:0,1:0:0:0:
323,309,63341,6,0,L|381:301,1,50,0|0,1:0|1:0,1:0:0:0:
418,321,63607,2,0,L|476:313,1,50,12|0,1:0|1:0,1:0:0:0:
487,261,63873,6,0,B|517:212|495:159,1,100,6|8,1:0|1:0,1:0:0:0:
417,105,64405,2,0,B|387:154|406:200,1,100,0|10,1:0|1:0,1:0:0:0:
338,274,64938,2,0,L|350:381,2,100,2|10|2,1:0|1:0|1:0,1:0:0:0:
277,194,65736,1,10,1:0:0:0:
186,208,66002,6,0,B|129:216|101:153,1,100,2|8,1:0|1:0,1:0:0:0:
99,62,66534,2,0,B|123:9|191:20,1,100,0|10,1:0|1:0,1:0:0:0:
265,72,67066,2,0,B|301:116|263:173,1,100,2|10,1:0|1:0,1:0:0:0:
186,222,67598,6,0,L|177:292,1,50,0|0,1:0|1:0,1:0:0:0:
213,308,67864,2,0,L|205:365,1,50,8|0,1:0|1:0,1:0:0:0:
254,371,68130,6,0,L|359:358,1,100,6|8,1:0|1:0,1:0:0:0:
453,360,68663,1,0,1:0:0:0:
509,277,68929,1,10,1:0:0:0:
433,211,69195,2,0,B|395:175|417:109,1,100,2|10,1:0|1:0,1:0:0:0:
410,18,69727,1,2,1:0:0:0:
308,14,69993,1,10,1:0:0:0:
256,96,70259,6,0,B|204:116|145:84,1,100,6|10,1:0|1:0,1:0:0:0:
115,0,70791,2,0,B|63:-20|4:12,1,100,6|10,1:0|1:0,1:0:0:0:
34,103,71323,2,0,B|-22:147|-28:205|12:252,1,150,6|0,1:0|1:0,1:0:0:0:
39,265,71856,2,0,B|46:299|31:337|31:337|32:337,2,66.6666666666667,6|0|0,1:0|1:0|1:0,1:0:0:0:
105,263,72388,6,0,L|215:272,1,100,6|8,1:0|1:0,1:0:0:0:
300,242,72920,2,0,L|410:251,1,100,0|10,1:0|1:0,1:0:0:0:
472,181,73452,2,0,B|514:217|500:276,2,100,2|10|2,1:0|1:0|1:0,1:0:0:0:
377,149,74250,1,10,1:0:0:0:
281,178,74516,6,0,B|318:116|298:29|221:10,1,200,2|0,1:0|1:0,1:0:0:0:
200,108,75315,1,10,1:0:0:0:
157,197,75581,2,0,L|172:317,1,100,2|10,1:0|1:0,1:0:0:0:
253,351,76113,6,0,B|298:370|355:352,1,100,2|10,1:0|1:0,1:0:0:0:
424,285,76645,2,0,L|436:185,1,100,6|8,1:0|1:0,1:0:0:0:
342,151,77177,2,0,B|237:176|258:115|142:146,1,200,0|6,1:0|1:0,1:0:0:0:
53,182,77974,1,10,1:0:0:0:
100,270,78241,6,0,L|96:381,1,100,6|10,1:0|1:0,1:0:0:0:
192,332,78774,2,0,L|195:232,1,100,6|10,1:0|1:0,1:0:0:0:
288,196,79306,1,6,1:0:0:0:
383,225,79572,1,10,1:0:0:0:
465,168,79838,6,0,L|451:19,1,150,6|0,1:0|1:0,1:0:0:0:
401,21,80370,2,0,L|252:35,1,150,6|4,1:0|1:0,1:0:0:0:
255,86,80902,2,0,L|269:235,1,150,6|0,1:0|1:0,1:0:0:0:
274,284,81434,2,0,L|362:272,2,75,6|2|2,1:0|1:2|1:2,1:0:0:0:
235,315,81966,1,6,1:2:0:0:
256,192,82033,12,4,86224,1:0:0:0:
60,86,98995,6,0,L|175:78,1,100,0|0,1:0|1:0,1:0:0:0:
208,166,99527,2,0,L|108:172,1,100,0|0,1:0|1:0,1:0:0:0:
23,225,100060,2,0,B|-6:278|25:338|25:338,2,100,0|0|0,1:0|1:0|1:0,1:0:0:0:
106,280,100858,1,0,1:0:0:0:
173,353,101124,6,0,L|276:347,1,100,4|0,1:0|1:0,1:0:0:0:
318,258,101656,2,0,L|421:252,1,100,0|0,1:0|1:0,1:0:0:0:
497,192,102188,2,0,B|512:141|482:96,1,100,0|0,1:0|1:0,1:0:0:0:
387,66,102720,2,0,B|377:9,2,50,2|2|2,1:2|1:2|1:2,1:0:0:0:
295,105,103252,6,0,B|191:101,1,100,4|0,1:0|1:0,1:0:0:0:
113,159,103785,1,0,1:0:0:0:
82,254,104051,1,0,1:0:0:0:
151,326,104317,6,0,B|176:265|247:273,1,100,4|0,1:0|1:0,1:0:0:0:
319,312,104850,2,0,B|311:381,2,50,0|0|0,1:0|1:0|1:0,1:0:0:0:
394,246,105381,6,0,L|384:140,1,100,4|0,1:0|1:0,1:0:0:0:
324,66,105913,1,4,1:0:0:0:
229,34,106179,1,0,1:0:0:0:
133,64,106445,6,0,L|147:177,1,100,4|0,1:0|1:0,1:0:0:0:
84,243,106978,1,6,1:2:0:0:
164,301,107244,1,2,1:2:0:0:
263,304,107510,6,2,B|379:348|474:255|456:152,1,300,6|2,2:0|2:0,2:0:0:0:
360,128,108574,6,0,L|253:120,1,100,6|8,1:0|1:0,1:0:0:0:
178,178,109106,2,0,L|97:172,2,75,0|2|2,1:0|1:0|1:0,1:0:0:0:
205,219,109638,2,0,B|171:272|195:331,1,100,2|8,1:0|1:0,1:0:0:0:
284,346,110170,5,0,1:0:0:0:
383,333,110436,1,8,1:0:0:0:
450,258,110703,6,0,L|453:149,1,100,2|8,1:0|1:0,1:0:0:0:
374,95,111235,2,0,B|356:59|381:16,2,75,0|2|2,1:0|1:0|1:0,1:0:0:0:
344,135,111767,2,0,B|288:109|232:149,1,100,6|12,1:0|1:0,1:0:0:0:
170,202,112299,2,0,L|120:198,2,50,4|2|12,1:0|1:0|1:0,1:0:0:0:
256,252,112831,6,0,L|247:371,1,100,6|8,1:0|1:0,1:0:0:0:
148,349,113363,1,2,1:0:0:0:
77,277,113629,1,10,1:0:0:0:
55,179,113895,6,0,L|64:68,2,100,2|10|2,1:0|1:0|1:0,1:0:0:0:
151,152,114694,1,10,1:0:0:0:
245,119,114960,2,0,L|254:-1,2,100,2|10|2,1:0|1:0|1:0,1:0:0:0:
311,193,115758,6,0,B|355:158|411:178,1,100,10|2,1:0|1:0,1:0:0:0:
481,240,116290,1,12,1:0:0:0:
414,314,116556,2,0,L|420:370,2,50,12|0|14,1:0|1:0|1:0,1:0:0:0:
317,340,117088,6,0,L|213:333,1,100,6|10,1:0|1:0,1:0:0:0:
118,314,117621,2,0,L|126:202,1,100,2|10,1:0|1:0,1:0:0:0:
132,114,118153,2,0,L|135:50,2,50,2|0|10,1:0|1:0|1:0,1:0:0:0:
224,150,118685,1,2,1:0:0:0:
318,118,118951,1,10,1:0:0:0:
404,168,119217,6,0,B|428:219|394:273,1,100,2|10,1:0|1:0,1:0:0:0:
325,331,119749,2,0,B|274:355|220:321,1,100,2|10,1:0|1:0,1:0:0:0:
156,257,120281,5,2,1:0:0:0:
127,161,120547,1,10,1:0:0:0:
185,79,120813,1,2,1:0:0:0:
278,41,121080,1,10,1:0:0:0:
368,83,121346,6,0,L|358:256,1,150,2|2,1:0|1:0,1:0:0:0:
332,274,121878,2,0,B|282:304|220:265,1,100,2|10,1:0|1:0,1:0:0:0:
166,202,122410,2,0,B|136:156|166:106,1,100,2|10,1:0|1:0,1:0:0:0:
259,73,122942,2,0,L|269:-6,2,75,2|2|2,1:0|1:0|1:0,1:0:0:0:
295,106,123474,6,0,B|384:116|384:116|439:87|506:128,1,200,2|2,1:0|1:0,1:0:0:0:
440,205,124272,1,10,1:0:0:0:
344,235,124538,2,0,L|233:223,1,100,6|14,1:0|1:0,1:0:0:0:
178,148,125071,2,0,L|78:140,1,100,6|14,1:0|2:0,1:0:0:0:
21,222,125603,6,0,B|-10:300|50:359|138:344,1,200,6|2,2:0|2:0,2:0:0:0:
214,302,126401,1,10,2:0:0:0:
294,361,126667,2,0,B|315:330|320:289|298:259,1,100,2|10,2:0|2:0,2:0:0:0:
240,188,127199,2,0,B|219:157|214:116|236:86,1,100,2|10,2:0|2:0,2:0:0:0:
320,48,127731,5,2,2:0:0:0:
399,108,127997,1,10,2:0:0:0:
423,205,128264,2,0,L|415:313,1,100,2|10,2:0|2:0,2:0:0:0:
318,330,128796,2,0,L|328:217,1,100,2|10,2:0|2:0,2:0:0:0:
264,152,129328,6,0,L|274:76,2,66.6666666666667,2|2|2,2:0|2:0|2:0,2:0:0:0:
205,184,129860,1,2,2:0:0:0:
119,162,130126,1,10,2:0:0:0:
43,226,130392,2,0,L|49:334,1,100,2|10,2:0|2:0,2:0:0:0:
146,347,130924,6,0,B|262:325|228:387|362:351,1,200,2|2,2:0|2:0,2:0:0:0:
427,303,131723,1,10,2:0:0:0:
475,215,131989,2,0,L|478:105,1,100,2|10,2:0|2:0,2:0:0:0:
397,54,132521,2,0,B|357:29|287:57,1,100,2|8,2:0|2:0,2:0:0:0:
240,132,133053,6,0,L|248:246,1,100,2|12,2:0|2:0,2:0:0:0:
200,279,133496,2,0,B|192:318|192:318|203:352,2,66.6666666666667,2|2|2,2:0|2:0|2:0,2:0:0:0:
103,252,134117,6,0,B|46:259|17:214,1,100,6|10,2:0|2:0,2:0:0:0:
12,111,134649,2,0,B|-18:61|11:16,1,100,2|8,2:0|2:0,2:0:0:0:
112,14,135181,1,2,2:0:0:0:
210,32,135448,1,8,2:0:0:0:
309,42,135714,2,0,B|328:95|305:143|305:143,1,100,2|10,2:0|2:0,2:0:0:0:
327,237,136246,6,0,L|219:227,1,100,6|10,2:0|2:0,2:0:0:0:
263,320,136778,2,0,L|362:326,1,100,2|10,2:0|2:0,2:0:0:0:
443,268,137310,1,6,2:0:0:0:
459,169,137576,1,10,2:0:0:0:
412,79,137842,6,0,B|372:109|315:99,1,100,2|10,2:0|2:0,2:0:0:0:
227,56,138374,2,0,B|154:24|74:66|60:142,1,200,6|2,2:0|2:0,2:0:0:0:
50,225,139173,1,10,2:0:0:0:
122,293,139439,2,0,B|165:314|165:314|225:306,1,100,6|10,2:0|2:0,2:0:0:0:
307,266,139971,2,0,B|350:245|350:245|410:253,1,100,2|8,2:0|2:0,2:0:0:0:
474,320,140503,2,0,L|494:107,1,200,6|2,2:0|2:0,2:0:0:0:
395,98,141301,6,0,L|400:39,1,50,10|0,2:0|2:0,2:0:0:0:
352,29,141567,1,6,2:0:0:0:
254,52,141833,1,10,2:0:0:0:
155,34,142099,1,2,2:0:0:0:
87,108,142366,1,10,2:0:0:0:
142,191,142632,6,0,L|132:301,1,100,4|8,1:0|1:0,1:0:0:0:
220,339,143164,2,0,L|236:227,1,100,0|8,1:0|1:0,1:0:0:0:
329,208,143696,2,0,L|319:318,1,100,4|8,1:0|1:0,1:0:0:0:
407,356,144228,2,0,L|423:244,1,100,0|8,1:0|1:0,1:0:0:0:
479,175,144760,5,4,1:0:0:0:
416,97,145026,1,8,1:0:0:0:
317,82,145292,2,0,L|201:98,1,100,0|8,1:0|1:0,1:0:0:0:
139,158,145825,2,0,L|24:143,2,100,4|10|2,1:0|1:2|1:2,1:0:0:0:
159,264,146623,1,10,1:2:0:0:
134,360,146889,1,4,1:2:0:0:
45,201,155403,6,0,L|36:39,2,150,4|2|8,1:0|2:0|2:0,2:0:0:0:
113,274,156468,2,0,B|159:306|211:274,1,100,2|8,2:0|2:0,2:0:0:0:
307,276,157000,2,0,B|355:305|401:273,1,100,2|12,2:0|2:0,2:0:0:0:
467,201,157532,6,0,L|474:50,2,150,4|2|8,1:0|2:0|2:0,2:0:0:0:
493,297,158596,2,0,B|489:346|489:346|436:363,1,100,2|8,2:0|2:0,2:0:0:0:
340,359,159128,2,0,L|226:354,1,100,2|12,2:0|2:0,2:0:0:0:
145,321,159660,6,0,B|58:332|0:360|0:360,2,150,4|2|12,1:0|2:0|2:0,2:0:0:0:
183,228,160725,2,0,B|241:256|328:267,2,150,2|2|12,2:0|2:0|2:0,2:0:0:0:
105,164,161789,6,0,L|95:62,1,100,4|8,1:0|2:0,2:0:0:0:
189,31,162321,2,0,L|201:137,1,100,2|12,2:0|2:0,2:0:0:0:
282,187,162853,5,2,1:2:0:0:
381,178,163119,1,6,1:2:0:0:
453,246,163385,1,2,1:2:0:0:
423,341,163652,1,6,1:2:0:0:
325,363,163918,6,0,B|272:359|272:359|248:297|248:297,1,100,4|8,1:0|1:0,1:0:0:0:
178,250,164450,2,0,B|182:197|182:197|244:173|244:173,1,100,0|8,1:0|1:0,1:0:0:0:
319,213,164982,6,0,B|372:209|372:209|396:147|396:147,1,100,0|8,1:0|1:0,1:0:0:0:
466,100,165514,2,0,B|462:47|462:47|400:23|400:23,1,100,0|12,1:0|1:0,1:0:0:0:
318,24,166046,6,0,B|267:33|267:33|262:46|262:46|223:43,1,100,4|8,1:0|1:0,1:0:0:0:
169,124,166578,2,0,B|134:126|134:126|129:113|129:113|78:104,1,100,0|8,1:0|1:0,1:0:0:0:
13,181,167111,6,0,B|47:210|47:210|29:266,1,100,0|8,1:0|1:0,1:0:0:0:
107,326,167643,2,0,B|91:350|91:350|105:377,2,50,4|0|12,1:2|1:0|1:0,1:0:0:0:
198,284,168175,6,0,B|243:290|243:290|278:343,1,100,0|8,1:0|1:0,1:0:0:0:
372,342,168707,2,0,B|402:296|402:296|447:290,1,100,0|8,1:0|1:0,1:0:0:0:
455,190,169239,6,0,B|410:184|410:184|375:131,1,100,0|8,1:0|1:0,1:0:0:0:
281,132,169771,2,0,B|250:177|250:177|205:183,1,100,0|12,1:0|1:0,1:0:0:0:
112,146,170303,2,0,B|101:120|101:120|103:87,2,50,4|0|8,1:0|1:0|1:0,1:0:0:0:
54,228,170836,2,0,B|32:229|32:229|6:218,2,50,0|0|12,1:0|1:0|1:0,1:0:0:0:
137,283,171368,6,0,B|114:320|114:320|149:369,1,100,4|8,1:0|1:0,1:0:0:0:
246,363,171900,2,0,B|278:317|278:317|255:280,1,100,4|12,1:2|1:0,1:0:0:0:
298,189,172432,6,0,B|314:141|314:141|309:137|309:137|307:87,1,100,4|8,1:0|1:0,1:0:0:0:
399,131,172964,2,0,B|397:173|397:173|392:177|392:177|408:225,1,100,0|8,1:0|1:0,1:0:0:0:
388,323,173496,6,0,B|353:316|353:316|303:265,1,100,0|8,1:0|1:0,1:0:0:0:
218,315,174029,2,0,B|172:360|172:360|137:367,1,100,0|12,1:0|1:0,1:0:0:0:
75,289,174561,6,0,B|48:227|48:227|71:215|71:215|64:193,1,100,4|12,1:0|1:0,1:0:0:0:
146,145,175093,2,0,B|173:83|173:83|150:71|150:71|157:49,1,100,4|8,1:0|1:0,1:0:0:0:
249,42,175625,6,0,B|268:41|268:41|290:9,2,50,4|0|8,1:0|1:0|1:0,1:0:0:0:
291,132,176157,2,0,B|302:146|302:146|341:145,2,50,4|0|12,1:0|1:0|1:0,1:0:0:0:
226,208,176689,6,0,B|218:257|218:257|287:329|287:329|224:359,1,200,4|4,1:0|1:0,1:0:0:0:
150,311,177487,1,12,1:0:0:0:
93,227,177754,2,0,B|105:161|105:161|39:104|39:104|137:67|137:67|116:23,1,300,4|12,1:0|1:0,1:0:0:0:
219,28,178818,6,0,L|318:19,1,100,4|8,1:0|1:0,1:0:0:0:
330,118,179350,2,0,L|340:230,1,100,4|8,1:0|1:0,1:0:0:0:
240,235,179882,2,0,L|131:244,1,100,4|8,1:0|1:0,1:0:0:0:
131,143,180414,2,0,L|122:43,1,100,6|10,1:2|1:2,1:0:0:0:
207,16,180946,6,0,B|352:-6|449:125|426:241,1,359.999989013672,6|2,1:2|1:2,1:0:0:0:
118,143,189461,6,0,B|217:159|189:111|276:127,1,160,4|2,1:0|2:0,0:0:0:0:
348,156,190259,1,2,2:0:0:0:
423,129,190525,2,0,B|449:164|436:207,1,80,2|0,2:0|2:0,2:0:0:0:
395,273,191057,2,0,L|403:330,2,53.3333333333333,2|2|2,2:0|2:0|2:0,2:0:0:0:
347,250,191589,6,0,B|297:215|234:219|196:257,1,160,0|2,2:0|2:0,2:0:0:0:
142,310,192388,1,2,2:0:0:0:
76,265,192654,2,0,L|51:99,2,160,2|2|2,2:0|2:0|2:0,2:0:0:0:
155,258,193984,5,0,2:0:0:0:
234,252,194250,2,0,L|228:337,2,80,2|2|2,2:0|2:0|2:0,2:0:0:0:
280,186,195048,1,2,2:0:0:0:
335,126,195315,2,0,B|329:65,2,53.3333333333333,2|2|2,2:0|2:0|2:0,2:0:0:0:
363,171,195847,6,0,B|409:264|313:316,1,160,2|2,2:0|2:0,2:0:0:0:
246,299,196645,1,2,2:0:0:0:
175,336,196911,2,0,L|94:331,1,80,2|2,2:0|2:0,2:0:0:0:
86,251,197443,2,0,L|165:255,1,80,2|2,2:0|2:0,2:0:0:0:
237,219,197975,6,0,B|301:212|349:273|312:343,2,180,2|2|2,2:0|2:0|2:0,2:0:0:0:
27,60,200104,6,0,B|121:41|99:106|205:80,1,179.999994506836,4|0,1:0|1:0,1:0:0:0:
264,31,200902,1,8,1:0:0:0:
326,82,201168,2,0,B|360:122|328:171|328:171,2,89.9999972534181,0|8|0,1:0|1:0|1:0,1:0:0:0:
386,28,201966,1,8,1:0:0:0:
454,71,202232,6,0,B|446:169,1,89.9999972534181,0|8,1:0|1:0,1:0:0:0:
368,181,202765,2,0,B|376:279,1,89.9999972534181,0|8,1:0|1:0,1:0:0:0:
335,341,203297,2,0,B|283:342|244:312|244:312,2,89.9999972534181,0|8|0,1:0|1:0|1:0,1:0:0:0:
402,296,204095,1,0,1:0:0:0:
452,232,204361,6,0,B|438:140|438:140|410:86|346:80,1,200,6|0,1:0|1:0,1:0:0:0:
265,67,205159,1,10,1:0:0:0:
181,100,205425,2,0,L|73:87,1,100,2|8,1:0|1:0,1:0:0:0:
119,184,205958,2,0,L|230:195,1,100,2|10,1:0|1:0,1:0:0:0:
318,185,206490,5,6,1:0:0:0:
381,262,206756,1,10,1:0:0:0:
333,349,207022,6,0,B|285:370|226:342,1,100,6|10,1:0|1:0,1:0:0:0:
145,302,207554,2,0,L|136:193,1,100,6|8,1:0|1:0,1:0:0:0:
39,177,208086,2,0,L|30:68,1,100,4|0,1:0|1:0,1:0:0:0:
118,30,208618,6,0,B|188:14|257:38|265:132,1,200,6|0,1:0|1:0,1:0:0:0:
257,223,209417,1,10,1:0:0:0:
182,290,209683,2,0,L|73:280,1,100,2|10,1:0|1:0,1:0:0:0:
44,188,210215,2,0,L|155:198,1,100,2|10,1:0|1:0,1:0:0:0:
242,179,210747,5,2,1:0:0:0:
313,247,211013,1,8,1:0:0:0:
400,198,211279,2,0,B|425:149|400:93|400:93,1,100,0|10,1:0|1:0,1:0:0:0:
338,23,211811,2,0,B|331:92|269:138|172:99,1,200,2|0,1:0|1:0,1:0:0:0:
107,45,212609,1,8,1:0:0:0:
36,116,212876,6,0,L|45:227,1,100,6|8,1:0|1:0,1:0:0:0:
123,276,213408,2,0,B|180:300|227:273|227:273,1,100,0|10,1:0|1:0,1:0:0:0:
286,201,213940,5,6,1:0:0:0:
356,129,214206,1,10,1:0:0:0:
441,180,214472,1,6,1:0:0:0:
445,279,214738,1,10,1:0:0:0:
377,353,215004,6,0,B|257:374|297:305|181:328,1,200,6|6,1:0|1:0,1:0:0:0:
93,369,215802,1,10,1:0:0:0:
43,282,216068,2,0,B|-5:199|56:119|56:119,1,150,6|0,1:0|1:0,1:0:0:0:
80,103,216601,2,0,P|183:112|183:112,1,100,6|12,1:0|1:0,1:0:0:0:
264,59,217133,6,0,B|290:111|264:165|264:165,1,100,6|8,1:0|1:0,1:0:0:0:
205,234,217665,1,0,1:0:0:0:
172,328,217931,1,10,1:0:0:0:
270,346,218197,6,0,L|384:332,1,100,2|10,1:0|1:0,1:0:0:0:
465,359,218729,2,0,L|453:259,1,100,2|10,1:0|1:0,1:0:0:0:
372,201,219261,6,0,L|358:98,1,100,2|8,1:0|1:0,1:0:0:0:
286,32,219793,1,0,1:0:0:0:
191,65,220060,1,10,1:0:0:0:
159,156,220326,1,2,1:0:0:0:
63,125,220592,2,0,L|50:25,2,100,10|0|8,1:0|1:0|1:0,1:0:0:0:
31,219,221390,6,0,B|15:276|46:319|46:319,1,100,6|10,1:0|1:0,1:0:0:0:
143,325,221922,2,0,B|186:356|243:340,1,100,2|10,1:0|1:0,1:0:0:0:
310,271,222454,5,2,1:0:0:0:
329,172,222720,1,8,1:0:0:0:
249,111,222986,1,2,1:0:0:0:
231,12,223252,1,10,1:0:0:0:
331,19,223519,6,0,B|408:5|469:54|465:129,1,200,6|6,1:0|1:0,1:0:0:0:
426,219,224317,1,8,1:0:0:0:
475,305,224583,6,0,L|366:320,1,100,6|8,1:0|1:0,1:0:0:0:
275,318,225115,2,0,L|162:331,1,100,4|0,1:0|1:0,1:0:0:0:
80,359,225647,6,0,B|62:302|101:257|101:257|88:157,1,200,6|0,1:0|1:0,1:0:0:0:
105,68,226445,1,10,1:0:0:0:
198,30,226711,2,0,B|256:25|291:83|291:83,1,100,2|10,1:0|1:0,1:0:0:0:
294,172,227244,2,0,B|299:230|241:264|241:264,1,100,2|10,1:0|1:0,1:0:0:0:
152,268,227776,5,2,1:0:0:0:
59,232,228042,1,8,1:0:0:0:
21,139,228308,1,0,1:0:0:0:
84,60,228574,1,10,1:0:0:0:
184,65,228840,6,0,B|294:47|259:111|377:88,1,200,2|2,1:0|1:0,1:0:0:0:
453,186,229638,2,0,L|443:253,1,50,10|0,1:0|1:0,1:0:0:0:
442,285,229904,6,0,B|383:267|340:289|340:289,1,100,6|8,1:0|1:0,1:0:0:0:
262,344,230436,2,0,B|203:362|160:340|160:340,1,100,2|10,1:0|1:0,1:0:0:0:
97,267,230969,6,0,L|84:164,1,100,6|8,1:0|1:0,1:0:0:0:
108,70,231501,1,6,1:0:0:0:
206,49,231767,1,10,1:0:0:0:
271,125,232033,6,0,L|375:114,1,100,6|10,1:0|1:0,1:0:0:0:
466,144,232565,1,2,1:0:0:0:
475,243,232831,1,10,1:0:0:0:
469,342,233097,6,0,B|383:382|316:357|283:291,1,200,4|4,1:0|1:0,1:0:0:0:
239,221,233895,1,8,1:0:0:0:
165,287,234162,2,0,B|70:256|61:82|163:33,1,300,4|8,1:0|1:0,1:0:0:0:
253,31,235226,6,0,B|353:22|462:84|467:208,1,300,4|8,1:0|1:0,1:0:0:0:
417,282,236290,2,0,B|349:358|230:365|141:265,1,300,6|14,1:2|1:2,1:0:0:0:
95,193,237354,6,2,B|140:165|199:195|199:195|194:31|194:31|258:60|324:32|324:32|314:204|314:204|376:160|432:197,1,700,6|2,1:0|1:2,1:0:0:0:
498,264,239483,6,0,L|481:372,1,100,6|0,1:0|1:0,1:0:0:0:
383,369,240015,2,0,L|399:270,1,100,0|0,1:0|1:0,1:0:0:0:
342,188,240547,6,0,B|296:170|226:201|226:201,1,100,2|2,1:0|1:0,1:0:0:0:
172,263,241080,2,0,B|125:301|63:271|63:271,1,100,2|2,1:0|1:2,1:0:0:0:
23,192,241612,6,0,B|125:192|125:192,1,100,6|0,1:2|1:2,1:0:0:0:
