osu file format v14

[General]
AudioFilename: audio.mp3
AudioLeadIn: 0
PreviewTime: 125603
Countdown: 0
SampleSet: Soft
StackLeniency: 0.3
Mode: 0
LetterboxInBreaks: 0
WidescreenStoryboard: 1

[Editor]
DistanceSpacing: 1
BeatDivisor: 3
GridSize: 4
TimelineZoom: 4.099998

[Metadata]
Title:Glorious Crown
TitleUnicode:Glorious Crown
Artist:xi
ArtistUnicode:xi
Creator:Bloxi
Version:Nagatoro's Insane
Source:maimai PiNK
Tags:fa featured artist FREEDOM DiVE↓ Diverse System Evolved Chronicles Full LONG Version Happy Hardcore Electronic Piano Instrumental BMS ORIGINAL & JOYPOLIS C91 DVSP-0169 4th solo album Yusuke Ishiwata SEGA DX ALL PERFECT COLLECTiON Cytus II Chizu-Kun PaRaDogi Nagatoro Urghi stzur kolik kolikiscool
BeatmapID:3585216
BeatmapSetID:1697518

[Difficulty]
HPDrainRate:5
CircleSize:4.2
OverallDifficulty:8
ApproachRate:9
SliderMultiplier:1.4
SliderTickRate:1

[Events]
//Background and Video events
0,0,"bg.jpg",0,0
//Break Periods
2,28951,36666
2,86424,89881
//Storyboard Layer 0 (Background)
//Storyboard Layer 1 (Fail)
//Storyboard Layer 2 (Pass)
//Storyboard Layer 3 (Foreground)
//Storyboard Layer 4 (Overlay)
//Storyboard Sound Samples

[TimingPoints]
1080,266.075388026608,4,2,0,80,1,0
44716,-200,4,2,0,80,0,0
46445,-50,4,2,0,80,0,0
46844,-100,4,2,0,80,0,0
63607,-50,4,2,0,80,0,0
63873,-100,4,2,0,80,0,1
81966,-100,4,2,0,80,0,0
108574,-100,4,2,0,80,0,1
125470,-100,4,2,0,80,0,0
125603,-100,4,2,0,80,0,1
142632,-100,4,2,0,80,0,0
143164,-100,4,2,0,80,0,1
143696,-100,4,2,0,80,0,0
144228,-100,4,2,0,80,0,1
144760,-100,4,2,0,80,0,0
145292,-100,4,2,0,80,0,1
145825,-100,4,2,0,80,0,0
146357,-100,4,2,0,80,0,1
146955,-100,4,2,0,80,0,0
185337,-200,4,2,0,80,0,0
186800,-133.333333333333,4,2,0,80,0,0
187598,-250,4,2,0,80,0,0
188929,-100,4,2,0,80,0,0
189727,-166.666666666667,4,2,0,80,0,0
192654,-133.333333333333,4,2,0,80,0,0
193186,-200,4,2,0,80,0,0
193851,-133.333333333333,4,2,0,80,0,0
196113,-125,4,2,0,80,0,0
196911,-111.111111111111,4,2,0,80,0,0
197443,-125,4,2,0,80,0,0
197975,-90.9090909090909,4,2,0,80,0,0
198241,-100,4,2,0,80,0,0
198507,-111.111111111111,4,2,0,80,0,0
198774,-142.857142857143,4,2,0,80,0,0
199040,-333.333333333333,4,2,0,80,0,0
200104,-100,4,2,0,80,0,0
203962,-50,4,2,0,80,0,0
204361,-100,4,2,0,80,0,0
217133,-100,4,2,0,80,0,1
232565,-66.6666666666667,4,2,0,80,0,1
233097,-100,4,2,0,80,0,0
237354,-100,4,2,0,80,0,1
241612,-100,4,2,0,80,0,0
241878,-100,4,2,0,5,0,0

[Colours]
Combo1 : 255,128,128
Combo2 : 128,255,0
Combo3 : 0,128,192
Combo4 : 255,255,128

[HitObjects]
0,352,1080,6,0,P|67:335|136:323,1,140,6|0,2:0|2:0,2:0:0:0:
240,341,1479,2,0,P|308:357|377:369,1,140,2|0,2:0|2:0,2:0:0:0:
480,338,1878,2,0,P|505:314|513:280,1,70,2|2,2:0|2:0,2:0:0:0:
495,188,2144,5,2,2:0:0:0:
429,271,2277,2,0,P|395:259|361:254,2,70,0|2|0,2:0|2:0|2:0,2:0:0:0:
405,162,2676,2,0,P|370:155|338:142,1,70,2|0,2:0|2:0,2:0:0:0:
285,286,2942,1,6,2:0:0:0:
255,217,3075,5,0,2:0:0:0:
255,217,3208,2,0,P|187:234|122:259,1,140,6|0,2:0|2:0,2:0:0:0:
149,353,3607,2,0,P|84:328|16:310,1,140,2|0,2:0|2:0,2:0:0:0:
4,207,4006,2,0,P|16:174|21:139,1,70,2|2,2:0|2:0,2:0:0:0:
0,32,4272,5,2,2:0:0:0:
102,122,4405,2,0,P|101:87|90:53,2,70,0|2|0,2:0|2:0|2:0,2:0:0:0:
195,0,4805,2,0,P|184:33|183:68,1,70,2|6,2:0|2:0,2:0:0:0:
214,145,5071,1,2,2:0:0:0:
298,183,5204,1,4,2:0:0:0:
390,182,5337,6,0,P|457:187|505:139,1,140,6|0,2:0|2:0,2:0:0:0:
477,46,5736,2,0,P|409:40|360:87,1,140,2|0,2:0|2:0,2:0:0:0:
289,153,6135,2,0,P|281:187|288:221,1,70,2|2,2:0|2:0,2:0:0:0:
345,294,6401,5,6,2:0:0:0:
237,311,6534,2,0,P|202:316|168:326,2,70,0|2|0,2:0|2:0|2:0,2:0:0:0:
329,378,6933,2,0,P|364:373|398:364,1,70,2|0,2:0|2:0,2:0:0:0:
233,303,7199,1,6,2:0:0:0:
311,238,7332,1,2,2:0:0:0:
402,244,7465,6,0,P|469:247|505:304,1,140,6|0,2:0|2:0,2:0:0:0:
467,371,7864,2,0,P|399:368|364:310,1,140,6|0,2:0|2:0,2:0:0:0:
325,243,8264,1,6,2:0:0:0:
397,169,8397,1,2,2:0:0:0:
275,150,8530,6,0,P|241:152|209:167,1,70,6|10,2:0|2:0,2:0:0:0:
172,324,8796,2,0,P|187:293|190:258,1,70,6|10,2:0|2:0,2:0:0:0:
72,158,9062,2,0,P|91:186|120:206,1,70,6|10,2:0|2:0,2:0:0:0:
260,230,9328,1,2,2:0:0:0:
151,137,9461,5,2,2:0:0:0:
151,137,9527,1,2,2:0:0:0:
151,137,9594,2,0,P|160:68|185:3,1,140,6|10,2:0|2:0,2:0:0:0:
280,10,9993,1,0,2:0:0:0:
280,10,10126,2,0,P|315:18|347:30,1,70,2|0,2:0|2:0,2:0:0:0:
427,59,10392,1,10,2:0:0:0:
486,131,10525,1,2,2:0:0:0:
412,190,10658,6,0,P|345:185|312:126,1,140,2|10,2:0|2:0,2:0:0:0:
233,83,11057,1,0,2:0:0:0:
233,83,11190,2,0,P|224:117|212:149,1,70,2|0,2:0|2:0,2:0:0:0:
153,205,11456,1,14,2:0:0:0:
265,242,11589,5,0,2:0:0:0:
265,242,11656,1,0,2:0:0:0:
265,241,11723,2,0,P|286:303|244:379,1,140,6|10,2:0|2:0,2:0:0:0:
166,381,12122,1,0,2:0:0:0:
166,381,12255,2,0,P|131:373|99:361,1,70,2|0,2:0|2:0,2:0:0:0:
17,327,12521,1,10,2:0:0:0:
1,239,12654,1,2,2:0:0:0:
80,187,12787,6,0,P|81:121|19:98,1,140,2|10,2:0|2:0,2:0:0:0:
73,25,13186,1,0,2:0:0:0:
73,25,13252,1,0,2:0:0:0:
73,25,13319,2,0,P|107:34|142:27,1,70,2|12,2:0|2:0,2:0:0:0:
188,112,13585,2,0,P|216:91|234:62,1,70,2|12,2:0|2:0,2:0:0:0:
341,11,13851,6,0,P|332:81|342:150,1,140,6|10,2:0|2:0,2:0:0:0:
390,239,14250,1,0,2:0:0:0:
390,239,14383,2,0,P|424:240|459:234,1,70,2|0,2:0|2:0,2:0:0:0:
512,314,14649,1,10,2:0:0:0:
512,314,14782,1,2,2:0:0:0:
427,384,14915,6,0,P|357:375|288:385,1,140,6|10,2:0|2:0,2:0:0:0:
180,336,15315,1,0,2:0:0:0:
180,336,15448,2,0,P|179:302|185:267,1,70,2|0,2:0|2:0,2:0:0:0:
260,316,15713,1,10,2:0:0:0:
260,316,15846,1,2,2:0:0:0:
308,176,15980,6,0,P|323:206|332:240,1,70,6|0,2:0|2:0,2:0:0:0:
256,236,16246,1,10,2:0:0:0:
256,236,16379,1,2,2:0:0:0:
190,80,16512,6,0,P|174:110|165:144,1,70,6|0,2:0|2:0,2:0:0:0:
243,143,16778,1,10,2:0:0:0:
243,143,16911,1,2,2:0:0:0:
313,15,17044,6,0,P|320:31|322:48,3,35,6|0|2|0,2:0|2:0|2:0|2:0,2:0:0:0:
174,65,17310,2,0,P|167:81|165:98,3,35,14|0|2|0,2:0|2:0|2:0|2:0,2:0:0:0:
300,156,17576,2,0,P|297:173|290:189,3,35,14|0|2|2,2:0|2:0|2:0|2:0,2:0:0:0:
208,232,17842,2,0,P|211:249|218:265,3,35,14|2|10|2,2:0|2:0|2:0|2:0,2:0:0:0:
320,296,18108,6,0,P|387:279|456:267,1,140,6|10,2:0|2:0,2:0:0:0:
509,165,18507,1,0,2:0:0:0:
509,165,18640,2,0,P|475:176|441:181,1,70,2|0,2:0|2:0,2:0:0:0:
353,191,18907,1,10,2:0:0:0:
280,143,19040,1,2,2:0:0:0:
246,244,19173,6,0,P|194:288|125:293,1,140,2|10,2:0|2:0,2:0:0:0:
62,230,19572,1,0,2:0:0:0:
61,229,19705,2,0,P|27:229|-2:246,1,70,2|0,2:0|2:0,2:0:0:0:
57,333,19971,1,14,2:0:0:0:
200,359,20103,5,0,2:0:0:0:
200,359,20236,2,0,P|268:342|333:317,1,140,6|10,2:0|2:0,2:0:0:0:
426,291,20636,1,0,2:0:0:0:
426,291,20769,2,0,P|461:297|494:308,1,70,2|0,2:0|2:0,2:0:0:0:
361,240,21035,2,0,P|349:207|344:172,1,70,10|2,2:0|2:0,2:0:0:0:
369,55,21301,6,0,P|413:107|430:175,1,140,2|10,2:0|2:0,2:0:0:0:
296,95,21700,1,0,2:0:0:0:
296,95,21767,1,0,2:0:0:0:
296,95,21833,2,0,P|270:72|239:56,1,70,2|12,2:0|2:0,2:0:0:0:
219,142,22099,2,0,P|186:132|151:131,1,70,2|8,2:0|2:0,2:0:0:0:
0,234,22366,6,0,P|34:238|67:225,1,70,6|0,2:0|2:0,2:0:0:0:
112,359,22632,2,0,P|131:330|137:296,1,70,10|0,2:0|2:0,2:0:0:0:
265,309,22898,2,0,P|250:277|223:255,1,70,2|8,2:0|2:0,2:0:0:0:
162,138,23164,2,0,P|156:172|150:206,1,70,10|10,2:0|2:0,2:0:0:0:
206,346,23363,5,8,2:0:0:0:
205,346,23430,2,0,P|229:371|262:381,1,70,6|0,2:0|2:0,2:0:0:0:
378,383,23696,2,0,P|411:374|436:351,1,70,10|0,2:0|2:0,2:0:0:0:
492,275,23895,1,0,2:0:0:0:
492,275,23962,2,0,P|501:241|493:208,1,70,2|8,2:0|2:0,2:0:0:0:
399,90,24228,2,0,P|405:124|408:159,1,70,10|10,2:0|2:0,2:0:0:0:
287,271,24494,6,0,P|252:271|221:255,1,70,14|0,2:0|2:0,2:0:0:0:
308,125,24760,2,0,P|326:155|328:190,1,70,10|10,2:0|2:0,2:0:0:0:
172,179,25026,2,0,P|189:149|218:130,1,70,14|0,2:0|2:0,2:0:0:0:
287,282,25292,2,0,P|252:282|221:266,1,70,10|10,2:0|2:0,2:0:0:0:
323,112,25558,6,0,L|328:148,3,35,4|0|8|0,2:0|2:0|2:0|2:0,2:0:0:0:
189,272,25825,2,0,L|184:236,3,35,4|0|8|0,2:0|2:0|2:0|2:0,2:0:0:0:
176,125,26091,2,0,L|212:120,3,35,4|0|8|0,2:0|2:0|2:0|2:0,2:0:0:0:
336,259,26357,2,0,L|300:264,3,35,4|0|8|0,2:0|2:0|2:0|2:0,2:0:0:0:
256,192,26623,1,6,2:0:0:0:
175,111,28219,6,2,P|190:143|193:178,1,70,2|2,2:0|2:0,2:0:0:0:
336,111,28485,2,2,P|321:143|318:178,1,70,2|2,2:0|2:0,2:0:0:0:
256,32,28751,1,6,2:0:0:0:
256,192,37266,5,4,2:0:0:0:
242,149,38064,1,2,2:0:0:0:
292,165,38197,1,2,2:0:0:0:
292,218,38330,5,2,2:0:0:0:
242,234,38596,1,2,2:0:0:0:
211,191,38862,1,2,2:0:0:0:
161,175,39128,1,2,2:0:0:0:
130,217,39261,6,0,L|144:292,1,70,0|6,2:0|2:0,2:0:0:0:
130,217,39927,1,4,2:0:0:0:
140,257,40060,1,2,2:0:0:0:
93,241,40193,1,2,2:0:0:0:
93,192,40326,1,2,2:0:0:0:
140,177,40459,5,6,2:0:0:0:
168,217,40725,2,0,L|159:262,2,46.6666666666667,2|2|2,2:0|2:0|2:0,2:0:0:0:
215,232,40991,5,6,2:0:0:0:
243,192,41257,2,0,L|236:157,3,35,2|2|2|0,2:0|3:0|3:0|2:0,2:0:0:0:
221,87,41523,5,4,2:0:0:0:
231,131,41789,1,2,2:0:0:0:
184,115,42055,1,2,2:0:0:0:
184,66,42321,1,6,2:0:0:0:
231,51,42587,1,6,2:0:0:0:
259,91,42986,5,2,2:0:0:0:
259,91,43053,1,2,2:0:0:0:
259,91,43119,1,6,2:0:0:0:
211,249,43519,5,2,2:0:0:0:
200,244,43585,1,2,2:0:0:0:
194,234,43652,1,6,2:0:0:0:
250,181,43918,1,2,2:0:0:0:
317,218,44184,1,6,2:0:0:0:
302,294,44450,1,6,2:0:0:0:
226,303,44716,6,0,L|212:353,2,52.5,6|2|2,2:0|2:0|2:0,2:0:0:0:
302,294,45248,2,0,L|328:339,2,52.5,2|2|2,2:0|2:0|2:0,2:0:0:0:
317,218,45780,2,0,L|367:231,2,52.5,2|2|2,2:0|2:0|2:0,2:0:0:0:
172,172,46312,5,0,3:0:0:0:
256,72,46445,2,2,B|295:159|207:183|250:274,1,210,10|0,2:0|2:0,1:0:0:0:
360,368,46711,5,0,2:0:0:0:
360,368,46778,1,0,2:0:0:0:
360,368,46844,2,0,P|427:362|464:305,1,140,6|10,2:0|2:0,2:0:0:0:
383,169,47244,2,0,P|354:230|385:290,1,140,2|2,2:0|2:0,2:0:0:0:
385,290,47643,1,10,2:0:0:0:
461,206,47776,1,2,2:0:0:0:
464,88,47909,6,0,L|472:16,1,70,2|0,2:0|2:0,2:0:0:0:
360,80,48175,2,0,L|336:11,1,70,10|0,2:0|2:0,2:0:0:0:
272,104,48441,6,0,L|221:51,1,70,2|0,2:0|2:0,2:0:0:0:
200,136,48707,2,0,L|132:109,1,70,10|0,2:0|2:0,2:0:0:0:
31,152,48973,6,0,P|100:136|170:133,1,140,2|8,2:0|2:0,2:0:0:0:
296,200,49372,1,2,2:0:0:0:
296,200,49505,2,0,P|261:205|231:223,1,70,2|2,2:0|2:0,2:0:0:0:
80,264,49771,2,0,P|109:282|144:287,1,70,10|2,2:0|2:0,2:0:0:0:
288,304,50037,5,2,2:0:0:0:
397,250,50170,1,2,2:0:0:0:
492,344,50303,1,10,2:0:0:0:
396,371,50436,5,2,2:0:0:0:
392,360,50503,1,2,2:0:0:0:
392,352,50570,2,0,B|408:288|408:288|397:250,1,105,10|2,2:0|2:0,2:0:0:0:
304,216,50836,2,0,P|288:184|292:150,1,70,8|10,2:0|2:0,2:0:0:0:
464,64,51102,6,0,P|492:126|476:193,1,140,6|10,2:0|2:0,2:0:0:0:
397,250,51501,2,0,P|328:265|262:286,1,140,2|2,2:0|2:0,2:0:0:0:
111,336,51900,2,0,P|63:330|54:282,1,105,10|0,2:0|2:0,2:0:0:0:
0,225,52166,5,6,2:0:0:0:
100,218,52299,2,0,B|106:200|105:183|105:183|92:170|85:154,1,70,2|10,2:0|2:0,2:0:0:0:
15,20,52565,1,2,2:0:0:0:
15,20,52632,1,2,2:0:0:0:
14,19,52698,2,0,P|34:48|66:60,1,70,2|2,2:0|2:0,2:0:0:0:
154,127,52964,2,0,P|188:124|215:102,1,70,10|10,2:0|2:0,2:0:0:0:
314,63,53230,6,0,P|375:89|387:155,1,140,6|10,2:0|2:0,2:0:0:0:
512,239,53629,2,0,P|450:265|438:331,1,140,2|2,2:0|2:0,2:0:0:0:
343,383,54029,2,0,P|337:349|335:314,1,70,10|2,2:0|2:0,2:0:0:0:
258,282,54295,5,2,2:0:0:0:
400,210,54428,2,0,P|427:188|459:174,2,70,2|14|2,2:0|2:0|2:0,2:0:0:0:
225,185,54827,5,14,2:0:0:0:
339,130,54960,1,2,2:0:0:0:
182,65,55093,2,0,P|149:51|115:42,1,70,14|0,2:0|2:0,2:0:0:0:
360,0,55359,6,2,P|360:69|366:139,1,140,6|10,2:0|2:0,2:0:0:0:
152,384,55891,2,2,P|151:314|145:244,1,140,2|10,2:0|2:0,2:0:0:0:
63,88,56423,2,2,P|133:87|203:81,1,140,2|10,2:0|2:0,2:0:0:0:
448,296,56955,2,2,P|378:296|308:302,1,140,2|10,2:0|2:0,2:0:0:0:
224,232,57487,6,0,L|224:162,1,70,2|2,2:0|2:0,2:0:0:0:
296,144,57754,2,0,L|296:214,1,70,10|0,2:0|2:0,2:0:0:0:
204,241,58020,2,0,L|204:171,1,70,2|2,2:0|2:0,2:0:0:0:
376,252,58286,6,0,L|376:322,1,70,10|2,2:0|2:0,2:0:0:0:
311,368,58485,1,2,2:0:0:0:
311,367,58552,2,0,P|243:379|184:344,1,140,2|10,2:0|2:0,2:0:0:0:
63,228,58951,1,2,2:0:0:0:
71,230,59017,1,2,2:0:0:0:
77,233,59084,2,0,P|109:243|131:270,1,70,2|2,2:0|2:0,2:0:0:0:
34,384,59350,2,0,P|55:356|87:344,1,70,10|2,2:0|2:0,2:0:0:0:
288,296,59616,6,0,P|342:336|409:325,1,140,6|10,2:0|2:0,2:0:0:0:
484,268,60015,1,2,2:0:0:0:
484,268,60082,1,2,2:0:0:0:
483,267,60148,2,0,P|504:293|511:327,1,70,2|0,2:0|2:0,2:0:0:0:
439,384,60414,2,0,P|417:357|410:323,1,70,10|2,2:0|2:0,2:0:0:0:
384,160,60680,6,0,P|384:90|391:20,1,140,6|10,2:0|2:0,2:0:0:0:
440,243,61080,1,2,2:0:0:0:
440,243,61146,1,2,2:0:0:0:
440,243,61213,2,0,P|380:208|311:208,1,140,10|10,2:0|2:0,2:0:0:0:
221,226,61612,5,8,2:0:0:0:
212,218,61678,1,0,2:0:0:0:
200,208,61745,2,0,L|188:138,1,70,6|8,2:0|2:0,2:0:0:0:
312,208,62011,2,0,L|323:138,1,70,2|2,2:0|2:0,2:0:0:0:
160,280,62277,6,0,L|94:255,1,70,12|0,2:0|2:0,2:0:0:0:
352,280,62543,2,0,L|417:255,2,70,10|10|6,2:0|2:0|2:0,2:0:0:0:
256,368,63009,1,6,2:0:0:0:
256,384,63208,5,6,2:0:0:0:
256,192,63341,2,0,L|256:157,2,35,2|0|2,2:0|2:0|2:0,2:0:0:0:
247,81,63607,6,2,B|208:168|296:192|253:283,1,210,10|0,2:0|2:0,1:0:0:0:
184,336,63873,6,0,P|239:374|305:358,1,140,6|8,2:0|2:0,2:0:0:0:
416,304,64272,1,0,2:0:0:0:
416,304,64405,2,0,P|456:312|488:336,1,70,0|0,2:0|2:0,2:0:0:0:
424,384,64672,1,10,2:0:0:0:
320,248,64805,1,2,2:0:0:0:
464,216,64938,6,0,L|448:128,1,70,2|0,2:0|2:0,2:0:0:0:
360,192,65204,2,0,L|377:124,1,70,10|0,2:0|2:0,2:0:0:0:
272,136,65470,2,0,L|316:82,1,70,2|0,2:0|2:0,2:0:0:0:
192,104,65736,2,0,L|209:36,1,70,10|0,2:0|2:0,2:0:0:0:
112,136,66002,2,0,L|99:67,1,70,6|0,2:0|2:0,2:0:0:0:
16,128,66268,5,10,2:0:0:0:
16,128,66334,1,2,2:0:0:0:
16,128,66401,1,10,2:0:0:0:
128,216,66534,1,0,2:0:0:0:
40,304,66667,2,0,P|16:278|6:245,2,70,2|10|2,2:0|2:0|2:0,2:0:0:0:
112,136,67066,6,0,L|99:67,1,70,6|0,2:0|2:0,2:0:0:0:
209,36,67332,2,0,L|192:104,1,70,10|2,2:0|2:0,2:0:0:0:
168,208,67598,5,6,2:0:0:0:
256,144,67731,1,14,2:0:0:0:
160,192,67864,5,6,2:0:0:0:
248,216,67997,1,14,2:0:0:0:
136,288,68130,6,0,P|66:295|2:322,1,140,6|10,2:0|2:0,2:0:0:0:
224,328,68530,1,2,2:0:0:0:
224,328,68596,1,2,2:0:0:0:
223,328,68663,2,0,P|258:328|291:340,1,70,2|0,2:0|2:0,2:0:0:0:
384,368,68929,2,0,P|418:367|451:355,1,70,14|0,2:0|2:0,2:0:0:0:
464,176,69195,6,0,P|410:218|404:286,1,140,6|8,2:0|2:0,2:0:0:0:
296,96,69594,1,2,2:0:0:0:
296,96,69660,1,2,2:0:0:0:
296,96,69727,2,0,P|359:121|421:92,1,140,6|14,2:0|2:0,2:0:0:0:
480,40,70126,1,14,2:0:0:0:
256,16,70259,6,0,P|227:35|209:65,1,70,6|0,2:0|2:0,2:0:0:0:
256,368,70525,2,0,P|284:348|302:318,1,70,14|12,2:0|2:0,2:0:0:0:
103,104,70791,6,0,P|106:138|123:168,1,70,6|0,2:0|2:0,2:0:0:0:
408,280,71057,2,0,P|405:245|388:215,1,70,14|12,2:0|2:0,2:0:0:0:
103,279,71323,6,0,P|169:294|223:253,1,140,6|8,2:0|2:0,2:0:0:0:
408,104,71723,1,2,2:0:0:0:
408,104,71789,1,2,2:0:0:0:
408,104,71856,2,0,P|342:89|288:130,1,140,14|12,2:0|2:0,2:0:0:0:
14,180,72255,1,4,2:0:0:0:
152,200,72388,6,0,P|84:182|14:181,1,140,6|8,2:0|2:0,2:0:0:0:
0,304,72787,1,0,2:0:0:0:
0,304,72920,2,0,P|32:290|66:282,1,70,0|2,2:0|2:0,2:0:0:0:
216,232,73186,1,10,2:0:0:0:
136,336,73319,1,2,2:0:0:0:
264,376,73452,6,0,L|241:309,1,70,2|0,2:0|2:0,2:0:0:0:
343,343,73718,2,0,L|362:274,1,70,10|0,2:0|2:0,2:0:0:0:
427,358,73984,2,0,L|482:313,1,70,2|0,2:0|2:0,2:0:0:0:
434,247,74250,2,0,L|453:178,1,70,10|0,2:0|2:0,2:0:0:0:
353,182,74516,2,0,L|330:115,1,70,6|0,2:0|2:0,2:0:0:0:
356,24,74782,5,10,2:0:0:0:
356,24,74849,1,2,2:0:0:0:
356,24,74915,1,10,2:0:0:0:
464,127,75048,1,0,2:0:0:0:
492,0,75181,2,0,P|495:34|509:66,2,70,2|10|2,2:0|2:0|2:0,2:0:0:0:
404,210,75581,6,0,L|423:141,1,70,6|0,2:0|2:0,2:0:0:0:
321,71,75847,2,0,L|344:138,1,70,10|2,2:0|2:0,2:0:0:0:
512,254,76113,5,6,2:0:0:0:
404,210,76246,1,10,2:0:0:0:
512,237,76379,5,6,2:0:0:0:
430,280,76512,1,10,2:0:0:0:
295,183,76645,6,0,P|263:167|229:164,1,70,4|0,2:0|2:0,2:0:0:0:
144,216,76911,2,0,P|112:231|78:234,1,70,10|2,2:0|2:0,2:0:0:0:
16,59,77177,6,0,P|74:93|90:159,1,140,2|14,2:0|2:0,2:0:0:0:
8,232,77576,1,12,2:0:0:0:
153,207,77709,6,0,P|140:274|83:311,1,140,6|14,2:0|2:0,2:0:0:0:
14,233,78108,1,14,2:0:0:0:
120,383,78241,6,0,P|51:382|4:332,1,140,6|12,2:0|2:0,2:0:0:0:
24,232,78640,1,14,2:0:0:0:
195,319,78774,6,0,P|230:324|256:346,1,70,6|10,2:0|2:0,2:0:0:0:
317,319,79040,2,0,P|282:324|256:346,1,70,6|10,2:0|2:0,2:0:0:0:
117,207,79306,6,0,P|129:239|124:273,1,70,6|10,2:0|2:0,2:0:0:0:
394,207,79572,2,0,P|382:239|387:273,1,70,6|10,2:0|2:0,2:0:0:0:
173,79,79838,6,0,P|151:106|119:118,2,70,6|8|12,2:0|2:0|2:0,2:0:0:0:
338,79,80237,1,10,2:0:0:0:
338,79,80303,1,0,2:0:0:0:
338,79,80370,2,0,P|360:106|392:118,2,70,6|8|14,2:0|2:0|2:0,2:0:0:0:
256,8,80769,5,10,2:0:0:0:
256,8,80836,1,2,2:0:0:0:
256,8,80902,2,0,L|250:42,3,35,6|0|8|2,2:0|2:0|2:0|2:0,2:0:0:0:
256,120,81168,2,0,L|261:154,3,35,4|0|10|0,2:0|2:0|2:0|2:0,2:0:0:0:
256,232,81434,2,0,L|250:266,3,35,6|0|8|2,2:0|2:0|2:0|2:0,2:0:0:0:
256,336,81700,2,0,L|261:370,3,35,12|0|10|0,2:0|2:0|2:0|2:0,2:0:0:0:
256,192,81966,1,6,2:0:0:0:
256,192,82033,12,4,86224,2:0:0:0:
332,368,90481,5,6,2:0:0:0:
265,346,90747,1,10,2:0:0:0:
265,276,91013,1,0,2:0:0:0:
332,254,91279,1,10,2:0:0:0:
373,311,91545,1,0,2:0:0:0:
332,368,91811,1,10,2:0:0:0:
265,346,92077,5,0,2:0:0:0:
260,338,92210,1,0,2:0:0:0:
373,311,92343,1,14,2:0:0:0:
180,368,92609,5,4,2:0:0:0:
139,311,92875,1,10,2:0:0:0:
180,254,93141,1,0,2:0:0:0:
247,276,93408,1,10,2:0:0:0:
247,346,93673,1,0,2:0:0:0:
180,368,93940,1,10,2:0:0:0:
139,311,94206,5,0,2:0:0:0:
135,302,94339,1,14,2:0:0:0:
247,346,94472,1,2,2:0:0:0:
255,341,94605,1,12,2:0:0:0:
180,368,94738,6,0,P|208:303|211:234,1,140,6|10,2:0|2:0,2:0:0:0:
332,368,95270,2,0,P|304:303|301:234,1,140,2|10,2:0|2:0,2:0:0:0:
72,232,95802,6,0,P|139:211|194:169,1,140,6|10,2:0|2:0,2:0:0:0:
440,232,96334,2,0,P|372:211|317:169,1,140,2|10,2:0|2:0,2:0:0:0:
40,104,96734,5,0,2:0:0:0:
48,108,96867,2,0,P|117:111|184:90,1,140,6|10,2:0|2:0,2:0:0:0:
464,108,97266,1,2,2:0:0:0:
464,108,97332,1,2,2:0:0:0:
464,108,97399,2,0,P|394:111|327:90,1,140,4|10,2:0|2:0,2:0:0:0:
192,28,97798,1,2,2:0:0:0:
264,0,97931,6,0,L|260:69,1,70,6|8,2:0|2:0,2:0:0:0:
264,384,98197,2,0,L|260:314,1,70,6|8,2:0|2:0,2:0:0:0:
64,200,98463,2,0,L|133:196,1,70,6|10,2:0|2:0,2:0:0:0:
440,240,98729,2,0,L|370:236,1,70,6|10,2:0|2:0,2:0:0:0:
255,191,98995,6,0,P|290:189|323:178,1,70,6|0,2:0|2:0,2:0:0:0:
452,128,99261,2,0,P|510:160|510:227,1,140,2|10,2:0|2:0,2:0:0:0:
452,312,99660,2,0,L|383:328,1,70,2|0,2:0|2:0,2:0:0:0:
252,364,99927,1,2,2:0:0:0:
252,364,100060,2,0,P|248:329|249:294,1,70,2|0,2:0|2:0,2:0:0:0:
256,192,100326,2,0,P|259:157|258:122,1,70,2|0,2:0|2:0,2:0:0:0:
188,0,100592,1,10,2:0:0:0:
256,48,100725,1,2,2:0:0:0:
324,0,100858,2,0,P|381:35|391:102,1,140,2|6,2:0|2:0,2:0:0:0:
468,160,101257,5,2,2:0:0:0:
468,160,101390,2,0,P|410:195|400:262,1,140,2|8,2:0|2:0,2:0:0:0:
288,344,101789,2,0,P|336:344|384:332,1,70,2|0,2:0|2:0,2:0:0:0:
476,308,102055,1,2,2:0:0:0:
319,269,102188,2,0,P|285:260|254:244,1,70,2|0,2:0|2:0,2:0:0:0:
174,293,102454,2,0,P|139:300|108:316,1,70,2|0,2:0|2:0,2:0:0:0:
6,267,102720,5,10,2:0:0:0:
0,256,102853,1,6,2:0:0:0:
48,360,102986,1,2,2:0:0:0:
48,372,103119,1,6,2:0:0:0:
219,355,103252,6,0,P|253:362|283:378,1,70,6|2,2:0|2:0,2:0:0:0:
339,306,103519,2,0,P|404:328|474:324,1,140,2|8,2:0|2:0,2:0:0:0:
485,222,103918,2,0,P|453:237|419:244,1,70,2|0,2:0|2:0,2:0:0:0:
259,304,104184,5,0,2:0:0:0:
259,304,104250,1,0,2:0:0:0:
259,304,104317,2,0,P|266:269|282:238,1,70,6|0,2:0|2:0,2:0:0:0:
135,191,104583,2,0,P|150:222|157:256,1,70,10|0,2:0|2:0,2:0:0:0:
185,357,104849,1,2,2:0:0:0:
100,375,104982,1,0,2:0:0:0:
28,326,105115,2,0,P|20:293|28:259,1,70,10|0,2:0|2:0,2:0:0:0:
376,384,105381,6,0,P|376:349|394:245,1,140,6|8,2:0|2:0,2:0:0:0:
136,384,105913,2,0,P|130:314|117:245,1,140,6|8,2:0|2:0,2:0:0:0:
380,156,106445,6,0,P|414:94|455:38,1,140,6|10,2:0|2:0,2:0:0:0:
132,156,106978,2,0,P|97:94|56:38,1,140,6|10,2:0|2:0,2:0:0:0:
212,168,107510,6,2,P|256:294|299:167,1,350,6|2,2:0|2:0,2:0:0:0:
256,88,108308,2,2,L|256:18,1,70,6|2,2:0|2:0,2:0:0:0:
336,224,108574,6,2,P|388:247|448:248,2,105,6|2|2,2:0|2:0|2:0,2:0:0:0:
175,224,109106,2,0,P|128:246|76:250,2,105,2|2|2,2:0|2:0|2:0,2:0:0:0:
300,160,109638,6,0,P|349:142|389:108,2,105,2|2|2,2:0|2:0|2:0,2:0:0:0:
212,160,110170,2,0,P|163:142|123:108,2,105,2|2|2,2:0|2:0|2:0,2:0:0:0:
316,68,110703,5,2,2:0:0:0:
323,53,110902,1,2,2:0:0:0:
330,38,111102,1,2,2:0:0:0:
256,36,111235,5,2,2:0:0:0:
256,20,111434,1,2,2:0:0:0:
256,4,111634,1,2,2:0:0:0:
200,76,111767,5,2,2:0:0:0:
193,61,111966,1,2,2:0:0:0:
186,46,112166,1,10,2:0:0:0:
335,223,112299,6,2,P|366:241|400:248,1,70,2|10,2:0|2:0,2:0:0:0:
176,223,112565,2,2,P|145:241|111:248,1,70,6|10,2:0|2:0,2:0:0:0:
320,152,112831,5,6,2:0:0:0:
256,96,113031,1,2,2:0:0:0:
192,152,113230,1,2,2:0:0:0:
335,223,113363,6,2,P|366:241|400:248,1,70,2|2,2:0|2:0,2:0:0:0:
176,223,113629,2,2,P|145:241|111:248,1,70,10|2,2:0|2:0,2:0:0:0:
323,138,113895,6,2,P|353:120|377:95,1,70,6|2,2:0|2:0,2:0:0:0:
188,138,114162,2,2,P|158:120|134:95,1,70,10|2,2:0|2:0,2:0:0:0:
304,64,114428,6,2,P|323:35|334:1,1,70,2|2,2:0|2:0,2:0:0:0:
208,64,114694,2,2,P|188:35|177:1,1,70,10|2,2:0|2:0,2:0:0:0:
384,144,114960,6,2,P|389:109|385:75,1,70,6|2,2:0|2:0,2:0:0:0:
128,144,115226,2,2,P|122:109|126:75,1,70,10|2,2:0|2:0,2:0:0:0:
416,256,115492,6,2,P|389:233|356:220,1,70,2|2,2:0|2:0,2:0:0:0:
96,256,115758,2,2,P|122:233|155:220,1,70,10|2,2:0|2:0,2:0:0:0:
256,192,116024,5,2,2:0:0:0:
256,176,116224,1,6,2:0:0:0:
256,160,116423,1,14,2:0:0:0:
256,336,116556,6,8,L|256:376,2,35,4|0|8,2:0|2:0|2:0,2:0:0:0:
256,160,116822,1,14,2:0:0:0:
344,288,116955,5,8,2:0:0:0:
344,288,117022,1,0,2:0:0:0:
343,287,117088,2,0,P|378:289|410:275,1,70,6|2,2:0|2:0,2:0:0:0:
168,287,117354,2,0,P|133:289|101:275,1,70,10|2,2:0|2:0,2:0:0:0:
383,163,117621,6,0,P|401:134|406:99,1,70,2|2,2:0|2:0,2:0:0:0:
128,163,117887,2,0,P|110:134|105:99,1,70,10|2,2:0|2:0,2:0:0:0:
256,40,118153,6,2,L|256:-8,2,46.6666666666667,2|2|2,2:0|2:0|2:0,2:0:0:0:
290,104,118419,2,0,P|256:111|222:103,1,70,10|0,2:0|2:0,2:0:0:0:
257,213,118685,5,2,2:0:0:0:
257,197,118884,1,6,2:0:0:0:
257,181,119084,1,6,2:0:0:0:
152,112,119217,6,0,P|148:78|158:45,1,70,6|2,2:0|2:0,2:0:0:0:
359,112,119483,2,0,P|363:78|353:45,1,70,10|2,2:0|2:0,2:0:0:0:
96,240,119749,6,0,P|106:206|130:181,1,70,2|2,2:0|2:0,2:0:0:0:
416,240,120015,2,0,P|405:206|381:181,1,70,10|2,2:0|2:0,2:0:0:0:
189,345,120281,6,0,P|171:315|167:281,1,70,6|2,2:0|2:0,2:0:0:0:
322,345,120547,2,0,P|340:315|344:281,1,70,10|2,2:0|2:0,2:0:0:0:
144,192,120813,6,0,P|109:193|77:179,1,70,2|2,2:0|2:0,2:0:0:0:
368,192,121080,2,0,P|402:193|434:179,1,70,14|14,2:0|2:0,2:0:0:0:
128,120,121346,5,6,2:0:0:0:
256,156,121545,1,2,2:0:0:0:
384,120,121745,1,2,2:0:0:0:
304,80,121878,6,0,P|299:148|337:206,1,140,2|14,2:0|2:0,2:0:0:0:
384,272,122277,5,6,2:0:0:0:
383,271,122410,2,0,P|397:304|400:339,1,70,6|2,2:0|2:0,2:0:0:0:
128,271,122676,2,0,P|114:304|111:339,1,70,10|0,2:0|2:0,2:0:0:0:
304,152,122942,6,0,P|329:175|347:205,1,70,2|2,2:0|2:0,2:0:0:0:
208,152,123208,2,0,P|182:175|164:205,1,70,14|12,2:0|2:0,2:0:0:0:
256,40,123474,5,6,2:0:0:0:
256,24,123674,1,2,2:0:0:0:
256,8,123873,1,2,2:0:0:0:
320,104,124006,5,6,2:0:0:0:
256,40,124206,1,2,2:0:0:0:
192,104,124405,1,2,2:0:0:0:
328,176,124538,6,0,P|360:165|382:138,1,70,6|10,2:0|2:0,2:0:0:0:
184,176,124805,2,0,P|151:165|129:138,1,70,6|10,2:0|2:0,2:0:0:0:
280,232,125071,6,0,P|309:250|343:250,1,70,6|10,2:0|2:0,2:0:0:0:
232,232,125337,2,0,P|202:250|168:250,1,70,6|10,2:0|2:0,2:0:0:0:
56,208,125536,5,2,2:0:0:0:
56,208,125603,2,0,P|17:262|47:323,1,140,6|8,2:0|2:0,2:0:0:0:
128,368,126002,1,2,2:0:0:0:
128,368,126068,1,2,2:0:0:0:
127,368,126135,2,0,P|162:360|197:359,1,70,2|2,2:0|2:0,2:0:0:0:
272,320,126401,2,0,P|306:327|341:328,1,70,10|0,2:0|2:0,2:0:0:0:
424,368,126667,1,0,2:0:0:0:
424,368,126734,1,2,2:0:0:0:
512,112,126933,5,10,2:0:0:0:
448,80,127133,1,2,2:0:0:0:
408,140,127332,1,2,2:0:0:0:
456,192,127532,1,10,2:0:0:0:
500,252,127731,6,0,L|492:321,1,70,6|2,2:0|2:0,2:0:0:0:
389,276,127997,2,0,L|411:342,1,70,10|2,2:0|2:0,2:0:0:0:
298,332,128264,2,0,L|346:382,1,70,2|2,2:0|2:0,2:0:0:0:
200,308,128530,2,0,L|222:374,1,70,10|2,2:0|2:0,2:0:0:0:
64,256,128796,5,0,2:0:0:0:
128,280,128929,2,0,L|120:349,1,70,6|14,2:0|2:0,2:0:0:0:
136,212,129195,5,10,2:0:0:0:
72,236,129328,2,0,L|80:340,2,105,6|14|14,2:0|2:0|2:0,2:0:0:0:
12,150,129860,6,0,P|-10:84|6:17,1,140,2|12,2:0|2:0,2:0:0:0:
127,144,130259,2,0,P|143:76|121:11,1,140,2|0,2:0|2:0,2:0:0:0:
76,204,130658,1,14,2:0:0:0:
80,212,130725,1,2,2:0:0:0:
84,220,130791,1,2,2:0:0:0:
68,84,130924,6,0,P|39:103|4:111,1,70,2|2,2:0|2:0,2:0:0:0:
177,164,131190,2,0,P|170:198|151:228,1,70,14|2,2:0|2:0,2:0:0:0:
304,156,131456,2,0,P|323:184|331:219,1,70,2|6,2:0|2:0,2:0:0:0:
384,96,131723,1,14,2:0:0:0:
396,84,131789,1,2,2:0:0:0:
400,72,131856,1,2,2:0:0:0:
352,0,131989,6,0,P|371:68|384:137,1,140,2|14,2:0|2:0,2:0:0:0:
500,236,132388,1,2,2:0:0:0:
500,236,132454,1,2,2:0:0:0:
499,236,132521,2,0,P|471:279|463:331,1,105,2|2,2:0|2:0,2:0:0:0:
404,380,132787,2,0,P|371:367|336:361,1,70,12|2,2:0|2:0,2:0:0:0:
264,240,133053,6,0,P|212:250|162:265,1,105,2|0,2:0|2:0,2:0:0:0:
112,320,133319,2,0,P|78:308|45:299,1,70,14|0,2:0|2:0,2:0:0:0:
0,240,133519,2,0,P|11:206|20:173,1,70,2|0,2:0|2:0,2:0:0:0:
72,120,133718,2,0,P|105:131|138:140,1,70,2|12,2:0|2:0,2:0:0:0:
200,180,133918,2,0,P|233:168|266:159,1,70,2|0,2:0|2:0,2:0:0:0:
352,149,134117,6,0,P|413:145|407:207,1,140,6|10,2:0|2:0,2:0:0:0:
356,272,134517,1,2,2:0:0:0:
356,272,134583,1,2,2:0:0:0:
356,272,134649,2,0,P|384:292|422:290,1,70,2|0,2:0|2:0,2:0:0:0:
484,252,134915,1,10,2:0:0:0:
304,212,135048,6,0,P|235:200|165:190,1,140,2|2,2:0|2:0,2:0:0:0:
152,188,135381,1,2,2:0:0:0:
140,188,135448,1,10,2:0:0:0:
64,232,135581,1,2,2:0:0:0:
0,156,135714,6,0,P|29:136|63:132,1,70,2|0,2:0|2:0,2:0:0:0:
76,312,135980,2,0,P|41:307|12:288,1,70,10|0,2:0|2:0,2:0:0:0:
160,216,136246,6,0,P|229:219|285:260,2,140,6|10|2,2:0|2:0|2:0,2:0:0:0:
64,260,136911,1,2,2:0:0:0:
64,260,136978,1,2,2:0:0:0:
64,260,137044,1,10,2:0:0:0:
60,152,137177,6,0,L|48:82,1,70,2|4,2:0|2:0,2:0:0:0:
200,132,137443,2,0,L|143:91,1,70,2|8,2:0|2:0,2:0:0:0:
280,20,137709,2,0,L|210:31,1,70,2|0,2:0|2:0,2:0:0:0:
116,0,137975,1,2,2:0:0:0:
52,76,138108,1,10,2:0:0:0:
200,132,138241,5,2,2:0:0:0:
200,132,138308,1,2,2:0:0:0:
200,131,138374,2,0,P|268:132|322:176,1,140,6|8,2:0|2:0,2:0:0:0:
404,268,138774,5,2,2:0:0:0:
404,268,138840,1,2,2:0:0:0:
404,268,138907,2,0,P|435:252|469:248,1,70,2|2,2:0|2:0,2:0:0:0:
480,136,139173,2,0,P|448:151|414:155,1,70,10|2,2:0|2:0,2:0:0:0:
287,256,139439,6,0,P|237:242|185:232,1,105,6|2,2:0|2:0,2:0:0:0:
164,160,139705,2,0,P|113:173|61:183,1,105,10|2,2:0|2:0,2:0:0:0:
12,240,139971,2,0,P|26:271|34:305,1,70,2|2,2:0|2:0,2:0:0:0:
148,372,140237,1,10,2:0:0:0:
157,366,140303,1,2,2:0:0:0:
167,360,140370,1,2,2:0:0:0:
347,284,140503,6,0,P|380:275|407:253,1,70,4|2,2:0|2:0,2:0:0:0:
165,284,140769,2,0,P|131:275|104:253,1,70,10|2,2:0|2:0,2:0:0:0:
381,159,141035,6,0,P|390:125|384:91,1,70,6|2,2:0|2:0,2:0:0:0:
130,159,141301,2,0,P|121:125|127:91,1,70,8|0,2:0|2:0,2:0:0:0:
255,0,141567,6,0,P|263:33|257:68,1,70,6|0,2:0|2:0,2:0:0:0:
255,384,141833,2,0,P|263:350|257:315,1,70,10|0,2:0|2:0,2:0:0:0:
63,192,142099,6,0,P|97:184|132:190,1,70,6|0,2:0|2:0,2:0:0:0:
448,192,142366,2,0,P|414:184|379:190,1,70,10|0,2:0|2:0,2:0:0:0:
212,184,142632,6,2,L|188:322,1,140,6|2,2:0|2:0,2:0:0:0:
300,184,143164,2,2,L|323:322,1,140,14|2,2:0|2:0,2:0:0:0:
148,112,143696,6,2,L|124:250,1,140,6|2,2:0|2:0,2:0:0:0:
364,112,144228,2,2,L|387:250,1,140,10|2,2:0|2:0,2:0:0:0:
88,44,144760,6,2,L|64:182,1,140,6|2,2:0|2:0,2:0:0:0:
424,44,145292,2,2,L|447:182,1,140,10|2,2:0|2:0,2:0:0:0:
24,0,145825,6,2,L|0:138,1,140,6|2,2:0|2:0,2:0:0:0:
488,0,146357,2,2,L|511:138,1,140,10|10,2:0|2:0,2:0:0:0:
256,384,146889,1,6,2:0:0:0:
256,192,146955,12,12,148751,2:0:0:0:
256,304,149017,5,4,2:0:0:0:
256,192,149084,12,12,150791,2:0:0:0:
256,204,151057,5,12,2:0:0:0:
256,204,151146,1,12,2:0:0:0:
256,192,151213,12,4,155403,2:0:0:0:
228,107,155669,6,0,P|254:144|254:190,1,93.3333333333333,8|2,2:0|2:0,2:0:0:0:
339,206,156113,5,0,2:0:0:0:
339,206,156201,2,0,P|288:211|247:182,1,93.3333333333333,8|2,2:0|2:0,2:0:0:0:
198,258,156645,5,0,2:0:0:0:
198,258,156734,2,0,P|219:211|264:187,1,93.3333333333333,8|2,2:0|2:0,2:0:0:0:
230,105,157000,2,0,P|255:142|252:188,1,93.3333333333333,0|0,2:0|2:0,2:0:0:0:
335,212,157266,2,0,P|289:214|251:188,1,93.3333333333333,14|0,2:0|2:0,2:0:0:0:
160,127,157532,6,0,P|98:157|82:223,1,140,4|10,2:0|2:0,2:0:0:0:
359,140,157975,2,0,P|365:72|324:18,1,140,2|0,2:0|2:0,2:0:0:0:
324,18,158330,5,10,2:0:0:0:
286,179,158507,2,0,P|342:218|409:209,1,140,2|2,2:0|2:0,2:0:0:0:
278,101,158862,6,0,P|234:114|208:152,1,93.3333333333333,10|0,2:0|2:0,2:0:0:0:
356,143,159128,2,0,P|367:98|347:56,1,93.3333333333333,2|4,2:0|2:0,2:0:0:0:
251,9,159394,2,0,P|200:38|143:41,1,116.666666666667,10|0,2:0|2:0,2:0:0:0:
132,44,159660,6,0,L|40:24,1,93.3333333333333,6|0,2:0|2:0,2:0:0:0:
0,88,159927,1,8,2:0:0:0:
135,31,160104,6,0,L|161:168,1,140,2|0,2:0|2:0,2:0:0:0:
167,250,160459,2,0,L|75:230,1,93.3333333333333,14|0,2:0|2:0,2:0:0:0:
345,250,160725,6,0,L|436:230,1,93.3333333333333,6|0,2:0|2:0,2:0:0:0:
481,295,160991,1,8,2:0:0:0:
338,265,161168,6,0,L|311:127,1,140,2|2,2:0|2:0,2:0:0:0:
380,84,161523,2,0,L|472:64,1,93.3333333333333,14|2,2:0|2:0,2:0:0:0:
512,297,161789,6,0,L|420:313,1,93.3333333333333,6|0,2:0|2:0,2:0:0:0:
348,328,162055,1,14,2:0:0:0:
512,190,162232,5,6,2:0:0:0:
512,190,162321,2,0,L|465:184,2,46.6666666666667,2|2|2,2:0|2:0|2:0,2:0:0:0:
424,128,162587,1,14,2:0:0:0:
296,192,162765,5,6,2:0:0:0:
296,192,162853,6,0,L|408:192,1,93.3333333333333,2|0,1:2|2:0,2:0:0:0:
256,132,163119,6,0,L|256:20,1,93.3333333333333,2|0,1:2|2:0,2:0:0:0:
216,192,163385,6,0,L|104:192,1,93.3333333333333,2|0,1:2|2:0,2:0:0:0:
256,252,163652,6,0,L|256:364,1,93.3333333333333,2|0,1:2|2:0,2:0:0:0:
84,134,163918,6,0,P|54:176|51:228,1,93.3333333333333,6|0,2:0|2:0,2:0:0:0:
96,284,164184,2,0,P|123:321|129:367,1,93.3333333333333,2|0,2:0|2:0,2:0:0:0:
50,217,164450,6,0,P|20:174|17:127,1,93.3333333333333,10|0,2:0|2:0,2:0:0:0:
99,144,164716,2,2,P|116:101|153:72,1,93.3333333333333,2|0,2:0|2:0,2:0:0:0:
280,44,164982,6,0,P|339:77|407:64,2,140,2|2|10,2:0|2:0|2:0,2:0:0:0:
188,156,165691,1,10,2:0:0:0:
187,155,165780,2,0,P|192:202|192:249,1,93.3333333333333,6|0,2:0|2:0,2:0:0:0:
240,364,166046,6,0,P|291:369|339:347,1,93.3333333333333,6|0,2:0|2:0,2:0:0:0:
391,288,166312,2,0,P|397:242|383:197,1,93.3333333333333,2|0,2:0|2:0,2:0:0:0:
307,149,166578,6,0,P|300:194|314:238,1,93.3333333333333,10|0,2:0|2:0,2:0:0:0:
404,296,166844,2,2,P|449:301|493:285,1,93.3333333333333,2|0,2:0|2:0,2:0:0:0:
504,152,167111,6,0,P|495:100|478:50,1,93.3333333333333,2|0,2:0|2:0,2:0:0:0:
424,0,167377,6,0,L|376:12,1,46.6666666666667,14|10,2:0|2:0,2:0:0:0:
332,68,167554,1,10,2:0:0:0:
332,68,167643,6,0,L|284:56,1,46.6666666666667,14|10,2:0|2:0,2:0:0:0:
232,16,167820,1,10,2:0:0:0:
232,16,167909,6,0,L|139:31,1,93.3333333333333,14|0,2:0|2:0,2:0:0:0:
48,52,168175,6,0,P|78:93|87:143,1,93.3333333333333,6|0,2:0|2:0,2:0:0:0:
184,191,168441,2,0,P|165:234|133:267,1,93.3333333333333,2|0,2:0|2:0,2:0:0:0:
95,351,168707,6,0,P|59:322|38:281,1,93.3333333333333,10|0,2:0|2:0,2:0:0:0:
16,160,168973,2,2,P|24:108|56:68,1,93.3333333333333,2|0,2:0|2:0,2:0:0:0:
188,175,169239,6,0,P|142:169|102:145,1,93.3333333333333,6|0,2:0|2:0,2:0:0:0:
260,116,169505,2,0,P|242:67|247:14,1,93.3333333333333,2|0,2:0|2:0,2:0:0:0:
280,232,169771,6,0,P|313:192|356:172,1,93.3333333333333,10|0,2:0|2:0,2:0:0:0:
416,224,170037,2,2,P|467:232|505:262,1,93.3333333333333,2|0,2:0|2:0,2:0:0:0:
220,188,170303,6,0,P|186:148|139:126,1,93.3333333333333,6|0,2:0|2:0,2:0:0:0:
128,224,170569,2,2,P|76:232|34:263,1,93.3333333333333,10|0,2:0|2:0,2:0:0:0:
276,268,170836,6,0,P|289:248|305:231,2,46.6666666666667,6|2|2,2:0|2:0|2:0,2:0:0:0:
380,164,171102,2,2,P|431:172|473:202,1,93.3333333333333,10|0,2:0|2:0,2:0:0:0:
220,76,171368,6,2,P|207:56|191:39,2,46.6666666666667,6|2|2,2:0|2:0|2:0,2:0:0:0:
137,165,171634,2,2,P|114:166|91:171,2,46.6666666666667,14|10|10,2:0|2:0|2:0,2:0:0:0:
173,281,171900,2,2,P|162:301|156:324,2,46.6666666666667,14|10|10,2:0|2:0|2:0,2:0:0:0:
292,308,172166,2,2,P|304:327|320:344,1,46.6666666666667,10|2,2:0|2:0,2:0:0:0:
445,213,172343,5,6,2:0:0:0:
445,213,172432,2,0,P|442:162|414:121,1,93.3333333333333,6|0,2:0|2:0,2:0:0:0:
416,284,172698,2,0,P|387:326|383:376,1,93.3333333333333,2|0,2:0|2:0,2:0:0:0:
445,214,172964,6,0,P|475:171|478:121,1,93.3333333333333,10|0,2:0|2:0,2:0:0:0:
399,147,173230,2,2,P|379:100|337:73,1,93.3333333333333,2|0,2:0|2:0,2:0:0:0:
232,44,173496,6,0,P|173:77|105:64,2,140,2|2|10,2:0|2:0|2:0,2:0:0:0:
324,156,174206,1,10,2:0:0:0:
324,156,174294,2,0,P|319:208|318:258,1,93.3333333333333,2|0,2:0|2:0,2:0:0:0:
272,364,174560,6,0,P|221:369|177:349,1,93.3333333333333,6|0,2:0|2:0,2:0:0:0:
119,286,174827,2,0,P|114:235|135:189,1,93.3333333333333,2|0,2:0|2:0,2:0:0:0:
188,242,175092,6,0,P|209:195|205:146,1,93.3333333333333,10|0,2:0|2:0,2:0:0:0:
108,294,175358,2,2,P|62:300|18:285,1,93.3333333333333,2|0,2:0|2:0,2:0:0:0:
8,152,175625,6,0,P|11:128|15:105,1,46.6666666666667,6|2,2:0|2:0,2:0:0:0:
88,0,175802,1,10,2:0:0:0:
88,0,175891,6,0,L|136:12,1,46.6666666666667,10|8,2:0|2:0,2:0:0:0:
180,68,176068,1,10,2:0:0:0:
180,68,176157,6,0,L|228:56,1,46.6666666666667,14|10,2:0|2:0,2:0:0:0:
280,16,176334,1,10,2:0:0:0:
280,16,176423,6,0,L|373:31,1,93.3333333333333,10|0,2:0|2:0,2:0:0:0:
495,55,176689,6,0,P|450:69|417:101,1,93.3333333333333,6|0,2:0|2:0,2:0:0:0:
368,176,176955,2,0,L|384:220,2,46.6666666666667,10|2|2,2:0|2:0|2:0,2:0:0:0:
296,240,177221,2,0,L|265:275,2,46.6666666666667,2|2|2,2:0|2:0|2:0,2:0:0:0:
200,216,177487,2,0,L|88:200,1,93.3333333333333,14|2,2:0|2:0,2:0:0:0:
14,188,177754,6,0,P|60:185|98:158,1,93.3333333333333,6|2,2:0|2:0,2:0:0:0:
137,91,178020,1,10,2:0:0:0:
142,63,178108,1,10,2:0:0:0:
139,39,178197,1,10,2:0:0:0:
133,21,178286,6,0,L|121:-8,4,23.3333333333333,2|2|2|2|0,0:0|0:0|0:0|0:0|0:0,0:0:0:0:
212,72,178552,2,0,L|238:161,1,93.3333333333333,14|0,2:0|2:0,2:0:0:0:
312,380,178818,6,0,P|363:376|407:341,1,105,6|0,2:0|2:0,2:0:0:0:
337,306,179084,2,0,P|355:276|360:242,1,70,6|2,2:0|2:0,2:0:0:0:
200,380,179350,6,0,P|148:376|106:346,1,105,14|0,2:0|2:0,2:0:0:0:
172,306,179616,2,0,P|153:276|148:242,1,70,6|2,2:0|2:0,2:0:0:0:
446,237,179882,6,0,P|469:191|464:139,1,105,6|0,2:0|2:0,2:0:0:0:
400,173,180148,2,0,P|384:142|356:121,1,70,6|2,2:0|2:0,2:0:0:0:
65,237,180414,6,0,P|42:191|47:139,1,105,14|4,2:0|2:0,2:0:0:0:
111,173,180680,2,0,P|127:142|155:121,1,70,6|6,2:0|2:0,2:0:0:0:
256,68,180946,1,6,2:0:0:0:
256,192,181013,12,0,184672,2:0:0:0:
440,84,185337,6,0,L|473:75,6,35,2|2|2|2|2|2|2,2:0|2:0|2:0|2:0|2:0|2:0|2:0,2:0:0:0:
440,300,186401,5,2,2:0:0:0:
440,300,186534,2,0,L|473:308,1,35,2|2,2:0|2:0,2:0:0:0:
390,241,186800,2,0,P|367:273|365:312,2,78.7500030040742,2|2|2,2:0|2:0|2:0,2:0:0:0:
470,192,187465,5,2,2:0:0:0:
470,192,187598,2,0,L|497:186,1,28,2|2,2:0|2:0,2:0:0:0:
375,154,187864,2,0,L|402:159,1,28,2|2,2:0|2:0,2:0:0:0:
294,214,188130,2,0,L|321:208,1,28,2|2,2:0|2:0,2:0:0:0:
403,77,188397,5,2,2:0:0:0:
410,241,188663,1,2,2:0:0:0:
267,144,188796,5,2,2:0:0:0:
267,144,188862,1,2,2:0:0:0:
266,143,188929,2,0,P|232:138|199:150,1,70,10|2,2:0|2:0,2:0:0:0:
118,264,189195,2,0,P|139:236|146:202,1,70,2|2,2:0|2:0,2:0:0:0:
80,120,189461,5,4,2:0:0:0:
223,222,189594,1,2,2:0:0:0:
223,222,189727,2,0,L|268:228,5,41.9999987182618,2|2|2|2|2|2,2:0|2:0|2:0|2:0|2:0|2:0,2:0:0:0:
511,314,190658,6,0,L|460:324,2,41.9999987182618,2|2|2,2:0|2:0|2:0,2:0:0:0:
416,384,191057,2,0,P|396:359|388:329,2,62.9999980773926,2|2|2,2:0|2:0|2:0,2:0:0:0:
510,148,191723,5,2,2:0:0:0:
510,148,191856,2,0,L|452:136,1,41.9999987182618,2|2,2:0|2:0,2:0:0:0:
408,80,192122,2,0,L|351:88,1,41.9999987182618,2|2,2:0|2:0,2:0:0:0:
324,160,192388,2,0,L|282:152,1,41.9999987182618,2|2,2:0|2:0,2:0:0:0:
163,100,192654,6,0,P|145:64|145:25,2,78.7500030040742,2|2|2,2:0|2:0|2:0,2:0:0:0:
212,184,193186,2,0,P|226:205|232:231,2,52.5,2|2|2,2:0|2:0|2:0,2:0:0:0:
56,80,193718,5,0,2:0:0:0:
56,80,193851,2,0,L|4:72,6,52.5000020027161,2|2|2|2|2|2|2,2:0|2:0|2:0|2:0|2:0|2:0|2:0,2:0:0:0:
0,311,194915,5,2,2:0:0:0:
0,311,195048,2,0,L|51:302,1,52.5000020027161,2|2,2:0|2:0,2:0:0:0:
112,244,195314,2,0,P|133:276|135:315,2,78.7500030040742,2|2|2,2:0|2:0|2:0,2:0:0:0:
0,144,195980,5,2,2:0:0:0:
0,144,196113,2,0,L|58:148,1,56,2|2,2:0|2:0,2:0:0:0:
112,232,196379,2,0,L|56:225,1,56,2|2,2:0|2:0,2:0:0:0:
0,296,196645,2,0,L|55:301,1,56,2|2,2:0|2:0,2:0:0:0:
191,236,196911,6,0,P|215:196|209:150,2,94.499997116089,2|2|2,2:0|2:0|2:0,2:0:0:0:
304,280,197443,2,0,P|326:314|326:356,2,84,2|2|2,2:0|2:0|2:0,2:0:0:0:
328,92,197975,6,0,P|338:56|331:18,1,77.0000023498536,2|0,2:0|2:0,2:0:0:0:
427,144,198241,2,2,P|457:127|477:98,1,70,2|0,2:0|2:0,2:0:0:0:
443,251,198507,2,2,P|473:261|504:256,1,62.9999980773926,2|0,2:0|2:0,2:0:0:0:
327,291,198774,2,2,P|337:312|354:330,1,48.9999985046387,2|0,2:0|2:0,2:0:0:0:
256,192,199040,6,0,L|256:124,1,62.9999980773926,2|0,2:0|2:0,2:0:0:0:
187,185,199572,5,2,2:0:0:0:
159,250,199705,1,2,2:0:0:0:
211,296,199838,1,14,2:0:0:0:
271,260,199971,1,2,2:0:0:0:
256,192,200104,6,0,L|256:157,31,35,6|0|0|0|8|0|0|0|0|0|0|0|10|0|2|0|2|0|0|0|10|0|0|0|2|0|0|0|10|0|0|0,2:0|2:0|2:0|2:0|2:0|2:0|2:0|2:0|2:0|2:0|2:0|2:0|2:0|2:0|2:0|2:0|2:0|2:0|2:0|2:0|2:0|2:0|2:0|2:0|2:0|2:0|2:0|2:0|2:0|2:0|2:0|2:0,2:0:0:0:
184,136,202232,6,0,L|184:101,7,35,2|0|0|0|8|0|0|0,2:0|2:0|2:0|2:0|2:0|2:0|2:0|2:0,2:0:0:0:
328,136,202765,2,0,L|328:101,7,35,2|0|2|0|10|0|2|0,2:0|2:0|2:0|2:0|2:0|2:0|2:0|2:0,2:0:0:0:
196,76,203297,6,0,L|196:41,3,35,2|0|0|0,2:0|2:0|2:0|2:0,2:0:0:0:
316,76,203563,2,0,L|316:41,3,35,10|0|2|0,2:0|2:0|2:0|2:0,2:0:0:0:
256,0,203829,5,0,2:0:0:0:
256,0,203962,2,2,B|217:87|305:111|262:202,1,210,10|0,2:0|2:0,1:0:0:0:
216,272,204228,5,0,2:0:0:0:
216,272,204295,1,0,2:0:0:0:
216,272,204361,2,0,P|146:279|82:306,1,140,6|10,2:0|2:0,2:0:0:0:
268,364,204761,1,2,2:0:0:0:
268,364,204827,1,2,2:0:0:0:
267,364,204894,2,0,P|302:364|335:352,1,70,2|0,2:0|2:0,2:0:0:0:
456,368,205159,2,0,P|455:334|443:301,1,70,14|0,2:0|2:0,2:0:0:0:
412,132,205426,6,0,P|358:174|352:242,1,140,6|8,2:0|2:0,2:0:0:0:
496,192,205825,1,2,2:0:0:0:
496,192,205891,1,2,2:0:0:0:
496,192,205958,2,0,P|521:129|492:67,1,140,6|14,2:0|2:0,2:0:0:0:
400,16,206357,1,14,2:0:0:0:
256,16,206490,6,0,P|227:35|209:65,1,70,6|0,2:0|2:0,2:0:0:0:
256,368,206756,2,0,P|284:348|302:318,1,70,14|12,2:0|2:0,2:0:0:0:
103,104,207022,6,0,P|106:138|123:168,1,70,6|0,2:0|2:0,2:0:0:0:
408,280,207288,2,0,P|405:245|388:215,1,70,14|12,2:0|2:0,2:0:0:0:
103,279,207554,6,0,P|169:294|223:253,1,140,6|8,2:0|2:0,2:0:0:0:
408,104,207953,1,2,2:0:0:0:
408,104,208020,1,2,2:0:0:0:
408,104,208086,2,0,P|342:89|288:130,1,140,14|12,2:0|2:0,2:0:0:0:
14,180,208485,1,6,2:0:0:0:
256,192,208619,6,0,P|188:174|118:173,1,140,6|10,2:0|2:0,2:0:0:0:
0,328,209018,1,2,2:0:0:0:
0,328,209151,2,0,P|32:314|66:306,1,70,0|2,2:0|2:0,2:0:0:0:
256,192,209417,1,10,2:0:0:0:
151,301,209550,1,2,2:0:0:0:
302,345,209683,6,0,L|279:278,1,70,2|0,2:0|2:0,2:0:0:0:
437,285,209949,2,0,L|468:221,1,70,10|0,2:0|2:0,2:0:0:0:
277,202,210215,2,0,L|254:135,1,70,2|8,2:0|2:0,2:0:0:0:
457,146,210481,2,0,L|488:82,1,70,10|0,2:0|2:0,2:0:0:0:
332,0,210747,6,0,L|355:67,1,70,6|0,2:0|2:0,2:0:0:0:
405,254,211013,1,10,2:0:0:0:
405,254,211080,1,2,2:0:0:0:
405,254,211146,1,10,2:0:0:0:
457,146,211279,1,0,2:0:0:0:
277,202,211412,2,0,P|245:216|210:218,2,70,2|10|2,2:0|2:0|2:0,2:0:0:0:
488,83,211811,6,0,L|456:146,1,70,6|0,2:0|2:0,2:0:0:0:
277,202,212077,2,0,L|254:135,1,70,10|0,2:0|2:0,2:0:0:0:
195,26,212343,5,6,2:0:0:0:
108,122,212476,1,10,2:0:0:0:
202,15,212609,5,6,2:0:0:0:
101,46,212742,1,10,2:0:0:0:
229,136,212876,6,0,P|260:151|294:155,1,70,6|0,2:0|2:0,2:0:0:0:
497,91,213142,2,0,P|462:95|430:109,1,70,10|2,2:0|2:0,2:0:0:0:
397,229,213408,6,0,P|363:171|297:155,1,140,2|14,2:0|2:0,2:0:0:0:
195,215,213807,1,10,2:0:0:0:
314,236,213940,6,0,P|301:303|244:340,1,140,6|10,2:0|2:0,2:0:0:0:
122,205,214339,1,10,2:0:0:0:
238,255,214472,6,0,P|169:254|122:204,1,140,6|8,2:0|2:0,2:0:0:0:
62,105,214871,1,10,2:0:0:0:
201,184,215004,6,0,P|236:179|262:157,1,70,6|8,2:0|2:0,2:0:0:0:
485,145,215270,2,0,P|450:140|424:118,1,70,6|8,2:0|2:0,2:0:0:0:
207,112,215537,6,0,P|219:80|214:46,1,70,6|8,2:0|2:0,2:0:0:0:
482,73,215803,2,0,P|470:41|475:7,1,70,6|8,2:0|2:0,2:0:0:0:
376,0,216068,6,0,P|317:25|341:84,1,140,14|12,2:0|2:0,2:0:0:0:
168,304,216468,1,10,2:0:0:0:
168,304,216534,1,10,2:0:0:0:
168,304,216601,2,8,P|227:279|203:220,1,140,14|14,2:0|2:0,2:0:0:0:
112,192,217000,1,10,2:0:0:0:
339,192,217133,6,10,B|391:172|383:200|441:192,2,105,14|10|10,2:0|2:0|2:0,2:0:0:0:
255,256,217665,5,0,2:0:0:0:
255,256,217798,1,2,2:0:0:0:
255,108,217931,2,0,L|255:38,1,70,10|0,2:0|2:0,2:0:0:0:
219,320,218197,6,0,P|251:332|284:325,1,70,2|2,2:0|2:0,2:0:0:0:
295,192,218463,2,0,P|262:179|229:186,1,70,10|2,2:0|2:0,2:0:0:0:
181,375,218729,6,8,P|207:353|218:320,1,70,2|10,2:0|2:0,2:0:0:0:
108,244,218995,2,0,P|81:265|70:298,1,70,14|10,2:0|2:0,2:0:0:0:
339,380,219261,6,10,B|391:400|383:372|441:379,2,105,14|10|10,2:0|2:0|2:0,2:0:0:0:
255,304,219793,1,0,2:0:0:0:
255,168,219927,5,2,2:0:0:0:
255,168,220060,2,0,L|255:98,1,70,10|2,2:0|2:0,2:0:0:0:
406,295,220326,6,2,P|473:298|509:241,1,140,6|10,2:0|2:0,2:0:0:0:
343,232,220725,1,2,2:0:0:0:
343,232,220791,1,2,2:0:0:0:
343,231,220858,2,0,P|319:256|314:290,1,70,6|8,2:0|2:0,2:0:0:0:
427,200,221124,2,0,P|416:167|389:145,1,70,14|8,2:0|2:0,2:0:0:0:
255,88,221390,6,0,L|258:18,1,70,6|2,2:0|2:0,2:0:0:0:
255,296,221656,2,0,L|258:365,1,70,10|2,2:0|2:0,2:0:0:0:
151,192,221922,2,0,L|81:195,1,70,2|10,2:0|2:0,2:0:0:0:
359,192,222188,2,0,L|428:195,1,70,14|10,2:0|2:0,2:0:0:0:
495,236,222388,5,2,2:0:0:0:
494,235,222454,2,0,P|502:270|500:304,1,70,6|2,2:0|2:0,2:0:0:0:
407,376,222720,1,8,2:0:0:0:
271,312,222853,1,2,2:0:0:0:
271,312,222920,1,2,2:0:0:0:
271,312,222986,2,0,P|236:304|202:306,1,70,2|14,2:0|2:0,2:0:0:0:
123,352,223252,2,0,P|88:359|54:357,1,70,0|14,2:0|2:0,2:0:0:0:
7,224,223519,6,0,P|-7:156|12:89,1,140,6|14,2:0|2:0,2:0:0:0:
67,272,223918,1,14,2:0:0:0:
111,132,224051,6,0,P|126:64|171:12,1,140,6|14,2:0|2:0,2:0:0:0:
243,144,224450,5,14,2:0:0:0:
243,144,224516,1,2,2:0:0:0:
243,144,224583,2,0,P|269:80|323:37,1,140,6|8,2:0|2:0,2:0:0:0:
167,180,224982,1,2,2:0:0:0:
359,128,225115,2,8,B|425:97|405:126|460:104,2,105,14|14|12,2:0|2:0|2:0,2:0:0:0:
167,180,225647,6,0,P|101:196|48:153,1,140,6|8,2:0|2:0,2:0:0:0:
79,8,226046,2,0,P|125:57|115:124,1,140,0|2,2:0|2:0,2:0:0:0:
47,252,226445,2,0,P|34:284|36:318,1,70,10|2,2:0|2:0,2:0:0:0:
191,376,226711,6,0,L|294:356,1,105,2|0,2:0|2:0,2:0:0:0:
375,376,226978,6,2,L|378:341,3,35,10|2|2|2,2:0|2:0|2:0|2:0,2:0:0:0:
455,356,227244,2,2,L|482:333,3,35,2|2|10|2,2:0|2:0|2:0|2:0,2:0:0:0:
475,264,227510,2,2,L|509:267,3,35,10|2|2|2,2:0|2:0|2:0|2:0,2:0:0:0:
359,216,227776,2,2,L|381:243,3,35,6|2|2|2,2:0|2:0|2:0|2:0,2:0:0:0:
303,100,228042,2,2,L|299:134,4,35,10|2|2|2|2,2:0|2:0|2:0|2:0|2:0,2:0:0:0:
387,12,228441,5,10,2:0:0:0:
386,11,228574,2,0,P|408:39|412:73,1,70,10|2,2:0|2:0,2:0:0:0:
495,160,228840,2,0,P|444:155|408:191,1,105,6|0,2:0|2:0,2:0:0:0:
357,243,229106,6,2,L|335:216,3,35,10|2|2|2,2:0|2:0|2:0|2:0,2:0:0:0:
287,312,229372,2,2,L|290:277,3,35,6|2|10|2,2:0|2:0|2:0|2:0,2:0:0:0:
191,324,229638,2,2,L|217:301,3,35,6|2|14|2,2:0|2:0|2:0|2:0,2:0:0:0:
287,312,229904,6,2,L|321:315,3,35,6|2|2|2,2:0|2:0|2:0|2:0,2:0:0:0:
387,356,230170,2,2,L|409:383,3,35,10|2|2|2,2:0|2:0|2:0|2:0,2:0:0:0:
479,284,230436,2,2,L|475:249,3,35,2|2|10|2,2:0|2:0|2:0|2:0,2:0:0:0:
355,232,230703,2,2,L|377:204,3,35,14|2|14|2,2:0|2:0|2:0|2:0,2:0:0:0:
295,104,230969,6,2,L|329:100,4,35,6|2|2|2|10,2:0|2:0|2:0|2:0|2:0,2:0:0:0:
483,128,231368,1,14,2:0:0:0:
483,128,231434,1,2,2:0:0:0:
483,128,231501,2,2,L|448:124,4,35,6|2|2|2|10,2:0|2:0|2:0|2:0|2:0,2:0:0:0:
187,172,231900,5,10,2:0:0:0:
187,172,231966,1,2,2:0:0:0:
187,171,232033,2,0,P|152:171|121:154,1,70,6|8,2:0|2:0,2:0:0:0:
322,171,232299,2,0,P|357:171|388:154,1,70,6|8,2:0|2:0,2:0:0:0:
91,296,232565,6,0,P|59:255|55:203,1,105.000004005432,6|8,2:0|2:0,2:0:0:0:
419,296,232831,2,0,P|450:255|454:203,1,105.000004005432,6|8,2:0|2:0,2:0:0:0:
255,0,233097,6,0,L|251:34,3,35,6|0|0|0,2:0|2:0|2:0|2:0,2:0:0:0:
390,56,233363,2,0,L|363:78,3,35,2|0|0|0,2:0|2:0|2:0|2:0,2:0:0:0:
255,104,233629,6,0,L|258:138,3,35,14|0|0|0,2:0|2:0|2:0|2:0,2:0:0:0:
131,160,233895,2,0,L|158:182,3,35,2|0|0|0,2:0|2:0|2:0|2:0,2:0:0:0:
255,208,234162,6,2,L|251:242,3,35,6|2|2|2,2:0|2:0|2:0|2:0,2:0:0:0:
367,264,234428,2,2,L|339:286,3,35,2|2|2|2,2:0|2:0|2:0|2:0,2:0:0:0:
255,208,234694,6,2,L|258:242,3,35,14|2|2|6,2:0|2:0|2:0|2:0,2:0:0:0:
143,264,234960,2,2,L|170:286,3,35,2|2|6|2,2:0|2:0|2:0|2:0,2:0:0:0:
295,375,235226,6,0,P|301:359|310:344,3,35,6|0|0|0,2:0|2:0|2:0|2:0,2:0:0:0:
214,375,235492,2,0,P|208:359|199:344,3,35,6|0|0|0,2:0|2:0|2:0|2:0,2:0:0:0:
303,276,235758,6,0,P|315:263|330:254,3,35,14|0|0|0,2:0|2:0|2:0|2:0,2:0:0:0:
207,276,236024,2,0,P|194:263|179:254,3,35,6|0|0|0,2:0|2:0|2:0|2:0,2:0:0:0:
343,184,236290,6,2,P|360:184|377:187,3,35,6|2|2|2,2:0|2:0|2:0|2:0,2:0:0:0:
167,184,236556,2,2,P|149:184|132:187,3,35,6|2|2|2,2:0|2:0|2:0|2:0,2:0:0:0:
431,132,236822,6,2,P|439:147|445:163,3,35,14|2|6|2,2:0|2:0|2:0|2:0,2:0:0:0:
79,132,237088,2,2,P|70:147|64:163,3,35,6|2|6|2,2:0|2:0|2:0|2:0,2:0:0:0:
256,44,237354,1,6,2:0:0:0:
256,192,237421,12,0,239217,2:0:0:0:
7,60,239483,6,0,L|40:50,5,35,6|0|0|0|2|0,2:0|2:0|2:0|2:0|2:0|2:0,2:0:0:0:
111,8,239882,5,0,2:0:0:0:
111,8,239949,1,0,2:0:0:0:
111,8,240015,2,0,L|144:17,3,35,10|0|0|0,2:0|2:0|2:0|2:0,2:0:0:0:
183,80,240281,2,0,L|216:70,3,35,2|0|0|0,2:0|2:0|2:0|2:0,2:0:0:0:
307,24,240547,6,0,L|324:54,7,35,2|0|0|0|0|0|0|0,2:0|2:0|2:0|2:0|2:0|2:0|2:0|2:0,2:0:0:0:
423,80,241080,6,0,L|414:113,3,35,10|0|0|0,2:0|2:0|2:0|2:0,2:0:0:0:
471,168,241346,2,0,L|440:185,3,35,0|0|2|2,2:0|2:0|2:0|2:0,2:0:0:0:
339,156,241612,6,0,L|200:175,1,140,6|0,2:0|2:0,2:0:0:0:
