osu file format v14

[General]
AudioFilename: audio.mp3
AudioLeadIn: 0
PreviewTime: 125603
Countdown: 0
SampleSet: Normal
StackLeniency: 0.7
Mode: 0
LetterboxInBreaks: 0
WidescreenStoryboard: 1

[Editor]
DistanceSpacing: 2.24
BeatDivisor: 4
GridSize: 4
TimelineZoom: 2.02

[Metadata]
Title:Glorious Crown
TitleUnicode:Glorious Crown
Artist:xi
ArtistUnicode:xi
Creator:Bloxi
Version:FOUR DIMENSIONS
Source:maimai PiNK
Tags:fa featured artist FREEDOM DiVE↓ Diverse System Evolved Chronicles Full LONG Version Happy Hardcore Electronic Piano Instrumental BMS ORIGINAL & JOYPOLIS C91 DVSP-0169 4th solo album Yusuke Ishiwata SEGA DX ALL PERFECT COLLECTiON Cytus II Chizu-Kun PaRaDogi Nagatoro Urghi stzur kolik kolikiscool
BeatmapID:3468147
BeatmapSetID:1697518

[Difficulty]
HPDrainRate:6
CircleSize:4
OverallDifficulty:10
ApproachRate:10
SliderMultiplier:1.9
SliderTickRate:1

[Events]
//Background and Video events
0,0,"bg.jpg",0,0
//Break Periods
2,28951,36816
2,86424,98545
2,147089,154953
2,181146,189011
//Storyboard Layer 0 (Background)
//Storyboard Layer 1 (Fail)
//Storyboard Layer 2 (Pass)
//Storyboard Layer 3 (Foreground)
//Storyboard Layer 4 (Overlay)
//Storyboard Sound Samples

[TimingPoints]
1080,266.075388026608,4,1,1,80,1,0
26623,-100,4,1,1,70,0,0
28219,-100,4,1,1,75,0,0
28751,-100,4,1,1,80,0,0
38596,-105.263157894737,4,1,1,80,0,0
38862,-111.111111111111,4,1,1,80,0,0
39128,-117.647058823529,4,1,1,80,0,0
39660,-100,4,1,1,80,0,0
40991,-111.111111111111,4,1,1,80,0,0
41257,-133.333333333333,4,1,1,80,0,0
42587,-100,4,1,1,80,0,0
43119,-90.9090909090909,4,1,1,80,0,0
44716,-100,4,1,1,70,0,0
46844,-100,4,1,1,80,0,0
55359,-80,4,1,1,80,0,0
58286,-100,4,1,1,80,0,0
63873,-100,4,1,1,80,0,1
64938,-80,4,1,1,80,0,1
82033,-80,4,1,1,80,0,0
86224,-80,4,1,1,65,0,0
99261,-100,4,1,1,65,0,0
103252,-100,4,1,1,70,0,0
105381,-100,4,1,1,75,0,0
106978,-100,4,1,1,80,0,0
108840,-83.3333333333333,4,1,1,80,0,0
124805,-90.9090909090909,4,1,1,80,0,0
125071,-100,4,1,1,80,0,0
125337,-111.111111111111,4,1,1,80,0,0
126734,-80,4,1,1,80,0,0
142632,-80,4,1,1,70,0,0
143696,-80,4,1,1,75,0,0
145292,-80,4,1,1,80,0,0
155403,-90.9090909090909,4,1,1,70,0,0
159660,-83.3333333333333,4,1,1,70,0,0
162853,-66.6666666666667,4,1,1,75,0,0
163918,-71.4285714285714,4,1,1,80,0,1
172432,-66.6666666666667,4,1,1,80,0,1
176689,-62.5,4,1,1,80,0,1
180946,-62.5,4,1,1,80,0,0
189594,-62.5,4,1,1,65,0,0
192654,-100,4,1,1,65,0,0
195980,-100,4,1,1,70,0,0
196911,-86.9565217391304,4,1,1,70,0,0
199040,-200,4,1,1,80,0,0
199505,-200,4,1,1,5,0,0
199572,-200,4,1,1,80,0,0
200104,-200,4,1,1,50,0,0
201168,-200,4,1,1,55,0,0
202232,-200,4,1,1,60,0,0
203031,-80,4,1,1,60,0,0
203297,-80,4,1,1,65,0,0
203962,-66.6666666666667,4,1,1,70,0,0
204361,-66.6666666666667,4,1,1,80,0,1
206224,-71.4285714285714,4,1,1,80,0,1
209683,-66.6666666666667,4,1,1,80,0,1
218197,-62.5,4,1,1,80,0,1
239217,-62.5,4,1,1,35,0,1
239483,-62.5,4,1,1,80,0,1
241612,-62.5,4,1,1,80,0,0

[Colours]
Combo1 : 255,128,128
Combo2 : 128,255,0
Combo3 : 0,128,192
Combo4 : 255,255,128

[HitObjects]
433,20,1080,6,0,B|485:121|393:188,1,190,4|0,1:0|1:0,1:0:0:0:
427,369,1479,2,0,B|327:421|260:329,1,190,0|0,1:0|1:0,1:0:0:0:
78,363,1878,2,0,B|27:263|119:196,1,190,0|0,1:0|1:0,1:0:0:0:
0,163,2277,5,0,1:0:0:0:
161,296,2410,1,0,1:0:0:0:
340,189,2543,1,0,1:0:0:0:
501,322,2676,1,0,1:0:0:0:
455,335,2742,1,0,1:0:0:0:
410,351,2809,1,0,1:0:0:0:
364,364,2876,1,0,1:0:0:0:
317,372,2942,2,0,B|279:352|229:336,1,95,0|0,1:0|1:0,1:0:0:0:
243,4,3208,6,0,B|433:20,1,190,4|0,1:0|1:0,1:0:0:0:
236,186,3607,2,0,B|47:168,1,190,0|0,1:0|1:0,1:0:0:0:
317,372,4006,2,0,B|384:352|415:278|390:221,1,190,0|0,1:0|1:0,1:0:0:0:
512,180,4405,5,0,1:0:0:0:
361,67,4538,1,0,1:0:0:0:
245,221,4672,1,0,1:0:0:0:
94,108,4805,1,0,1:0:0:0:
53,131,4871,1,0,1:0:0:0:
26,170,4938,1,4,1:2:0:0:
21,216,5004,1,0,1:0:0:0:
38,260,5071,2,0,B|130:239,1,95,0|4,1:0|1:0,1:0:0:0:
387,382,5337,6,0,B|408:290|408:290|348:216,1,190,4|0,1:0|1:0,1:0:0:0:
72,341,5736,2,0,B|164:362|164:362|238:302,1,190,0|0,1:0|1:0,1:0:0:0:
132,15,6135,2,0,B|111:107|111:107|171:181,1,190,0|4,1:0|1:0,1:0:0:0:
43,225,6534,5,0,1:0:0:0:
238,302,6667,1,0,1:0:0:0:
282,98,6800,1,0,1:0:0:0:
494,254,6933,1,0,1:0:0:0:
455,280,7000,1,0,1:0:0:0:
409,291,7066,1,0,1:0:0:0:
363,279,7133,1,0,1:0:0:0:
324,254,7199,2,0,B|333:303|326:354,1,95,0|4,1:0|1:2,1:0:0:0:
459,45,7465,6,0,B|414:53|365:44,1,95,4|0,1:0|1:0,1:0:0:0:
64,198,7731,2,0,B|110:206|159:197,1,95,0|4,1:0|1:2,1:0:0:0:
421,351,7997,2,0,B|372:342|326:348,1,95,4|0,1:0|1:0,1:0:0:0:
282,365,8197,1,0,1:0:0:0:
236,350,8264,2,0,B|227:301|233:255,1,95,0|4,1:0|1:2,1:0:0:0:
436,166,8530,5,4,1:0:0:0:
473,136,8596,1,0,1:0:0:0:
479,88,8663,1,0,1:0:0:0:
459,45,8729,1,0,1:2:0:0:
417,22,8796,2,0,B|323:22,1,95,0|4,1:0|1:2,1:0:0:0:
194,74,9062,1,4,1:0:0:0:
148,85,9128,1,0,1:0:0:0:
101,74,9195,2,0,L|65:79,4,23.75,0|0|0|0|0,1:0|1:0|1:0|1:0|1:0,1:0:0:0:
425,282,9594,6,0,B|463:318|512:316,1,95,4|0,1:0|1:0,1:0:0:0:
264,300,9860,2,0,B|265:350|302:384,1,95,0|0,1:0|1:0,1:0:0:0:
131,189,10126,2,0,B|97:225|99:275,1,95,0|0,1:0|1:0,1:0:0:0:
433,98,10392,1,0,1:0:0:0:
414,54,10459,1,0,1:0:0:0:
373,31,10525,1,0,1:0:0:0:
325,29,10592,1,0,1:0:0:0:
281,46,10658,6,0,B|236:65|187:56,1,95,0|0,1:0|1:0,1:0:0:0:
5,265,10924,2,0,B|50:284|99:275,1,95,0|0,1:0|1:0,1:0:0:0:
336,345,11190,2,0,B|355:300|346:251,1,95,0|0,1:0|1:0,1:0:0:0:
324,209,11390,1,0,1:0:0:0:
286,181,11456,2,0,B|241:162|192:171,1,95,4|0,1:0|1:0,1:0:0:0:
420,372,11723,6,0,L|532:348,1,95,4|0,1:0|1:0,1:0:0:0:
260,284,11989,2,0,L|148:260,1,95,0|0,1:0|1:0,1:0:0:0:
420,145,12255,2,0,L|532:121,1,95,0|0,1:0|1:0,1:0:0:0:
260,57,12521,1,0,1:0:0:0:
214,47,12587,1,0,1:0:0:0:
167,37,12654,1,0,1:0:0:0:
121,28,12720,1,0,1:0:0:0:
75,15,12787,6,0,B|96:65|71:109,1,95,0|0,1:0|1:0,1:0:0:0:
165,357,13053,2,0,B|144:307|169:263,1,95,0|0,1:0|1:0,1:0:0:0:
420,145,13319,2,0,B|370:124|326:149,1,95,0|4,1:0|1:2,1:0:0:0:
301,187,13519,1,0,1:0:0:0:
290,233,13585,1,0,1:0:0:0:
86,274,13718,1,4,1:0:0:0:
302,370,13851,5,4,1:0:0:0:
348,384,13918,1,0,1:0:0:0:
394,373,13984,1,0,1:0:0:0:
432,343,14051,1,0,1:0:0:0:
458,303,14117,2,0,L|468:208,1,95,0|0,1:0|1:0,1:0:0:0:
318,53,14383,2,0,L|328:147,1,95,0|0,1:0|1:0,1:0:0:0:
483,108,14649,1,0,1:0:0:0:
342,262,14782,1,0,1:0:0:0:
166,147,14915,5,4,1:0:0:0:
120,135,14982,1,0,1:0:0:0:
74,144,15048,1,0,1:0:0:0:
43,180,15115,1,0,1:0:0:0:
36,226,15181,2,0,B|25:277|50:333,1,95,0|0,1:0|1:0,1:0:0:0:
265,383,15448,2,0,B|276:332|251:276,1,95,0|0,1:0|1:0,1:0:0:0:
150,338,15714,1,0,1:0:0:0:
256,160,15847,1,0,1:0:0:0:
475,322,15980,5,4,1:0:0:0:
475,322,16046,1,0,1:0:0:0:
475,322,16113,2,0,B|381:307,1,95,0|0,1:0|1:0,1:0:0:0:
256,289,16379,1,0,1:0:0:0:
37,62,16512,5,4,1:0:0:0:
37,62,16578,1,0,1:0:0:0:
37,62,16645,2,0,B|131:47,1,95,0|0,1:0|1:0,1:0:0:0:
256,30,16911,1,0,1:0:0:0:
512,173,17044,5,4,1:0:0:0:
474,210,17111,1,0,1:0:0:0:
423,219,17177,1,0,1:0:0:0:
373,202,17244,1,0,1:0:0:0:
339,162,17310,1,0,1:0:0:0:
299,127,17377,1,0,1:0:0:0:
249,112,17443,1,0,1:0:0:0:
196,117,17510,1,0,1:0:0:0:
158,152,17576,1,0,1:0:0:0:
147,198,17643,1,0,1:0:0:0:
168,240,17709,1,4,1:2:0:0:
207,268,17776,1,0,1:0:0:0:
254,268,17842,1,0,1:0:0:0:
301,277,17909,1,0,1:0:0:0:
330,315,17975,1,4,1:2:0:0:
321,362,18042,1,0,1:0:0:0:
279,383,18108,6,0,L|178:367,1,95,4|0,1:0|1:0,1:0:0:0:
373,202,18374,2,0,L|474:186,1,95,0|0,1:0|1:0,1:0:0:0:
254,268,18640,2,0,L|153:252,1,95,0|0,1:0|1:0,1:0:0:0:
348,87,18907,1,0,1:0:0:0:
395,79,18973,1,0,1:0:0:0:
442,72,19040,1,0,1:0:0:0:
222,0,19173,6,0,B|192:39|202:91,1,95,0|0,1:0|1:0,1:0:0:0:
171,126,19372,1,0,1:0:0:0:
123,119,19439,2,0,B|73:106|19:117,1,95,0|0,1:0|1:0,1:0:0:0:
1,206,19705,2,0,B|-24:259|8:314,1,95,0|0,1:0|1:0,1:0:0:0:
330,384,19971,2,0,B|355:331|323:276,1,95,4|0,1:0|1:0,1:0:0:0:
506,65,20237,6,0,B|411:57,1,95,4|0,1:0|1:0,1:0:0:0:
147,253,20503,2,0,B|241:245,1,95,0|0,1:0|1:0,1:0:0:0:
501,338,20769,2,0,B|493:292|499:234,1,95,0|0,1:0|1:0,1:0:0:0:
256,123,21035,1,0,1:0:0:0:
212,104,21102,1,0,1:0:0:0:
165,101,21168,1,0,1:0:0:0:
118,112,21235,1,0,1:0:0:0:
76,133,21301,6,0,B|96:86|80:40,1,95,0|0,1:0|1:0,1:0:0:0:
7,258,21567,2,0,B|-13:305|3:351,1,95,0|0,1:0|1:0,1:0:0:0:
157,384,21833,2,0,B|204:364|251:380,1,95,0|4,1:0|1:2,1:0:0:0:
296,366,22033,1,0,1:0:0:0:
330,333,22099,2,0,B|350:286|334:240,1,95,0|0,1:0|1:0,1:0:0:0:
0,0,22366,5,4,1:0:0:0:
0,0,22432,1,0,1:0:0:0:
0,0,22499,2,0,B|-17:42|-17:42|-8:90,1,95,0|0,1:0|1:0,1:0:0:0:
123,167,22765,1,0,1:0:0:0:
192,32,22898,1,0,1:0:0:0:
325,104,23031,1,0,1:0:0:0:
256,239,23164,1,0,1:0:0:0:
256,239,23230,1,0,1:0:0:0:
256,239,23297,1,0,1:0:0:0:
512,244,23430,5,4,1:0:0:0:
496,298,23496,1,0,1:0:0:0:
480,353,23563,1,0,1:0:0:0:
368,272,23696,5,0,1:0:0:0:
352,326,23762,1,0,1:0:0:0:
336,381,23829,1,0,1:0:0:0:
176,381,23962,5,0,1:0:0:0:
160,326,24029,1,0,1:0:0:0:
144,272,24095,1,0,1:0:0:0:
32,353,24228,5,0,1:0:0:0:
16,298,24295,1,0,1:0:0:0:
0,244,24361,1,0,1:0:0:0:
153,120,24494,6,0,L|96:103,2,47.5,4|0|0,1:0|1:0|1:0,1:0:0:0:
359,120,24760,2,0,L|416:103,2,47.5,0|0|0,1:0|1:0|1:0,1:0:0:0:
256,192,25026,2,0,L|256:240,2,47.5,4|0|0,1:0|1:0|1:0,1:0:0:0:
256,43,25292,1,0,1:0:0:0:
256,43,25359,1,0,1:0:0:0:
256,43,25425,1,0,1:0:0:0:
107,106,25558,5,4,1:0:0:0:
60,130,25625,1,0,1:0:0:0:
39,177,25691,1,0,1:0:0:0:
45,229,25758,1,0,1:0:0:0:
80,268,25825,1,4,1:0:0:0:
129,283,25891,1,0,1:0:0:0:
181,274,25958,1,0,1:0:0:0:
227,297,26024,1,0,1:0:0:0:
256,341,26091,1,4,1:0:0:0:
284,298,26157,1,0,1:0:0:0:
331,274,26224,1,0,1:0:0:0:
382,283,26290,1,0,1:0:0:0:
432,268,26357,1,4,1:0:0:0:
467,229,26423,1,0,1:0:0:0:
473,177,26490,1,0,1:0:0:0:
452,129,26556,1,0,1:0:0:0:
405,106,26623,6,0,L|356:106,3,47.5,2|0|0|0,2:0|2:0|2:0|2:0,2:0:0:0:
306,192,26889,6,0,L|354:192,3,47.5,2|0|0|0,2:0|2:0|2:0|2:0,2:0:0:0:
107,106,27155,6,0,L|156:106,3,47.5,2|0|0|0,2:0|2:0|2:0|2:0,2:0:0:0:
206,192,27421,6,0,L|159:192,3,47.5,2|0|0|0,2:0|2:0|2:0|2:0,2:0:0:0:
256,278,27687,5,2,2:0:0:0:
288,299,27754,1,0,2:0:0:0:
325,300,27820,1,0,2:0:0:0:
357,280,27887,1,0,2:0:0:0:
385,255,27953,1,2,2:0:0:0:
427,245,28020,1,0,2:0:0:0:
467,257,28086,1,0,2:0:0:0:
494,290,28153,1,0,2:0:0:0:
496,332,28219,6,0,B|452:332|402:341,1,95,0|0,1:0|1:0,1:0:0:0:
16,332,28485,2,0,B|59:332|109:341,1,95,0|0,1:0|1:0,1:0:0:0:
256,192,28751,5,4,1:0:0:0:
216,295,37266,6,0,B|234:352,3,47.5,4|0|0|0,1:0|1:0|1:0|1:0,1:0:0:0:
361,300,37532,6,0,B|396:332,3,47.5,8|0|0|0,1:0|1:0|1:0|1:0,1:0:0:0:
425,180,37798,6,0,L|470:196,3,47.5,0|0|0|0,1:0|1:0|1:0|1:0,1:0:0:0:
361,68,38064,6,0,L|407:56,3,47.5,8|0|0|0,1:0|1:0|1:0|1:0,1:0:0:0:
285,132,38330,6,0,B|276:177|280:233,1,95,0|0,1:0|1:0,1:0:0:0:
184,370,38530,1,0,1:0:0:0:
184,370,38596,2,0,B|192:327|188:280,1,90.2499975900651,8|0,1:0|1:0,1:0:0:0:
173,100,38796,1,0,1:0:0:0:
173,100,38862,2,0,B|164:140|167:184,1,85.4999973907472,0|0,1:0|1:0,1:0:0:0:
73,319,39062,1,0,1:0:0:0:
73,319,39128,2,0,B|80:283|76:239,1,80.750001540184,8|0,1:0|1:0,1:0:0:0:
61,68,39328,1,0,1:0:0:0:
87,28,39394,5,4,1:0:0:0:
133,12,39461,1,0,1:0:0:0:
180,6,39527,1,0,1:0:0:0:
227,13,39594,1,0,1:0:0:0:
266,39,39660,2,0,L|275:98,3,47.5,8|0|0|0,1:0|1:0|1:0|1:0,1:0:0:0:
382,143,39927,2,0,L|372:83,3,47.5,4|0|0|0,1:0|1:0|1:0|1:0,1:0:0:0:
398,55,40193,2,0,B|441:34|489:34,1,95,8|0,1:0|1:0,1:0:0:0:
512,333,40459,5,4,1:0:0:0:
447,238,40592,1,0,1:0:0:0:
349,296,40725,2,0,B|338:371,1,63.3333333333333,8|0,1:0|1:0,1:0:0:0:
288,383,40902,1,0,1:0:0:0:
239,363,40991,2,0,B|180:340|113:353,1,128.249996086121,4|0,1:0|1:0,1:0:0:0:
112,353,41257,2,0,B|80:304|33:272,1,106.875004076958,8|0,1:0|1:0,1:0:0:0:
50,137,41523,5,4,1:0:0:0:
32,98,41589,1,0,1:0:0:0:
39,55,41656,1,0,1:0:0:0:
69,25,41723,1,0,1:0:0:0:
110,13,41789,1,8,1:0:0:0:
151,22,41856,1,0,1:0:0:0:
182,50,41922,1,0,1:0:0:0:
190,92,41989,1,0,1:0:0:0:
210,129,42055,1,0,1:0:0:0:
250,155,42122,1,0,1:0:0:0:
297,159,42188,1,0,1:0:0:0:
337,133,42255,1,0,1:0:0:0:
364,94,42321,1,8,1:0:0:0:
410,80,42388,1,0,1:0:0:0:
456,93,42454,1,0,1:0:0:0:
487,130,42521,1,0,1:0:0:0:
492,177,42587,6,0,L|502:236,7,47.5,4|0|0|0|8|0|0|0,1:0|1:0|1:0|1:0|1:0|1:0|1:0|1:0,1:0:0:0:
327,292,43119,2,0,L|317:351,7,52.2500015945435,4|0|0|0|8|0|0|0,1:0|1:0|1:0|1:0|1:0|1:0|1:0|1:0,1:0:0:0:
131,357,43652,5,4,1:0:0:0:
80,347,43718,1,0,1:0:0:0:
43,309,43785,1,0,1:0:0:0:
41,257,43851,1,0,1:0:0:0:
75,217,43918,1,8,1:0:0:0:
104,174,43984,1,0,1:0:0:0:
101,121,44051,1,0,1:0:0:0:
70,79,44117,1,0,1:0:0:0:
27,49,44184,2,0,B|79:56|144:43,1,104.500003189087,4|0,1:0|1:0,1:0:0:0:
256,0,44450,1,12,1:0:0:0:
501,209,44583,5,0,1:0:0:0:
501,209,44649,1,0,1:0:0:0:
501,209,44716,2,0,B|452:216|403:204,1,95,6|2,2:0|2:0,2:0:0:0:
355,199,44915,2,0,B|372:251|350:293,1,95,2|0,2:0|2:0,2:0:0:0:
325,337,45115,1,2,2:0:0:0:
219,241,45248,2,0,B|170:234|121:246,1,95,2|2,2:0|2:0,2:0:0:0:
73,251,45448,2,0,B|90:199|68:156,1,95,2|0,2:0|2:0,2:0:0:0:
43,113,45647,1,2,2:0:0:0:
179,71,45780,6,0,B|228:78|277:66,1,95,2|2,2:0|2:0,2:0:0:0:
325,61,45980,2,0,B|308:113|329:155,1,95,2|0,2:0|2:0,2:0:0:0:
355,199,46179,1,2,2:0:0:0:
256,306,46312,1,2,2:0:0:0:
384,375,46445,2,0,L|429:367,4,23.75,0|0|0|0|0,1:0|1:0|1:0|1:0|1:0,1:0:0:0:
21,227,46844,5,4,1:0:0:0:
45,274,46911,1,0,1:0:0:0:
97,279,46978,1,0,1:0:0:0:
144,257,47044,1,0,1:0:0:0:
165,208,47111,1,8,1:0:0:0:
213,187,47177,1,0,1:0:0:0:
261,208,47244,1,0,1:0:0:0:
277,258,47310,1,0,1:0:0:0:
256,306,47377,1,0,1:0:0:0:
282,351,47443,1,0,1:0:0:0:
334,342,47510,1,0,1:0:0:0:
386,347,47576,1,0,1:0:0:0:
437,361,47643,1,8,1:0:0:0:
428,310,47709,1,0,1:0:0:0:
431,257,47776,1,0,1:0:0:0:
455,211,47842,1,0,1:0:0:0:
473,161,47909,6,0,L|458:59,1,95,0|0,1:0|1:0,1:0:0:0:
404,16,48108,1,0,1:0:0:0:
404,16,48175,2,0,B|356:1|307:2,1,95,8|0,1:0|1:0,1:0:0:0:
132,81,48441,1,0,1:0:0:0:
132,81,48507,2,0,L|226:95,1,95,0|0,1:0|1:0,1:0:0:0:
287,140,48707,2,0,B|288:185|273:233,1,95,8|0,1:0|1:0,1:0:0:0:
171,308,48973,5,0,1:0:0:0:
119,314,49040,1,0,1:0:0:0:
70,299,49106,1,0,1:0:0:0:
26,271,49173,1,0,1:0:0:0:
8,222,49239,1,8,1:0:0:0:
4,169,49306,1,0,1:0:0:0:
11,117,49372,2,0,B|10:70|17:15,1,95,0|0,1:0|1:0,1:0:0:0:
104,214,49638,1,0,1:0:0:0:
198,117,49771,1,8,1:0:0:0:
198,117,49838,2,0,B|306:117,1,95,0|0,1:0|1:0,1:0:0:0:
317,162,50037,5,0,1:0:0:0:
304,213,50104,1,0,1:0:0:0:
262,244,50170,1,0,1:0:0:0:
209,241,50237,1,0,1:0:0:0:
160,224,50303,1,8,1:0:0:0:
104,214,50370,1,0,1:0:0:0:
51,233,50436,1,0,1:0:0:0:
26,284,50503,1,0,1:0:0:0:
37,340,50570,2,0,B|82:356|137:349,1,95,0|0,1:0|1:0,1:0:0:0:
182,373,50769,2,0,B|227:357|282:364,1,95,0|0,1:0|1:0,1:0:0:0:
331,379,50969,1,0,1:0:0:0:
474,327,51102,5,0,1:0:0:0:
512,292,51168,1,0,1:0:0:0:
512,239,51235,1,0,1:0:0:0:
478,199,51301,1,0,1:0:0:0:
426,190,51368,1,8,1:0:0:0:
377,208,51434,1,0,1:0:0:0:
324,208,51501,1,0,1:0:0:0:
279,181,51567,1,0,1:0:0:0:
264,130,51634,2,0,B|254:83|264:35,1,95,0|0,1:0|1:0,1:0:0:0:
310,12,51833,1,0,1:0:0:0:
363,9,51900,1,8,1:0:0:0:
42,46,52166,5,0,1:0:0:0:
21,177,52299,1,0,1:0:0:0:
73,299,52432,1,8,1:0:0:0:
200,339,52565,1,0,1:0:0:0:
380,312,52698,6,0,B|389:367,1,47.5,0|0,1:0|1:0,1:0:0:0:
440,264,52831,6,0,B|479:304,1,47.5,0|0,1:0|1:0,1:0:0:0:
464,192,52964,6,0,L|512:192,1,47.5,8|0,1:0|1:0,1:0:0:0:
440,120,53097,6,0,L|476:84,1,47.5,0|0,1:0|1:0,1:0:0:0:
380,72,53230,6,0,L|388:24,4,47.5,0|0|0|0|8,1:0|1:0|1:0|1:0|1:0,1:0:0:0:
132,72,53629,2,0,L|124:24,4,47.5,0|0|0|0|0,1:0|1:0|1:0|1:0|1:0,1:0:0:0:
256,192,54029,2,0,B|256:300,1,95,8|0,1:0|1:0,1:0:0:0:
132,312,54295,5,0,1:0:0:0:
23,254,54428,1,0,1:0:0:0:
23,130,54561,1,8,1:0:0:0:
132,72,54694,1,0,1:0:0:0:
256,52,54827,2,0,B|304:40|360:52,1,95,0|0,1:0|1:0,1:0:0:0:
371,97,55026,1,0,1:0:0:0:
388,147,55093,1,8,1:0:0:0:
42,331,55359,6,0,B|24:207,1,118.75,4|0,1:0|1:0,1:0:0:0:
132,72,55625,2,0,B|150:196,1,118.75,8|0,1:0|1:0,1:0:0:0:
281,356,55891,2,0,B|263:232,1,118.75,0|0,1:0|1:0,1:0:0:0:
371,97,56157,2,0,B|389:221,1,118.75,8|0,1:0|1:0,1:0:0:0:
509,356,56423,6,0,B|453:375|453:375|397:356,1,118.75,0|0,1:0|1:0,1:0:0:0:
258,96,56689,2,0,B|314:77|314:77|370:96,1,118.75,8|0,1:0|1:0,1:0:0:0:
281,356,56955,2,0,B|225:375|225:375|169:356,1,118.75,0|0,1:0|1:0,1:0:0:0:
30,96,57221,2,0,B|86:77|86:77|142:96,1,118.75,8|0,1:0|1:0,1:0:0:0:
50,353,57487,5,0,1:0:0:0:
74,307,57554,1,0,1:0:0:0:
116,276,57621,1,0,1:0:0:0:
167,266,57687,1,0,1:0:0:0:
219,273,57754,1,8,1:0:0:0:
258,308,57820,1,0,1:0:0:0:
281,356,57887,1,0,1:0:0:0:
329,377,57953,1,0,1:0:0:0:
382,373,58020,1,0,1:0:0:0:
419,337,58086,1,0,1:0:0:0:
430,285,58153,1,0,1:0:0:0:
403,240,58219,1,0,1:0:0:0:
359,212,58286,2,0,B|300:156|332:78,1,142.5,8|0,1:0|1:0,1:0:0:0:
417,130,58552,5,0,1:0:0:0:
417,130,58618,1,0,1:0:0:0:
417,130,58685,2,0,L|521:130,1,95,0|8,1:0|1:0,1:0:0:0:
321,289,58951,1,0,1:0:0:0:
321,289,59017,1,0,1:0:0:0:
321,289,59084,2,0,L|227:289,1,95,0|0,1:0|1:0,1:0:0:0:
84,378,59350,1,8,1:0:0:0:
47,340,59417,1,0,1:0:0:0:
33,289,59483,1,0,1:0:0:0:
46,238,59550,1,0,1:0:0:0:
82,201,59616,5,0,1:0:0:0:
227,112,59749,1,0,1:0:0:0:
264,149,59816,1,0,1:0:0:0:
276,200,59882,1,8,1:0:0:0:
262,251,59949,1,0,1:0:0:0:
226,289,60015,1,0,1:0:0:0:
217,341,60082,1,0,1:0:0:0:
245,384,60148,1,0,1:0:0:0:
295,367,60215,1,0,1:0:0:0:
345,356,60281,1,0,1:0:0:0:
397,362,60348,1,0,1:0:0:0:
444,383,60414,1,8,1:0:0:0:
436,331,60481,1,0,1:0:0:0:
446,280,60547,1,0,1:0:0:0:
468,232,60614,1,0,1:0:0:0:
482,182,60680,6,0,B|466:87,1,95,0|0,1:0|1:0,1:0:0:0:
217,341,60946,2,0,B|201:246,1,95,8|0,1:0|1:0,1:0:0:0:
349,261,61213,6,0,L|333:167,1,95,0|0,1:0|1:0,1:0:0:0:
295,131,61412,1,0,1:0:0:0:
250,101,61479,1,8,1:0:0:0:
201,247,61612,5,0,1:0:0:0:
400,127,61745,1,4,1:0:0:0:
162,43,61878,1,0,1:0:0:0:
162,43,61944,1,0,1:0:0:0:
162,43,62011,1,8,1:0:0:0:
201,77,62077,1,0,1:0:0:0:
202,130,62144,1,0,1:0:0:0:
158,157,62210,1,0,1:0:0:0:
106,151,62277,1,4,1:0:0:0:
55,160,62343,1,0,1:0:0:0:
13,192,62410,1,0,1:0:0:0:
1,243,62476,1,0,1:0:0:0:
10,295,62543,1,8,1:0:0:0:
51,326,62609,1,0,1:0:0:0:
103,335,62676,1,0,1:0:0:0:
149,312,62742,1,0,1:0:0:0:
199,294,62809,6,0,B|249:287|293:296,1,95,0|0,1:0|1:0,1:0:0:0:
332,332,63009,2,0,B|323:282|345:238,1,95,0|0,1:0|1:0,1:0:0:0:
370,195,63208,1,0,1:0:0:0:
504,168,63341,5,0,1:0:0:0:
458,303,63474,1,0,1:0:0:0:
207,322,63607,1,12,1:0:0:0:
140,128,63740,1,0,1:0:0:0:
41,227,63873,5,6,1:0:0:0:
23,277,63940,1,0,1:0:0:0:
34,328,64006,1,0,1:0:0:0:
71,366,64073,1,0,1:0:0:0:
122,380,64139,1,8,1:0:0:0:
172,362,64206,1,0,1:0:0:0:
207,322,64272,1,0,1:0:0:0:
215,269,64339,1,0,1:0:0:0:
196,219,64405,1,0,1:0:0:0:
176,169,64472,1,0,1:0:0:0:
183,116,64538,1,0,1:0:0:0:
219,77,64605,1,0,1:0:0:0:
271,63,64672,1,10,1:0:0:0:
323,77,64738,1,0,1:0:0:0:
360,116,64805,1,0,1:0:0:0:
365,169,64871,1,0,1:0:0:0:
346,219,64938,6,0,L|365:341,1,118.75,2|0,1:0|1:0,1:0:0:0:
409,364,65137,1,0,1:0:0:0:
457,342,65204,2,0,B|486:287|466:215,1,118.75,10|0,1:0|1:0,1:0:0:0:
228,145,65403,1,0,1:0:0:0:
183,116,65470,2,0,B|122:98|67:127,1,118.75,2|0,1:0|1:0,1:0:0:0:
42,173,65669,1,0,1:0:0:0:
28,225,65736,2,0,L|46:342,1,118.75,10|0,1:0|1:0,1:0:0:0:
183,355,65935,1,0,1:0:0:0:
186,302,66002,5,2,1:0:0:0:
225,265,66068,1,0,1:0:0:0:
279,261,66135,1,0,1:0:0:0:
329,280,66201,1,0,1:0:0:0:
370,314,66268,1,8,1:0:0:0:
422,320,66334,1,0,1:0:0:0:
470,298,66401,1,0,1:0:0:0:
500,254,66468,1,0,1:0:0:0:
501,201,66534,1,0,1:0:0:0:
476,153,66601,1,0,1:0:0:0:
429,130,66667,1,2,1:0:0:0:
376,133,66734,1,0,1:0:0:0:
332,164,66800,1,10,1:0:0:0:
279,170,66867,1,0,1:0:0:0:
234,142,66933,1,2,1:0:0:0:
221,89,67000,1,0,1:0:0:0:
234,37,67066,6,0,L|411:8,1,178.125,2|0,1:0|1:0,1:0:0:0:
464,22,67332,1,10,1:0:0:0:
505,84,67421,1,2,1:0:0:0:
476,153,67510,1,2,1:0:0:0:
409,185,67598,1,0,1:0:0:0:
279,261,67731,1,0,1:0:0:0:
366,384,67864,1,8,1:0:0:0:
496,308,67997,1,0,1:0:0:0:
234,142,68130,5,6,1:0:0:0:
189,180,68197,1,0,1:0:0:0:
162,234,68264,1,0,1:0:0:0:
163,292,68330,1,0,1:0:0:0:
182,348,68397,1,8,1:0:0:0:
125,337,68463,1,0,1:0:0:0:
65,340,68530,1,0,1:0:0:0:
14,309,68596,1,0,1:0:0:0:
5,249,68663,1,0,1:0:0:0:
33,197,68729,1,0,1:0:0:0:
89,176,68796,1,0,1:0:0:0:
132,136,68862,1,0,1:0:0:0:
147,79,68929,1,10,1:0:0:0:
120,27,68995,1,0,1:0:0:0:
61,21,69062,1,0,1:0:0:0:
13,56,69128,1,0,1:0:0:0:
14,116,69195,6,0,L|136:136,1,118.75,2|0,1:0|1:0,1:0:0:0:
182,164,69394,1,0,1:0:0:0:
234,135,69461,2,0,B|262:78|231:18,1,118.75,10|0,1:0|1:0,1:0:0:0:
301,366,69660,1,0,1:0:0:0:
348,330,69727,2,0,B|408:318|458:359,1,118.75,2|0,1:0|1:0,1:0:0:0:
505,323,69927,1,0,1:0:0:0:
487,266,69993,2,0,B|459:209|490:149,1,118.75,10|0,1:0|1:0,1:0:0:0:
506,94,70193,1,0,1:0:0:0:
471,47,70259,6,0,B|352:28,1,118.75,6|0,1:0|1:0,3:0:0:0:
316,74,70459,2,0,L|330:131,1,59.375,0|10,1:0|1:0,1:0:0:0:
222,372,70658,1,0,1:0:0:0:
222,372,70725,1,0,1:0:0:0:
222,372,70791,2,0,B|196:316|196:316|210:260,1,118.75,6|0,1:0|1:0,1:0:0:0:
298,257,71057,1,10,1:0:0:0:
279,206,71124,1,0,1:0:0:0:
234,176,71190,1,0,1:0:0:0:
180,178,71257,1,0,1:0:0:0:
132,201,71323,6,0,L|97:340,1,118.75,6|0,1:0|1:0,1:0:0:0:
0,115,71589,2,0,L|28:-1,1,118.75,14|0,1:0|1:0,1:0:0:0:
234,176,71856,2,0,B|288:140|346:164,1,118.75,6|0,1:0|1:0,1:0:0:0:
389,206,72055,2,0,B|425:260|401:318,1,118.75,4|0,1:0|1:0,1:0:0:0:
352,354,72255,1,4,1:0:0:0:
445,77,72388,5,6,1:0:0:0:
423,29,72454,1,0,1:0:0:0:
378,0,72521,1,0,1:0:0:0:
325,0,72587,1,0,1:0:0:0:
278,26,72654,1,8,1:0:0:0:
256,74,72720,1,0,1:0:0:0:
260,127,72787,1,0,1:0:0:0:
292,169,72853,1,0,1:0:0:0:
341,192,72920,1,0,1:0:0:0:
390,212,72986,1,0,1:0:0:0:
422,255,73053,1,0,1:0:0:0:
425,308,73119,1,0,1:0:0:0:
398,355,73186,1,10,1:0:0:0:
352,383,73252,1,0,1:0:0:0:
298,380,73319,1,0,1:0:0:0:
256,347,73385,1,0,1:0:0:0:
234,298,73452,6,0,B|213:235|147:201,1,118.75,2|0,1:0|1:0,1:0:0:0:
117,184,73652,1,0,1:0:0:0:
117,184,73718,2,0,B|-1:202,1,118.75,10|0,1:0|1:0,1:0:0:0:
314,233,73918,1,0,1:0:0:0:
357,264,73984,2,0,B|410:240|410:240|470:251,1,118.75,2|0,1:0|1:0,1:0:0:0:
496,205,74184,1,0,1:0:0:0:
512,155,74250,2,0,L|494:38,1,118.75,10|0,1:0|1:0,1:0:0:0:
341,33,74450,1,0,1:0:0:0:
329,84,74516,5,2,1:0:0:0:
285,115,74583,1,0,1:0:0:0:
233,123,74649,1,0,1:0:0:0:
183,105,74716,1,0,1:0:0:0:
143,71,74782,1,8,1:0:0:0:
90,64,74849,1,0,1:0:0:0:
41,85,74915,1,0,1:0:0:0:
13,130,74982,1,0,1:0:0:0:
9,182,75048,1,0,1:0:0:0:
37,228,75115,1,0,1:0:0:0:
83,254,75181,1,2,1:0:0:0:
136,251,75248,1,0,1:0:0:0:
180,220,75315,1,10,1:0:0:0:
233,211,75381,1,0,1:0:0:0:
280,236,75448,1,2,1:0:0:0:
294,287,75514,1,0,1:0:0:0:
279,338,75581,6,0,B|192:343|102:367,1,178.125,2|0,1:0|1:0,1:0:0:0:
48,362,75847,1,10,1:0:0:0:
10,298,75935,1,2,1:0:0:0:
37,228,76024,1,2,1:0:0:0:
105,199,76113,2,0,B|139:147|133:87,1,118.75,2|0,1:0|1:0,1:0:0:0:
46,0,76379,1,10,1:0:0:0:
0,112,76512,1,0,1:0:0:0:
265,60,76645,5,6,1:0:0:0:
317,86,76711,1,0,1:0:0:0:
377,93,76778,1,0,1:0:0:0:
435,85,76844,1,0,1:0:0:0:
486,53,76911,1,8,1:0:0:0:
484,112,76978,1,0,1:0:0:0:
510,164,77044,1,0,1:0:0:0:
512,223,77111,1,0,1:0:0:0:
465,260,77177,1,0,1:0:0:0:
406,269,77244,1,0,1:0:0:0:
355,237,77310,1,0,1:0:0:0:
296,234,77377,1,0,1:0:0:0:
246,265,77443,1,10,1:0:0:0:
243,325,77510,1,0,1:0:0:0:
206,371,77576,1,0,1:0:0:0:
146,372,77643,1,0,1:0:0:0:
94,343,77709,6,0,B|66:294|66:294|74:221,1,118.75,6|0,1:0|1:0,1:0:0:0:
113,186,77909,1,0,1:0:0:0:
113,186,77975,2,0,B|172:198|232:186,1,118.75,10|0,1:0|1:0,1:0:0:0:
512,19,78175,1,0,1:0:0:0:
512,19,78241,2,0,L|390:-1,1,118.75,6|0,1:0|1:0,1:0:0:0:
365,55,78441,1,0,1:0:0:0:
305,44,78507,2,0,B|293:103|302:163,1,118.75,10|0,1:0|1:0,1:0:0:0:
349,203,78707,1,0,1:0:0:0:
411,199,78774,6,0,B|462:233|462:233|490:287,1,118.75,6|0,1:0|1:0,1:0:0:0:
471,344,78973,2,0,L|399:362,1,59.375,0|10,1:0|1:0,1:0:0:0:
99,358,79173,1,0,1:0:0:0:
40,344,79239,1,0,1:0:0:0:
23,284,79306,2,0,B|50:233|50:233|101:199,1,118.75,6|0,1:0|1:0,1:0:0:0:
411,199,79572,1,10,1:0:0:0:
460,161,79638,1,0,1:0:0:0:
470,100,79705,1,0,1:0:0:0:
451,41,79771,1,0,1:0:0:0:
398,7,79838,6,0,B|341:22|341:22|276:9,1,118.75,6|0,1:0|1:0,1:0:0:0:
40,173,80104,2,0,B|97:188|97:188|162:175,1,118.75,12|0,1:0|1:0,1:0:0:0:
435,345,80370,2,0,B|378:360|378:360|313:347,1,118.75,6|0,1:0|1:0,1:0:0:0:
272,307,80570,2,0,B|247:256|256:192,1,118.75,4|0,1:0|1:0,1:0:0:0:
256,129,80769,1,4,1:0:0:0:
40,173,80902,5,6,1:0:0:0:
4,118,80969,1,0,1:0:0:0:
14,54,81035,1,0,1:0:0:0:
67,15,81102,1,0,1:0:0:0:
131,16,81168,1,8,1:0:0:0:
188,48,81235,1,0,1:0:0:0:
170,110,81301,1,0,1:0:0:0:
194,171,81368,1,0,1:0:0:0:
256,192,81434,1,6,1:0:0:0:
319,171,81501,1,2,1:2:0:0:
342,110,81567,1,2,1:2:0:0:
324,47,81634,1,2,1:2:0:0:
381,16,81700,1,10,1:2:0:0:
446,15,81767,1,2,1:2:0:0:
498,54,81833,1,2,1:2:0:0:
507,119,81900,1,2,1:2:0:0:
472,173,81966,5,6,1:2:0:0:
256,192,82033,12,4,86224,1:0:0:0:
116,171,98995,5,0,1:0:0:0:
96,280,99128,1,0,1:0:0:0:
198,324,99261,2,0,B|318:324|298:200,1,190,0|0,1:0|1:0,1:0:0:0:
386,22,99660,6,0,B|341:46|324:92,1,95,0|0,1:0|1:0,1:0:0:0:
491,60,99927,1,0,1:0:0:0:
420,146,100060,2,0,B|467:133|512:157,1,95,0|0,1:0|1:0,1:0:0:0:
511,330,100326,2,0,B|504:279|468:248,1,95,0|0,1:0|1:0,1:0:0:0:
409,374,100592,5,0,1:0:0:0:
298,382,100725,1,0,1:0:0:0:
192,345,100858,1,0,1:0:0:0:
38,84,101124,5,4,1:0:0:0:
46,194,101257,1,0,1:0:0:0:
144,245,101390,2,0,B|261:255|291:151,1,190,0|0,1:0|1:0,1:0:0:0:
257,47,101789,5,0,1:0:0:0:
440,93,101922,2,0,B|419:195,1,95,0|0,1:0|1:0,1:0:0:0:
197,144,102188,2,0,B|244:131|290:153,1,95,0|0,1:0|1:0,1:0:0:0:
458,286,102454,2,0,B|411:299|365:277,1,95,0|0,1:0|1:0,1:0:0:0:
175,0,102720,5,2,1:2:0:0:
43,14,102853,1,2,1:2:0:0:
0,140,102986,1,2,1:2:0:0:
81,246,103119,1,2,1:2:0:0:
272,245,103252,6,0,B|293:202|289:150,1,95,4|0,1:0|1:0,1:0:0:0:
259,102,103452,1,0,1:0:0:0:
203,90,103519,1,0,1:0:0:0:
336,19,103652,5,0,1:0:0:0:
436,69,103785,1,0,1:0:0:0:
478,172,103918,1,0,1:0:0:0:
451,280,104051,1,0,1:0:0:0:
224,335,104184,5,0,1:0:0:0:
224,335,104250,1,0,1:0:0:0:
224,335,104317,2,0,B|272:329|318:335,1,95,4|0,1:0|1:0,1:0:0:0:
102,231,104583,2,0,B|54:237|8:231,1,95,0|0,1:0|1:0,1:0:0:0:
256,192,104849,1,0,1:0:0:0:
134,88,104982,1,0,1:0:0:0:
134,88,105048,1,0,1:0:0:0:
134,88,105115,2,0,B|86:94|40:88,1,95,0|0,1:0|1:0,1:0:0:0:
300,61,105381,6,0,L|346:53,3,47.5,4|0|0|0,1:0|1:0|1:0|1:0,1:0:0:0:
343,149,105647,2,0,L|389:157,3,47.5,0|0|0|0,1:0|1:0|1:0|1:0,1:0:0:0:
256,192,105913,5,4,1:0:0:0:
223,227,105980,1,0,1:0:0:0:
179,243,106046,1,0,1:0:0:0:
132,232,106113,1,0,1:0:0:0:
85,237,106179,1,0,1:0:0:0:
48,267,106246,1,0,1:0:0:0:
45,314,106312,1,0,1:0:0:0:
69,355,106379,1,0,1:0:0:0:
114,369,106445,1,4,1:0:0:0:
158,352,106512,1,0,1:0:0:0:
178,309,106578,1,0,1:0:0:0:
168,262,106645,1,0,1:0:0:0:
132,232,106711,1,0,1:0:0:0:
108,190,106778,1,0,1:0:0:0:
109,142,106844,1,0,1:0:0:0:
135,102,106911,1,0,1:0:0:0:
178,82,106978,5,6,1:2:0:0:
229,90,107044,1,2,1:2:0:0:
281,84,107111,1,2,1:2:0:0:
313,43,107177,1,2,1:2:0:0:
364,33,107244,1,2,1:2:0:0:
411,54,107310,1,2,1:2:0:0:
432,102,107377,1,2,1:2:0:0:
417,151,107443,1,2,1:2:0:0:
372,178,107510,5,6,1:2:0:0:
256,192,107576,12,0,108441,2:0:0:0:
8,134,108574,5,6,1:0:0:0:
65,20,108707,1,0,1:0:0:0:
65,20,108774,1,2,1:0:0:0:
65,20,108840,2,0,B|124:29|188:19,1,113.999996520996,8|2,1:0|1:0,1:0:0:0:
274,118,109106,1,0,1:0:0:0:
322,151,109173,2,0,B|337:206|337:206|322:261,1,113.999996520996,2|2,1:0|1:0,1:0:0:0:
267,276,109372,2,0,B|322:261|322:261|377:276,1,113.999996520996,8|2,1:0|1:0,1:0:0:0:
322,382,109638,6,0,L|198:382,1,113.999996520996,2|0,1:0|1:0,1:0:0:0:
156,357,109838,2,0,L|173:298,1,56.9999982604981,2|8,1:0|1:0,1:0:0:0:
83,199,110037,1,2,1:0:0:0:
93,63,110170,1,0,1:0:0:0:
132,86,110237,1,2,1:0:0:0:
177,86,110303,1,0,1:0:0:0:
216,62,110370,1,2,1:0:0:0:
240,23,110436,1,8,1:0:0:0:
374,56,110570,1,2,1:0:0:0:
508,36,110703,6,0,B|501:99|510:159,1,113.999996520996,2|0,1:0|1:0,1:0:0:0:
477,195,110902,1,2,1:0:0:0:
512,240,110969,1,8,1:0:0:0:
486,291,111035,1,0,1:0:0:0:
511,343,111102,2,0,B|457:335|390:343,1,113.999996520996,2|0,1:0|1:0,1:0:0:0:
355,303,111301,2,0,B|300:318|243:303,1,113.999996520996,2|2,1:0|1:0,1:0:0:0:
190,279,111501,5,8,1:0:0:0:
79,308,111634,1,2,1:0:0:0:
16,215,111767,1,6,1:0:0:0:
85,126,111900,1,0,1:0:0:0:
85,126,111966,1,2,1:0:0:0:
85,126,112033,1,12,1:0:0:0:
193,161,112166,1,2,1:0:0:0:
242,302,112299,5,4,1:0:0:0:
397,342,112432,1,2,1:0:0:0:
501,207,112565,1,12,1:0:0:0:
380,73,112698,1,2,1:0:0:0:
280,225,112831,6,0,B|219:220|171:250,1,113.999996520996,6|0,1:0|1:0,1:0:0:0:
132,207,113031,1,2,1:0:0:0:
145,152,113097,2,0,B|158:93|128:42,1,113.999996520996,8|2,1:0|1:0,1:0:0:0:
6,167,113363,1,2,1:0:0:0:
0,212,113430,1,0,1:0:0:0:
15,254,113496,1,0,1:0:0:0:
52,280,113563,1,0,1:0:0:0:
96,287,113629,1,10,1:0:0:0:
73,327,113696,1,0,1:0:0:0:
89,369,113762,1,0,1:0:0:0:
132,382,113829,1,0,1:0:0:0:
177,376,113895,5,2,1:0:0:0:
203,338,113962,1,0,1:0:0:0:
240,311,114029,1,0,1:0:0:0:
285,308,114095,1,0,1:0:0:0:
330,316,114162,1,10,1:0:0:0:
364,346,114228,1,0,1:0:0:0:
406,361,114295,1,0,1:0:0:0:
450,351,114361,1,0,1:0:0:0:
478,316,114428,1,2,1:0:0:0:
480,270,114494,1,0,1:0:0:0:
451,235,114561,1,0,1:0:0:0:
405,232,114627,1,0,1:0:0:0:
367,207,114694,1,10,1:0:0:0:
346,166,114760,1,0,1:0:0:0:
361,123,114827,1,0,1:0:0:0:
398,95,114893,1,0,1:0:0:0:
352,90,114960,5,2,1:0:0:0:
309,107,115026,1,0,1:0:0:0:
279,141,115093,1,0,1:0:0:0:
237,161,115159,1,0,1:0:0:0:
194,146,115226,1,10,1:0:0:0:
171,106,115292,1,0,1:0:0:0:
176,61,115359,1,0,1:0:0:0:
148,25,115425,1,0,1:0:0:0:
102,19,115492,1,2,1:0:0:0:
60,37,115558,1,0,1:0:0:0:
47,81,115625,1,0,1:0:0:0:
59,125,115691,1,0,1:0:0:0:
99,145,115758,1,10,1:0:0:0:
129,179,115825,1,0,1:0:0:0:
127,224,115891,1,0,1:0:0:0:
90,251,115958,1,0,1:0:0:0:
54,279,116024,6,0,B|112:274|170:283,1,113.999996520996,2|0,1:0|1:0,1:0:0:0:
206,306,116224,1,0,1:0:0:0:
224,347,116290,1,12,1:0:0:0:
256,314,116357,1,0,1:0:0:0:
300,306,116423,1,0,1:0:0:0:
343,320,116490,1,0,1:0:0:0:
366,358,116556,1,12,1:0:0:0:
408,377,116623,1,0,1:0:0:0:
452,368,116689,1,0,1:0:0:0:
484,336,116756,1,0,1:0:0:0:
499,292,116822,1,14,1:0:0:0:
482,249,116889,1,0,1:0:0:0:
446,221,116955,1,2,1:0:0:0:
401,213,117022,1,0,1:0:0:0:
358,227,117088,5,6,1:0:0:0:
294,379,117221,1,0,1:0:0:0:
140,315,117354,1,10,1:0:0:0:
204,163,117487,1,0,1:0:0:0:
41,169,117621,2,0,B|16:87|16:87|53:9,1,170.999994781494,2|0,1:0|1:0,1:0:0:0:
53,11,117887,2,0,B|167:30,1,113.999996520996,10|0,1:0|1:0,2:0:0:0:
374,83,118153,6,0,B|395:115|381:155,1,75.9999976806641,2|2,1:0|1:0,1:0:0:0:
259,196,118330,2,0,B|238:164|252:124,1,75.9999976806641,2|10,1:0|1:0,1:0:0:0:
361,272,118552,1,0,1:0:0:0:
472,207,118685,2,0,B|502:261|482:316,1,113.999996520996,2|0,1:0|1:0,1:0:0:0:
437,352,118884,1,0,1:0:0:0:
382,369,118951,2,0,B|330:365|265:374,1,113.999996520996,10|0,1:0|1:0,1:0:0:0:
30,384,119217,5,2,1:0:0:0:
74,371,119283,1,0,1:0:0:0:
98,333,119350,1,0,1:0:0:0:
103,287,119417,1,0,1:0:0:0:
77,249,119483,1,10,1:0:0:0:
35,230,119550,1,0,1:0:0:0:
7,194,119616,1,0,1:0:0:0:
1,148,119683,1,0,1:0:0:0:
24,109,119749,1,2,1:0:0:0:
65,88,119816,1,0,1:0:0:0:
110,95,119882,1,0,1:0:0:0:
146,122,119949,1,0,1:0:0:0:
151,167,120015,1,10,1:0:0:0:
187,195,120082,1,0,1:0:0:0:
232,196,120148,1,0,1:0:0:0:
266,164,120215,1,0,1:0:0:0:
299,133,120281,6,0,B|363:122,3,56.9999982604981,2|0|0|0,1:0|1:0|1:0|1:0,1:0:0:0:
407,190,120547,6,0,B|418:254,3,56.9999982604981,10|0|0|0,1:0|1:0|1:0|1:0,1:0:0:0:
356,308,120813,6,0,B|292:319,3,56.9999982604981,2|0|0|0,1:0|1:0|1:0|1:0,1:0:0:0:
241,252,121080,6,0,B|230:188,3,56.9999982604981,10|0|0|0,1:0|1:0|1:0|1:0,1:0:0:0:
340,35,121346,6,0,B|396:25|458:38,1,113.999996520996,2|0,1:0|1:0,1:0:0:0:
489,65,121545,1,2,1:0:0:0:
506,107,121612,1,8,1:0:0:0:
491,150,121678,1,0,1:0:0:0:
450,170,121745,1,2,1:0:0:0:
408,188,121811,1,0,1:0:0:0:
380,225,121878,1,2,1:0:0:0:
381,270,121944,1,2,1:0:0:0:
398,312,122011,6,0,B|510:329,1,113.999996520996,0|10,1:0|1:0,1:0:0:0:
256,354,122277,1,2,1:0:0:0:
114,312,122410,2,0,B|1:329,1,113.999996520996,2|0,1:0|1:0,1:0:0:0:
0,198,122676,2,0,B|-13:137|4:81,1,113.999996520996,10|0,1:0|1:0,1:0:0:0:
99,0,122942,2,0,B|166:59|278:13,1,170.999994781494,2|2,1:0|1:0,1:0:0:0:
298,62,123208,2,0,B|311:123|294:179,1,113.999996520996,8|2,1:0|1:0,1:0:0:0:
473,9,123474,5,2,1:0:0:0:
432,40,123541,1,0,1:0:0:0:
423,90,123607,1,0,1:0:0:0:
441,138,123674,1,2,1:0:0:0:
478,174,123740,1,8,1:0:0:0:
481,225,123807,1,0,1:0:0:0:
452,267,123873,1,2,1:0:0:0:
400,274,123940,1,0,1:0:0:0:
353,254,124006,1,2,1:0:0:0:
337,206,124073,1,2,1:0:0:0:
296,175,124139,1,0,1:0:0:0:
246,165,124206,1,0,1:0:0:0:
197,177,124272,1,10,1:0:0:0:
165,218,124339,1,0,1:0:0:0:
162,268,124405,1,2,1:0:0:0:
186,313,124472,1,0,1:0:0:0:
234,330,124538,6,0,B|291:320,3,56.9999982604981,6|0|0|0,1:0|1:0|1:0|1:0,1:0:0:0:
296,175,124805,6,0,B|344:109,3,52.2500015945435,14|0|0|0,1:0|1:0|1:0|1:0,1:0:0:0:
168,70,125071,6,0,L|182:7,3,47.5,6|0|0|0,1:0|1:0|1:0|1:0,1:0:0:0:
20,148,125337,6,0,L|-1:93,3,42.7499986953736,14|0|0|0,2:0|2:0|2:0|2:0,2:0:0:0:
55,308,125603,5,6,2:0:0:0:
78,356,125669,1,0,2:0:0:0:
129,372,125736,1,0,2:0:0:0:
182,372,125802,1,0,2:0:0:0:
224,338,125869,1,10,2:0:0:0:
240,287,125935,1,0,2:0:0:0:
229,234,126002,1,0,2:0:0:0:
192,196,126068,1,0,2:0:0:0:
139,185,126135,1,2,2:0:0:0:
107,142,126201,1,0,2:0:0:0:
105,88,126268,1,0,2:0:0:0:
133,43,126334,1,0,2:0:0:0:
182,22,126401,1,10,2:0:0:0:
236,29,126468,1,0,2:0:0:0:
275,65,126534,1,0,2:0:0:0:
279,119,126601,1,0,2:0:0:0:
436,24,126734,6,0,B|479:106|447:200,2,178.125,2|10|2,2:0|2:0|2:0,2:0:0:0:
204,366,127332,2,0,B|161:284|193:190,1,178.125,2|2,2:0|2:0,2:0:0:0:
359,320,127731,5,2,2:0:0:0:
404,348,127798,1,0,2:0:0:0:
457,348,127864,1,0,2:0:0:0:
493,309,127931,1,0,2:0:0:0:
501,256,127997,1,10,2:0:0:0:
480,206,128064,1,0,2:0:0:0:
430,186,128130,1,0,2:0:0:0:
377,192,128197,1,0,2:0:0:0:
333,223,128264,1,2,2:0:0:0:
280,228,128330,1,0,2:0:0:0:
230,208,128397,1,0,2:0:0:0:
206,160,128463,1,0,2:0:0:0:
208,106,128530,1,10,2:0:0:0:
246,68,128596,1,0,2:0:0:0:
298,57,128663,1,2,2:0:0:0:
347,75,128729,1,0,2:0:0:0:
492,0,128929,6,0,B|519:48|519:48|503:115,2,118.75,2|10|0,2:0|2:0|2:0,2:0:0:0:
291,343,129328,2,0,B|264:295|264:295|280:228,1,118.75,2|0,2:0|2:0,2:0:0:0:
440,272,129594,1,10,2:0:0:0:
310,119,129727,1,2,2:0:0:0:
147,308,129860,6,0,B|24:327,1,118.75,2|0,2:0|2:0,2:0:0:0:
12,275,130060,1,0,2:0:0:0:
43,232,130126,2,0,B|63:166|27:108,1,118.75,10|0,2:0|2:0,2:0:0:0:
173,49,130392,1,2,2:0:0:0:
221,38,130459,1,0,2:0:0:0:
269,45,130525,1,0,2:0:0:0:
298,85,130592,1,0,2:0:0:0:
303,133,130658,1,10,2:0:0:0:
275,174,130725,1,0,2:0:0:0:
228,188,130791,1,0,2:0:0:0:
195,225,130858,1,0,2:0:0:0:
187,273,130924,5,2,2:0:0:0:
207,322,130991,1,0,2:0:0:0:
249,353,131057,1,0,2:0:0:0:
302,352,131124,1,0,2:0:0:0:
350,330,131190,1,10,2:0:0:0:
369,280,131257,1,0,2:0:0:0:
365,227,131323,1,0,2:0:0:0:
326,190,131390,1,0,2:0:0:0:
275,174,131456,1,2,2:0:0:0:
232,140,131523,1,0,2:0:0:0:
213,90,131589,1,0,2:0:0:0:
218,36,131656,1,0,2:0:0:0:
262,5,131723,1,10,2:0:0:0:
308,30,131789,1,0,2:0:0:0:
360,41,131856,1,0,2:0:0:0:
412,32,131922,1,0,2:0:0:0:
458,5,131989,5,2,2:0:0:0:
450,57,132055,1,0,2:0:0:0:
474,105,132122,1,0,2:0:0:0:
489,155,132188,1,0,2:0:0:0:
473,206,132255,1,10,2:0:0:0:
427,234,132321,1,0,2:0:0:0:
374,235,132388,1,0,2:0:0:0:
321,238,132454,1,0,2:0:0:0:
277,269,132521,1,2,2:0:0:0:
274,322,132587,1,0,2:0:0:0:
248,369,132654,1,0,2:0:0:0:
195,375,132720,1,2,2:0:0:0:
145,355,132787,1,8,2:0:0:0:
130,304,132853,1,0,2:0:0:0:
153,255,132920,1,2,2:0:0:0:
156,202,132986,1,0,2:0:0:0:
130,155,133053,6,0,L|8:135,1,118.75,2|0,2:0|2:0,2:0:0:0:
4,83,133252,1,0,2:0:0:0:
25,33,133319,1,12,2:0:0:0:
70,5,133385,1,0,2:0:0:0:
123,12,133452,1,0,2:0:0:0:
172,34,133519,1,2,2:0:0:0:
224,22,133585,1,12,2:0:0:0:
207,73,133652,1,0,2:0:0:0:
217,125,133718,1,2,2:0:0:0:
259,158,133785,1,0,2:0:0:0:
312,167,133851,1,14,2:0:0:0:
355,135,133918,1,0,2:0:0:0:
404,113,133984,1,14,2:0:0:0:
457,108,134051,1,0,2:0:0:0:
501,136,134117,5,6,2:0:0:0:
482,305,134250,1,0,2:0:0:0:
331,384,134383,1,10,2:0:0:0:
160,361,134516,1,0,2:0:0:0:
22,255,134649,6,0,B|-34:173|18:85,1,178.125,2|0,2:0|2:0,2:0:0:0:
69,8,134915,2,0,L|137:-2,1,59.375,8|0,2:0|2:0,2:0:0:0:
188,75,135048,2,0,L|256:85,1,59.375,2|0,2:0|2:0,2:0:0:0:
321,21,135181,5,2,2:0:0:0:
343,89,135270,1,2,2:0:0:0:
313,154,135359,1,2,2:0:0:0:
246,180,135448,2,0,L|128:161,1,118.75,8|2,2:0|2:0,2:0:0:0:
31,224,135714,5,0,2:0:0:0:
6,271,135780,1,0,2:0:0:0:
12,324,135847,1,2,2:0:0:0:
44,366,135913,1,0,2:0:0:0:
94,384,135980,2,0,L|219:364,1,118.75,10|0,2:0|2:0,2:0:0:0:
512,384,136246,5,6,2:0:0:0:
459,381,136312,1,0,2:0:0:0:
407,367,136379,1,0,2:0:0:0:
370,329,136445,1,0,2:0:0:0:
362,276,136512,1,10,2:0:0:0:
392,231,136578,1,0,2:0:0:0:
444,218,136645,1,0,2:0:0:0:
477,177,136711,1,0,2:0:0:0:
486,124,136778,1,2,2:0:0:0:
461,76,136844,1,0,2:0:0:0:
411,57,136911,1,0,2:0:0:0:
359,64,136978,1,0,2:0:0:0:
321,101,137044,1,10,2:0:0:0:
270,114,137111,1,0,2:0:0:0:
219,97,137177,1,0,2:0:0:0:
189,53,137244,1,0,2:0:0:0:
152,14,137310,6,0,B|88:3,3,59.375,6|0|0|0,2:0|2:0|2:0|2:0,2:0:0:0:
21,73,137576,6,0,B|10:137,3,59.375,10|0|0|0,2:0|2:0|2:0|2:0,2:0:0:0:
75,210,137842,6,0,B|139:221,3,59.375,2|0|0|0,2:0|2:0|2:0|2:0,2:0:0:0:
209,155,138108,6,0,B|220:91,3,59.375,10|0|2|0,2:0|2:0|2:0|2:0,2:0:0:0:
340,8,138374,6,0,B|405:14|459:8,1,118.75,6|0,2:0|2:0,2:0:0:0:
498,45,138574,1,0,2:0:0:0:
506,97,138640,1,10,2:0:0:0:
488,147,138707,1,0,2:0:0:0:
442,173,138774,1,0,2:0:0:0:
394,196,138840,1,0,2:0:0:0:
370,243,138907,1,2,2:0:0:0:
366,296,138973,1,0,2:0:0:0:
387,344,139040,6,0,B|452:338|506:344,1,118.75,0|10,2:0|2:0,2:0:0:0:
125,344,139306,1,0,2:0:0:0:
68,358,139372,1,0,2:0:0:0:
10,344,139439,2,0,B|21:283|9:224,1,118.75,6|0,2:0|2:0,2:0:0:0:
93,34,139638,1,0,2:0:0:0:
145,62,139705,6,0,B|156:123|144:181,1,118.75,10|0,2:0|2:0,2:0:0:0:
198,206,139904,1,0,2:0:0:0:
256,192,139971,2,0,B|319:131|293:21,1,178.125,2|0,2:0|2:0,2:0:0:0:
495,202,140237,2,0,B|431:191,1,59.375,8|0,2:0|2:0,2:0:0:0:
395,102,140370,2,0,B|454:92,1,59.375,2|0,2:0|2:0,2:0:0:0:
443,291,140503,5,6,2:0:0:0:
416,344,140570,1,0,2:0:0:0:
359,361,140636,1,2,2:0:0:0:
299,358,140703,1,0,2:0:0:0:
260,315,140769,1,10,2:0:0:0:
221,269,140836,1,0,2:0:0:0:
164,251,140902,1,0,2:0:0:0:
104,260,140969,1,0,2:0:0:0:
53,291,141035,1,2,2:0:0:0:
48,231,141102,1,0,2:0:0:0:
90,189,141168,1,0,2:0:0:0:
149,182,141235,1,0,2:0:0:0:
200,154,141301,1,10,2:0:0:0:
223,98,141368,1,0,2:0:0:0:
214,39,141434,1,0,2:0:0:0:
162,9,141501,1,0,2:0:0:0:
103,0,141567,6,0,L|114:58,3,59.375,6|0|0|0,2:0|2:0|2:0|2:0,2:0:0:0:
12,76,141833,6,0,L|1:134,3,59.375,10|0|0|0,2:0|2:0|2:0|2:0,2:0:0:0:
200,154,142099,6,0,L|258:165,3,59.375,2|0|0|0,2:0|2:0|2:0|2:0,2:0:0:0:
303,72,142366,6,0,L|361:61,3,59.375,10|0|0|0,2:0|2:0|2:0|2:0,2:0:0:0:
401,24,142632,5,4,1:0:0:0:
454,16,142698,1,0,1:0:0:0:
498,46,142765,1,0,1:0:0:0:
505,98,142831,1,0,1:0:0:0:
465,134,142898,1,8,1:0:0:0:
413,120,142964,1,0,1:0:0:0:
365,145,143031,1,0,1:0:0:0:
342,192,143097,1,0,1:0:0:0:
365,241,143164,1,0,1:0:0:0:
413,264,143230,1,0,1:0:0:0:
465,250,143297,1,0,1:0:0:0:
505,286,143363,1,0,1:0:0:0:
498,339,143430,1,8,1:0:0:0:
454,368,143496,1,0,1:0:0:0:
401,358,143563,1,0,1:0:0:0:
361,324,143629,1,0,1:0:0:0:
314,296,143696,5,4,1:0:0:0:
256,282,143762,1,0,1:0:0:0:
197,294,143829,1,0,1:0:0:0:
146,324,143895,1,0,1:0:0:0:
98,360,143962,1,8,1:0:0:0:
39,349,144029,1,0,1:0:0:0:
8,298,144095,1,0,1:0:0:0:
20,239,144162,1,0,1:0:0:0:
69,207,144228,1,0,1:0:0:0:
128,216,144295,1,0,1:0:0:0:
181,191,144361,1,0,1:0:0:0:
204,135,144428,1,0,1:0:0:0:
188,78,144494,1,8,1:0:0:0:
137,46,144561,1,0,1:0:0:0:
78,55,144627,1,0,1:0:0:0:
36,97,144694,1,0,1:0:0:0:
36,156,144760,6,0,L|104:156,3,59.375,4|0|0|0,1:0|1:0|1:0|1:0,1:0:0:0:
149,267,145026,2,0,L|89:267,3,59.375,8|0|0|0,1:0|1:0|1:0|1:0,1:0:0:0:
33,286,145292,5,0,1:0:0:0:
24,345,145359,1,0,1:0:0:0:
68,383,145425,1,0,1:0:0:0:
127,383,145492,1,0,1:0:0:0:
175,348,145558,1,8,1:0:0:0:
229,323,145625,1,0,1:0:0:0:
287,322,145691,1,0,1:0:0:0:
342,344,145758,1,0,1:0:0:0:
394,372,145825,1,4,1:0:0:0:
458,362,145891,1,0,1:0:0:0:
499,311,145958,1,0,1:0:0:0:
490,246,146024,1,0,1:0:0:0:
438,205,146091,6,0,B|350:211|261:205,1,178.125,10|2,1:2|1:2,1:2:0:0:
164,0,146357,6,0,B|252:-6|341:0,1,178.125,2|2,1:2|1:2,1:2:0:0:
499,311,146623,6,0,B|411:317|322:311,1,178.125,10|2,1:2|1:2,1:2:0:0:
225,106,146889,5,4,1:0:0:0:
85,140,155403,6,0,B|56:150|17:147,2,69.6666687927247,4|0|0,1:0|2:0|2:0,2:0:0:0:
136,82,155669,1,8,2:0:0:0:
203,115,155758,1,0,2:0:0:0:
244,52,155847,1,0,1:0:0:0:
311,87,155935,2,0,B|340:76|379:77,2,69.6666687927247,2|0|0,2:0|2:0|1:0,2:0:0:0:
244,52,156201,1,8,2:0:0:0:
189,279,156379,1,0,1:0:0:0:
260,304,156468,6,0,L|252:372,2,69.6666687927247,2|0|0,2:0|2:0|1:0,2:0:0:0:
335,291,156734,2,0,L|358:361,2,69.6666687927247,8|0|0,2:0|2:0|1:0,2:0:0:0:
400,251,157000,2,0,L|451:303,2,69.6666687927247,2|0|0,2:0|2:0|1:0,2:0:0:0:
428,181,157266,1,12,2:0:0:0:
84,218,157532,6,0,B|72:186|76:143,2,69.6666687927247,4|0|0,1:0|2:0|2:0,2:0:0:0:
129,279,157798,1,8,2:0:0:0:
193,318,157887,1,0,2:0:0:0:
236,256,157975,1,0,1:0:0:0:
301,295,158064,2,0,B|330:284|369:286,2,69.6666687927247,2|0|0,2:0|2:0|1:0,2:0:0:0:
236,256,158330,1,8,2:0:0:0:
428,181,158507,1,0,1:0:0:0:
472,117,158596,6,0,B|482:88|479:49,2,69.6666687927247,2|0|0,2:0|2:0|1:0,2:0:0:0:
401,73,158862,2,0,B|392:38|358:20,2,69.6666687927247,8|0|0,2:0|2:0|1:0,2:0:0:0:
326,90,159128,5,2,2:0:0:0:
264,132,159217,1,0,2:0:0:0:
190,140,159306,1,0,1:0:0:0:
120,115,159394,1,12,2:0:0:0:
364,356,159660,6,0,B|395:366|438:363,2,75.9999976806641,4|0|0,1:0|2:0|2:0,2:0:0:0:
301,295,159927,1,8,2:0:0:0:
219,323,160015,1,0,2:0:0:0:
171,250,160104,1,0,1:0:0:0:
93,290,160193,2,0,B|61:278|18:279,2,75.9999976806641,2|0|0,2:0|2:0|1:0,2:0:0:0:
171,250,160459,1,12,2:0:0:0:
378,297,160636,1,0,1:0:0:0:
346,228,160725,6,0,L|359:153,2,75.9999976806641,2|0|0,2:0|2:0|1:0,2:0:0:0:
301,295,160991,2,0,L|229:319,2,75.9999976806641,8|0|0,2:0|2:0|1:0,2:0:0:0:
435,347,161257,5,2,2:0:0:0:
378,297,161346,1,0,2:0:0:0:
346,228,161434,1,0,1:0:0:0:
359,153,161523,1,12,2:0:0:0:
256,0,161700,1,0,2:0:0:0:
256,0,161789,6,0,L|256:75,2,75.9999976806641,4|0|0,1:0|2:0|2:0,2:0:0:0:
153,153,162055,2,0,L|167:228,2,75.9999976806641,8|0|0,2:0|2:0|2:0,2:0:0:0:
143,307,162321,5,2,2:0:0:0:
214,352,162410,1,0,2:0:0:0:
298,352,162499,1,0,1:0:0:0:
369,307,162587,1,12,2:0:0:0:
93,86,162765,1,0,1:0:0:0:
21,125,162853,6,0,B|-19:152|-36:206|-19:260|21:287,1,190.000007247925,2|0,1:2|1:2,1:2:0:0:
125,369,163119,6,0,B|165:342|182:288|165:234|125:207,1,190.000007247925,6|0,1:2|1:2,1:2:0:0:
491,125,163385,6,0,B|531:152|548:206|531:260|491:287,1,190.000007247925,2|0,1:2|1:2,1:2:0:0:
387,369,163652,6,0,B|347:342|330:288|347:234|387:207,1,190.000007247925,6|0,1:2|1:2,1:2:0:0:
256,192,163918,6,0,B|256:89,2,88.6666639607748,4|0|0,1:0|1:0|1:0,1:0:0:0:
168,233,164184,1,8,1:0:0:0:
168,328,164272,1,0,1:0:0:0:
80,369,164361,1,0,1:0:0:0:
0,316,164450,2,0,B|-17:273|0:227,2,88.6666639607748,0|0|0,1:0|1:0|1:0,1:0:0:0:
80,369,164716,1,8,1:0:0:0:
432,369,164893,1,0,1:0:0:0:
512,316,164982,6,0,B|529:273|512:227,2,88.6666639607748,0|0|4,1:0|1:0|1:2,1:0:0:0:
428,271,165248,2,0,B|409:228|365:208,2,88.6666639607748,8|0|4,1:0|1:0|1:0,1:0:0:0:
342,311,165514,2,0,B|299:294|253:311,2,88.6666639607748,0|0|4,1:0|1:0|1:0,1:0:0:0:
428,271,165780,1,12,1:0:0:0:
16,259,166046,6,0,B|5:215|14:170,2,88.6666639607748,4|0|0,1:0|1:0|1:0,1:0:0:0:
96,311,166312,1,8,1:0:0:0:
176,259,166401,1,0,1:0:0:0:
256,311,166490,1,0,1:0:0:0:
336,363,166578,2,0,B|380:352|425:361,2,88.6666639607748,0|0|0,1:0|1:0|1:0,1:0:0:0:
256,311,166844,1,8,1:0:0:0:
256,73,167022,1,0,1:0:0:0:
177,20,167111,6,0,L|88:20,2,88.6666639607748,0|0|4,1:0|1:0|1:0,1:0:0:0:
10,73,167377,1,8,1:0:0:0:
91,122,167466,1,0,1:0:0:0:
10,170,167555,1,0,1:2:0:0:
91,216,167643,1,4,1:0:0:0:
10,265,167732,1,0,1:2:0:0:
91,314,167821,1,4,1:0:0:0:
10,363,167909,1,12,1:0:0:0:
456,348,168175,6,0,B|471:307|460:261,2,88.6666639607748,0|0|4,1:0|1:0|1:0,1:0:0:0:
361,357,168441,1,8,1:0:0:0:
279,312,168530,1,0,1:0:0:0:
284,220,168618,1,0,1:0:0:0:
203,171,168707,2,0,L|188:76,2,88.6666639607748,0|0|0,1:0|1:0|1:0,1:0:0:0:
284,220,168973,1,8,1:0:0:0:
92,67,169150,1,0,1:0:0:0:
92,67,169239,6,0,B|44:56|2:64,2,88.6666639607748,0|0|4,1:0|1:0|1:0,1:0:0:0:
189,83,169505,2,0,B|237:94|279:86,2,88.6666639607748,8|0|4,1:0|1:0|1:0,1:0:0:0:
128,155,169771,5,0,1:0:0:0:
116,247,169860,1,0,1:0:0:0:
164,327,169949,1,4,1:2:0:0:
256,343,170037,1,12,1:0:0:0:
424,280,170215,1,0,1:0:0:0:
340,220,170303,6,0,B|314:179|330:132,2,88.6666639607748,4|0|0,1:0|1:0|1:0,1:0:0:0:
424,280,170570,2,0,B|450:321|434:368,2,88.6666639607748,8|0|0,1:0|1:0|1:0,1:0:0:0:
335,335,170836,1,0,1:0:0:0:
256,268,170924,1,0,1:0:0:0:
176,336,171013,1,0,1:0:0:0:
88,280,171102,2,0,B|71:324|71:324|78:368,2,88.6666639607748,12|0|0,1:0|1:0|1:0,1:0:0:0:
172,220,171368,2,0,B|189:176|189:176|182:132,2,88.6666639607748,4|0|4,1:0|1:2|1:0,1:0:0:0:
83,163,171634,5,8,1:0:0:0:
105,60,171723,1,0,1:0:0:0:
205,33,171811,1,4,1:2:0:0:
288,97,171900,1,4,1:2:0:0:
302,200,171989,1,0,1:0:0:0:
388,257,172077,1,0,1:0:0:0:
482,211,172166,2,0,B|525:-43,1,177.33332792155,12|0,1:0|1:0,1:0:0:0:
102,343,172432,6,0,B|85:244,2,95.0000036239625,4|0|0,1:0|1:0|1:0,1:0:0:0:
203,381,172698,1,8,1:0:0:0:
298,331,172787,1,0,1:0:0:0:
397,370,172876,1,0,1:0:0:0:
481,303,172964,2,0,B|499:257|481:210,2,95.0000036239625,0|0|0,1:0|1:0|1:0,1:0:0:0:
397,370,173230,1,8,1:0:0:0:
74,7,173408,1,0,1:0:0:0:
12,93,173496,6,0,B|1:134|12:181,2,95.0000036239625,0|0|4,1:0|1:0|1:2,1:0:0:0:
107,144,173762,2,0,B|132:185|173:210,2,95.0000036239625,8|0|4,1:0|1:0|1:2,1:0:0:0:
209,104,174029,2,0,B|256:115|303:104,2,95.0000036239625,0|0|4,1:0|1:0|1:2,1:0:0:0:
256,7,174295,1,12,1:0:0:0:
447,345,174561,6,0,B|473:306|513:276,2,95.0000036239625,4|0|0,1:0|1:0|1:0,1:0:0:0:
351,286,174827,1,12,1:0:0:0:
256,345,174915,1,0,1:0:0:0:
161,286,175004,1,0,1:0:0:0:
65,345,175093,2,0,B|39:306|-1:276,2,95.0000036239625,4|0|4,1:0|1:0|1:0,1:0:0:0:
161,286,175359,1,8,1:0:0:0:
256,0,175536,1,0,1:0:0:0:
173,77,175625,6,0,L|63:77,2,95.0000036239625,4|0|4,1:0|1:0|1:0,1:0:0:0:
331,79,175891,2,0,L|441:79,2,95.0000036239625,8|0|0,1:0|1:0|1:0,1:0:0:0:
512,151,176157,5,4,1:0:0:0:
512,261,176245,1,4,1:0:0:0:
411,315,176334,1,4,1:0:0:0:
411,205,176422,1,12,1:0:0:0:
23,13,176689,6,0,B|-1:61|-1:61|9:109,2,101.333333333333,4|0|0,1:0|1:0|1:0,1:0:0:0:
127,46,176955,1,12,1:0:0:0:
192,130,177044,1,0,1:0:0:0:
192,238,177133,1,0,1:0:0:0:
294,271,177221,2,0,L|313:390,2,101.333333333333,4|0|0,1:0|1:0|1:0,1:0:0:0:
192,238,177487,1,12,1:0:0:0:
489,13,177665,1,0,1:0:0:0:
489,13,177754,6,0,B|513:61|513:61|503:109,2,101.333333333333,4|0|0,1:0|1:0|1:0,1:0:0:0:
415,93,178020,2,0,L|307:75,2,101.333333333333,12|0|0,1:0|1:0|1:0,1:0:0:0:
335,246,178286,6,0,L|324:302,1,50.6666666666667,12|0,1:0|1:0,1:0:0:0:
255,246,178374,6,0,L|244:302,1,50.6666666666667,8|0,1:0|1:0,1:0:0:0:
173,246,178463,6,0,L|162:302,1,50.6666666666667,8|0,1:0|1:0,1:0:0:0:
39,325,178552,6,0,B|75:215|28:240|63:126,1,202.666666666667,12|0,1:0|1:0,1:0:0:0:
77,74,178818,5,4,1:0:0:0:
116,37,178884,1,0,1:0:0:0:
170,29,178951,1,0,1:0:0:0:
221,46,179017,1,0,1:0:0:0:
258,85,179084,1,8,1:0:0:0:
262,138,179150,1,0,1:0:0:0:
291,183,179217,1,0,1:0:0:0:
344,190,179283,1,0,1:0:0:0:
389,160,179350,1,4,1:0:0:0:
442,156,179417,1,0,1:0:0:0:
492,176,179483,1,0,1:0:0:0:
512,225,179550,1,0,1:0:0:0:
506,278,179616,1,8,1:0:0:0:
464,310,179683,1,0,1:0:0:0:
412,321,179749,1,0,1:0:0:0:
360,314,179816,1,0,1:0:0:0:
317,345,179882,5,4,1:0:0:0:
261,364,179949,1,0,1:0:0:0:
205,345,180015,1,0,1:0:0:0:
154,314,180082,1,0,1:0:0:0:
96,321,180148,1,8,1:0:0:0:
38,308,180215,1,0,1:0:0:0:
6,259,180281,1,0,1:0:0:0:
8,199,180348,1,0,1:0:0:0:
49,157,180414,1,6,1:2:0:0:
114,153,180481,1,2,1:2:0:0:
166,191,180547,1,2,1:2:0:0:
231,199,180614,1,2,1:2:0:0:
286,165,180680,1,10,1:2:0:0:
301,101,180747,1,2,1:2:0:0:
261,50,180813,1,2,1:2:0:0:
197,35,180880,1,2,1:2:0:0:
141,68,180946,5,6,1:2:0:0:
252,188,189461,5,4,1:0:0:0:
252,188,189594,5,2,2:0:0:0:
340,240,189727,1,0,2:0:0:0:
340,144,189860,1,0,2:0:0:0:
256,96,189993,1,2,2:0:0:0:
172,144,190126,1,0,2:0:0:0:
172,240,190259,1,2,2:0:0:0:
256,288,190392,1,0,2:0:0:0:
340,144,190658,5,2,2:0:0:0:
340,48,190791,1,0,2:0:0:0:
424,0,190924,1,0,2:0:0:0:
508,48,191057,1,2,2:0:0:0:
508,144,191190,1,0,2:0:0:0:
508,144,191257,1,2,2:0:0:0:
424,192,191390,1,0,2:0:0:0:
424,192,191456,1,2,2:0:0:0:
172,240,191723,5,2,2:0:0:0:
172,144,191856,1,0,2:0:0:0:
256,96,191989,1,0,2:0:0:0:
340,144,192122,1,2,2:0:0:0:
340,240,192255,1,0,2:0:0:0:
256,288,192388,1,2,2:0:0:0:
172,240,192521,1,0,2:0:0:0:
15,307,192654,6,0,B|-5:259|15:211,1,95,2|0,2:0|2:0,2:0:0:0:
31,171,192853,2,0,L|130:156,1,95,2|0,2:0|2:0,2:0:0:0:
172,144,193053,1,2,2:0:0:0:
256,192,193186,2,0,B|304:212|352:192,1,95,2|0,2:0|2:0,2:0:0:0:
392,176,193385,2,0,L|408:78,1,95,2|0,2:0|2:0,2:0:0:0:
419,35,193585,1,2,2:0:0:0:
443,363,193851,5,2,2:0:0:0:
511,295,193984,1,0,2:0:0:0:
485,202,194117,1,0,2:0:0:0:
392,176,194250,1,2,2:0:0:0:
324,244,194383,1,0,2:0:0:0:
350,337,194516,1,2,2:0:0:0:
417,269,194649,1,0,2:0:0:0:
69,21,194915,5,2,2:0:0:0:
1,89,195048,1,0,2:0:0:0:
27,182,195181,1,0,2:0:0:0:
120,208,195315,1,2,2:0:0:0:
188,140,195448,1,0,2:0:0:0:
188,140,195514,1,2,2:0:0:0:
162,47,195647,1,0,2:0:0:0:
162,47,195714,1,2,2:0:0:0:
488,88,195980,5,2,2:0:0:0:
396,38,196113,1,0,2:0:0:0:
314,103,196246,1,0,2:0:0:0:
353,201,196379,1,2,2:0:0:0:
457,187,196512,1,0,2:0:0:0:
509,278,196645,1,2,2:0:0:0:
432,349,196778,1,0,2:0:0:0:
220,319,196911,6,0,L|102:337,1,109.250002083778,2|0,2:0|2:0,2:0:0:0:
59,323,197111,2,0,B|32:279|32:279|42:217,1,109.250002083778,2|0,2:0|2:0,2:0:0:0:
78,184,197310,1,2,2:0:0:0:
197,189,197443,2,0,L|316:207,1,109.250002083778,2|0,2:0|2:0,2:0:0:0:
333,158,197643,2,0,B|377:131|377:131|439:141,1,109.250002083778,2|0,2:0|2:0,2:0:0:0:
461,187,197842,1,2,2:0:0:0:
239,70,197975,5,2,2:0:0:0:
204,97,198042,1,0,2:0:0:0:
161,100,198108,1,0,2:0:0:0:
122,80,198175,1,0,2:0:0:0:
86,57,198241,1,0,2:0:0:0:
42,59,198308,1,0,2:0:0:0:
10,88,198374,1,0,2:0:0:0:
0,131,198441,1,0,2:0:0:0:
19,170,198507,1,2,2:0:0:0:
65,186,198574,1,0,2:0:0:0:
112,178,198640,1,0,2:0:0:0:
156,198,198707,1,0,2:0:0:0:
172,244,198774,1,0,2:0:0:0:
155,289,198840,1,0,2:0:0:0:
110,308,198907,1,0,2:0:0:0:
62,303,198973,1,0,2:0:0:0:
39,261,199040,6,0,B|204:251,1,166.25,2|0,2:0|2:1,2:0:0:0:
252,356,199572,5,2,2:0:0:0:
408,370,199705,1,2,2:0:0:0:
512,217,199838,1,12,1:0:0:0:
476,59,199971,1,2,2:0:0:0:
321,26,200104,5,4,1:0:0:0:
275,45,200170,1,0,1:0:0:0:
224,47,200237,1,0,1:0:0:0:
175,36,200303,1,0,1:0:0:0:
133,8,200370,1,8,1:0:0:0:
83,5,200436,1,0,1:0:0:0:
38,28,200503,1,0,1:0:0:0:
16,74,200570,1,0,1:0:0:0:
22,124,200636,1,0,1:0:0:0:
56,162,200703,1,0,1:0:0:0:
105,173,200769,1,0,1:0:0:0:
152,154,200836,1,0,1:0:0:0:
202,157,200902,1,8,1:0:0:0:
248,179,200969,1,0,1:0:0:0:
268,225,201035,1,0,1:0:0:0:
263,276,201102,1,0,1:0:0:0:
241,321,201168,5,0,1:0:0:0:
290,307,201235,1,0,1:0:0:0:
340,312,201301,1,0,1:0:0:0:
386,334,201368,1,0,1:0:0:0:
436,327,201434,1,8,1:0:0:0:
472,291,201501,1,0,1:0:0:0:
480,242,201567,1,0,1:0:0:0:
464,194,201634,1,0,1:0:0:0:
417,177,201700,1,0,1:0:0:0:
363,179,201767,1,0,1:0:0:0:
314,159,201833,1,0,1:0:0:0:
302,107,201900,1,0,1:0:0:0:
328,61,201966,1,8,1:0:0:0:
381,52,202033,1,0,1:0:0:0:
429,75,202099,1,0,1:0:0:0:
438,128,202166,1,0,1:0:0:0:
417,177,202232,5,0,1:0:0:0:
363,179,202299,1,0,1:0:0:0:
314,159,202366,1,0,1:0:0:0:
269,131,202432,1,0,1:0:0:0:
217,116,202499,1,8,1:0:0:0:
165,125,202565,1,0,1:0:0:0:
119,153,202632,1,0,1:0:0:0:
87,195,202698,1,0,1:0:0:0:
79,248,202765,1,0,1:0:0:0:
99,297,202831,1,0,1:0:0:0:
143,328,202898,1,0,1:0:0:0:
195,339,202964,1,0,1:0:0:0:
247,326,203031,6,0,L|228:207,1,118.75,8|0,1:0|1:0,1:0:0:0:
371,99,203297,2,0,B|359:30|297:-5|242:4,1,178.125,0|0,1:0|1:0,1:0:0:0:
191,19,203563,1,8,1:0:0:0:
122,50,203652,1,0,1:0:0:0:
97,120,203740,1,0,1:0:0:0:
117,192,203829,1,0,1:0:0:0:
386,209,203962,6,0,L|390:244,4,35.625001358986,0|0|0|0|0,1:0|1:0|1:0|1:0|1:0,1:0:0:0:
233,257,204228,1,0,0:0:0:0:
230,278,204294,1,0,0:0:0:0:
228,299,204361,5,6,1:0:0:0:
168,294,204428,1,0,1:0:0:0:
129,250,204494,1,0,1:0:0:0:
117,192,204561,1,0,1:0:0:0:
139,137,204627,1,8,1:0:0:0:
192,111,204694,1,0,1:0:0:0:
251,119,204760,1,0,1:0:0:0:
291,163,204827,1,0,1:0:0:0:
350,175,204893,1,0,1:0:0:0:
406,155,204960,1,0,1:0:0:0:
427,99,205026,1,0,1:0:0:0:
415,39,205093,1,0,1:0:0:0:
361,14,205159,1,10,1:0:0:0:
300,17,205226,1,0,1:0:0:0:
258,59,205292,1,0,1:0:0:0:
251,119,205359,1,0,1:0:0:0:
291,163,205425,5,2,1:0:0:0:
350,175,205492,1,0,1:0:0:0:
378,228,205558,1,0,1:0:0:0:
373,288,205625,1,0,1:0:0:0:
321,318,205691,1,8,1:0:0:0:
262,310,205758,1,0,1:0:0:0:
233,257,205825,1,0,1:0:0:0:
242,198,205891,1,0,1:0:0:0:
291,163,205958,1,2,1:0:0:0:
350,175,206024,1,0,1:0:0:0:
409,183,206091,1,0,1:0:0:0:
465,163,206157,1,0,1:0:0:0:
496,112,206224,6,0,L|485:46,1,66.4999979705811,10|0,1:0|1:0,1:0:0:0:
395,15,206357,2,0,L|384:81,1,66.4999979705811,2|0,1:0|1:0,1:0:0:0:
373,288,206490,2,0,B|308:308|308:308|241:284,1,132.999995941162,6|0,1:0|1:0,1:0:0:0:
209,256,206689,1,2,1:0:0:0:
209,256,206756,2,0,L|197:185,3,66.4999979705811,10|0|0|0,1:0|1:0|1:0|1:0,1:0:0:0:
74,238,207022,6,0,B|54:173|54:173|78:106,1,132.999995941162,6|0,1:0|1:0,1:0:0:0:
112,73,207221,1,0,1:0:0:0:
112,73,207288,2,0,L|183:62,3,66.4999979705811,10|0|0|0,1:0|1:0|1:0|1:0,1:0:0:0:
307,278,207554,2,0,B|437:299,1,66.4999979705811,6|0,1:0|1:0,1:0:0:0:
512,172,207754,1,0,1:0:0:0:
512,172,207820,2,0,B|544:106|492:48,1,132.999995941162,8|0,1:0|1:0,1:0:0:0:
448,20,208020,1,0,1:0:0:0:
395,15,208086,6,0,L|323:27,1,66.4999979705811,4|0,1:0|1:0,1:0:0:0:
287,189,208286,6,0,L|222:199,1,66.4999979705811,4|0,1:0|1:0,1:0:0:0:
182,359,208485,6,0,L|117:369,1,66.4999979705811,4|0,1:0|1:0,1:0:0:0:
51,374,208618,5,6,1:0:0:0:
14,322,208685,1,0,1:0:0:0:
27,259,208751,1,0,1:0:0:0:
86,232,208818,1,0,1:0:0:0:
136,271,208884,1,8,1:0:0:0:
199,258,208951,1,0,1:0:0:0:
222,199,209017,1,0,1:0:0:0:
201,138,209084,1,0,1:0:0:0:
138,127,209150,1,0,1:0:0:0:
79,155,209217,1,0,1:0:0:0:
19,134,209283,1,0,1:0:0:0:
3,71,209350,1,0,1:0:0:0:
35,15,209417,1,10,1:0:0:0:
99,15,209483,1,0,1:0:0:0:
161,32,209550,1,0,1:0:0:0:
223,20,209616,1,0,1:0:0:0:
286,29,209683,6,0,B|257:100|276:168,1,142.500005435944,2|0,1:0|1:0,1:0:0:0:
222,199,209882,1,0,1:0:0:0:
199,258,209949,2,0,B|272:241|272:241|340:262,1,142.500005435944,10|0,1:0|1:0,1:0:0:0:
3,71,210148,1,0,1:0:0:0:
19,134,210215,2,0,B|-3:275,1,142.500005435944,2|0,1:0|1:0,1:0:0:0:
55,300,210414,1,0,1:0:0:0:
92,352,210481,2,0,B|160:391|237:362,1,142.500005435944,10|0,1:0|1:0,1:0:0:0:
408,373,210680,1,0,1:0:0:0:
465,344,210747,5,2,1:0:0:0:
480,282,210813,1,0,1:0:0:0:
449,227,210880,1,0,1:0:0:0:
385,220,210946,1,0,1:0:0:0:
336,261,211013,1,8,1:0:0:0:
272,273,211080,1,0,1:0:0:0:
208,271,211146,1,0,1:0:0:0:
166,224,211213,1,0,1:0:0:0:
169,161,211279,1,0,1:0:0:0:
212,113,211346,1,0,1:0:0:0:
222,51,211412,1,2,1:0:0:0:
180,3,211479,1,0,1:0:0:0:
116,1,211545,1,10,1:0:0:0:
66,42,211612,1,0,1:0:0:0:
61,106,211678,1,2,1:0:0:0:
106,153,211745,1,0,1:0:0:0:
169,161,211811,5,2,1:0:0:0:
233,154,211878,1,0,1:0:0:0:
280,112,211944,1,0,1:0:0:0:
321,63,212011,1,0,1:0:0:0:
383,54,212077,1,10,1:0:0:0:
441,81,212144,1,0,1:0:0:0:
454,143,212210,1,2,1:0:0:0:
418,196,212277,1,0,1:0:0:0:
360,221,212343,6,0,L|371:292,3,71.2500027179719,0|0|0|0,1:0|1:0|1:0|1:0,1:0:0:0:
256,268,212609,2,0,L|245:339,3,71.2500027179719,8|0|0|0,1:0|1:0|1:0|1:0,1:0:0:0:
177,367,212876,5,6,1:0:0:0:
109,348,212942,1,0,1:0:0:0:
75,285,213009,1,0,1:0:0:0:
96,217,213075,1,0,1:0:0:0:
159,182,213142,1,8,1:0:0:0:
230,183,213208,1,0,1:0:0:0:
281,133,213275,1,0,1:0:0:0:
289,63,213341,1,0,1:0:0:0:
235,15,213408,1,0,1:0:0:0:
164,7,213474,1,0,1:0:0:0:
115,60,213541,1,0,1:0:0:0:
108,131,213607,1,0,1:0:0:0:
159,182,213674,6,0,B|196:186|230:183,1,71.2500027179719,10|0,1:0|1:0,1:0:0:0:
316,248,213807,2,0,B|353:244|387:247,1,71.2500027179719,0|0,1:0|1:0,1:0:0:0:
403,141,213940,2,0,B|433:66|376:11,1,142.500005435944,6|0,1:0|1:0,1:0:0:0:
289,63,214139,1,0,1:0:0:0:
289,63,214206,2,0,B|219:55|147:65,1,142.500005435944,10|0,1:0|1:0,1:0:0:0:
111,363,214405,1,0,1:0:0:0:
164,332,214472,6,0,B|234:324|306:334,1,142.500005435944,6|0,1:0|1:0,1:0:0:0:
368,333,214672,1,0,1:0:0:0:
406,286,214738,2,0,B|427:222|427:222|416:148,1,142.500005435944,10|0,1:0|1:0,1:0:0:0:
329,125,214938,1,0,1:0:0:0:
329,125,215004,2,0,L|341:195,3,71.2500027179719,6|0|0|0,1:0|1:0|1:0|1:0,1:0:0:0:
512,241,215270,2,0,L|501:171,3,71.2500027179719,10|0|0|0,1:0|1:0|1:0|1:0,1:0:0:0:
408,61,215536,6,0,B|350:0|271:39,1,142.500005435944,6|0,1:0|1:0,1:0:0:0:
200,218,215802,1,10,1:0:0:0:
18,151,215935,1,0,1:0:0:0:
18,151,216002,1,0,1:0:0:0:
18,151,216068,2,0,B|-10:81|22:13,1,142.500005435944,6|0,1:0|1:0,1:0:0:0:
200,218,216334,2,0,B|228:288|196:356,1,142.500005435944,12|0,1:0|1:0,1:0:0:0:
438,377,216601,5,6,1:0:0:0:
423,150,216734,1,0,1:0:0:0:
220,45,216867,1,12,1:0:0:0:
18,151,217000,1,0,1:0:0:0:
196,356,217133,5,6,1:0:0:0:
256,333,217199,1,0,1:0:0:0:
320,332,217266,1,0,1:0:0:0:
375,363,217332,1,0,1:0:0:0:
438,377,217399,1,8,1:0:0:0:
494,347,217465,1,0,1:0:0:0:
512,285,217532,1,0,1:0:0:0:
486,227,217598,1,0,1:0:0:0:
424,209,217665,1,0,1:0:0:0:
370,244,217731,1,0,1:0:0:0:
306,244,217798,1,0,1:0:0:0:
263,196,217864,1,0,1:0:0:0:
260,131,217931,1,10,1:0:0:0:
309,91,217997,1,0,1:0:0:0:
374,93,218064,1,2,1:0:0:0:
411,145,218130,1,0,1:0:0:0:
424,209,218197,6,0,B|400:360,1,152,2|0,1:0|1:0,1:0:0:0:
340,344,218397,1,0,1:0:0:0:
287,374,218463,2,0,B|217:360|217:360|139:376,1,152,10|0,1:0|1:0,1:0:0:0:
0,186,218663,1,0,1:0:0:0:
49,223,218729,2,0,B|131:213|197:244,1,152,2|0,1:0|1:0,1:0:0:0:
282,167,218929,1,0,1:0:0:0:
282,167,218995,2,0,B|321:93|294:20,1,152,10|0,1:0|1:0,1:0:0:0:
124,4,219195,1,0,1:0:0:0:
65,31,219261,5,2,1:0:0:0:
45,94,219328,1,0,1:0:0:0:
80,148,219394,1,0,1:0:0:0:
143,163,219461,1,0,1:0:0:0:
192,122,219527,1,8,1:0:0:0:
256,107,219594,1,0,1:0:0:0:
315,132,219660,1,0,1:0:0:0:
333,195,219727,1,0,1:0:0:0:
307,254,219793,1,0,1:0:0:0:
245,277,219860,1,0,1:0:0:0:
185,251,219927,1,2,1:0:0:0:
123,270,219993,1,0,1:0:0:0:
107,333,220060,1,10,1:0:0:0:
146,384,220126,1,0,1:0:0:0:
211,384,220193,1,2,1:0:0:0:
259,341,220259,1,0,1:0:0:0:
245,277,220326,5,2,1:0:0:0:
226,215,220392,1,0,1:0:0:0:
256,157,220459,1,0,1:0:0:0:
315,132,220525,1,0,1:0:0:0:
374,160,220592,1,10,1:0:0:0:
438,164,220658,1,0,1:0:0:0:
494,131,220725,1,2,1:0:0:0:
504,67,220791,1,0,1:0:0:0:
476,8,220858,6,0,L|400:8,3,76,0|0|0|0,1:0|1:0|1:0|1:0,1:0:0:0:
315,132,221124,2,0,L|403:132,3,76,8|0|0|0,1:0|1:0|1:0|1:0,1:0:0:0:
462,144,221390,5,6,1:0:0:0:
471,214,221456,1,0,1:0:0:0:
431,273,221523,1,0,1:0:0:0:
364,293,221589,1,0,1:0:0:0:
300,262,221656,1,10,1:0:0:0:
280,193,221723,1,0,1:0:0:0:
315,132,221789,1,0,1:0:0:0:
311,61,221856,1,0,1:0:0:0:
264,9,221922,1,2,1:0:0:0:
193,1,221989,1,0,1:0:0:0:
133,37,222055,1,0,1:0:0:0:
109,104,222122,1,0,1:0:0:0:
108,174,222188,6,0,L|183:186,1,76,10|0,1:0|1:0,1:0:0:0:
215,267,222321,2,0,L|140:279,1,76,2|0,1:0|1:0,1:0:0:0:
64,332,222454,2,0,B|88:364|88:364|200:364,1,152,2|0,1:0|1:0,1:0:0:0:
296,360,222654,1,0,1:0:0:0:
296,360,222720,2,0,B|336:328|348:268|328:220,1,152,8|0,1:0|1:0,1:0:0:0:
399,0,222920,1,0,1:0:0:0:
399,0,222986,2,0,B|359:32|347:92|367:140,1,152,2|0,1:0|1:0,1:0:0:0:
408,183,223186,1,0,1:0:0:0:
454,222,223252,2,0,B|478:150|478:150|454:78,1,152,10|2,1:0|1:0,1:0:0:0:
328,222,223452,5,0,1:0:0:0:
328,222,223519,2,0,L|253:222,3,76,6|0|0|0,1:0|1:0|1:0|1:0,1:0:0:0:
182,114,223785,2,0,L|258:114,3,76,8|0|0|0,1:0|1:0|1:0|1:0,1:0:0:0:
59,222,224051,2,0,B|35:150|35:150|59:78,1,152,6|0,1:0|1:0,1:0:0:0:
145,360,224317,5,8,1:0:0:0:
199,376,224383,1,0,1:0:0:0:
256,383,224450,1,0,1:0:0:0:
312,376,224516,1,0,1:0:0:0:
367,360,224583,2,0,B|410:295|382:215,1,152,6|0,1:0|1:0,1:0:0:0:
332,192,224782,1,0,1:0:0:0:
332,192,224849,2,0,B|172:192,1,152,8|0,1:0|1:0,1:0:0:0:
70,159,225048,1,0,1:0:0:0:
115,123,225115,6,0,B|134:90|125:50,1,76,4|0,1:0|1:0,1:0:0:0:
386,105,225315,6,0,B|405:138|444:150,1,76,4|8,1:0|1:0,1:0:0:0:
267,349,225514,6,0,B|228:350|198:377,1,76,4|0,1:0|1:0,1:0:0:0:
51,374,225647,5,6,1:0:0:0:
11,322,225714,1,0,1:0:0:0:
27,259,225780,1,0,1:0:0:0:
86,231,225847,1,0,1:0:0:0:
137,271,225913,1,8,1:0:0:0:
202,260,225980,1,0,1:0:0:0:
222,199,226046,1,0,1:0:0:0:
199,137,226113,1,0,1:0:0:0:
215,74,226179,1,0,1:0:0:0:
271,40,226246,1,0,1:0:0:0:
336,44,226312,1,2,1:0:0:0:
376,96,226379,1,0,1:0:0:0:
385,160,226445,1,10,1:0:0:0:
339,207,226512,1,0,1:0:0:0:
336,271,226578,1,2,1:0:0:0:
385,314,226645,1,0,1:0:0:0:
449,305,226711,6,0,B|448:302|506:241|470:163,1,152,2|0,1:0|1:0,1:0:0:0:
435,112,226911,1,0,1:0:0:0:
376,96,226978,2,0,B|303:133|221:96,1,152,10|0,1:0|1:0,1:0:0:0:
0,259,227177,1,0,1:0:0:0:
24,315,227244,2,0,B|97:352|179:315,1,152,2|0,1:0|1:0,1:0:0:0:
217,241,227443,1,0,1:0:0:0:
217,241,227510,2,0,B|197:316|197:316|229:392,1,152,10|0,1:0|1:0,1:0:0:0:
106,222,227709,1,0,1:0:0:0:
95,158,227776,5,2,1:0:0:0:
130,104,227842,1,0,1:0:0:0:
190,78,227909,1,0,1:0:0:0:
255,83,227975,1,0,1:0:0:0:
309,120,228042,1,8,1:0:0:0:
331,181,228108,1,0,1:0:0:0:
388,213,228175,1,0,1:0:0:0:
453,209,228241,1,0,1:0:0:0:
499,163,228308,1,0,1:0:0:0:
512,100,228374,1,0,1:0:0:0:
491,38,228441,1,2,1:0:0:0:
434,9,228507,1,0,1:0:0:0:
369,12,228574,1,10,1:0:0:0:
322,56,228640,1,0,1:0:0:0:
309,120,228707,1,2,1:0:0:0:
331,181,228774,1,0,1:0:0:0:
306,240,228840,5,2,1:0:0:0:
243,255,228907,1,0,1:0:0:0:
189,221,228973,1,0,1:0:0:0:
148,170,229040,1,0,1:0:0:0:
84,162,229106,1,10,1:0:0:0:
23,185,229173,1,0,1:0:0:0:
9,248,229239,1,0,1:0:0:0:
40,305,229306,1,0,1:0:0:0:
104,315,229372,6,0,L|180:315,3,76,2|0|0|0,1:0|1:0|1:0|1:0,1:0:0:0:
265,221,229638,2,0,L|189:221,3,76,10|0|0|0,1:0|1:0|1:0|1:0,1:0:0:0:
251,333,229904,5,6,1:0:0:0:
321,316,229971,1,0,1:0:0:0:
359,254,230037,1,0,1:0:0:0:
364,182,230104,1,0,1:0:0:0:
328,121,230170,1,8,1:0:0:0:
262,93,230237,1,0,1:0:0:0:
191,95,230303,1,0,1:0:0:0:
141,147,230370,1,0,1:0:0:0:
70,148,230436,1,2,1:0:0:0:
25,92,230503,1,0,1:0:0:0:
41,21,230570,1,2,1:0:0:0:
110,0,230636,1,0,1:0:0:0:
180,20,230703,6,0,L|191:96,1,76,10|0,1:0|1:0,1:0:0:0:
58,224,230836,2,0,L|69:149,1,76,2|0,1:0|1:0,1:0:0:0:
327,218,230969,2,0,B|256:192|256:192|185:218,1,152,6|0,1:0|1:0,1:0:0:0:
334,21,231168,1,0,1:0:0:0:
334,21,231235,6,0,L|322:96,1,76,8|0,1:0|1:0,1:0:0:0:
455,225,231368,2,0,L|443:149,1,76,2|0,1:0|1:0,1:0:0:0:
185,218,231501,2,0,B|256:192|256:192|327:218,1,152,6|0,1:0|1:0,1:0:0:0:
349,275,231700,1,0,1:0:0:0:
370,332,231767,2,0,B|441:358|441:358|512:332,1,152,10|2,1:0|1:0,1:0:0:0:
321,97,232033,6,0,L|396:85,3,76,6|0|0|0,1:0|1:0|1:0|1:0,1:0:0:0:
191,97,232299,6,0,L|116:85,3,76,10|0|0|0,1:0|1:0|1:0|1:0,1:0:0:0:
405,205,232565,6,0,L|480:193,3,76,2|0|0|0,1:0|1:0|1:0|1:0,1:0:0:0:
107,205,232831,6,0,L|32:193,3,76,10|0|2|0,1:0|1:0|1:0|1:0,1:0:0:0:
0,135,233097,5,4,1:0:0:0:
0,69,233164,1,0,1:0:0:0:
34,15,233230,1,0,1:0:0:0:
98,8,233297,1,0,1:0:0:0:
147,48,233363,1,8,1:0:0:0:
192,94,233430,1,0,1:0:0:0:
256,106,233496,1,0,1:0:0:0:
320,94,233563,1,0,1:0:0:0:
365,49,233629,1,4,1:0:0:0:
414,8,233696,1,0,1:0:0:0:
478,15,233762,1,0,1:0:0:0:
512,70,233829,1,0,1:0:0:0:
512,135,233895,1,8,1:0:0:0:
480,192,233962,1,0,1:0:0:0:
417,209,234029,1,0,1:0:0:0:
360,179,234095,1,0,1:0:0:0:
295,189,234162,5,4,1:0:0:0:
264,246,234228,1,0,1:0:0:0:
275,310,234295,1,0,1:0:0:0:
332,339,234361,1,0,1:0:0:0:
397,330,234428,1,8,1:0:0:0:
427,273,234494,1,0,1:0:0:0:
417,209,234561,1,0,1:0:0:0:
360,179,234627,1,0,1:0:0:0:
295,189,234694,1,4,1:0:0:0:
233,176,234760,1,0,1:0:0:0:
202,119,234827,1,0,1:0:0:0:
220,57,234893,1,0,1:0:0:0:
185,3,234960,1,8,1:0:0:0:
120,0,235026,1,0,1:0:0:0:
63,30,235093,1,0,1:0:0:0:
56,93,235159,1,0,1:0:0:0:
98,142,235226,5,4,1:0:0:0:
108,205,235292,1,0,1:0:0:0:
69,256,235359,1,0,1:0:0:0:
55,318,235425,1,0,1:0:0:0:
94,370,235492,1,8,1:0:0:0:
158,375,235558,1,0,1:0:0:0:
207,331,235625,1,0,1:0:0:0:
207,266,235691,1,0,1:0:0:0:
256,222,235758,1,4,1:0:0:0:
322,224,235825,1,0,1:0:0:0:
356,278,235891,1,0,1:0:0:0:
343,341,235958,1,0,1:0:0:0:
393,381,236024,1,8,1:0:0:0:
458,377,236091,1,0,1:0:0:0:
503,333,236157,1,0,1:0:0:0:
504,268,236224,1,0,1:0:0:0:
451,231,236290,5,6,1:2:0:0:
509,203,236357,1,2,1:2:0:0:
511,139,236423,1,2,1:2:0:0:
475,85,236490,1,2,1:2:0:0:
411,77,236556,1,14,1:2:0:0:
353,107,236623,1,2,1:2:0:0:
304,150,236689,1,2,1:2:0:0:
239,161,236756,1,2,1:2:0:0:
183,129,236822,1,6,1:2:0:0:
171,59,236889,1,2,1:2:0:0:
216,6,236955,1,2,1:2:0:0:
286,0,237022,1,2,1:2:0:0:
344,38,237088,1,14,1:2:0:0:
353,107,237155,1,2,1:2:0:0:
385,169,237221,1,2,1:2:0:0:
454,179,237288,1,2,1:2:0:0:
511,139,237354,5,6,1:2:0:0:
256,192,237421,12,2,239217,1:2:0:0:
398,27,239483,5,6,1:0:0:0:
344,63,239550,1,0,1:0:0:0:
281,70,239616,1,0,1:0:0:0:
224,40,239683,1,0,1:0:0:0:
165,14,239749,1,0,1:0:0:0:
101,11,239816,1,0,1:0:0:0:
40,29,239882,1,0,1:0:0:0:
0,80,239949,1,0,1:0:0:0:
0,144,240015,1,0,1:0:0:0:
30,202,240082,1,0,1:0:0:0:
92,219,240148,1,0,1:0:0:0:
157,213,240215,1,0,1:0:0:0:
214,183,240281,1,0,1:0:0:0:
279,179,240348,1,0,1:0:0:0:
323,225,240414,1,0,1:0:0:0:
323,290,240481,1,0,1:0:0:0:
286,342,240547,5,2,1:0:0:0:
351,334,240614,1,0,1:0:0:0:
415,341,240680,1,2,1:0:0:0:
472,373,240747,1,0,1:0:0:0:
511,323,240813,1,2,1:0:0:0:
511,257,240880,1,0,1:0:0:0:
468,210,240946,1,2,1:0:0:0:
447,148,241013,1,0,1:0:0:0:
465,85,241080,1,2,1:0:0:0:
415,109,241146,1,2,1:2:0:0:
359,111,241213,1,2,1:2:0:0:
311,82,241279,1,2,1:2:0:0:
268,45,241346,1,2,1:2:0:0:
212,44,241412,1,2,1:2:0:0:
163,71,241479,1,2,1:2:0:0:
145,124,241545,1,2,1:2:0:0:
170,175,241612,5,6,1:2:0:0:
