osu file format v14

[General]
AudioFilename: audio.mp3
AudioLeadIn: 0
PreviewTime: 125603
Countdown: 0
SampleSet: Normal
StackLeniency: 0.7
Mode: 0
LetterboxInBreaks: 0
WidescreenStoryboard: 1

[Editor]
DistanceSpacing: 1
BeatDivisor: 4
GridSize: 4
TimelineZoom: 2.927999

[Metadata]
Title:Glorious Crown
TitleUnicode:Glorious Crown
Artist:xi
ArtistUnicode:xi
Creator:Bloxi
Version:Another
Source:maimai PiNK
Tags:fa featured artist FREEDOM DiVE↓ Diverse System Evolved Chronicles Full LONG Version Happy Hardcore Electronic Piano Instrumental BMS ORIGINAL & JOYPOLIS C91 DVSP-0169 4th solo album Yusuke Ishiwata SEGA DX ALL PERFECT COLLECTiON Cytus II Chizu-Kun PaRaDogi Nagatoro Urghi stzur kolik kolikiscool
BeatmapID:3957929
BeatmapSetID:1697518

[Difficulty]
HPDrainRate:7
CircleSize:4
OverallDifficulty:9
ApproachRate:9
SliderMultiplier:1.6
SliderTickRate:1

[Events]
//Background and Video events
0,0,"bg.jpg",0,0
//Break Periods
2,28951,36666
2,86424,98395
2,147089,154803
2,181146,188861
//Storyboard Layer 0 (Background)
//Storyboard Layer 1 (Fail)
//Storyboard Layer 2 (Pass)
//Storyboard Layer 3 (Foreground)
//Storyboard Layer 4 (Overlay)
//Storyboard Sound Samples

[TimingPoints]
1080,266.075388026608,4,1,1,80,1,0
26623,-100,4,1,1,70,0,0
28219,-100,4,1,1,75,0,0
28751,-100,4,1,1,80,0,0
44716,-100,4,1,1,70,0,0
46844,-100,4,1,1,80,0,0
63873,-100,4,1,1,80,0,1
64938,-83.3333333333333,4,1,1,80,0,1
82033,-83.3333333333333,4,1,1,80,0,0
86224,-83.3333333333333,4,1,1,65,0,0
99261,-100,4,1,1,65,0,0
103252,-100,4,1,1,70,0,0
105381,-100,4,1,1,75,0,0
106978,-100,4,1,1,80,0,0
142632,-100,4,1,1,70,0,0
143696,-100,4,1,1,75,0,0
145292,-100,4,1,1,80,0,0
155403,-100,4,1,1,70,0,0
162853,-83.3333333333333,4,1,1,75,0,0
163918,-83.3333333333333,4,1,1,80,0,1
172432,-76.9230769230769,4,1,1,80,0,1
176689,-71.4285714285714,4,1,1,80,0,1
180946,-71.4285714285714,4,1,1,80,0,0
189594,-71.4285714285714,4,1,1,65,0,0
191057,-100,4,1,1,65,0,0
195980,-100,4,1,1,70,0,0
199040,-200,4,1,1,80,0,0
199505,-200,4,1,1,5,0,0
199572,-200,4,1,1,80,0,0
200104,-200,4,1,1,50,0,0
200636,-100,4,1,1,50,0,0
201168,-100,4,1,1,55,0,0
202232,-100,4,1,1,60,0,0
203297,-100,4,1,1,65,0,0
203962,-100,4,1,1,70,0,0
204361,-100,4,1,1,80,0,1
205425,-83.3333333333333,4,1,1,80,0,1
209683,-71.4285714285714,4,1,1,80,0,1
239217,-71.4285714285714,4,1,1,35,0,1
239483,-71.4285714285714,4,1,1,80,0,1
241612,-71.4285714285714,4,1,1,80,0,0

[Colours]
Combo1 : 255,128,128
Combo2 : 128,255,0
Combo3 : 0,128,192
Combo4 : 255,255,128

[HitObjects]
10,47,1080,6,0,L|170:38,1,160,4|0,1:0|1:0,1:0:0:0:
34,123,1479,2,0,L|194:114,1,160,0|0,1:0|1:0,1:0:0:0:
58,198,1878,2,0,L|218:189,1,160,0|0,1:0|1:0,1:0:0:0:
270,249,2277,5,0,1:0:0:0:
318,97,2410,1,0,1:0:0:0:
169,38,2543,1,0,1:0:0:0:
412,189,2676,6,0,L|452:192,3,40,0|0|0|0,1:0|1:0|1:0|1:0,1:0:0:0:
479,221,2942,2,0,P|498:261|498:317,1,80,0|0,1:0|1:0,1:0:0:0:
282,342,3208,6,0,P|352:376|430:361,1,160,4|0,1:0|1:0,1:0:0:0:
383,272,3607,2,0,P|457:246|500:180,1,160,0|0,1:0|1:0,1:0:0:0:
405,152,4006,2,0,P|438:81|422:5,1,160,0|0,1:0|1:0,1:0:0:0:
326,64,4405,5,0,1:0:0:0:
499,180,4538,1,0,1:0:0:0:
298,236,4672,1,0,1:0:0:0:
472,350,4805,6,0,L|512:350,3,40,0|0|4|0,1:0|1:0|1:2|1:0,1:0:0:0:
444,320,5071,2,0,L|431:238,1,80,0|4,1:0|1:0,1:0:0:0:
228,162,5337,6,0,B|200:235|200:235|237:308,1,160,4|0,1:0|1:0,1:0:0:0:
339,116,5736,2,0,B|289:55|289:55|207:50,1,160,0|0,1:0|1:0,1:0:0:0:
323,235,6135,2,0,B|400:222|400:222|444:153,1,160,0|4,1:0|1:0,1:0:0:0:
512,242,6534,5,0,1:0:0:0:
339,116,6667,1,0,1:0:0:0:
316,329,6800,1,0,1:0:0:0:
400,222,6933,5,0,1:0:0:0:
363,238,7000,1,0,1:0:0:0:
323,235,7066,1,0,1:0:0:0:
288,215,7133,1,0,0:0:0:0:
256,191,7199,2,0,P|212:182|171:187,1,80,0|4,1:0|1:2,1:0:0:0:
8,259,7465,6,0,B|-7:298|-7:298|1:340,1,80,4|0,1:0|1:0,1:0:0:0:
26,366,7665,1,0,0:0:0:0:
61,384,7731,2,0,L|141:372,1,80,0|4,1:0|1:2,1:0:0:0:
257,269,7997,2,0,P|249:237|257:186,1,80,4|0,1:0|1:2,1:0:0:0:
280,165,8197,1,0,1:0:0:0:
318,151,8264,2,0,L|398:139,1,80,0|4,1:0|1:2,1:0:0:0:
176,30,8530,5,4,1:0:0:0:
139,15,8596,1,0,1:0:0:0:
99,13,8663,1,0,1:0:0:0:
62,28,8729,1,0,1:2:0:0:
40,62,8796,2,0,L|30:141,1,80,0|4,1:0|1:2,1:0:0:0:
101,222,9062,5,4,1:0:0:0:
101,222,9128,1,0,1:0:0:0:
101,222,9195,2,0,L|131:213,4,20,0|0|0|0|0,1:0|1:0|1:0|1:0|1:0,1:0:0:0:
438,67,9594,6,0,B|468:37|510:39,1,80,4|0,1:0|1:0,1:0:0:0:
349,79,9860,2,0,B|349:37|380:8,1,80,0|0,1:0|1:0,1:0:0:0:
299,146,10126,2,0,B|269:115|271:73,1,80,0|0,1:0|1:0,1:0:0:0:
408,177,10392,1,0,1:0:0:0:
437,204,10458,1,0,1:0:0:0:
449,242,10525,1,0,1:0:0:0:
448,282,10592,1,0,1:0:0:0:
427,315,10658,6,0,L|333:309,1,80,0|0,1:0|1:0,1:0:0:0:
220,379,10924,2,0,L|300:374,1,80,0|0,1:0|1:0,1:0:0:0:
349,231,11190,6,0,L|255:225,1,80,0|0,1:0|1:0,1:0:0:0:
248,260,11390,1,0,1:0:0:0:
221,289,11456,2,0,L|142:295,1,80,4|0,1:0|1:0,1:0:0:0:
204,50,11723,6,0,P|214:88|210:127,1,80,4|0,1:0|1:0,1:0:0:0:
26,224,11989,2,0,P|15:185|19:146,1,80,0|0,1:0|1:0,1:0:0:0:
80,36,12255,6,0,L|-14:42,1,80,0|0,1:0|1:0,1:0:0:0:
130,123,12521,1,0,1:0:0:0:
169,125,12587,1,0,1:0:0:0:
209,128,12654,1,0,1:0:0:0:
368,166,12787,6,0,B|379:86,1,80,0|0,1:0|1:0,1:0:0:0:
269,225,13053,2,0,B|280:304,1,80,0|0,1:0|1:0,1:0:0:0:
501,239,13319,5,0,1:0:0:0:
512,159,13452,1,4,1:2:0:0:
402,298,13585,5,0,1:0:0:0:
413,377,13718,1,4,1:0:0:0:
368,166,13851,5,4,1:0:0:0:
336,141,13918,1,0,1:0:0:0:
297,132,13984,1,0,1:0:0:0:
257,137,14051,1,0,1:0:0:0:
223,157,14117,1,0,1:0:0:0:
173,95,14250,1,0,1:0:0:0:
93,91,14383,2,0,P|81:52|80:12,1,80,0|0,1:0|1:0,1:0:0:0:
297,220,14649,2,0,P|308:258|309:298,1,80,0|0,1:0|1:0,1:0:0:0:
219,277,14915,5,4,1:0:0:0:
187,302,14982,1,0,1:0:0:0:
148,311,15048,1,0,1:0:0:0:
108,306,15115,1,0,1:0:0:0:
74,286,15181,1,0,1:0:0:0:
24,348,15314,1,0,1:0:0:0:
145,230,15448,2,0,L|67:190,1,80,0|0,1:0|1:0,1:0:0:0:
367,230,15714,2,0,L|445:190,1,80,0|0,1:0|1:0,1:0:0:0:
146,137,15980,5,4,1:0:0:0:
146,137,16046,1,0,1:0:0:0:
146,137,16113,2,0,B|115:56,1,80,0|0,1:0|1:0,1:0:0:0:
256,192,16379,1,0,1:0:0:0:
366,137,16512,5,4,1:0:0:0:
366,137,16578,1,0,1:0:0:0:
366,137,16645,2,0,B|397:56,1,80,0|0,1:0|1:0,1:0:0:0:
256,192,16911,1,0,1:0:0:0:
460,123,17044,5,4,1:0:0:0:
496,148,17111,1,0,1:0:0:0:
512,188,17177,1,0,1:0:0:0:
511,232,17244,1,0,1:0:0:0:
491,271,17310,1,0,1:0:0:0:
457,299,17377,1,0,1:0:0:0:
415,311,17443,1,0,1:0:0:0:
371,306,17510,1,0,1:0:0:0:
336,280,17576,1,0,1:0:0:0:
315,314,17643,1,0,1:0:0:0:
277,325,17709,1,4,1:2:0:0:
237,321,17776,1,0,1:0:0:0:
205,297,17842,1,0,1:0:0:0:
177,268,17909,1,0,1:0:0:0:
139,256,17975,1,4,1:2:0:0:
99,260,18042,1,0,1:0:0:0:
68,285,18108,6,0,P|62:326|51:367,1,80,4|0,1:0|1:0,1:0:0:0:
16,157,18374,2,0,P|10:116|-1:75,1,80,0|0,1:0|1:0,1:0:0:0:
257,169,18640,6,0,P|251:128|240:87,1,80,0|0,1:0|1:0,1:0:0:0:
205,297,18906,1,0,1:0:0:0:
199,336,18972,1,0,1:0:0:0:
189,375,19039,1,0,1:0:0:0:
327,376,19173,6,0,P|369:381|408:373,1,80,0|0,1:0|1:0,1:0:0:0:
443,361,19372,1,0,1:0:0:0:
473,334,19439,2,0,L|473:254,1,80,0|0,1:0|1:0,1:0:0:0:
335,235,19705,5,0,0:0:0:0:
271,146,19838,1,0,0:0:0:0:
271,146,19904,1,0,0:0:0:0:
271,146,19971,1,4,0:0:0:0:
379,130,20104,1,0,0:0:0:0:
187,77,20237,6,0,L|105:60,1,80,4|0,1:0|1:0,1:0:0:0:
315,26,20503,2,0,L|397:8,1,80,0|0,1:0|1:0,1:0:0:0:
335,235,20769,6,0,L|417:218,1,80,0|0,1:0|1:0,1:0:0:0:
207,286,21035,1,0,0:0:0:0:
167,277,21101,1,0,0:0:0:0:
128,269,21168,1,0,0:0:0:0:
5,234,21302,6,0,P|0:276|8:315,1,80,0|0,1:0|1:0,1:0:0:0:
20,350,21501,1,0,1:0:0:0:
47,380,21568,2,0,L|127:368,1,80,0|0,1:0|1:0,1:0:0:0:
345,277,21833,5,0,0:0:0:0:
304,189,21966,1,4,0:0:0:0:
208,189,22099,1,0,0:0:0:0:
167,277,22232,1,0,0:0:0:0:
256,384,22366,5,4,1:0:0:0:
256,384,22432,1,0,1:0:0:0:
256,384,22499,2,0,B|256:304,1,80,0|0,1:0|1:0,1:0:0:0:
324,233,22765,5,0,1:0:0:0:
351,350,22898,1,0,1:0:0:0:
460,150,23031,5,0,1:0:0:0:
433,267,23164,1,0,1:0:0:0:
433,267,23230,1,0,1:0:0:0:
433,267,23297,1,0,1:0:0:0:
256,113,23430,6,0,L|256:74,2,40,4|0|0,1:0|1:0|1:0,1:0:0:0:
177,191,23696,2,0,L|133:191,2,40,0|0|0,1:0|1:0|1:0,1:0:0:0:
256,268,23962,2,0,L|256:315,2,40,0|0|0,1:0|1:0|1:0,1:0:0:0:
333,191,24228,2,0,L|379:191,2,40,0|0|0,1:0|1:0|1:0,1:0:0:0:
170,106,24494,6,0,L|133:69,2,40,4|0|0,1:0|1:0|1:0,1:0:0:0:
341,107,24760,2,0,L|378:70,2,40,0|0|0,1:0|1:0|1:0,1:0:0:0:
342,277,25026,2,0,L|379:314,2,40,4|0|0,1:0|1:0|1:0,1:0:0:0:
171,278,25292,2,0,L|134:315,2,40,0|0|0,1:0|1:0|1:0,1:0:0:0:
256,192,25558,5,4,1:0:0:0:
256,148,25625,1,0,1:0:0:0:
256,104,25691,1,0,1:0:0:0:
256,60,25758,1,0,1:0:0:0:
223,30,25825,1,4,1:0:0:0:
180,20,25891,1,0,1:0:0:0:
136,25,25958,1,0,1:0:0:0:
102,52,26024,1,0,1:0:0:0:
94,95,26091,1,4,1:0:0:0:
113,129,26157,1,0,1:0:0:0:
149,145,26224,1,0,1:0:0:0:
177,172,26290,1,0,1:0:0:0:
188,210,26357,1,4,1:0:0:0:
178,248,26423,1,0,1:0:0:0:
145,271,26490,1,0,1:0:0:0:
105,271,26556,1,0,1:0:0:0:
80,239,26623,6,0,L|74:180,3,40,2|0|0|0,2:0|2:0|2:0|2:0,2:0:0:0:
192,161,26889,6,0,L|186:102,3,40,2|0|0|0,2:0|2:0|2:0|2:0,2:0:0:0:
320,161,27155,6,0,L|326:102,3,40,2|0|0|0,2:0|2:0|2:0|2:0,2:0:0:0:
432,239,27421,6,0,L|438:180,3,40,2|0|0|0,2:0|2:0|2:0|2:0,2:0:0:0:
401,58,27687,5,2,2:0:0:0:
380,33,27754,1,0,2:0:0:0:
351,19,27820,1,0,2:0:0:0:
319,18,27887,1,0,2:0:0:0:
289,30,27953,1,2,2:0:0:0:
261,46,28020,1,0,2:0:0:0:
229,47,28086,1,0,2:0:0:0:
200,34,28153,1,0,2:0:0:0:
172,18,28219,6,0,B|133:18|91:10,1,80,0|0,1:0|1:0,1:0:0:0:
10,113,28485,2,0,B|47:113|90:106,1,80,0|0,1:0|1:0,1:0:0:0:
256,192,28751,5,4,1:0:0:0:
235,338,37266,6,0,B|219:385,3,40,4|0|0|0,1:0|1:0|1:0|1:0,1:0:0:0:
113,342,37532,6,0,B|83:368,3,40,8|0|0|0,1:0|1:0|1:0|1:0,1:0:0:0:
60,241,37798,6,0,L|22:254,3,40,0|0|0|0,1:0|1:0|1:0|1:0,1:0:0:0:
113,148,38064,6,0,L|74:137,3,40,8|0|0|0,1:0|1:0|1:0|1:0,1:0:0:0:
42,113,38330,6,0,P|37:70|48:23,1,80,0|0,1:0|1:0,1:0:0:0:
76,9,38530,1,0,1:0:0:0:
76,9,38596,2,0,L|162:9,1,80,8|0,1:0|1:0,1:0:0:0:
307,107,38862,2,0,L|227:107,1,80,0|0,1:0|1:0,1:0:0:0:
196,130,39061,1,0,1:0:0:0:
196,130,39128,2,0,P|189:169|194:208,1,80,8|0,1:0|1:0,1:0:0:0:
130,309,39394,5,4,1:0:0:0:
164,330,39461,1,0,1:0:0:0:
203,336,39527,1,0,1:0:0:0:
242,327,39594,1,0,1:0:0:0:
273,303,39660,2,0,L|278:264,3,40,8|0|0|0,1:0|1:0|1:0|1:0,1:0:0:0:
375,240,39927,2,0,L|380:279,3,40,4|0|0|0,1:0|1:0|1:0|1:0,1:0:0:0:
412,304,40193,6,0,P|451:297|491:294,1,80,8|0,1:0|1:0,1:0:0:0:
331,145,40459,2,0,P|371:142|410:134,1,80,4|0,1:0|1:0,1:0:0:0:
256,118,40725,2,0,L|256:60,2,53.3333333333333,8|0|0,1:0|1:0|1:0,1:0:0:0:
180,145,40991,2,0,P|140:142|101:134,1,80,4|0,1:0|1:0,1:0:0:0:
100,304,41257,2,0,P|61:297|21:294,1,80,8|0,1:0|1:0,1:0:0:0:
209,354,41523,5,4,1:0:0:0:
241,329,41590,1,0,1:0:0:0:
280,324,41656,1,0,1:0:0:0:
320,328,41723,1,0,1:0:0:0:
353,349,41789,1,8,1:0:0:0:
388,368,41856,1,0,1:0:0:0:
427,373,41922,1,0,1:0:0:0:
465,360,41989,1,0,1:0:0:0:
489,328,42055,1,0,1:0:0:0:
492,288,42122,1,0,1:0:0:0:
475,252,42188,1,0,1:0:0:0:
437,237,42255,1,0,1:0:0:0:
397,240,42321,1,8,1:0:0:0:
358,229,42388,1,0,1:0:0:0:
331,200,42454,1,0,1:0:0:0:
330,160,42521,1,0,1:0:0:0:
349,125,42587,6,0,L|390:117,7,40,4|0|0|0|8|0|0|0,1:0|1:0|1:0|1:0|1:0|1:0|1:0|1:0,1:0:0:0:
256,58,43119,2,0,L|256:18,7,40,4|0|0|0|8|0|0|0,1:0|1:0|1:0|1:0|1:0|1:0|1:0|1:0,1:0:0:0:
163,125,43652,2,0,L|122:117,7,40,4|0|0|0|8|0|0|0,1:0|1:0|1:0|1:0|1:0|1:0|1:0|1:0,1:0:0:0:
256,192,44184,2,0,B|256:248|256:248|264:264|264:264|248:264|248:264|256:280|256:280|256:332,1,160,4|12,1:0|1:0,1:0:0:0:
364,256,44583,1,0,1:0:0:0:
364,256,44649,1,0,1:0:0:0:
364,256,44716,6,0,B|364:304|364:304|348:320|348:320|348:372,2,120,6|2|2,2:0|2:0|2:0,2:0:0:0:
256,192,45248,2,0,B|256:150|256:150|261:138|261:138|250:138|250:138|256:126|256:126|256:87,2,120,2|2|2,2:0|2:0|2:0,2:0:0:0:
148,256,45780,2,0,B|148:304|148:304|164:320|164:320|164:372,2,120,2|2|2,2:0|2:0|2:0,2:0:0:0:
256,192,46312,5,2,2:0:0:0:
256,192,46378,1,0,1:0:0:0:
256,192,46445,2,0,L|256:156,4,20,0|0|0|0|0,1:0|1:0|1:0|1:0|1:0,1:0:0:0:
400,31,46844,6,0,P|441:20|486:24,1,80,4|0,1:0|1:0,1:0:0:0:
501,55,47044,1,0,1:0:0:0:
508,95,47111,1,8,1:0:0:0:
395,158,47244,2,0,L|386:249,1,80,0|0,1:0|1:0,1:0:0:0:
413,274,47443,1,0,1:0:0:0:
413,274,47510,2,0,L|505:268,1,80,0|8,1:0|1:0,1:0:0:0:
299,284,47776,5,0,1:0:0:0:
306,363,47909,1,0,1:0:0:0:
221,221,48042,5,0,1:0:0:0:
225,181,48109,1,0,1:0:0:0:
229,142,48175,1,8,1:0:0:0:
133,268,48308,5,0,1:0:0:0:
136,307,48374,1,0,1:0:0:0:
140,347,48441,1,0,1:0:0:0:
61,201,48574,5,0,1:0:0:0:
61,201,48641,1,0,1:0:0:0:
61,201,48707,2,0,L|68:121,1,80,8|0,1:0|1:0,1:0:0:0:
256,24,48973,5,0,1:0:0:0:
184,73,49106,1,0,1:0:0:0:
217,96,49173,1,0,1:0:0:0:
256,103,49239,1,8,1:0:0:0:
296,96,49306,1,0,1:0:0:0:
328,73,49372,1,0,1:0:0:0:
451,201,49505,6,0,L|444:121,1,80,0|0,1:0|1:0,1:0:0:0:
512,30,49771,1,8,1:0:0:0:
483,2,49838,2,0,P|429:3|343:-2,1,120,0|0,1:0|1:0,1:0:0:0:
256,192,50170,1,0,1:0:0:0:
256,192,50237,1,0,1:0:0:0:
256,192,50303,5,8,1:0:0:0:
225,218,50370,1,0,1:0:0:0:
214,256,50436,1,0,1:0:0:0:
224,295,50503,1,0,1:0:0:0:
247,328,50570,2,0,L|336:314,1,80,0|0,1:0|1:0,1:0:0:0:
352,286,50769,2,0,L|441:300,1,80,0|0,1:0|1:0,1:0:0:0:
471,305,50969,1,0,1:0:0:0:
464,145,51102,5,0,1:0:0:0:
431,167,51168,1,0,1:0:0:0:
391,172,51235,1,0,1:0:0:0:
352,164,51301,1,0,1:0:0:0:
320,139,51368,1,8,1:0:0:0:
288,115,51434,1,0,1:0:0:0:
248,107,51501,1,0,1:0:0:0:
208,110,51567,1,0,1:0:0:0:
180,139,51634,6,0,L|192:221,1,80,0|0,1:0|1:0,1:0:0:0:
205,255,51833,2,0,L|199:295,1,40,0|8,1:0|1:0,1:0:0:0:
57,137,52166,5,0,1:0:0:0:
9,247,52299,1,0,1:0:0:0:
52,358,52432,1,8,1:0:0:0:
170,377,52565,1,0,1:0:0:0:
307,255,52698,6,0,L|347:250,1,40,0|0,1:0|1:0,1:0:0:0:
379,226,52831,6,0,L|414:246,1,40,0|0,1:0|1:0,1:0:0:0:
454,249,52964,6,0,L|470:285,1,40,8|0,1:0|1:0,1:0:0:0:
505,306,53097,6,0,L|497:346,1,40,0|0,1:0|1:0,1:0:0:0:
472,376,53230,6,0,L|431:371,4,40,0|0|0|0|8,1:0|1:0|1:0|1:0|1:0,1:0:0:0:
307,255,53629,2,0,L|347:250,4,40,0|0|0|0|0,1:0|1:0|1:0|1:0|1:0,1:0:0:0:
502,174,54029,2,0,P|501:133|495:86,1,80,8|0,1:0|1:0,1:0:0:0:
447,21,54295,5,0,1:0:0:0:
368,59,54428,1,0,1:0:0:0:
289,19,54561,1,8,1:0:0:0:
204,45,54694,1,0,1:0:0:0:
124,7,54827,2,0,P|80:9|29:13,1,80,0|0,1:0|1:0,1:0:0:0:
20,44,55026,1,0,1:0:0:0:
12,89,55093,1,8,1:0:0:0:
308,313,55359,6,0,P|311:278|298:221,1,80,4|0,1:0|1:0,1:0:0:0:
125,157,55625,2,0,P|122:192|135:249,1,80,8|0,1:0|1:0,1:0:0:0:
399,341,55891,6,0,P|402:306|389:249,1,80,0|0,1:0|1:0,1:0:0:0:
216,185,56157,2,0,P|213:220|226:277,1,80,8|0,1:0|1:0,1:0:0:0:
216,375,56423,6,0,L|120:346,1,80,0|0,1:0|1:0,1:0:0:0:
394,262,56689,2,0,L|490:291,1,80,8|0,1:0|1:0,1:0:0:0:
216,185,56955,6,0,L|120:156,1,80,0|0,1:0|1:0,1:0:0:0:
394,72,57221,2,0,L|490:101,1,80,8|0,1:0|1:0,1:0:0:0:
310,0,57487,5,0,1:0:0:0:
288,34,57554,1,0,1:0:0:0:
279,73,57621,1,0,1:0:0:0:
290,111,57687,1,0,1:0:0:0:
309,146,57754,1,8,1:0:0:0:
340,170,57820,1,0,1:0:0:0:
378,182,57887,1,0,1:0:0:0:
418,180,57953,1,0,1:0:0:0:
456,166,58020,1,0,1:0:0:0:
443,203,58086,1,0,1:0:0:0:
443,243,58153,1,0,1:0:0:0:
464,276,58219,1,0,1:0:0:0:
491,306,58286,6,0,P|501:349|491:385,1,80,8|0,1:0|1:0,1:0:0:0:
453,375,58485,1,0,1:0:0:0:
414,383,58552,2,0,L|312:371,1,80,0|0,1:0|1:0,1:0:0:0:
227,276,58818,1,8,1:0:0:0:
227,276,58884,1,0,1:0:0:0:
227,276,58951,2,0,L|329:264,1,80,0|0,1:0|1:0,1:0:0:0:
400,192,59217,1,0,1:0:0:0:
484,106,59350,5,8,1:0:0:0:
497,68,59417,1,0,1:0:0:0:
486,30,59483,1,0,1:0:0:0:
452,8,59550,1,0,1:0:0:0:
413,2,59616,2,0,L|311:14,1,80,0|0,1:0|1:0,1:0:0:0:
227,108,59882,2,0,L|329:120,1,80,8|0,1:0|1:0,1:0:0:0:
324,153,60082,1,0,1:0:0:0:
313,191,60148,2,0,P|312:230|319:269,1,80,0|0,1:0|1:0,1:0:0:0:
198,191,60414,2,0,P|199:230|192:269,1,80,8|0,1:0|1:0,1:0:0:0:
421,205,60680,6,0,P|447:234|481:256,1,80,0|0,1:0|1:0,1:0:0:0:
91,205,60946,2,0,P|64:234|30:256,1,80,8|0,1:0|1:0,1:0:0:0:
13,133,61213,5,0,1:0:0:0:
120,75,61346,1,0,1:0:0:0:
120,75,61412,1,0,1:0:0:0:
215,155,61545,1,0,1:0:0:0:
215,155,61612,1,0,1:0:0:0:
170,265,61745,5,4,1:0:0:0:
255,348,61878,2,0,P|322:341|379:339,1,120,0|0,1:0|1:0,1:0:0:0:
399,307,62144,1,0,1:0:0:0:
384,270,62210,1,0,1:0:0:0:
403,234,62277,2,0,P|400:195|402:155,1,80,4|0,1:0|1:0,1:0:0:0:
492,72,62543,1,8,1:0:0:0:
468,41,62609,1,0,1:0:0:0:
431,25,62676,1,0,1:0:0:0:
391,25,62742,1,0,1:0:0:0:
352,37,62809,6,0,P|312:37|273:28,1,80,0|0,1:0|1:0,1:0:0:0:
234,38,63009,2,0,P|194:37|155:46,1,80,0|0,1:0|1:0,1:0:0:0:
122,69,63208,1,0,1:0:0:0:
20,4,63341,5,0,1:0:0:0:
12,139,63474,1,0,1:0:0:0:
124,215,63607,1,12,1:0:0:0:
257,189,63740,1,0,1:0:0:0:
273,28,63873,5,6,1:0:0:0:
302,60,63940,1,0,1:0:0:0:
343,71,64006,1,0,1:0:0:0:
385,61,64073,1,0,1:0:0:0:
422,40,64139,1,8,1:0:0:0:
465,45,64206,1,0,1:0:0:0:
495,75,64272,1,0,1:0:0:0:
495,118,64339,1,0,1:0:0:0:
460,143,64405,1,0,1:0:0:0:
416,143,64472,1,0,1:0:0:0:
380,166,64538,1,0,1:0:0:0:
376,209,64605,1,0,1:0:0:0:
403,243,64672,1,10,1:0:0:0:
446,244,64738,1,0,1:0:0:0:
486,260,64805,1,0,1:0:0:0:
498,301,64871,1,0,1:0:0:0:
485,342,64938,6,0,L|379:335,1,95.9999970703126,2|0,1:0|1:0,1:0:0:0:
345,354,65137,1,0,1:0:0:0:
303,378,65204,2,0,L|197:385,1,95.9999970703126,10|0,1:0|1:0,1:0:0:0:
35,158,65470,2,0,P|26:210|45:251,1,95.9999970703126,2|0,1:0|1:0,1:0:0:0:
81,284,65669,1,0,1:0:0:0:
81,284,65736,2,0,L|187:277,1,95.9999970703126,10|0,1:0|1:0,1:0:0:0:
237,184,66002,5,2,1:0:0:0:
264,144,66068,1,0,1:0:0:0:
310,132,66135,1,0,1:0:0:0:
357,136,66201,1,0,1:0:0:0:
389,171,66268,1,8,1:0:0:0:
428,197,66334,1,0,1:0:0:0:
476,194,66401,1,0,1:0:0:0:
505,155,66468,1,0,1:0:0:0:
509,107,66534,1,0,1:0:0:0:
480,67,66601,1,0,1:0:0:0:
434,54,66667,6,0,P|387:52|339:46,1,95.9999970703126,2|10,1:0|1:0,1:0:0:0:
312,217,66933,1,2,1:0:0:0:
512,294,67066,2,0,P|465:296|417:302,1,95.9999970703126,2|0,1:0|1:0,1:0:0:0:
291,350,67332,5,10,1:0:0:0:
229,315,67421,1,2,1:0:0:0:
161,336,67510,1,2,1:0:0:0:
98,304,67598,2,0,P|100:257|93:209,1,95.9999970703126,0|0,1:0|1:0,1:0:0:0:
12,69,67864,2,0,P|9:116|16:164,1,95.9999970703126,8|0,1:0|1:0,1:0:0:0:
171,153,68130,5,6,1:0:0:0:
208,185,68197,1,0,1:0:0:0:
256,192,68264,1,0,1:0:0:0:
303,184,68330,1,0,1:0:0:0:
341,153,68397,1,8,1:0:0:0:
363,111,68463,1,0,1:0:0:0:
403,84,68530,1,0,1:0:0:0:
450,82,68596,1,0,1:0:0:0:
492,106,68663,1,0,1:0:0:0:
504,152,68729,1,0,1:0:0:0:
489,198,68796,1,0,1:0:0:0:
445,215,68862,1,0,1:0:0:0:
396,213,68929,6,0,L|411:308,1,95.9999970703126,10|0,1:0|1:0,1:0:0:0:
366,325,69128,1,0,1:0:0:0:
359,373,69195,2,0,P|312:363|259:370,1,95.9999970703126,2|0,1:0|1:0,1:0:0:0:
106,165,69461,2,0,P|153:155|206:162,1,95.9999970703126,10|0,1:0|1:0,1:0:0:0:
244,179,69660,1,0,1:0:0:0:
288,198,69727,2,0,P|286:153|289:98,1,95.9999970703126,2|0,1:0|1:0,1:0:0:0:
239,21,69993,5,10,1:0:0:0:
436,51,70126,1,0,1:0:0:0:
436,51,70193,1,0,1:0:0:0:
436,51,70259,2,0,L|418:149,1,95.9999970703126,6|0,1:0|1:0,3:0:0:0:
289,103,70525,5,10,1:0:0:0:
92,133,70658,1,0,1:0:0:0:
92,133,70725,1,0,1:0:0:0:
92,133,70791,2,0,L|110:231,1,95.9999970703126,6|0,1:0|1:0,1:0:0:0:
261,350,71057,5,10,1:0:0:0:
302,366,71124,1,0,1:0:0:0:
345,364,71190,1,0,1:0:0:0:
386,350,71257,1,0,1:0:0:0:
420,324,71323,2,0,P|462:303|510:303,1,95.9999970703126,6|0,1:0|1:0,1:0:0:0:
360,239,71589,2,0,P|362:192|386:150,1,95.9999970703126,14|0,1:0|1:0,1:0:0:0:
256,248,71856,2,0,P|212:216|218:98,2,143.999995605469,6|4|4,1:0|1:0|1:0,1:0:0:0:
285,68,72388,5,6,1:0:0:0:
253,39,72454,1,0,1:0:0:0:
211,26,72521,1,0,1:0:0:0:
168,31,72587,1,0,1:0:0:0:
129,50,72654,1,8,1:0:0:0:
103,84,72720,1,0,1:0:0:0:
95,126,72787,1,0,1:0:0:0:
98,169,72853,1,0,1:0:0:0:
121,206,72920,1,0,1:0:0:0:
156,230,72986,1,0,1:0:0:0:
199,230,73053,1,0,1:0:0:0:
241,236,73119,1,0,1:0:0:0:
271,267,73186,1,10,1:0:0:0:
277,309,73252,1,0,1:0:0:0:
251,344,73319,1,0,1:0:0:0:
212,361,73385,1,0,1:0:0:0:
168,354,73453,6,0,P|129:337|77:325,1,95.9999970703126,2|0,1:0|1:0,1:0:0:0:
54,283,73652,1,0,1:0:0:0:
5,281,73719,2,0,P|14:228|12:175,1,95.9999970703126,10|0,1:0|1:0,1:0:0:0:
260,15,73984,2,0,B|282:57|282:57|269:103,1,95.9999970703126,2|0,1:0|1:0,1:0:0:0:
240,144,74184,1,0,1:0:0:0:
240,144,74251,2,0,L|134:151,1,95.9999970703126,10|0,1:0|1:0,1:0:0:0:
119,325,74517,5,2,1:0:0:0:
151,297,74583,1,0,1:0:0:0:
194,289,74650,1,0,1:0:0:0:
236,293,74716,1,0,1:0:0:0:
277,306,74783,1,8,1:0:0:0:
306,337,74849,1,0,1:0:0:0:
347,351,74916,1,0,1:0:0:0:
390,347,74983,1,0,1:0:0:0:
427,326,75049,1,0,1:0:0:0:
458,295,75116,1,0,1:0:0:0:
475,255,75182,6,0,P|485:209|488:161,1,95.9999970703126,2|10,1:0|1:0,1:0:0:0:
323,103,75448,1,2,1:0:0:0:
512,0,75581,2,0,P|465:10|417:13,1,95.9999970703126,2|0,1:0|1:0,1:0:0:0:
82,0,75847,5,10,1:0:0:0:
152,13,75936,1,2,1:0:0:0:
191,72,76025,1,2,1:0:0:0:
182,142,76113,2,0,P|133:203|11:187,1,191.999994140625,2|10,1:0|1:0,1:0:0:0:
85,115,76512,1,0,1:0:0:0:
244,253,76645,5,6,1:0:0:0:
279,285,76711,1,0,1:0:0:0:
326,293,76778,1,0,1:0:0:0:
370,275,76844,1,0,1:0:0:0:
392,231,76911,1,8,1:0:0:0:
386,183,76978,1,0,1:0:0:0:
352,150,77044,1,0,1:0:0:0:
336,104,77111,1,0,1:0:0:0:
350,58,77177,1,0,1:0:0:0:
392,35,77244,1,0,1:0:0:0:
439,38,77310,1,0,1:0:0:0:
476,68,77377,1,0,1:0:0:0:
487,114,77443,6,0,L|483:210,1,95.9999970703126,10|0,1:0|1:0,1:0:0:0:
471,257,77643,1,0,1:0:0:0:
457,303,77709,2,0,P|409:303|361:312,1,95.9999970703126,6|0,1:0|1:0,1:0:0:0:
95,346,77975,2,0,P|89:302|112:242,1,95.9999970703126,10|0,1:0|1:0,1:0:0:0:
142,223,78175,1,0,1:0:0:0:
187,209,78241,2,0,P|234:209|282:218,1,95.9999970703126,6|0,1:0|1:0,1:0:0:0:
396,43,78507,6,0,L|300:52,1,95.9999970703126,10|0,1:0|1:0,1:0:0:0:
256,70,78706,1,0,1:0:0:0:
210,52,78774,2,0,L|115:44,1,95.9999970703126,6|0,1:0|1:0,1:0:0:0:
88,82,78972,1,0,0:0:0:0:
68,126,79040,1,10,0:0:0:0:
345,312,79172,5,0,1:0:0:0:
345,312,79238,1,0,1:0:0:0:
345,312,79306,2,0,L|440:336,1,95.9999970703126,6|0,1:0|1:0,1:0:0:0:
167,312,79572,2,0,L|72:336,1,95.9999970703126,10|0,1:0|1:0,1:0:0:0:
395,220,79838,6,0,L|490:196,1,95.9999970703126,6|0,1:0|1:0,1:0:0:0:
117,220,80104,2,0,L|22:196,1,95.9999970703126,12|0,1:0|1:0,1:0:0:0:
324,120,80369,2,0,B|284:120|256:139|256:139|228:120|188:120,2,143.999995605469,6|4|4,1:0|1:0|1:0,1:0:0:0:
132,47,80902,5,6,1:0:0:0:
92,74,80969,1,0,1:0:0:0:
77,119,81035,1,0,1:0:0:0:
88,166,81102,1,0,1:0:0:0:
127,192,81168,1,8,1:0:0:0:
174,201,81235,1,0,1:0:0:0:
212,228,81301,1,0,1:0:0:0:
227,273,81368,1,0,1:0:0:0:
216,319,81434,1,6,1:0:0:0:
265,300,81501,1,2,1:2:0:0:
316,306,81567,1,2,1:2:0:0:
360,334,81634,1,2,1:2:0:0:
411,344,81700,1,10,1:2:0:0:
456,316,81767,1,2,1:2:0:0:
469,265,81833,1,2,1:2:0:0:
452,214,81900,1,2,1:2:0:0:
404,192,81966,5,6,1:2:0:0:
256,192,82033,12,4,86224,1:0:0:0:
381,210,98995,5,0,1:0:0:0:
395,115,99128,1,0,1:0:0:0:
308,73,99261,2,0,B|200:73|218:184,1,160,0|0,1:0|1:0,1:0:0:0:
139,344,99660,6,0,B|179:323|192:287,1,80,0|0,1:0|1:0,1:0:0:0:
45,321,99927,1,0,1:0:0:0:
108,233,100060,2,0,B|66:245|30:225,1,80,0|0,1:0|1:0,1:0:0:0:
61,135,100326,2,0,B|32:110|26:64,1,80,0|0,1:0|1:0,1:0:0:0:
104,9,100592,5,0,1:0:0:0:
199,3,100725,1,0,1:0:0:0:
274,62,100858,1,0,1:0:0:0:
443,278,101124,5,4,1:0:0:0:
445,182,101257,1,0,1:0:0:0:
356,144,101390,2,0,B|251:135|224:228,1,160,0|0,1:0|1:0,1:0:0:0:
252,309,101789,5,0,1:0:0:0:
94,280,101922,2,0,B|112:188,1,80,0|0,1:0|1:0,1:0:0:0:
149,99,102188,2,0,B|113:82|71:94,1,80,0|0,1:0|1:0,1:0:0:0:
227,216,102454,2,0,B|263:233|306:222,1,80,0|0,1:0|1:0,1:0:0:0:
338,329,102720,5,2,1:2:0:0:
449,321,102853,1,2,1:2:0:0:
472,211,102986,1,2,1:2:0:0:
389,135,103119,1,2,1:2:0:0:
243,138,103252,6,0,B|224:176|227:223,1,80,4|0,1:0|1:0,1:0:0:0:
245,252,103452,1,0,1:0:0:0:
284,262,103519,1,0,1:0:0:0:
194,327,103652,5,0,1:0:0:0:
103,295,103785,1,0,1:0:0:0:
58,210,103918,1,0,1:0:0:0:
87,118,104051,1,0,1:0:0:0:
231,47,104184,5,0,1:0:0:0:
231,47,104251,1,0,1:0:0:0:
231,47,104317,2,0,B|188:52|152:48,1,80,4|0,1:0|1:0,1:0:0:0:
243,138,104583,2,0,B|286:133|327:138,1,80,0|0,1:0|1:0,1:0:0:0:
212,223,104849,1,0,1:0:0:0:
224,314,104982,1,0,1:0:0:0:
224,314,105048,1,0,1:0:0:0:
224,314,105115,2,0,B|267:309|308:314,1,80,0|0,1:0|1:0,1:0:0:0:
408,374,105381,6,0,L|453:384,3,40,4|0|0|0,1:0|1:0|1:0|1:0,1:0:0:0:
444,304,105647,2,0,L|489:294,3,40,0|0|0|0,1:0|1:0|1:0|1:0,1:0:0:0:
405,239,105913,5,4,1:0:0:0:
384,204,105980,1,0,1:0:0:0:
382,164,106046,1,0,1:0:0:0:
406,131,106113,1,0,1:0:0:0:
439,109,106179,1,0,1:0:0:0:
455,72,106246,1,0,1:0:0:0:
451,32,106312,1,0,1:0:0:0:
423,3,106379,1,0,1:0:0:0:
383,0,106445,1,4,1:0:0:0:
345,14,106512,1,0,1:0:0:0:
328,50,106578,1,0,1:0:0:0:
337,89,106645,1,0,1:0:0:0:
326,127,106711,1,0,1:0:0:0:
291,147,106778,1,0,1:0:0:0:
251,146,106844,1,0,1:0:0:0:
218,122,106911,1,0,1:0:0:0:
215,82,106978,5,6,1:2:0:0:
181,102,107044,1,2,1:2:0:0:
141,101,107111,1,2,1:2:0:0:
113,73,107177,1,2,1:2:0:0:
78,54,107244,1,2,1:2:0:0:
39,61,107310,1,2,1:2:0:0:
10,89,107377,1,2,1:2:0:0:
7,128,107443,1,2,1:2:0:0:
35,157,107510,5,6,1:2:0:0:
256,192,107576,12,0,108441,2:0:0:0:
35,157,108574,5,6,1:0:0:0:
59,188,108640,2,0,B|67:225|67:225|58:267,1,80,0|2,1:0|1:0,1:0:0:0:
30,295,108840,2,0,B|134:295,1,80,8|2,1:0|1:0,1:0:0:0:
278,247,109106,1,0,1:0:0:0:
278,247,109173,2,0,P|282:300|239:346,1,120,2|8,1:0|1:0,1:0:0:0:
189,252,109505,1,2,1:0:0:0:
358,191,109638,5,2,1:0:0:0:
383,223,109705,2,0,B|462:223,1,80,0|2,1:0|1:0,1:0:0:0:
488,192,109904,2,0,B|496:155|496:155|487:113,1,80,8|2,1:0|1:0,1:0:0:0:
334,17,110170,1,0,1:0:0:0:
298,36,110237,1,2,1:0:0:0:
292,75,110303,2,0,L|211:75,2,80,0|8|2,1:0|1:0|1:0,1:0:0:0:
72,130,110703,6,0,P|68:175|86:213,1,80,2|0,1:0|1:0,1:0:0:0:
109,241,110902,1,2,1:0:0:0:
109,241,110969,2,0,B|188:251,1,80,8|2,1:0|1:0,1:0:0:0:
344,224,111235,1,0,1:0:0:0:
344,224,111301,2,0,P|300:273|293:324,1,120,2|8,1:0|1:0,1:0:0:0:
392,312,111634,1,2,1:0:0:0:
480,216,111767,6,0,B|459:179|459:179|477:101,1,120,6|2,1:0|1:0,1:0:0:0:
450,72,112033,2,0,B|371:82,1,80,12|2,1:0|1:0,1:0:0:0:
288,168,112299,1,4,1:0:0:0:
248,80,112432,1,2,1:0:0:0:
224,240,112565,1,12,1:0:0:0:
152,96,112698,1,2,1:0:0:0:
138,192,112831,6,0,P|85:211|50:265,1,120,6|2,1:0|1:0,1:0:0:0:
30,297,113097,2,0,B|16:214,1,80,8|2,1:0|1:0,1:0:0:0:
152,284,113363,2,0,B|143:335,2,40,2|0|0,1:0|1:0|1:0,1:0:0:0:
152,96,113629,2,0,B|143:44,2,40,10|0|0,1:0|1:0|1:0,1:0:0:0:
255,373,113895,6,0,P|294:366|334:364,1,80,2|0,1:0|1:0,1:0:0:0:
96,209,114162,2,0,P|56:215|16:217,1,80,10|0,1:0|1:0,1:0:0:0:
240,250,114428,6,0,P|279:243|319:241,1,80,2|0,1:0|1:0,1:0:0:0:
81,86,114695,2,0,P|41:92|1:94,1,80,10|0,1:0|1:0,1:0:0:0:
163,29,114960,1,2,1:0:0:0:
256,65,115093,1,0,1:0:0:0:
349,29,115226,1,10,1:0:0:0:
431,86,115359,2,0,P|471:92|511:94,2,80,0|2|0,1:0|1:0|1:0,1:0:0:0:
455,295,115758,6,0,P|485:276|507:233,1,80,10|0,1:0|1:0,1:0:0:0:
332,98,116024,2,0,P|352:150|421:187,1,120,2|0,1:0|1:0,1:0:0:0:
428,216,116290,2,0,P|395:237|334:248,1,80,12|0,1:0|1:0,1:0:0:0:
84,216,116556,2,0,P|117:237|178:248,1,80,12|0,1:0|1:0,1:0:0:0:
256,352,116822,5,14,1:0:0:0:
256,312,116889,1,0,1:0:0:0:
256,272,116955,1,2,1:0:0:0:
256,232,117022,1,0,1:0:0:0:
256,192,117088,2,0,B|256:108,1,80,6|0,1:0|1:0,1:0:0:0:
379,335,117354,2,0,P|413:355|452:363,1,80,10|0,1:0|1:0,1:0:0:0:
133,335,117621,2,0,P|98:355|59:363,1,80,2|0,1:0|1:0,1:0:0:0:
151,148,117887,6,0,P|130:113|122:74,1,80,10|0,1:0|1:0,2:0:0:0:
283,42,118153,2,0,P|310:30|343:24,2,53.3333333333333,2|2|2,1:0|1:0|1:0,1:0:0:0:
256,112,118419,2,0,P|260:179|199:247,1,160,10|2,1:0|1:0,1:0:0:0:
361,236,118818,1,0,1:0:0:0:
361,236,118884,1,0,1:0:0:0:
361,236,118951,2,0,P|381:271|389:310,1,80,10|0,1:0|1:0,1:0:0:0:
512,61,119217,5,2,1:0:0:0:
473,191,119350,1,0,1:0:0:0:
343,152,119483,1,10,1:0:0:0:
381,22,119616,1,0,1:0:0:0:
147,112,119749,2,0,P|181:81|290:67,1,160,2|10,1:0|1:0,1:0:0:0:
256,183,120148,5,0,1:0:0:0:
256,183,120215,1,0,1:0:0:0:
256,183,120281,2,0,B|265:222|265:222|256:260,1,80,2|0,1:0|1:0,1:0:0:0:
20,144,120547,2,0,B|11:105|11:105|20:67,1,80,10|0,1:0|1:0,1:0:0:0:
156,267,120813,5,2,1:0:0:0:
159,307,120880,1,0,1:0:0:0:
181,340,120946,1,0,1:0:0:0:
216,359,121013,1,0,1:0:0:0:
256,364,121080,1,10,1:0:0:0:
295,359,121146,1,0,1:0:0:0:
331,340,121213,1,0,1:0:0:0:
353,307,121279,1,0,1:0:0:0:
356,267,121346,6,0,L|437:262,1,80,2|0,1:0|1:0,1:0:0:0:
464,290,121545,2,0,L|459:329,1,40,2|8,1:0|1:0,1:0:0:0:
448,60,121745,1,2,1:0:0:0:
448,60,121810,1,0,1:0:0:0:
448,60,121878,2,0,P|506:110|513:188,1,160,2|10,1:0|1:0,1:0:0:0:
411,159,122277,1,2,1:0:0:0:
330,90,122410,2,0,P|335:51|356:18,1,80,2|0,1:0|1:0,1:0:0:0:
256,168,122676,2,0,P|231:138|223:99,1,80,10|0,1:0|1:0,1:0:0:0:
458,329,122942,5,2,1:0:0:0:
362,329,123075,2,0,B|314:345,2,40,0|2|8,1:0|1:0|1:0,1:0:0:0:
298,257,123341,1,2,1:0:0:0:
163,185,123474,5,2,1:0:0:0:
78,230,123607,2,0,B|70:174,5,40,0|2|8|0|2|0,1:0|1:0|1:0|1:0|1:0|1:0,1:0:0:0:
22,286,124006,2,0,B|-2:246,3,40,2|2|0|0,1:0|1:0|1:0|1:0,1:0:0:0:
38,366,124272,2,0,B|-10:358,3,40,10|0|2|0,1:0|1:0|1:0|1:0,1:0:0:0:
76,381,124538,6,0,P|89:344|108:309,1,80,6|0,1:0|1:0,1:0:0:0:
435,381,124805,2,0,P|422:344|403:309,1,80,14|0,1:0|1:0,1:0:0:0:
72,190,125071,6,0,P|107:173|145:161,1,80,6|0,1:0|1:0,1:0:0:0:
440,190,125337,2,0,P|404:173|366:161,1,80,14|0,2:0|2:0,2:0:0:0:
34,73,125603,5,6,2:0:0:0:
62,58,125669,1,0,2:0:0:0:
92,47,125736,1,0,2:0:0:0:
124,45,125802,1,0,2:0:0:0:
156,47,125869,1,10,2:0:0:0:
185,59,125935,1,0,2:0:0:0:
212,76,126002,1,0,2:0:0:0:
232,100,126068,1,0,2:0:0:0:
245,129,126135,1,2,2:0:0:0:
251,160,126201,1,0,2:0:0:0:
256,192,126268,1,0,2:0:0:0:
252,223,126334,1,0,2:0:0:0:
244,254,126401,6,0,B|229:300,3,40,10|0|0|0,2:0|2:0|2:0|2:0,1:0:0:0:
281,356,126734,2,0,L|400:347,2,120,2|10|2,2:0|2:0|2:0,2:0:0:0:
163,333,127332,1,2,2:0:0:0:
52,377,127532,1,2,2:0:0:0:
6,261,127731,5,2,2:0:0:0:
28,237,127798,1,0,2:0:0:0:
58,225,127864,1,0,2:0:0:0:
90,222,127931,1,0,2:0:0:0:
119,234,127997,1,10,2:0:0:0:
145,253,128064,1,0,2:0:0:0:
176,261,128130,1,0,2:0:0:0:
208,259,128197,1,0,2:0:0:0:
237,245,128264,1,2,2:0:0:0:
254,218,128330,1,0,2:0:0:0:
264,187,128397,1,0,2:0:0:0:
256,156,128463,1,0,2:0:0:0:
236,130,128530,1,10,2:0:0:0:
208,116,128596,1,0,2:0:0:0:
176,115,128663,1,2,2:0:0:0:
147,129,128729,1,0,2:0:0:0:
397,373,128929,6,0,B|481:373,1,80,2|10,2:0|2:0,2:0:0:0:
191,188,129328,2,0,B|71:188,1,120,2|0,2:0|2:0,2:0:0:0:
30,188,129594,1,10,2:0:0:0:
208,80,129727,1,2,2:0:0:0:
256,282,129860,6,0,B|296:275,5,40,2|0|0|0|10|0,2:0|2:0|2:0|2:0|2:0|2:0,2:0:0:0:
325,247,130259,2,0,B|365:254,5,40,0|0|2|0|0|0,2:0|2:0|2:0|2:0|2:0|2:0,2:0:0:0:
392,283,130658,5,10,2:0:0:0:
428,300,130725,1,0,2:0:0:0:
467,298,130791,1,0,2:0:0:0:
502,278,130858,1,0,2:0:0:0:
511,239,130924,2,0,B|465:226,3,40,2|0|0|0,2:0|2:0|2:0|2:0,2:0:0:0:
482,189,131190,2,0,B|440:212,3,40,10|0|0|0,2:0|2:0|2:0|2:0,2:0:0:0:
426,174,131456,2,0,B|412:219,3,40,2|0|0|0,2:0|2:0|2:0|2:0,2:0:0:0:
383,239,131723,1,10,2:0:0:0:
343,244,131789,1,0,2:0:0:0:
303,234,131856,1,0,2:0:0:0:
275,205,131922,1,0,2:0:0:0:
264,166,131989,5,2,2:0:0:0:
232,190,132055,1,0,2:0:0:0:
192,185,132122,1,0,2:0:0:0:
164,157,132188,1,0,2:0:0:0:
126,143,132255,1,10,2:0:0:0:
86,146,132321,1,0,2:0:0:0:
50,165,132388,1,0,2:0:0:0:
33,201,132454,1,0,2:0:0:0:
34,241,132521,1,2,2:0:0:0:
52,276,132587,1,0,2:0:0:0:
89,292,132654,1,0,2:0:0:0:
128,295,132720,1,2,2:0:0:0:
168,289,132787,6,0,L|247:275,1,80,8|2,2:0|2:0,2:0:0:0:
256,95,133053,1,2,2:0:0:0:
256,95,133119,2,0,L|335:109,1,80,2|0,2:0|2:0,2:0:0:0:
372,123,133318,2,0,P|409:123|452:111,1,80,2|0,2:0|2:0,2:0:0:0:
488,98,133519,2,0,P|486:137|493:177,1,80,2|0,2:0|2:0,2:0:0:0:
506,215,133718,2,0,P|513:255|512:296,1,80,2|2,2:0|2:0,2:0:0:0:
487,325,133918,1,2,2:0:0:0:
448,334,133984,1,2,2:0:0:0:
379,239,134117,5,6,2:0:0:0:
345,261,134184,1,0,2:0:0:0:
305,264,134250,1,0,2:0:0:0:
266,253,134317,1,0,2:0:0:0:
236,227,134383,1,10,2:0:0:0:
201,206,134450,1,0,2:0:0:0:
163,194,134516,1,0,2:0:0:0:
123,198,134583,1,0,2:0:0:0:
90,221,134649,1,2,2:0:0:0:
77,259,134716,1,0,2:0:0:0:
85,298,134782,1,0,2:0:0:0:
115,325,134849,1,0,2:0:0:0:
153,336,134915,1,8,2:0:0:0:
192,328,134982,1,0,2:0:0:0:
224,305,135048,1,2,2:0:0:0:
237,267,135115,1,0,2:0:0:0:
236,227,135181,5,2,2:0:0:0:
215,192,135248,1,0,2:0:0:0:
186,164,135315,1,0,2:0:0:0:
169,128,135381,1,0,2:0:0:0:
163,88,135448,1,8,2:0:0:0:
178,51,135514,1,0,2:0:0:0:
208,24,135581,1,2,2:0:0:0:
247,17,135647,1,0,2:0:0:0:
287,20,135714,1,0,2:0:0:0:
322,38,135780,1,0,2:0:0:0:
342,73,135847,1,2,2:0:0:0:
347,112,135913,1,0,2:0:0:0:
326,146,135980,2,0,L|282:140,3,40,10|0|0|0,2:0|2:0|2:0|2:0,2:0:0:0:
247,151,136246,5,6,2:0:0:0:
222,182,136312,1,0,2:0:0:0:
221,222,136379,1,0,2:0:0:0:
239,257,136445,1,0,2:0:0:0:
277,270,136512,1,10,2:0:0:0:
317,269,136578,1,0,2:0:0:0:
347,243,136645,1,0,2:0:0:0:
379,219,136711,1,0,2:0:0:0:
418,209,136778,1,2,2:0:0:0:
457,214,136844,1,0,2:0:0:0:
489,238,136911,1,0,2:0:0:0:
501,276,136978,1,0,2:0:0:0:
498,315,137044,1,10,2:0:0:0:
473,347,137111,1,0,2:0:0:0:
434,357,137177,1,0,2:0:0:0:
394,352,137244,1,0,2:0:0:0:
363,327,137310,5,6,2:0:0:0:
340,360,137377,1,0,2:0:0:0:
301,369,137443,1,0,2:0:0:0:
261,363,137510,1,0,2:0:0:0:
232,336,137576,1,10,2:0:0:0:
195,319,137643,1,0,2:0:0:0:
155,321,137709,1,0,2:0:0:0:
123,345,137776,1,0,2:0:0:0:
87,362,137842,1,2,2:0:0:0:
47,365,137909,1,0,2:0:0:0:
14,342,137975,1,0,2:0:0:0:
10,302,138042,1,0,2:0:0:0:
35,271,138108,2,0,L|79:275,3,40,10|0|2|0,2:0|2:0|2:0|2:0,2:0:0:0:
113,261,138374,5,6,2:0:0:0:
148,241,138441,1,0,2:0:0:0:
158,202,138507,1,0,2:0:0:0:
149,163,138574,1,0,2:0:0:0:
116,140,138640,1,10,2:0:0:0:
78,126,138707,1,0,2:0:0:0:
51,96,138774,1,0,2:0:0:0:
50,56,138840,1,0,2:0:0:0:
72,22,138907,1,2,2:0:0:0:
105,44,138973,1,0,2:0:0:0:
143,56,139040,1,0,2:0:0:0:
182,50,139106,1,0,2:0:0:0:
219,35,139173,1,10,2:0:0:0:
250,10,139239,1,0,2:0:0:0:
289,2,139306,1,0,2:0:0:0:
328,5,139372,1,0,2:0:0:0:
363,24,139439,5,6,2:0:0:0:
387,54,139505,1,0,2:0:0:0:
396,93,139572,1,0,2:0:0:0:
382,130,139638,1,0,2:0:0:0:
360,163,139705,1,10,2:0:0:0:
322,176,139771,1,0,2:0:0:0:
281,173,139838,1,0,2:0:0:0:
245,155,139904,1,0,2:0:0:0:
206,142,139971,1,2,2:0:0:0:
166,144,140037,1,0,2:0:0:0:
131,164,140104,1,0,2:0:0:0:
117,201,140170,1,0,2:0:0:0:
124,240,140237,1,8,2:0:0:0:
150,269,140303,1,0,2:0:0:0:
187,283,140370,1,2,2:0:0:0:
226,279,140436,1,0,2:0:0:0:
256,252,140503,5,6,2:0:0:0:
311,93,140636,2,0,L|304:51,2,40,2|0|10,2:0|2:0|2:0,2:0:0:0:
457,176,140902,2,0,L|450:218,2,40,0|0|2,2:0|2:0|2:0,2:0:0:0:
512,310,141168,1,0,2:0:0:0:
407,348,141301,2,0,L|328:360,1,80,10|0,2:0|2:0,2:0:0:0:
289,350,141501,1,0,2:0:0:0:
255,329,141567,2,0,B|246:290|246:290|256:250,1,80,6|0,2:0|2:0,2:0:0:0:
457,176,141833,5,10,2:0:0:0:
491,154,141900,1,0,2:0:0:0:
508,118,141966,1,0,2:0:0:0:
507,78,142033,1,0,2:0:0:0:
484,45,142099,1,2,2:0:0:0:
450,24,142166,1,0,2:0:0:0:
410,21,142232,1,0,2:0:0:0:
373,37,142299,1,0,2:0:0:0:
352,71,142366,1,10,2:0:0:0:
348,110,142432,1,0,2:0:0:0:
359,149,142499,1,0,2:0:0:0:
338,183,142565,1,0,2:0:0:0:
303,202,142632,5,4,1:0:0:0:
279,198,142698,1,0,1:0:0:0:
255,195,142765,1,0,1:0:0:0:
231,191,142831,1,0,1:0:0:0:
208,188,142898,1,8,1:0:0:0:
389,251,143031,1,0,1:0:0:0:
423,230,143097,1,0,1:0:0:0:
442,195,143164,5,0,1:0:0:0:
438,171,143230,1,0,1:0:0:0:
435,147,143297,1,0,1:0:0:0:
431,123,143363,1,0,1:0:0:0:
428,100,143430,1,8,1:0:0:0:
474,307,143563,1,0,1:0:0:0:
380,373,143696,2,0,L|296:382,1,80,4|0,1:0|1:0,1:0:0:0:
272,354,143895,1,0,1:0:0:0:
247,322,143962,2,0,L|163:313,1,80,8|0,1:0|1:0,1:0:0:0:
0,148,144228,5,0,1:0:0:0:
33,125,144295,1,0,1:0:0:0:
72,117,144361,1,0,1:0:0:0:
111,126,144428,1,0,1:0:0:0:
142,150,144494,1,8,1:0:0:0:
175,173,144561,1,0,1:0:0:0:
214,181,144627,1,0,1:0:0:0:
253,172,144694,1,0,1:0:0:0:
284,148,144760,1,4,1:0:0:0:
71,219,144893,6,0,L|79:259,2,40,0|0|8,1:0|1:0|1:0,1:0:0:0:
213,79,145159,2,0,L|221:39,2,40,0|0|0,1:0|1:0|1:0,1:0:0:0:
368,87,145425,5,0,1:0:0:0:
408,84,145492,1,0,1:0:0:0:
446,95,145558,1,8,1:0:0:0:
475,123,145625,1,0,1:0:0:0:
487,161,145691,1,0,1:0:0:0:
484,201,145758,1,0,1:0:0:0:
463,235,145825,5,4,1:0:0:0:
439,230,145891,1,0,1:0:0:0:
415,226,145958,1,0,1:0:0:0:
392,221,146024,1,0,1:0:0:0:
368,217,146091,2,0,P|336:284|397:355,2,160,10|2|10,1:2|1:2|1:2,1:2:0:0:
512,28,146889,5,4,1:0:0:0:
222,303,155403,6,0,P|155:343|77:335,1,160,4|8,1:0|2:0,2:0:0:0:
0,188,155847,2,0,B|4:121|4:121|15:103|15:103|20:29,1,160,0|0,1:0|1:0,1:0:0:0:
87,0,156201,1,8,2:0:0:0:
321,65,156379,5,0,1:0:0:0:
321,65,156468,2,0,L|189:81,1,106.666666666667,2|0,2:0|1:0,2:0:0:0:
146,109,156734,2,0,P|132:166|138:220,1,106.666666666667,8|0,2:0|1:0,2:0:0:0:
168,282,157000,2,0,L|164:353,2,53.3333333333333,2|0|0,2:0|2:0|1:0,2:0:0:0:
63,232,157266,1,12,2:0:0:0:
339,323,157532,6,0,P|320:242|260:192,1,160,4|8,1:0|2:0,2:0:0:0:
176,56,157976,2,0,B|236:56|236:56|268:72|268:72|332:72,1,160,0|0,1:0|1:0,1:0:0:0:
407,72,158330,1,8,2:0:0:0:
65,15,158508,5,0,1:0:0:0:
65,15,158597,2,0,L|81:147,1,106.666666666667,2|0,2:0|1:0,2:0:0:0:
142,160,158862,2,0,L|126:292,1,106.666666666667,8|0,2:0|1:0,2:0:0:0:
73,317,159129,2,0,L|6:326,2,53.3333333333333,2|0|0,2:0|2:0|1:0,1:0:0:0:
205,277,159395,1,12,2:0:0:0:
439,317,159660,6,0,L|506:326,2,53.3333333333333,4|0|0,1:0|2:0|2:0,2:0:0:0:
374,357,159927,1,8,2:0:0:0:
333,295,160015,1,0,2:0:0:0:
395,252,160104,2,0,B|413:213|413:213|421:95,1,160,0|0,1:0|1:0,1:0:0:0:
381,32,160459,2,0,P|332:30|270:26,1,106.666666666667,12|0,2:0|1:0,1:0:0:0:
152,80,160725,6,0,L|100:89,2,53.3333333333333,2|0|0,2:0|2:0|1:0,2:0:0:0:
194,141,160991,2,0,L|246:150,2,53.3333333333333,8|0|0,2:0|2:0|1:0,2:0:0:0:
133,185,161257,1,2,2:0:0:0:
118,258,161346,1,0,2:0:0:0:
149,325,161434,1,0,1:0:0:0:
220,348,161523,2,0,L|339:327,1,106.666666666667,12|0,2:0|2:0,1:0:0:0:
424,384,161789,5,4,1:0:0:0:
441,311,161878,1,0,2:0:0:0:
411,243,161966,1,0,2:0:0:0:
342,213,162055,2,0,P|325:164|343:93,1,106.666666666667,8|0,2:0|2:0,2:0:0:0:
440,73,162321,5,2,2:0:0:0:
394,13,162410,1,0,2:0:0:0:
321,0,162498,1,0,1:0:0:0:
250,24,162587,2,0,B|199:39|199:39|138:29,1,106.666666666667,12|0,2:0|1:0,1:0:0:0:
53,116,162853,6,0,P|41:177|67:235,1,127.99999609375,2|0,1:2|1:2,1:2:0:0:
38,348,163119,6,0,P|100:359|157:333,1,127.99999609375,6|0,1:2|1:2,1:2:0:0:
284,129,163385,6,0,P|223:118|165:143,1,127.99999609375,2|0,1:2|1:2,1:2:0:0:
271,362,163652,6,0,P|281:300|256:243,1,127.99999609375,6|0,1:2|1:2,1:2:0:0:
284,129,163918,6,0,B|298:46,2,63.9999980468751,4|0|0,1:0|1:0|1:0,1:0:0:0:
317,198,164184,1,8,1:0:0:0:
388,224,164272,1,0,1:0:0:0:
464,202,164361,1,0,1:0:0:0:
495,129,164450,2,0,B|481:46,2,63.9999980468751,0|0|0,1:0|1:0|1:0,1:0:0:0:
464,202,164716,1,8,1:0:0:0:
183,215,164893,1,0,1:0:0:0:
183,215,164982,6,0,P|152:218|94:204,2,63.9999980468751,0|0|4,1:0|1:0|1:2,1:0:0:0:
196,291,165248,2,0,P|176:315|125:346,2,63.9999980468751,8|0|4,1:0|1:0|1:0,1:0:0:0:
268,317,165514,2,0,P|271:348|257:406,2,63.9999980468751,0|0|4,1:0|1:0|1:0,1:0:0:0:
256,242,165780,1,12,1:0:0:0:
115,48,166046,6,0,B|51:48,2,63.9999980468751,4|0|0,1:0|1:0|1:0,1:0:0:0:
189,68,166312,1,8,1:0:0:0:
261,94,166401,1,0,1:0:0:0:
337,72,166490,1,0,1:0:0:0:
407,48,166578,2,0,B|487:46,2,63.9999980468751,0|0|0,1:0|1:0|1:0,1:0:0:0:
337,72,166844,1,8,1:0:0:0:
256,320,167022,1,0,1:0:0:0:
256,320,167111,6,0,L|256:386,2,63.9999980468751,0|0|4,1:0|1:0|1:0,1:0:0:0:
184,295,167377,1,8,1:0:0:0:
158,222,167466,1,0,1:0:0:0:
185,149,167555,1,0,1:2:0:0:
256,119,167643,1,4,1:0:0:0:
327,149,167732,1,0,1:2:0:0:
354,222,167821,1,4,1:0:0:0:
328,295,167909,1,12,1:0:0:0:
109,383,168175,6,0,P|142:379|172:380,2,63.9999980468751,0|0|4,1:0|1:0|1:0,1:0:0:0:
45,339,168441,1,8,1:0:0:0:
13,269,168529,1,0,1:0:0:0:
45,201,168618,1,0,1:0:0:0:
86,134,168707,2,0,P|90:101|89:71,2,63.9999980468751,0|0|0,1:0|1:0|1:0,1:0:0:0:
45,201,168973,1,8,1:0:0:0:
426,134,169150,1,0,1:0:0:0:
426,134,169239,6,0,P|422:101|423:71,2,63.9999980468751,0|0|4,1:0|1:0|1:0,1:0:0:0:
467,201,169505,2,0,P|471:234|470:264,2,63.9999980468751,8|0|4,1:0|1:0|1:0,1:0:0:0:
389,201,169771,1,0,1:0:0:0:
314,179,169860,1,0,1:0:0:0:
299,103,169949,1,4,1:2:0:0:
350,47,170037,1,12,1:0:0:0:
427,330,170215,1,0,1:0:0:0:
360,367,170303,6,0,B|324:381|297:377,2,63.9999980468751,4|0|0,1:0|1:0|1:0,1:0:0:0:
427,330,170570,2,0,B|463:316|489:319,2,63.9999980468751,8|0|0,1:0|1:0|1:0,1:0:0:0:
372,275,170836,1,0,1:0:0:0:
304,239,170924,1,0,1:0:0:0:
226,239,171013,1,0,1:0:0:0:
171,293,171102,2,0,B|181:355,2,63.9999980468751,12|0|0,1:0|1:0|1:0,1:0:0:0:
99,321,171368,2,0,B|88:383,2,63.9999980468751,4|0|4,1:0|1:2|1:0,1:0:0:0:
33,280,171634,5,8,1:0:0:0:
19,204,171723,1,0,1:0:0:0:
55,136,171811,1,4,1:2:0:0:
128,111,171900,1,4,1:2:0:0:
201,134,171989,1,0,1:0:0:0:
275,153,172077,1,0,1:0:0:0:
340,111,172166,2,0,P|394:77|458:74,1,127.99999609375,12|0,1:0|1:0,1:0:0:0:
433,203,172432,6,0,P|466:209|498:224,2,69.3333301595054,4|0|0,1:0|1:0|1:0,1:0:0:0:
373,262,172698,1,8,1:0:0:0:
334,336,172787,1,0,1:0:0:0:
260,370,172876,1,0,1:0:0:0:
178,357,172964,2,0,P|147:344|100:332,2,69.3333301595054,0|0|0,1:0|1:0|1:0,1:0:0:0:
260,370,173230,1,8,1:0:0:0:
260,14,173408,1,0,1:0:0:0:
195,63,173496,6,0,B|146:112,2,69.3333301595054,0|0|4,1:0|1:0|1:2,1:0:0:0:
256,120,173762,2,0,B|256:192,2,69.3333301595054,8|0|4,1:0|1:0|1:2,1:0:0:0:
317,63,174029,2,0,B|365:112,2,69.3333301595054,0|0|4,1:0|1:0|1:2,1:0:0:0:
260,14,174295,1,12,1:0:0:0:
48,204,174561,6,0,B|19:185|-5:141,2,69.3333301595054,4|0|0,1:0|1:0|1:0,1:0:0:0:
130,189,174827,1,12,1:0:0:0:
199,232,174915,1,0,1:0:0:0:
224,316,175004,1,0,1:0:0:0:
165,376,175093,2,0,B|84:386,2,69.3333301595054,4|0|4,1:0|1:0|1:0,1:0:0:0:
224,316,175359,1,8,1:0:0:0:
512,192,175536,1,0,1:0:0:0:
439,150,175625,6,0,L|439:51,2,69.3333301595054,4|0|4,1:0|1:0|1:0,1:0:0:0:
439,234,175891,2,0,L|439:333,2,69.3333301595054,8|0|0,1:0|1:0|1:0,1:0:0:0:
366,192,176157,1,4,1:0:0:0:
312,129,176245,1,4,1:0:0:0:
256,192,176334,1,4,1:0:0:0:
312,253,176422,1,12,1:0:0:0:
71,41,176689,6,0,B|107:47|107:47|144:41,2,74.6666643880209,4|0|0,1:0|1:0|1:0,1:0:0:0:
24,108,176955,1,12,1:0:0:0:
36,189,177044,1,0,1:0:0:0:
109,237,177133,1,0,1:0:0:0:
183,209,177221,2,0,L|256:191,2,74.6666643880209,4|0|0,1:0|1:0|1:0,1:0:0:0:
109,237,177487,1,12,1:0:0:0:
441,41,177665,1,0,1:0:0:0:
441,41,177754,6,0,B|405:47|405:47|368:41,2,74.6666643880209,4|0|0,1:0|1:0|1:0,1:0:0:0:
438,123,178020,2,0,B|474:117|474:117|511:123,2,74.6666643880209,12|0|0,1:0|1:0|1:0,1:0:0:0:
255,191,178286,6,0,L|214:186,1,37.3333321940105,12|0,1:0|1:0,1:0:0:0:
242,261,178374,6,0,L|201:256,1,37.3333321940105,8|0,1:0|1:0,1:0:0:0:
229,331,178463,6,0,L|188:326,1,37.3333321940105,8|0,1:0|1:0,1:0:0:0:
292,364,178552,6,0,P|361:345|392:279,1,149.333328776042,12|0,1:0|1:0,1:0:0:0:
470,221,178818,5,4,1:0:0:0:
439,196,178884,1,0,1:0:0:0:
400,185,178951,1,0,1:0:0:0:
361,190,179017,1,0,1:0:0:0:
327,212,179084,1,8,1:0:0:0:
296,237,179150,1,0,1:0:0:0:
257,248,179217,1,0,1:0:0:0:
218,243,179283,1,0,1:0:0:0:
184,221,179350,1,4,1:0:0:0:
173,182,179417,1,0,1:0:0:0:
186,144,179483,1,0,1:0:0:0:
219,121,179550,1,0,1:0:0:0:
259,120,179616,1,8,1:0:0:0:
298,129,179683,1,0,1:0:0:0:
331,108,179749,1,0,1:0:0:0:
341,69,179816,1,0,1:0:0:0:
330,31,179882,5,4,1:0:0:0:
368,44,179949,1,0,1:0:0:0:
407,48,180015,1,0,1:0:0:0:
446,37,180082,1,0,1:0:0:0:
485,46,180148,1,8,1:0:0:0:
507,80,180215,1,0,1:0:0:0:
508,120,180281,1,0,1:0:0:0:
479,148,180348,1,0,1:0:0:0:
440,142,180414,1,6,1:2:0:0:
396,151,180481,1,2,1:2:0:0:
366,182,180547,1,2,1:2:0:0:
360,226,180614,1,2,1:2:0:0:
376,266,180680,1,10,1:2:0:0:
411,294,180747,1,2,1:2:0:0:
455,295,180813,1,2,1:2:0:0:
495,275,180880,1,2,1:2:0:0:
510,234,180946,5,6,1:2:0:0:
256,113,189461,5,4,1:0:0:0:
259,188,189594,5,2,2:0:0:0:
186,231,189727,1,0,2:0:0:0:
186,152,189860,1,0,2:0:0:0:
256,112,189993,1,2,2:0:0:0:
325,152,190126,1,0,2:0:0:0:
325,231,190259,1,2,2:0:0:0:
256,271,190392,1,0,2:0:0:0:
186,152,190658,5,2,2:0:0:0:
186,72,190791,1,0,2:0:0:0:
116,32,190924,1,0,2:0:0:0:
47,72,191057,2,0,P|32:135|48:192,2,120,2|2|2,2:0|2:0|2:0,1:0:0:0:
325,231,191723,5,2,2:0:0:0:
325,152,191856,1,0,2:0:0:0:
256,112,191989,1,0,2:0:0:0:
186,152,192122,1,2,2:0:0:0:
186,231,192255,1,0,2:0:0:0:
256,271,192388,1,2,2:0:0:0:
325,231,192521,1,0,2:0:0:0:
325,152,192654,6,0,L|448:132,2,120,2|2|2,2:0|2:0|2:0,2:0:0:0:
187,152,193186,2,0,L|64:132,2,120,2|2|2,2:0|2:0|2:0,2:0:0:0:
409,332,193851,5,2,2:0:0:0:
465,276,193984,1,0,2:0:0:0:
444,200,194117,1,0,2:0:0:0:
367,178,194250,1,2,2:0:0:0:
311,234,194383,1,0,2:0:0:0:
333,311,194516,1,2,2:0:0:0:
388,255,194649,1,0,2:0:0:0:
102,51,194915,5,2,2:0:0:0:
46,107,195048,1,0,2:0:0:0:
67,183,195181,1,0,2:0:0:0:
144,205,195315,2,0,L|266:182,2,120,2|2|2,2:0|2:0|2:0,1:0:0:0:
464,98,195980,5,2,2:0:0:0:
381,53,196113,1,0,2:0:0:0:
308,111,196246,1,0,2:0:0:0:
343,200,196379,1,2,2:0:0:0:
436,187,196512,1,0,2:0:0:0:
483,269,196645,1,2,2:0:0:0:
414,333,196778,1,0,2:0:0:0:
328,294,196911,6,0,B|302:275|302:275|214:275,2,120,2|2|2,2:0|2:0|2:0,2:0:0:0:
414,333,197443,2,0,B|440:352|440:352|528:352,2,120,2|2|2,2:0|2:0|2:0,2:0:0:0:
245,375,197975,5,2,2:0:0:0:
213,380,198042,1,0,2:0:0:0:
181,381,198108,1,0,2:0:0:0:
151,369,198175,1,0,2:0:0:0:
126,348,198241,1,0,2:0:0:0:
109,320,198308,1,0,2:0:0:0:
99,289,198374,1,0,2:0:0:0:
98,256,198441,1,0,2:0:0:0:
110,227,198507,1,2,2:0:0:0:
128,200,198574,1,0,2:0:0:0:
154,183,198640,1,0,2:0:0:0:
184,172,198707,1,0,2:0:0:0:
216,169,198774,1,0,2:0:0:0:
246,176,198840,1,0,2:0:0:0:
274,191,198907,1,0,2:0:0:0:
295,214,198973,1,0,2:0:0:0:
306,244,199040,6,0,P|229:252|170:278,1,140,2|0,2:0|2:1,2:0:0:0:
109,320,199572,5,2,2:0:0:0:
22,226,199705,1,2,2:0:0:0:
49,101,199838,1,12,1:0:0:0:
171,59,199971,1,2,2:0:0:0:
274,146,200104,5,4,1:0:0:0:
311,159,200170,1,0,1:0:0:0:
351,159,200237,1,0,1:0:0:0:
385,139,200303,1,0,1:0:0:0:
421,123,200370,1,8,1:0:0:0:
460,123,200436,1,0,1:0:0:0:
493,145,200503,1,0,1:0:0:0:
500,184,200570,1,0,1:0:0:0:
483,220,200636,6,0,L|443:214,3,40,0|0|0|0,1:0|1:0|1:0|1:0,1:0:0:0:
406,297,200902,2,0,L|445:291,3,40,8|0|0|0,1:0|1:0|1:0|1:0,1:0:0:0:
511,332,201168,5,0,1:0:0:0:
485,362,201235,1,0,1:0:0:0:
451,382,201301,1,0,1:0:0:0:
411,383,201368,1,0,1:0:0:0:
373,370,201434,1,8,1:0:0:0:
344,342,201501,1,0,1:0:0:0:
306,331,201567,1,0,1:0:0:0:
266,328,201634,1,0,1:0:0:0:
228,339,201700,1,0,1:0:0:0:
231,299,201767,1,0,1:0:0:0:
218,261,201833,1,0,1:0:0:0:
193,229,201900,1,0,1:0:0:0:
157,213,201966,1,8,1:0:0:0:
127,186,202033,1,0,1:0:0:0:
115,148,202099,1,0,1:0:0:0:
125,109,202166,1,0,1:0:0:0:
151,79,202232,6,0,L|193:76,3,40,0|0|0|0,1:0|1:0|1:0|1:0,1:0:0:0:
289,70,202499,6,0,L|292:112,3,40,8|0|0|0,1:0|1:0|1:0|1:0,1:0:0:0:
294,207,202765,6,0,L|252:210,3,40,0|0|0|0,1:0|1:0|1:0|1:0,1:0:0:0:
157,213,203031,6,0,L|154:171,3,40,8|0|0|0,1:0|1:0|1:0|1:0,1:0:0:0:
151,79,203297,6,0,P|56:192|151:305,1,320,0|0,1:0|1:0,1:0:0:0:
225,277,203962,6,0,L|223:257,4,20,0|0|0|0|0,1:0|1:0|1:0|1:0|1:0,1:0:0:0:
378,345,204228,1,0,1:0:0:0:
376,364,204294,1,0,1:0:0:0:
374,383,204361,5,6,1:0:0:0:
418,383,204428,1,0,1:0:0:0:
459,372,204494,1,0,1:0:0:0:
486,337,204561,1,0,1:0:0:0:
497,295,204627,1,8,1:0:0:0:
490,252,204694,1,0,1:0:0:0:
464,217,204760,1,0,1:0:0:0:
422,204,204827,1,0,1:0:0:0:
378,205,204893,1,0,1:0:0:0:
340,226,204960,1,0,1:0:0:0:
297,225,205026,1,0,1:0:0:0:
256,210,205093,1,0,1:0:0:0:
230,175,205159,1,10,1:0:0:0:
226,131,205226,1,0,1:0:0:0:
249,95,205292,1,0,1:0:0:0:
288,76,205359,1,0,1:0:0:0:
331,75,205425,6,0,L|430:88,1,95.9999970703126,2|0,1:0|1:0,1:0:0:0:
461,120,205625,1,0,1:0:0:0:
471,166,205691,2,0,P|476:210|475:262,1,95.9999970703126,8|0,1:0|1:0,1:0:0:0:
123,362,205958,2,0,L|222:349,1,95.9999970703126,2|0,1:0|1:0,1:0:0:0:
253,316,206157,1,0,1:0:0:0:
301,320,206224,2,0,P|296:276|297:224,1,95.9999970703126,10|2,1:0|1:0,1:0:0:0:
124,110,206490,5,6,1:0:0:0:
377,172,206623,1,0,1:0:0:0:
377,172,206689,1,2,1:0:0:0:
377,172,206756,2,0,P|427:162|484:170,1,95.9999970703126,10|0,1:0|1:0,1:0:0:0:
208,255,207022,2,0,P|158:265|100:257,1,95.9999970703126,6|0,1:0|1:0,1:0:0:0:
35,129,207288,1,10,1:0:0:0:
23,88,207354,1,0,1:0:0:0:
32,45,207421,1,0,1:0:0:0:
68,21,207487,1,0,1:0:0:0:
111,14,207554,6,0,L|124:114,1,95.9999970703126,6|0,1:0|1:0,1:0:0:0:
239,151,207820,2,0,L|252:50,1,95.9999970703126,8|0,1:0|1:0,1:0:0:0:
471,4,208086,2,0,P|422:59|429:132,2,143.999995605469,4|4|4,1:0|1:0|1:0,1:0:0:0:
512,212,208618,5,6,1:0:0:0:
471,237,208685,1,0,1:0:0:0:
424,242,208751,1,0,1:0:0:0:
376,233,208818,1,0,1:0:0:0:
338,203,208884,1,8,1:0:0:0:
309,164,208951,1,0,1:0:0:0:
271,135,209017,1,0,1:0:0:0:
227,115,209084,1,0,1:0:0:0:
180,120,209150,1,0,1:0:0:0:
140,147,209217,1,0,1:0:0:0:
127,192,209283,1,0,1:0:0:0:
135,239,209350,1,0,1:0:0:0:
173,269,209417,1,10,1:0:0:0:
220,273,209483,1,0,1:0:0:0:
262,296,209550,1,0,1:0:0:0:
270,342,209616,1,0,1:0:0:0:
243,381,209683,6,0,L|132:371,1,111.999996582031,2|0,1:0|1:0,1:0:0:0:
101,324,209882,1,0,1:0:0:0:
47,306,209949,2,0,P|51:257|30:188,1,111.999996582031,10|0,1:0|1:0,1:0:0:0:
385,48,210215,2,0,P|394:100|363:154,1,111.999996582031,2|0,1:0|1:0,1:0:0:0:
323,184,210414,1,0,1:0:0:0:
323,184,210481,2,0,L|212:194,1,111.999996582031,10|0,1:0|1:0,1:0:0:0:
3,55,210747,5,2,1:0:0:0:
43,79,210813,1,0,1:0:0:0:
91,78,210880,1,0,1:0:0:0:
133,57,210946,1,0,1:0:0:0:
166,22,211013,1,8,1:0:0:0:
207,0,211079,1,0,1:0:0:0:
255,2,211146,1,0,1:0:0:0:
296,26,211213,1,0,1:0:0:0:
337,49,211279,1,0,1:0:0:0:
385,48,211346,1,0,1:0:0:0:
430,33,211412,6,0,P|426:95|431:147,1,111.999996582031,2|10,1:0|1:0,1:0:0:0:
230,96,211678,1,2,1:0:0:0:
93,299,211811,2,0,P|149:294|205:299,1,111.999996582031,2|0,1:0|1:0,1:0:0:0:
509,334,212077,5,10,1:0:0:0:
450,381,212166,1,0,1:0:0:0:
375,380,212255,1,0,1:0:0:0:
315,335,212343,2,0,L|303:222,1,111.999996582031,0|0,1:0|1:0,1:0:0:0:
256,192,212543,1,0,1:0:0:0:
209,161,212609,2,0,L|221:48,1,111.999996582031,8|0,1:0|1:0,1:0:0:0:
398,2,212875,5,6,1:0:0:0:
448,0,212942,1,0,1:0:0:0:
488,30,213009,1,0,1:0:0:0:
507,76,213075,1,0,1:0:0:0:
503,127,213142,1,8,1:0:0:0:
473,167,213208,1,0,1:0:0:0:
427,187,213275,1,0,1:0:0:0:
377,185,213341,1,0,1:0:0:0:
330,165,213408,1,0,1:0:0:0:
287,138,213474,1,0,1:0:0:0:
237,140,213541,1,0,1:0:0:0:
190,156,213607,1,0,1:0:0:0:
160,196,213674,6,0,B|153:252|153:252|179:303,1,111.999996582031,10|0,1:0|1:0,1:0:0:0:
222,335,213873,1,0,1:0:0:0:
275,355,213940,2,0,L|410:341,1,111.999996582031,6|0,1:0|1:0,1:0:0:0:
512,26,214206,2,0,P|493:77|487:136,1,111.999996582031,10|0,1:0|1:0,1:0:0:0:
461,184,214405,1,0,1:0:0:0:
413,213,214472,2,0,P|355:220|303:206,1,111.999996582031,6|0,1:0|1:0,1:0:0:0:
169,145,214738,5,10,1:0:0:0:
379,110,214871,1,0,1:0:0:0:
379,110,214938,1,0,1:0:0:0:
379,110,215004,2,0,P|386:52|372:0,1,111.999996582031,6|0,1:0|1:0,1:0:0:0:
304,206,215270,5,10,1:0:0:0:
94,241,215403,1,0,1:0:0:0:
94,241,215470,1,0,1:0:0:0:
94,241,215536,2,0,P|87:299|101:351,1,111.999996582031,6|0,1:0|1:0,1:0:0:0:
169,38,215802,5,10,1:0:0:0:
125,13,215869,1,0,1:0:0:0:
75,13,215935,1,0,1:0:0:0:
34,42,216002,1,0,1:0:0:0:
18,89,216068,2,0,L|136:109,1,111.999996582031,6|0,1:0|1:0,1:0:0:0:
494,89,216334,2,0,L|383:108,1,111.999996582031,12|0,1:0|1:0,1:0:0:0:
506,258,216601,5,6,1:0:0:0:
379,384,216734,1,0,1:0:0:0:
203,346,216867,1,12,1:0:0:0:
198,167,217000,1,0,1:0:0:0:
383,108,217133,6,0,P|395:162|385:217,1,111.999996582031,6|0,1:0|1:0,1:0:0:0:
352,261,217332,1,0,1:0:0:0:
298,274,217399,2,0,L|188:255,1,111.999996582031,8|0,1:0|1:0,1:0:0:0:
1,365,217665,2,0,L|111:384,1,111.999996582031,0|0,1:0|1:0,1:0:0:0:
203,346,217931,5,10,1:0:0:0:
84,194,218064,1,2,1:0:0:0:
218,55,218197,1,2,1:0:0:0:
377,102,218330,5,0,1:0:0:0:
322,111,218396,1,0,1:0:0:0:
267,121,218463,1,10,1:0:0:0:
31,3,218596,5,0,1:0:0:0:
86,12,218662,1,0,1:0:0:0:
141,22,218729,1,2,1:0:0:0:
67,148,218862,5,0,1:0:0:0:
67,148,218929,1,0,1:0:0:0:
67,148,218995,2,0,P|61:177|59:213,3,55.9999982910157,10|0|0|0,1:0|1:0|1:0|1:0,1:0:0:0:
102,240,219261,6,0,P|157:239|209:260,1,111.999996582031,2|0,1:0|1:0,1:0:0:0:
256,289,219460,1,0,1:0:0:0:
304,260,219527,2,0,P|356:239|411:240,1,111.999996582031,8|0,1:0|1:0,1:0:0:0:
493,58,219793,1,0,1:0:0:0:
457,89,219860,1,0,1:0:0:0:
410,97,219927,1,2,1:0:0:0:
364,87,219993,1,0,1:0:0:0:
334,49,220060,1,10,1:0:0:0:
290,32,220126,1,0,1:0:0:0:
242,32,220193,1,2,1:0:0:0:
200,54,220259,1,0,1:0:0:0:
182,99,220326,6,0,B|190:231,1,111.999996582031,2|0,1:0|1:0,1:0:0:0:
216,259,220525,1,0,1:0:0:0:
187,307,220592,2,0,B|107:298,2,74.6666643880209,10|0|0,1:0|1:0|1:0,1:0:0:0:
290,373,220858,2,0,B|408:359,1,111.999996582031,0|0,1:0|1:0,1:0:0:0:
447,328,221057,1,0,1:0:0:0:
447,328,221124,2,0,B|464:275|464:275|447:216,1,111.999996582031,8|0,1:0|1:0,1:0:0:0:
192,79,221390,5,6,1:0:0:0:
230,46,221456,1,0,1:0:0:0:
280,39,221523,1,0,1:0:0:0:
328,50,221589,1,0,1:0:0:0:
360,89,221656,2,0,L|360:145,3,55.9999982910157,10|0|0|0,1:0|1:0|1:0|1:0,1:0:0:0:
315,179,221922,2,0,B|298:232|298:232|315:291,1,111.999996582031,2|0,1:0|1:0,1:0:0:0:
114,378,222188,2,0,B|-4:364,1,111.999996582031,10|2,1:0|1:0,1:0:0:0:
2,309,222388,1,0,1:0:0:0:
36,266,222454,2,0,P|44:202|33:144,1,111.999996582031,2|0,1:0|1:0,1:0:0:0:
176,45,222720,5,8,1:0:0:0:
217,70,222787,1,0,1:0:0:0:
264,78,222853,1,0,1:0:0:0:
310,63,222920,1,0,1:0:0:0:
352,40,222986,2,0,P|407:31|458:53,1,111.999996582031,2|0,1:0|1:0,1:0:0:0:
491,98,223186,1,0,1:0:0:0:
504,152,223252,2,0,L|477:264,1,111.999996582031,10|2,1:0|1:0,1:0:0:0:
168,285,223519,6,0,P|216:338|368:313,1,223.999993164063,6|8,1:0|1:0,1:0:0:0:
28,374,223918,1,0,1:0:0:0:
28,374,223984,1,0,1:0:0:0:
28,374,224051,2,0,L|1:262,1,111.999996582031,6|0,1:0|1:0,1:0:0:0:
278,230,224317,1,8,1:0:0:0:
306,191,224383,1,0,1:0:0:0:
314,143,224450,1,0,1:0:0:0:
299,98,224516,1,0,1:0:0:0:
265,64,224583,6,0,P|209:63|153:60,1,111.999996582031,6|0,1:0|1:0,1:0:0:0:
338,339,224849,2,0,P|394:338|450:335,1,111.999996582031,8|0,1:0|1:0,1:0:0:0:
431,38,225115,2,0,P|490:94|487:175,2,167.999994873047,4|4|4,1:0|1:0|1:0,1:0:0:0:
94,348,225647,6,0,B|77:295|77:295|96:239,1,111.999996582031,6|0,1:0|1:0,1:0:0:0:
141,209,225846,1,0,1:0:0:0:
194,191,225913,2,0,L|311:191,1,111.999996582031,8|0,1:0|1:0,1:0:0:0:
387,130,226179,5,0,1:0:0:0:
363,295,226312,1,2,1:0:0:0:
462,10,226445,5,10,1:0:0:0:
486,175,226578,1,2,1:0:0:0:
309,56,226711,5,2,1:0:0:0:
267,80,226778,1,0,1:0:0:0:
219,80,226844,1,0,1:0:0:0:
173,64,226911,1,0,1:0:0:0:
141,29,226977,1,10,1:0:0:0:
95,13,227044,1,0,1:0:0:0:
48,18,227110,1,0,1:0:0:0:
18,55,227177,1,0,1:0:0:0:
23,102,227243,1,2,1:0:0:0:
61,131,227310,1,0,1:0:0:0:
108,128,227376,1,0,1:0:0:0:
151,151,227443,1,0,1:0:0:0:
173,193,227509,2,0,L|165:253,3,55.9999982910157,10|0|0|0,1:0|1:0|1:0|1:0,1:0:0:0:
144,291,227775,6,0,P|90:284|33:285,1,111.999996582031,2|0,1:0|1:0,1:0:0:0:
8,239,227975,1,0,1:0:0:0:
8,239,228041,2,0,P|-2:182|11:131,1,111.999996582031,8|0,1:0|1:0,1:0:0:0:
156,21,228308,1,0,1:0:0:0:
191,54,228375,1,0,1:0:0:0:
238,62,228442,1,2,1:0:0:0:
285,53,228508,1,0,1:0:0:0:
318,18,228575,1,10,1:0:0:0:
362,0,228641,1,0,1:0:0:0:
410,1,228708,1,2,1:0:0:0:
451,24,228774,1,0,1:0:0:0:
468,68,228840,5,2,1:0:0:0:
474,267,228973,1,0,1:0:0:0:
422,245,229040,1,0,1:0:0:0:
371,223,229106,2,0,P|377:186|376:128,2,74.6666643880209,10|0|0,1:0|1:0|1:0,1:0:0:0:
272,307,229372,2,0,P|216:302|165:323,1,111.999996582031,2|0,1:0|1:0,1:0:0:0:
114,344,229572,1,0,1:0:0:0:
61,326,229638,2,0,P|67:270|67:214,1,111.999996582031,10|0,1:0|1:0,1:0:0:0:
109,41,229904,5,6,1:0:0:0:
147,7,229971,1,0,1:0:0:0:
196,0,230037,1,0,1:0:0:0:
244,14,230104,1,0,1:0:0:0:
279,49,230170,1,8,1:0:0:0:
280,100,230237,1,0,1:0:0:0:
260,146,230303,1,0,1:0:0:0:
214,169,230370,1,0,1:0:0:0:
164,170,230436,6,0,L|173:115,3,55.9999982910157,2|0|2|0,1:0|1:0|1:0|1:0,1:0:0:0:
65,214,230703,2,0,L|74:269,3,55.9999982910157,10|0|2|0,1:0|1:0|1:0|1:0,1:0:0:0:
85,316,230969,5,6,1:0:0:0:
118,350,231035,1,0,1:0:0:0:
165,358,231102,1,0,1:0:0:0:
211,345,231168,1,0,1:0:0:0:
243,309,231235,1,8,1:0:0:0:
283,283,231301,1,0,1:0:0:0:
330,274,231368,1,2,1:0:0:0:
376,284,231434,1,0,1:0:0:0:
417,309,231501,1,6,1:0:0:0:
417,262,231567,1,0,1:0:0:0:
455,232,231634,1,0,1:0:0:0:
495,207,231700,1,0,1:0:0:0:
508,160,231767,1,10,1:0:0:0:
503,113,231833,1,0,1:0:0:0:
472,76,231900,1,2,1:0:0:0:
426,64,231966,1,0,1:0:0:0:
379,76,232033,6,0,P|381:103|386:131,3,55.9999982910157,6|0|0|0,1:0|1:0|1:0|1:0,1:0:0:0:
133,76,232299,6,0,P|130:103|125:131,3,55.9999982910157,10|0|0|0,1:0|1:0|1:0|1:0,1:0:0:0:
422,103,232565,6,0,P|430:128|442:154,3,55.9999982910157,2|0|0|0,1:0|1:0|1:0|1:0,1:0:0:0:
90,103,232831,6,0,P|81:128|69:154,3,55.9999982910157,10|0|2|0,1:0|1:0|1:0|1:0,1:0:0:0:
29,186,233097,5,4,1:0:0:0:
2,229,233164,1,0,1:0:0:0:
2,279,233230,1,0,1:0:0:0:
26,323,233297,1,0,1:0:0:0:
69,347,233363,1,8,1:0:0:0:
119,342,233430,1,0,1:0:0:0:
162,317,233496,1,0,1:0:0:0:
186,272,233563,1,0,1:0:0:0:
188,222,233629,1,4,1:0:0:0:
159,180,233696,1,0,1:0:0:0:
157,130,233762,1,0,1:0:0:0:
177,83,233829,1,0,1:0:0:0:
220,58,233895,1,8,1:0:0:0:
270,59,233962,1,0,1:0:0:0:
317,77,234029,1,0,1:0:0:0:
335,123,234095,1,0,1:0:0:0:
332,173,234162,5,4,1:0:0:0:
379,156,234228,1,0,1:0:0:0:
429,161,234295,1,0,1:0:0:0:
471,187,234361,1,0,1:0:0:0:
498,229,234428,1,8,1:0:0:0:
496,279,234494,1,0,1:0:0:0:
476,325,234561,1,0,1:0:0:0:
429,344,234627,1,0,1:0:0:0:
381,362,234694,1,4,1:0:0:0:
339,334,234760,1,0,1:0:0:0:
295,308,234827,1,0,1:0:0:0:
245,301,234893,1,0,1:0:0:0:
194,308,234960,1,8,1:0:0:0:
169,351,235026,1,0,1:0:0:0:
121,368,235093,1,0,1:0:0:0:
71,364,235159,1,0,1:0:0:0:
38,325,235226,6,0,L|48:206,2,111.999996582031,4|0|8,1:0|1:0|1:0,1:0:0:0:
159,142,235625,1,0,1:0:0:0:
155,92,235691,1,0,1:0:0:0:
127,50,235758,6,0,L|8:60,2,111.999996582031,4|0|8,1:0|1:0|1:0,1:0:0:0:
246,254,236157,1,0,1:0:0:0:
242,304,236223,1,0,1:0:0:0:
214,346,236290,5,6,1:2:0:0:
269,336,236357,1,2,1:2:0:0:
324,343,236423,1,2,1:2:0:0:
375,366,236490,1,2,1:2:0:0:
427,384,236556,1,14,1:2:0:0:
478,361,236623,1,2,1:2:0:0:
504,312,236689,1,2,1:2:0:0:
497,256,236756,1,2,1:2:0:0:
451,224,236822,1,6,1:2:0:0:
394,226,236889,1,2,1:2:0:0:
343,249,236955,1,2,1:2:0:0:
288,235,237022,1,2,1:2:0:0:
261,186,237088,1,14,1:2:0:0:
264,129,237155,1,2,1:2:0:0:
305,91,237221,1,2,1:2:0:0:
362,88,237288,1,2,1:2:0:0:
409,118,237354,5,6,1:2:0:0:
256,192,237421,12,2,239217,1:2:0:0:
74,10,239483,5,6,1:0:0:0:
94,62,239550,1,0,1:0:0:0:
143,86,239616,1,0,1:0:0:0:
197,92,239683,1,0,1:0:0:0:
249,76,239749,1,0,1:0:0:0:
292,41,239816,1,0,1:0:0:0:
340,17,239882,1,0,1:0:0:0:
395,16,239949,1,0,1:0:0:0:
448,29,240015,1,0,1:0:0:0:
492,62,240082,1,0,1:0:0:0:
508,114,240148,1,0,1:0:0:0:
499,168,240215,1,0,1:0:0:0:
474,216,240281,1,0,1:0:0:0:
425,242,240348,1,0,1:0:0:0:
371,234,240414,1,0,1:0:0:0:
322,209,240481,1,0,1:0:0:0:
285,170,240547,5,2,1:0:0:0:
270,223,240614,1,0,1:0:0:0:
282,276,240680,1,2,1:0:0:0:
318,318,240747,1,0,1:0:0:0:
319,372,240813,1,2,1:0:0:0:
267,352,240880,1,0,1:0:0:0:
213,344,240946,1,2,1:0:0:0:
160,360,241013,1,0,1:0:0:0:
110,384,241080,1,2,1:0:0:0:
62,379,241146,1,2,1:2:0:0:
19,355,241213,1,2,1:2:0:0:
3,309,241279,1,2,1:2:0:0:
9,260,241346,1,2,1:2:0:0:
46,229,241412,1,2,1:2:0:0:
95,221,241479,1,2,1:2:0:0:
139,242,241545,1,2,1:2:0:0:
160,287,241612,5,6,1:2:0:0:
