osu file format v14

[General]
AudioFilename: audio.mp3
AudioLeadIn: 0
PreviewTime:46283
Countdown: 0
SampleSet: Soft
StackLeniency: 0.5
Mode: 0
LetterboxInBreaks: 0
WidescreenStoryboard: 1

[Editor]
Bookmarks:102558
DistanceSpacing: 0.5
BeatDivisor: 4
GridSize: 4
TimelineZoom: 2.1

[Metadata]
Title:Glorious Crown
TitleUnicode:Glorious Crown
Artist:xi
ArtistUnicode:xi
Creator:Anxient
Version:toybot's INSANE
Source:maimai PiNK
Tags:Electronic Instrumental Video Games freedom dive sequel deathstream snownino_ happy hardcore lama poluna toybot
BeatmapID:1049287
BeatmapSetID:460515

[Difficulty]
HPDrainRate:6
CircleSize:4
OverallDifficulty:7
ApproachRate:9
SliderMultiplier:1.35
SliderTickRate:1

[Events]
//Background and Video events
0,0,"bg.jpg",0,0
//Break Periods
//Storyboard Layer 0 (Background)
//Storyboard Layer 1 (Fail)
//Storyboard Layer 2 (Pass)
//Storyboard Layer 3 (Foreground)
//Storyboard Layer 4 (Overlay)
//Storyboard Sound Samples

[TimingPoints]
-14,266.075388026608,4,2,1,80,1,0
12757,-133.333333333333,4,2,1,80,0,0
20207,-111.111111111111,4,2,1,80,0,0
28722,-133.333333333333,4,2,1,80,0,0
29387,-100,4,2,1,80,0,0
38034,-80,4,2,1,80,0,0
38300,-100,4,2,1,80,0,0
38833,-111.111111111111,4,2,1,80,0,0
39365,-125,4,2,1,80,0,0
40429,-100,4,2,1,80,0,0
46549,-80,4,2,1,80,0,0
46815,-100,4,2,1,80,0,1
64908,-100,4,2,1,80,0,0
77680,-80,4,2,1,80,0,0
79808,-100,4,2,1,80,0,0
84065,-100,4,2,1,5,0,0
86327,-133.333333333333,4,2,2,50,0,0
91515,-200,4,2,1,50,0,0
92314,-200,4,2,1,80,0,0
92580,-100,4,2,1,70,0,0
96571,-80,4,2,1,70,0,0
96837,-100,4,2,1,80,0,1
117059,-133.333333333333,4,2,1,80,0,0
117192,-133.333333333333,4,2,1,20,0,0

[Colours]
Combo1 : 251,228,153
Combo2 : 237,156,84
Combo3 : 131,87,247
Combo4 : 193,218,232

[HitObjects]
163,216,1050,6,0,P|172:183|166:150,1,67.5,6|0,2:0|2:0,2:0:0:0:
88,180,1316,1,0,2:0:0:0:
136,296,1449,2,0,L|288:280,1,135,2|0,2:0|2:0,2:0:0:0:
360,204,1848,2,0,L|272:192,1,67.5,2|0,2:0|2:0,2:0:0:0:
216,144,2114,5,0,2:0:0:0:
292,66,2247,2,0,B|311:105|311:105|291:197,1,135,2|0,2:0|2:0,2:0:0:0:
149,157,2646,2,0,L|216:144,1,67.5,2|0,2:0|2:0,2:0:0:0:
216,144,2846,1,0,2:0:0:0:
216,144,2912,1,2,2:0:0:0:
360,204,3178,6,0,L|348:112,1,67.5,2|0,2:0|2:0,2:0:0:0:
328,284,3444,1,0,2:0:0:0:
244,272,3578,2,0,B|164:264|200:300|112:292,1,135,2|0,2:0|2:0,2:0:0:0:
224,352,3977,2,0,P|268:360|308:372,1,67.5,2|0,2:0|2:0,2:0:0:0:
113,292,4243,5,0,2:0:0:0:
124,180,4376,1,2,2:0:0:0:
124,180,4509,2,0,P|80:189|48:192,1,67.5,2|0,2:0|2:0,2:0:0:0:
216,132,4775,2,0,P|225:175|228:208,1,67.5,2|0,2:0|2:0,2:0:0:0:
227,198,4974,1,0,2:0:0:0:
227,198,5041,2,0,L|312:184,1,67.5,2|0,2:0|2:0,2:0:0:0:
456,124,5307,6,0,L|464:80,2,33.75,6|0|0,2:0|2:0|2:0,2:0:0:0:
456,260,5573,2,0,L|464:304,2,33.75,2|0|0,2:0|2:0|2:0,2:0:0:0:
364,148,5839,2,0,L|352:104,2,33.75,2|0|0,2:0|2:0|2:0,2:0:0:0:
348,301,6105,2,0,L|364:236,1,67.5,10|0,2:0|2:0,2:0:0:0:
227,198,6371,6,0,L|176:208,2,33.75,6|0|0,2:0|2:0|2:0,2:0:0:0:
170,302,6637,2,0,L|204:296,2,33.75,2|0|0,2:0|2:0|2:0,2:0:0:0:
108,216,6903,2,0,L|56:225,2,33.75,2|0|0,2:0|2:0|2:0,2:0:0:0:
18,327,7170,2,0,L|84:313,1,67.5,10|0,2:0|2:0,2:0:0:0:
152,140,7436,6,0,P|144:96|124:60,1,67.5,2|2,2:0|2:0,2:0:0:0:
72,128,7702,1,10,2:0:0:0:
228,160,7835,1,2,2:0:0:0:
292,220,7968,6,0,P|300:176|320:140,1,67.5,2|2,2:0|2:0,2:0:0:0:
372,208,8234,1,10,2:0:0:0:
216,240,8367,1,2,2:0:0:0:
336,296,8500,6,0,L|392:304,3,33.75,2|0|0|0,2:0|2:0|2:0|2:0,2:0:0:0:
444,264,8766,2,0,L|452:208,3,33.75,10|0|0|0,2:0|2:0|2:0|2:0,2:0:0:0:
372,208,9032,2,0,L|364:152,3,33.75,2|0|0|0,2:0|2:0|2:0|2:0,2:0:0:0:
392,96,9298,2,0,L|300:104,1,67.5,10|0,2:0|2:0,2:0:0:0:
324,101,9498,1,0,2:0:0:0:
324,101,9564,5,4,2:0:0:0:
256,192,9697,12,4,11693,2:0:0:0:
192,160,12624,5,0,2:0:0:0:
192,160,12757,2,0,L|80:148,1,101.25000000000024,0|0,2:0|2:0,2:0:0:0:
320,160,13289,2,0,L|432:148,1,101.25000000000024,0|0,2:0|2:0,2:0:0:0:
288,276,13688,1,0,2:0:0:0:
208,252,13821,6,0,L|192:344,2,75.9375000000002,0|0|0,2:0|2:0|2:0,2:0:0:0:
192,160,14354,2,0,L|140:152,1,50.62500000000013,0|0,2:0|2:0,2:0:0:0:
320,160,14620,2,0,L|372:152,1,50.62500000000013,0|0,2:0|2:0,2:0:0:0:
264,104,14886,6,0,P|256:55|252:0,1,101.25000000000024,0|0,2:0|2:0,2:0:0:0:
320,160,15285,1,0,2:0:0:0:
376,216,15418,2,0,P|383:264|388:320,1,101.25000000000024,0|0,2:0|2:0,2:0:0:0:
456,244,15817,1,0,2:0:0:0:
308,300,15950,6,0,L|240:312,1,50.62500000000013,0|0,2:0|2:0,2:0:0:0:
168,276,16216,2,0,P|156:232|184:172,2,101.25000000000024,0|0|0,2:0|2:0|2:0,2:0:0:0:
232,232,16881,1,0,2:0:0:0:
80,288,17014,6,0,L|0:296,2,75.9375000000002,0|0|0,2:0|2:0|2:0,2:0:0:0:
168,276,17546,2,0,L|160:328,1,50.62500000000013,0|0,2:0|2:0,2:0:0:0:
232,232,17813,2,0,L|240:182,1,50.62500000000013,0|0,2:0|2:0,2:0:0:0:
308,248,18079,6,0,P|313:200|324:140,1,101.25000000000024,0|0,2:0|2:0,2:0:0:0:
156,136,18478,1,0,2:0:0:0:
224,81,18611,2,0,P|233:131|239:182,1,101.25000000000024,0|0,2:0|2:0,2:0:0:0:
168,276,19010,1,0,2:0:0:0:
24,208,19143,6,0,P|71:194|116:214,1,101.25000000000024,0|0,2:0|2:0,2:0:0:0:
270,277,19542,1,0,2:0:0:0:
311,343,19675,2,0,P|264:357|219:337,1,101.25000000000024,0|0,2:0|2:0,2:0:0:0:
116,214,20074,1,2,2:0:0:0:
112,200,20141,1,2,2:0:0:0:
108,188,20207,6,0,L|116:140,15,30.37500000000002,6|0|0|0|0|0|0|0|0|0|0|0|0|0|0|0,2:0|2:0|2:0|2:0|2:0|2:0|2:0|2:0|2:0|2:0|2:0|2:0|2:0|2:0|2:0|2:0,2:0:0:0:
192,144,21272,6,0,L|200:96,3,30.37500000000002,0|0|0|0,2:0|2:0|2:0|2:0,2:0:0:0:
268,184,21538,2,0,L|276:136,3,30.37500000000002,0|0|0|0,2:0|2:0|2:0|2:0,2:0:0:0:
352,140,21804,6,0,L|360:92,3,30.37500000000002,0|0|0|0,2:0|2:0|2:0|2:0,2:0:0:0:
428,180,22070,1,0,2:0:0:0:
272,154,22203,1,2,2:0:0:0:
200,296,22336,6,0,L|144:304,7,30.37500000000002,6|0|0|0|0|0|0|0,2:0|2:0|2:0|2:0|2:0|2:0|2:0|2:0,2:0:0:0:
156,220,22868,2,0,L|121:175,7,30.37500000000002,2|0|0|0|0|0|0|0,2:0|2:0|2:0|2:0|2:0|2:0|2:0|2:0,2:0:0:0:
200,144,23400,6,0,L|221:91,3,30.37500000000002,2|0|0|0,2:0|2:0|2:0|2:0,2:0:0:0:
287,144,23666,2,0,L|343:136,3,30.37500000000002,0|0|0|0,2:0|2:0|2:0|2:0,2:0:0:0:
330,219,23932,6,0,L|364:263,3,30.37500000000002,2|0|0|0,2:0|2:0|2:0|2:0,2:0:0:0:
286,293,24198,2,0,L|264:345,3,30.37500000000002,0|0|2|2,2:0|2:0|2:0|2:0,2:0:0:0:
200,296,24464,6,0,L|148:304,13,30.37500000000002,6|0|0|0|0|0|0|0|0|0|0|0|0|0,2:0|2:0|2:0|2:0|2:0|2:0|2:0|2:0|2:0|2:0|2:0|2:0|2:0|2:0,2:0:0:0:
192,220,25396,2,0,L|140:228,1,30.37500000000002,2|0,2:0|2:0,2:0:0:0:
40,152,25529,6,0,L|92:160,7,30.37500000000002,2|0|0|0|0|0|0|0,2:0|2:0|2:0|2:0|2:0|2:0|2:0|2:0,2:0:0:0:
140,112,26061,2,0,L|170:107,7,30.37500000000002,2|0|0|0|0|0|0|0,2:0|2:0|2:0|2:0|2:0|2:0|2:0|2:0,2:0:0:0:
244,148,26593,6,0,L|274:152,3,30.37500000000002,2|0|0|0,2:0|2:0|2:0|2:0,2:0:0:0:
352,124,26859,2,0,L|382:119,3,30.37500000000002,0|0|0|0,2:0|2:0|2:0|2:0,2:0:0:0:
460,152,27125,6,0,L|472:232,1,60.75000000000006,2|0,2:0|2:0,2:0:0:0:
328,300,27391,1,2,2:0:0:0:
384,212,27524,1,0,2:0:0:0:
420,320,27657,6,0,P|372:328|328:336,2,91.1250000000001,2|0|0,2:0|2:0|2:0,2:0:0:0:
300,224,28189,2,0,P|252:216|208:208,2,91.1250000000001,0|0|0,2:0|2:0|2:0,2:0:0:0:
380,161,28722,6,0,P|383:186|384:212,1,50.62500000000013,0|0,2:0|2:0,2:0:0:0:
240,352,28988,2,0,P|236:326|236:301,1,50.62500000000013,8|0,2:0|2:0,2:0:0:0:
300,224,29254,1,0,2:0:0:0:
210,208,29387,6,0,B|132:212|168:248|80:252,1,135,4|0,2:1|2:0,2:0:0:0:
72,244,29719,1,0,2:0:0:0:
56,236,29786,6,0,L|40:88,1,135,6|8,2:0|2:0,2:0:0:0:
148,24,30185,2,0,P|172:72|128:144,1,135,0|0,2:0|2:0,2:0:0:0:
4,24,30584,2,0,P|41:24|72:28,1,67.5,8|0,2:0|2:0,2:0:0:0:
272,172,30850,6,0,P|238:175|204:175,1,67.5,2|0,2:0|2:0,2:0:0:0:
137,139,31050,1,0,2:0:0:0:
137,139,31116,2,0,L|149:63,1,67.5,8|0,2:0|2:0,2:0:0:0:
248,44,31382,1,2,2:0:0:0:
344,104,31515,1,0,2:0:0:0:
344,104,31582,1,0,2:0:0:0:
344,104,31648,2,0,L|416:92,1,67.5,8|0,2:0|2:0,2:0:0:0:
364,239,31915,6,0,P|299:229|272:170,1,135,2|8,2:0|2:0,2:0:0:0:
212,272,32314,2,0,P|184:213|120:203,1,135,0|0,2:0|2:0,2:0:0:0:
36,172,32713,2,0,P|32:216|40:252,1,67.5,8|0,2:0|2:0,2:0:0:0:
184,128,32979,6,0,L|180:92,3,33.75,2|0|0|0,2:0|2:0|2:0|2:0,2:0:0:0:
100,64,33245,2,0,L|96:97,3,33.75,8|0|0|0,2:0|2:0|2:0|2:0,2:0:0:0:
264,92,33511,2,0,L|376:76,2,89.99999999999999,2|0|0,2:0|2:0|2:0,2:0:0:0:
128,192,34043,6,0,P|120:244|124:276,1,67.5,2|0,2:0|2:0,2:0:0:0:
208,300,34309,1,8,2:0:0:0:
224,296,34376,1,0,2:0:0:0:
240,292,34442,1,0,2:0:0:0:
256,288,34509,1,0,2:0:0:0:
272,284,34575,2,0,L|352:296,1,67.5,2|0,2:0|2:0,2:0:0:0:
408,260,34775,1,0,2:0:0:0:
408,260,34841,2,0,P|400:215|396:152,1,101.25,8|0,2:0|2:0,2:0:0:0:
440,96,35107,6,0,L|512:80,1,67.5,2|0,2:0|2:0,2:0:0:0:
320,144,35374,2,0,L|248:128,1,67.5,8|0,2:0|2:0,2:0:0:0:
254,129,35573,1,0,2:0:0:0:
254,129,35640,1,2,2:0:0:0:
140,168,35773,1,0,2:0:0:0:
248,208,35906,1,8,2:0:0:0:
147,89,36039,1,0,2:0:0:0:
68,220,36172,6,0,P|56:264|108:340,1,135,2|8,2:0|2:0,2:0:0:0:
250,275,36571,2,0,P|251:241|248:208,1,67.5,0|2,2:0|2:0,2:0:0:0:
172,248,36837,1,0,2:0:0:0:
304,344,36970,2,0,L|388:336,1,67.5,8|0,2:0|2:0,2:0:0:0:
428,208,37236,6,0,L|436:160,3,33.75,2|0|0|0,2:0|2:0|2:0|2:0,2:0:0:0:
356,116,37502,2,0,L|348:68,3,33.75,2|0|0|0,2:0|2:0|2:0|2:0,2:0:0:0:
400,0,37768,5,2,2:0:0:0:
264,116,37901,1,0,2:0:0:0:
252,128,37968,1,0,2:0:0:0:
240,140,38034,6,0,P|176:139|104:132,1,126.5625,4|0,2:0|2:0,2:0:0:0:
12,96,38300,6,0,L|4:28,1,67.5,2|0,2:0|2:0,2:0:0:0:
113,133,38566,2,0,L|121:201,1,67.5,8|0,2:0|2:0,2:0:0:0:
20,308,38833,6,0,L|32:232,1,60.75000000000006,2|0,2:0|2:0,2:0:0:0:
196,216,39099,2,0,L|184:292,1,60.75000000000006,8|0,2:0|2:0,2:0:0:0:
112,332,39365,6,0,L|104:268,1,54,2|0,2:0|2:0,2:0:0:0:
280,224,39631,2,0,L|288:288,1,54,8|0,2:0|2:0,2:0:0:0:
360,328,39897,1,2,2:0:0:0:
432,256,40030,1,0,2:0:0:0:
432,256,40096,1,0,2:0:0:0:
432,256,40163,2,0,L|440:156,1,81,8|0,2:0|2:0,2:0:0:0:
388,116,40429,6,0,L|340:104,3,33.75,2|0|0|0,2:0|2:0|2:0|2:0,2:0:0:0:
308,48,40695,2,0,L|263:70,3,33.75,8|0|0|0,2:0|2:0|2:0|2:0,2:0:0:0:
204,48,40961,2,0,L|183:93,3,33.75,2|0|0|0,2:0|2:0|2:0|2:0,2:0:0:0:
124,115,41227,2,0,L|137:163,3,33.75,8|0|0|0,2:0|2:0|2:0|2:0,2:0:0:0:
105,218,41493,6,0,B|152:224|152:224|192:212|192:212|248:220,1,135,2|8,2:0|2:0,2:0:0:0:
336,272,41892,1,0,2:0:0:0:
336,272,41959,1,0,2:0:0:0:
336,272,42025,2,0,L|344:200,1,67.5,2|0,2:0|2:0,2:0:0:0:
200,304,42291,2,0,L|208:376,1,67.5,8|0,2:0|2:0,2:0:0:0:
237,218,42558,6,0,L|252:96,1,101.25,2|0,2:0|2:0,2:0:0:0:
200,64,42824,2,0,L|112:80,1,67.5,8|0,2:0|2:0,2:0:0:0:
4,184,43090,2,0,P|36:168|112:228,1,135,2|8,2:0|2:0,2:0:0:0:
104,304,43489,1,0,2:0:0:0:
200,304,43622,6,0,P|208:260|200:224,1,67.5,2|0,2:0|2:0,2:0:0:0:
348,200,43888,2,0,P|340:244|348:280,1,67.5,8|0,2:0|2:0,2:0:0:0:
248,168,44154,2,0,L|232:88,1,67.5,2|0,2:0|2:0,2:0:0:0:
292,52,44354,1,0,2:0:0:0:
292,52,44420,2,0,P|332:48|372:64,1,67.5,8|0,2:0|2:0,2:0:0:0:
460,152,44686,5,2,2:0:0:0:
476,248,44819,1,2,2:0:0:0:
376,200,44952,2,0,L|384:116,1,67.5,10|2,2:0|2:0,2:0:0:0:
288,264,45218,5,2,2:0:0:0:
292,164,45351,1,2,2:0:0:0:
196,232,45484,2,0,L|208:320,1,67.5,10|2,2:0|2:0,2:0:0:0:
92,252,45750,6,0,P|60:264|-8:216,2,101.25,2|2|2,2:0|2:0|2:0,2:0:0:0:
144,160,46283,2,0,P|139:129|128:88,1,67.5,2|0,2:0|2:0,2:0:0:0:
280,112,46549,2,0,L|293:28,1,84.375,8|0,2:0|2:0,2:0:0:0:
448,120,46815,6,0,P|476:160|460:228,1,101.25,6|0,2:0|2:0,2:0:0:0:
408,248,47081,2,0,L|332:236,1,67.5,8|0,2:0|2:0,2:0:0:0:
264,188,47347,2,0,L|256:144,2,33.75,2|0|0,2:0|2:0|2:0,2:0:0:0:
192,288,47613,1,8,2:0:0:0:
120,240,47746,1,0,2:0:0:0:
120,240,47813,1,0,2:0:0:0:
120,240,47879,6,0,P|72:228|44:228,1,67.5,2|0,2:0|2:0,2:0:0:0:
144,160,48145,2,0,P|96:148|68:148,1,67.5,8|0,2:0|2:0,2:0:0:0:
264,188,48411,2,0,P|312:176|340:176,1,67.5,2|0,2:0|2:0,2:0:0:0:
240,108,48677,2,0,P|288:96|316:96,1,67.5,8|0,2:0|2:0,2:0:0:0:
380,80,48877,1,0,2:0:0:0:
380,80,48943,6,0,L|388:0,1,67.5,2|0,2:0|2:0,2:0:0:0:
496,80,49209,2,0,L|488:160,1,67.5,8|0,2:0|2:0,2:0:0:0:
418,200,49476,2,0,P|366:168|310:188,1,101.25,2|0,2:0|2:0,2:0:0:0:
272,224,49742,2,0,L|280:272|284:296,1,67.5,8|0,2:0|2:0,2:0:0:0:
192,344,50008,6,0,P|180:276|164:200,1,135,2|8,2:0|2:0,2:0:0:0:
92,168,50407,1,0,2:0:0:0:
68,248,50540,1,2,2:0:0:0:
168,124,50673,2,0,L|176:76,2,33.75,2|0|10,2:0|2:0|2:0,2:0:0:0:
166,211,50939,1,2,2:0:0:0:
256,124,51072,6,0,L|352:112,1,67.5,6|0,2:0|2:0,2:0:0:0:
396,204,51338,2,0,L|300:192,1,67.5,8|0,2:0|2:0,2:0:0:0:
272,40,51604,2,0,L|416:20,1,135,2|8,2:0|2:0,2:0:0:0:
396,120,52003,1,0,2:0:0:0:
484,72,52136,6,0,P|496:116|492:148,1,67.5,2|0,2:0|2:0,2:0:0:0:
406,269,52402,2,0,P|394:225|398:193,1,67.5,8|0,2:0|2:0,2:0:0:0:
328,168,52602,1,0,2:0:0:0:
328,168,52668,2,0,L|248:184,1,67.5,2|0,2:0|2:0,2:0:0:0:
216,316,52935,2,0,L|149:302,1,67.5,8|0,2:0|2:0,2:0:0:0:
20,228,53201,6,0,B|48:204|48:204|28:324,1,135,6|8,2:0|2:0,2:0:0:0:
149,302,53600,1,2,2:0:0:0:
128,164,53733,2,0,B|156:188|156:188|136:68,1,135,6|8,2:0|2:0,2:0:0:0:
4,40,54132,1,2,2:0:0:0:
139,91,54265,6,0,L|247:75,2,101.25,6|2|0,2:0|2:0|2:0,2:0:0:0:
64,100,54731,1,0,2:0:0:0:
64,100,54797,2,0,P|56:144|44:184,1,67.5,2|0,2:0|2:0,2:0:0:0:
176,228,55063,2,0,B|235:234|211:206|283:214,1,101.25,4|0,2:0|2:0,2:0:0:0:
340,248,55329,6,0,L|352:324,1,67.5,6|0,2:0|2:0,2:0:0:0:
412,200,55595,1,8,2:0:0:0:
308,144,55728,1,0,2:0:0:0:
380,96,55861,2,0,L|368:20,1,67.5,2|0,2:0|2:0,2:0:0:0:
308,144,56127,1,8,2:0:0:0:
224,108,56260,1,0,2:0:0:0:
176,228,56393,6,0,P|144:248|100:256,1,67.5,2|0,2:0|2:0,2:0:0:0:
51,195,56660,2,0,P|79:176|112:168,1,67.5,8|0,2:0|2:0,2:0:0:0:
212,317,56926,2,0,P|244:337|288:345,1,67.5,2|0,2:0|2:0,2:0:0:0:
336,284,57192,2,0,P|307:265|275:256,1,67.5,8|0,2:0|2:0,2:0:0:0:
208,204,57391,1,0,2:0:0:0:
208,204,57458,6,0,L|184:124,1,67.5,2|0,2:0|2:0,2:0:0:0:
296,136,57724,2,0,L|272:56,1,67.5,8|0,2:0|2:0,2:0:0:0:
403,127,57990,2,0,B|419:159|419:159|403:239,1,101.25,2|0,2:0|2:0,2:0:0:0:
343,267,58256,2,0,P|308:262|271:255,1,67.5,8|0,2:0|2:0,2:0:0:0:
112,247,58522,6,0,P|145:192|208:204,1,135,2|8,2:0|2:0,2:0:0:0:
277,257,58921,1,0,2:0:0:0:
196,292,59054,1,2,2:0:0:0:
284,172,59187,2,0,L|288:128,2,33.75,0|0|8,2:0|2:0|2:0,2:0:0:0:
360,200,59453,1,2,2:0:0:0:
333,55,59586,6,0,L|249:63,1,67.5,6|0,2:0|2:0,2:0:0:0:
147,110,59852,2,0,L|215:117,1,67.5,8|0,2:0|2:0,2:0:0:0:
220,0,60119,2,0,P|189:57|215:117,1,135,2|8,2:0|2:0,2:0:0:0:
284,172,60518,1,0,2:0:0:0:
160,272,60651,6,0,P|176:240|176:192,1,67.5,6|0,2:0|2:0,2:0:0:0:
68,100,60917,2,0,P|71:133|86:163,1,67.5,8|0,2:0|2:0,2:0:0:0:
148,112,61116,1,0,2:0:0:0:
148,112,61183,2,0,L|156:40,1,67.5,6|0,2:0|2:0,2:0:0:0:
8,188,61449,1,8,2:0:0:0:
88,244,61582,1,0,2:0:0:0:
8,296,61715,6,0,L|0:368,1,67.5,6|0,2:0|2:0,2:0:0:0:
160,272,61981,2,0,L|167:204,1,67.5,8|0,2:0|2:0,2:0:0:0:
81,153,62247,2,0,L|88:220,1,67.5,6|0,2:0|2:0,2:0:0:0:
248,312,62513,2,0,L|240:244,1,67.5,8|0,2:0|2:0,2:0:0:0:
280,180,62713,1,0,2:0:0:0:
279,180,62779,6,0,P|313:174|346:167,1,67.5,6|0,2:0|2:0,2:0:0:0:
214,124,63045,2,0,P|180:118|147:111,1,67.5,8|0,2:0|2:0,2:0:0:0:
80,80,63245,1,0,2:0:0:0:
80,80,63311,2,0,B|64:128|64:128|88:192,2,101.25,2|2|2,2:0|2:0|2:0,2:0:0:0:
160,16,63844,6,0,L|216:24,3,33.75,2|0|0|0,2:0|2:0|2:0|2:0,2:0:0:0:
264,60,64110,2,0,L|308:48,3,33.75,8|0|0|0,2:0|2:0|2:0|2:0,2:0:0:0:
356,108,64376,1,2,2:0:0:0:
380,112,64442,1,0,2:0:0:0:
404,108,64509,1,0,2:0:0:0:
424,96,64575,1,0,2:0:0:0:
440,76,64642,2,0,L|456:0,1,67.5,8|0,2:0|2:0,2:0:0:0:
368,200,64908,6,0,L|376:244,2,44.99999999999999,6|0|0,2:0|2:0|2:0,2:0:0:0:
284,176,65174,2,0,L|272:128,2,44.99999999999999,0|0|0,2:0|2:0|2:0,2:0:0:0:
244,252,65440,2,0,L|252:300,2,44.99999999999999,0|0|0,2:0|2:0|2:0,2:0:0:0:
160,228,65706,2,0,L|144:152,1,67.5,0|0,2:0|2:0,2:0:0:0:
64,316,65972,6,0,L|12:308,2,44.99999999999999,0|0|0,2:0|2:0|2:0,2:0:0:0:
144,276,66238,2,0,L|192:268,2,44.99999999999999,0|0|0,2:0|2:0|2:0,2:0:0:0:
44,232,66504,2,0,L|-8:224,2,44.99999999999999,0|0|0,2:0|2:0|2:0,2:0:0:0:
124,192,66770,2,0,L|224:176,1,89.99999999999999,2|2,2:0|2:0,2:0:0:0:
272,128,67036,6,0,L|280:80,2,44.99999999999999,2|0|0,2:0|2:0|2:0,2:0:0:0:
388,208,67303,2,0,L|396:256,2,44.99999999999999,0|0|0,2:0|2:0|2:0,2:0:0:0:
352,112,67569,2,0,L|360:60,2,44.99999999999999,0|0|0,2:0|2:0|2:0,2:0:0:0:
468,192,67835,2,0,L|484:272,1,67.5,0|0,2:0|2:0,2:0:0:0:
402,338,68101,6,0,L|358:331,2,44.99999999999999,0|0|0,2:0|2:0|2:0,2:0:0:0:
312,213,68367,2,0,L|328:255,2,44.99999999999999,0|0|0,2:0|2:0|2:0,2:0:0:0:
252,356,68633,2,0,L|278:319,2,44.99999999999999,0|0|2,2:0|2:0|2:0,2:0:0:0:
176,344,68899,2,0,B|156:320|156:320|168:232,1,89.99999999999999,0|2,2:0|2:0,2:0:0:0:
208,180,69165,6,0,L|104:192,1,89.99999999999999,2|0,2:0|2:0,2:0:0:0:
60,120,69431,2,0,L|164:108,1,89.99999999999999,8|0,2:0|2:0,2:0:0:0:
224,100,69697,2,0,B|244:76|244:76|232:-12,1,89.99999999999999,2|0,2:0|2:0,2:0:0:0:
160,0,69963,1,12,2:1:0:0:
320,88,70141,1,0,2:0:0:0:
320,88,70229,6,0,P|360:68|420:80,1,89.99999999999999,2|0,2:0|2:0,2:0:0:0:
376,146,70495,2,0,P|373:190|332:236,1,89.99999999999999,8|0,2:0|2:0,2:0:0:0:
297,165,70762,2,0,P|259:140|240:82,1,89.99999999999999,2|0,2:0|2:0,2:0:0:0:
264,28,71028,1,12,2:1:0:0:
184,188,71205,1,0,2:0:0:0:
184,188,71294,6,0,L|76:176,1,89.99999999999999,2|0,2:0|2:0,2:0:0:0:
36,224,71560,1,12,2:1:0:0:
236,280,71737,1,0,2:0:0:0:
236,280,71826,6,0,L|128:268,1,89.99999999999999,2|0,2:0|2:0,2:0:0:0:
88,316,72092,1,12,2:1:0:0:
304,220,72269,1,0,2:0:0:0:
304,220,72358,6,0,B|320:184|320:184|300:112,1,89.99999999999999,2|0,1:0|2:0,2:0:0:0:
388,52,72624,2,0,B|372:88|372:88|392:160,1,89.99999999999999,2|0,1:0|2:0,2:0:0:0:
448,180,72890,2,0,L|496:188,3,44.99999999999999,2|0|0|2,1:0|2:0|2:0|1:0,2:0:0:0:
308,348,73422,6,0,L|296:292,2,44.99999999999999,6|0|0,1:0|2:0|2:0,2:0:0:0:
204,264,73688,2,0,L|216:208,2,44.99999999999999,2|0|0,1:0|2:0|2:0,2:0:0:0:
312,188,73954,2,0,L|300:132,2,44.99999999999999,2|0|0,1:0|2:0|2:0,2:0:0:0:
200,104,74221,2,0,L|220:4,1,89.99999999999999,2|0,1:0|2:0,2:0:0:0:
132,47,74487,6,0,P|110:54|88:57,2,44.99999999999999,2|0|0,1:0|2:0|2:0,2:0:0:0:
200,104,74753,2,0,P|221:97|243:94,2,44.99999999999999,2|0|0,1:0|2:0|2:0,2:0:0:0:
128,156,75019,2,0,P|106:162|84:165,2,44.99999999999999,2|0|0,1:0|2:0|2:0,2:0:0:0:
195,212,75285,1,4,1:0:0:0:
396,140,75462,1,0,2:0:0:0:
396,140,75551,6,0,L|408:56,2,44.99999999999999,2|0|0,1:0|2:0|2:0,2:0:0:0:
396,244,75817,2,0,L|408:328,2,44.99999999999999,2|0|0,1:0|2:0|2:0,2:0:0:0:
312,104,76083,2,0,L|304:48,2,44.99999999999999,2|0|0,1:0|2:0|2:0,2:0:0:0:
312,280,76349,2,0,L|300:376,1,89.99999999999999,2|0,1:0|2:0,2:0:0:0:
224,328,76615,6,0,L|232:276,2,44.99999999999999,2|0|0,1:0|2:0|2:0,2:0:0:0:
144,236,76881,2,0,L|152:288,2,44.99999999999999,2|0|0,1:0|2:0|2:0,2:0:0:0:
88,180,77147,1,2,1:0:0:0:
126,157,77236,1,0,2:0:0:0:
170,159,77325,1,0,2:0:0:0:
207,185,77413,2,0,P|252:192|304:172,1,89.99999999999999,2|0,1:0|2:0,2:0:0:0:
368,96,77680,6,0,L|380:28,2,56.24999999999999,2|0|0,1:0|1:0|1:0,1:0:0:0:
280,20,77946,2,0,L|270:75,2,56.24999999999999,2|0|0,1:0|1:0|1:0,1:0:0:0:
164,88,78212,2,0,L|176:20,2,56.24999999999999,2|0|0,1:0|1:0|1:0,1:0:0:0:
76,12,78478,2,0,L|52:136,1,112.49999999999999,6|0,1:0|1:0,1:0:0:0:
8,188,78744,6,0,P|32:200|92:192,2,56.24999999999999,2|0|0,1:0|1:0|1:0,1:0:0:0:
95,275,79010,2,0,P|117:260|140:204,2,56.24999999999999,2|0|0,1:0|1:0|1:0,1:0:0:0:
213,243,79276,2,0,P|211:216|174:168,2,56.24999999999999,2|0|0,1:0|1:0|1:0,1:0:0:0:
244,124,79542,2,0,P|220:111|136:140,1,112.49999999999999,6|0,1:0|1:0,1:0:0:0:
95,275,79808,6,0,L|107:347,2,67.5,6|0|8,2:0|2:0|2:0,2:0:0:0:
160,220,80207,1,0,2:0:0:0:
256,280,80340,2,0,L|268:208,2,67.5,6|0|8,2:0|2:0|2:0,2:0:0:0:
321,335,80739,1,0,2:0:0:0:
408,256,80872,6,0,L|396:208,3,33.75,6|0|2|0,2:0|2:0|2:0|2:0,2:0:0:0:
336,176,81138,2,0,L|348:128,3,33.75,8|0|0|0,2:0|2:0|2:0|2:0,2:0:0:0:
408,92,81405,2,0,L|396:44,3,33.75,6|0|2|0,2:0|2:0|2:0|2:0,2:0:0:0:
324,24,81671,1,10,2:0:0:0:
307,52,81737,1,2,2:0:0:0:
279,71,81804,1,2,2:0:0:0:
246,76,81870,1,2,2:0:0:0:
214,66,81937,5,4,2:0:0:0:
256,192,82070,12,0,84065,2:0:0:0:
124,112,86327,6,0,L|112:48,2,50.62500000000013,0|2|0,2:0|2:0|2:0,2:0:0:0:
196,152,86726,2,0,L|260:144,1,50.62500000000013,2|0,2:0|2:0,2:0:0:0:
300,84,86992,2,0,L|364:76,1,50.62500000000013,0|2,2:0|2:0,2:0:0:0:
460,240,87391,6,0,L|468:180,2,50.62500000000013,0|2|0,2:0|2:0|2:0,2:0:0:0:
384,204,87790,2,0,L|300:192,2,75.9375000000002,2|2|2,2:0|2:0|2:0,2:0:0:0:
276,304,88456,5,0,2:0:0:0:
276,304,88589,2,0,L|212:312,1,50.62500000000013,2|0,2:0|2:0,2:0:0:0:
160,260,88855,2,0,L|152:196,1,50.62500000000013,2|0,2:0|2:0,2:0:0:0:
212,152,89121,2,0,L|204:88,1,50.62500000000013,2|0,2:0|2:0,2:0:0:0:
136,60,89387,6,0,L|52:48,2,75.9375000000002,2|0|0,2:0|2:0|2:0,2:0:0:0:
212,152,89919,2,0,L|287:162,2,75.9375000000002,2|0|0,2:0|2:0|2:0,2:0:0:0:
124,140,90451,6,0,L|108:256,1,101.25000000000024,2|0,2:0|2:0,2:0:0:0:
192,292,90850,1,0,2:0:0:0:
192,292,90983,2,0,L|248:284,1,50.62500000000013,2|0,2:0|2:0,2:0:0:0:
280,204,91249,2,0,L|336:196,1,50.62500000000013,0|0,2:0|2:0,2:0:0:0:
448,248,91515,6,0,P|460:304|384:280,1,168.75,4|0,2:1|2:0,2:0:0:0:
424,164,92314,1,8,2:0:0:0:
272,80,92580,6,0,L|276:28,15,33.75,6|0|0|0|0|0|0|0|0|0|0|0|0|0|0|0,2:0|2:0|2:0|2:0|2:0|2:0|2:0|2:0|2:0|2:0|2:0|2:0|2:0|2:0|2:0|2:0,2:0:0:0:
204,120,93644,6,0,L|212:164,3,33.75,2|0|0|0,2:0|2:0|2:0|2:0,2:0:0:0:
128,96,93910,2,0,L|136:52,3,33.75,0|0|0|0,2:0|2:0|2:0|2:0,2:0:0:0:
68,156,94176,6,0,L|24:148,3,33.75,2|0|0|0,2:0|2:0|2:0|2:0,2:0:0:0:
116,228,94442,2,0,L|160:236,3,33.75,0|0|0|0,2:0|2:0|2:0|2:0,2:0:0:0:
48,276,94708,6,0,L|14:269,7,33.75,6|0|0|0|0|0|0|0,2:0|2:0|2:0|2:0|2:0|2:0|2:0|2:0,2:0:0:0:
152,328,95240,2,0,L|118:334,7,33.75,2|0|0|0|0|0|0|0,2:0|2:0|2:0|2:0|2:0|2:0|2:0|2:0,2:0:0:0:
228,264,95773,5,6,2:0:0:0:
256,246,95839,1,0,2:0:0:0:
289,245,95906,1,0,2:0:0:0:
319,260,95972,1,0,2:0:0:0:
338,288,96039,2,0,L|352:348,3,33.75,0|0|0|0,2:0|2:0|2:0|2:0,2:0:0:0:
400,228,96305,5,2,2:0:0:0:
300,144,96438,1,2,2:0:0:0:
300,144,96504,1,2,2:0:0:0:
300,144,96571,2,0,P|280:92|340:24,1,126.5625,6|0,2:0|2:0,2:0:0:0:
388,56,96837,6,0,L|455:43,1,67.5,6|0,2:0|2:0,2:0:0:0:
204,128,97103,2,0,L|137:141,1,67.5,8|0,2:0|2:0,2:0:0:0:
300,144,97369,2,0,B|349:135|349:135|383:146|383:146|440:136,1,135,2|8,2:0|2:0,2:0:0:0:
352,228,97768,1,0,2:0:0:0:
352,228,97835,1,0,2:0:0:0:
352,228,97901,6,0,P|340:272|344:320,1,67.5,2|0,2:0|2:0,2:0:0:0:
424,272,98167,1,8,2:0:0:0:
268,220,98300,1,0,2:0:0:0:
252,364,98433,2,0,P|262:331|264:298,1,67.5,2|0,2:0|2:0,2:0:0:0:
200,264,98633,1,0,2:0:0:0:
200,264,98699,2,0,L|112:280,1,67.5,8|0,2:0|2:0,2:0:0:0:
16,128,98966,6,0,P|56:148|128:80,1,135,6|8,2:0|2:0,2:0:0:0:
204,24,99365,1,0,2:0:0:0:
212,36,99431,1,0,2:0:0:0:
220,48,99498,2,0,P|260:28|332:96,1,135,6|8,2:0|2:0,2:0:0:0:
316,184,99897,1,0,2:0:0:0:
304,188,99963,1,0,2:0:0:0:
292,192,100030,6,0,L|204:184,1,67.5,6|0,2:0|2:0,2:0:0:0:
164,128,100296,1,8,2:0:0:0:
72,241,100429,1,0,2:0:0:0:
84,245,100495,1,0,2:0:0:0:
96,249,100562,2,0,L|184:241,1,67.5,2|0,2:0|2:0,2:0:0:0:
224,185,100828,6,0,L|348:172,1,101.25,4|0,2:0|2:0,2:0:0:0:
396,200,101094,6,0,P|408:240|400:276,1,67.5,2|0,2:0|2:0,2:0:0:0:
296,104,101360,1,8,2:0:0:0:
307,72,101427,1,0,2:0:0:0:
332,50,101493,1,0,2:0:0:0:
365,43,101560,1,0,2:0:0:0:
397,52,101626,2,0,L|476:36,1,67.5,2|0,2:0|2:0,2:0:0:0:
462,213,101892,2,0,L|395:199,1,67.5,8|0,2:0|2:0,2:0:0:0:
464,128,102158,5,2,2:0:0:0:
352,128,102291,1,0,2:0:0:0:
352,128,102358,1,0,2:0:0:0:
352,128,102425,2,0,L|272:128,1,67.5,8|0,2:0|2:0,2:0:0:0:
148,204,102691,1,2,2:0:0:0:
180,198,102757,1,0,2:0:0:0:
212,208,102824,1,0,2:0:0:0:
236,231,102890,1,0,2:0:0:0:
246,262,102957,2,0,P|252:296|248:329,1,67.5,8|0,2:0|2:0,2:0:0:0:
68,240,103223,6,0,P|62:206|66:173,1,67.5,2|0,2:0|2:0,2:0:0:0:
152,112,103489,2,0,L|200:96,2,33.75,8|0|0,2:0|2:0|2:0,2:0:0:0:
68,56,103755,2,0,L|-16:40,2,67.5,2|0|8,2:0|2:0|2:0,2:0:0:0:
180,198,104154,1,0,2:0:0:0:
264,132,104287,6,0,P|268:98|262:65,1,67.5,2|0,2:0|2:0,2:0:0:0:
180,198,104553,1,8,2:0:0:0:
202,222,104620,1,0,2:0:0:0:
231,239,104686,1,0,2:0:0:0:
265,244,104753,1,0,2:0:0:0:
298,238,104819,2,0,L|344:236,3,33.75,2|0|0|0,2:0|2:0|2:0|2:0,2:0:0:0:
380,304,105085,2,0,L|425:301,3,33.75,8|0|0|0,2:0|2:0|2:0|2:0,2:0:0:0:
472,240,105351,6,0,L|488:168,1,67.5,6|0,2:0|2:0,2:0:0:0:
332,152,105617,2,0,L|316:80,1,67.5,8|0,2:0|2:0,2:0:0:0:
412,144,105884,2,0,B|428:60|392:96|408:4,1,135,2|8,2:0|2:0,2:0:0:0:
317,86,106283,1,0,2:0:0:0:
220,40,106416,6,0,L|136:28,1,67.5,6|0,2:0|2:0,2:0:0:0:
84,60,106615,1,0,2:0:0:0:
84,59,106682,2,0,P|78:93|85:125,1,67.5,8|0,2:0|2:0,2:0:0:0:
176,184,106948,2,0,P|224:176|276:232,1,101.25,6|0,2:0|2:0,2:0:0:0:
332,236,107214,2,0,L|408:224,1,67.5,8|0,2:0|2:0,2:0:0:0:
208,316,107480,6,0,L|132:328,1,67.5,6|0,2:0|2:0,2:0:0:0:
68,284,107746,2,0,B|60:252|60:252|72:208,1,67.5,8|0,2:0|2:0,2:0:0:0:
184,156,108012,2,0,L|260:168,1,67.5,6|0,2:0|2:0,2:0:0:0:
324,124,108278,2,0,B|332:92|332:92|320:48,1,67.5,8|0,2:0|2:0,2:0:0:0:
296,240,108544,6,0,B|288:272|288:272|300:316,1,67.5,6|0,2:0|2:0,2:0:0:0:
415,352,108810,1,8,2:0:0:0:
434,334,108877,1,0,2:0:0:0:
445,312,108943,1,0,2:0:0:0:
449,287,109010,1,0,2:0:0:0:
444,260,109076,2,0,L|436:212,3,33.75,2|0|0|0,2:0|2:0|2:0|2:0,2:0:0:0:
492,160,109342,2,0,L|484:112,3,33.75,8|0|0|0,2:0|2:0|2:0|2:0,2:0:0:0:
416,80,109609,6,0,L|340:68,1,67.5,6|0,2:0|2:0,2:0:0:0:
268,144,109875,1,8,2:0:0:0:
250,126,109941,1,0,2:0:0:0:
227,115,110008,1,0,2:0:0:0:
202,113,110074,1,0,2:0:0:0:
176,120,110141,2,0,L|128:128,3,33.75,2|0|0|0,2:0|2:0|2:0|2:0,2:0:0:0:
88,64,110407,2,0,L|40:72,3,33.75,8|0|0|0,2:0|2:0|2:0|2:0,2:0:0:0:
32,152,110673,6,0,P|27:198|20:236,1,67.5,6|0,2:0|2:0,2:0:0:0:
140,308,110939,2,0,P|142:274|147:241,1,67.5,8|0,2:0|2:0,2:0:0:0:
364,241,111205,6,0,P|369:274|372:308,1,67.5,2|0,2:0|2:0,2:0:0:0:
487,218,111471,2,0,P|482:185|480:152,1,67.5,8|0,2:0|2:0,2:0:0:0:
424,64,111737,5,6,2:0:0:0:
392,52,111804,1,0,2:0:0:0:
359,57,111870,1,0,2:0:0:0:
333,77,111937,1,0,2:0:0:0:
319,108,112003,2,0,L|327:155,3,33.75,8|0|0|0,2:0|2:0|2:0|2:0,2:0:0:0:
256,48,112269,2,0,L|256:0,3,33.75,2|0|0|0,2:0|2:0|2:0|2:0,2:0:0:0:
193,108,112535,1,10,2:0:0:0:
179,77,112602,1,2,2:0:0:0:
153,57,112668,1,2,2:0:0:0:
120,52,112735,1,2,2:0:0:0:
88,64,112801,5,4,2:0:0:0:
256,192,112935,12,0,114664,2:0:0:0:
104,124,114930,6,0,L|96:168,3,33.75,6|0|2|0,2:0|2:0|2:0|2:0,2:0:0:0:
180,192,115196,2,0,L|172:236,3,33.75,10|0|2|0,2:0|2:0|2:0|2:0,2:0:0:0:
268,124,115462,2,0,L|260:168,3,33.75,2|0|2|0,2:0|2:0|2:0|2:0,2:0:0:0:
344,192,115728,2,0,L|336:236,3,33.75,10|0|2|0,2:0|2:0|2:0|2:0,2:0:0:0:
432,124,115994,6,0,L|424:168,1,33.75,2|0,2:0|2:0,2:0:0:0:
352,80,116127,2,0,L|345:46,1,33.75,2|0,2:0|2:0,2:0:0:0:
268,124,116260,2,0,L|260:168,1,33.75,10|0,2:0|2:0,2:0:0:0:
188,80,116393,2,0,L|181:46,1,33.75,2|0,2:0|2:0,2:0:0:0:
104,124,116527,5,2,2:0:0:0:
99,148,116593,1,0,2:0:0:0:
95,173,116660,1,2,2:0:0:0:
91,198,116726,1,0,2:0:0:0:
86,223,116793,2,0,L|98:267,3,33.75,10|0|2|0,2:0|2:0|2:0|2:0,2:0:0:0:
120,328,117059,6,0,L|111:377,1,50.62500000000013,6|0,2:0|2:0,2:0:0:0:z
