osu file format v14

[General]
AudioFilename: audio.mp3
AudioLeadIn: 0
PreviewTime:46283
Countdown: 0
SampleSet: Normal
StackLeniency: 0.5
Mode: 0
LetterboxInBreaks: 0
WidescreenStoryboard: 1

[Editor]
Bookmarks:102558
DistanceSpacing: 2
BeatDivisor: 3
GridSize: 16
TimelineZoom: 3.199999

[Metadata]
Title:Glorious Crown
TitleUnicode:Glorious Crown
Artist:xi
ArtistUnicode:xi
Creator:Anxient
Version:NiNo's MASTER
Source:maimai PiNK
Tags:Electronic Instrumental Video Games freedom dive sequel deathstream snownino_ happy hardcore lama poluna toybot
BeatmapID:986861
BeatmapSetID:460515

[Difficulty]
HPDrainRate:6
CircleSize:3.5
OverallDifficulty:8.5
ApproachRate:9.5
SliderMultiplier:1.8
SliderTickRate:1

[Events]
//Background and Video events
0,0,"bg.jpg",0,0
//Break Periods
//Storyboard Layer 0 (Background)
//Storyboard Layer 1 (Fail)
//Storyboard Layer 2 (Pass)
//Storyboard Layer 3 (Foreground)
//Storyboard Layer 4 (Overlay)
//Storyboard Sound Samples

[TimingPoints]
-14,266.075388026608,4,1,1,70,1,0
11693,-100,4,1,1,40,0,0
12757,-100,4,1,1,70,0,0
13821,-100,4,1,1,50,0,0
15152,-100,4,1,1,5,0,0
15418,-100,4,1,1,50,0,0
15684,-100,4,1,1,5,0,0
15950,-100,4,1,1,50,0,0
17280,-100,4,1,1,5,0,0
17546,-100,4,1,1,50,0,0
17812,-100,4,1,1,5,0,0
18079,-100,4,1,1,50,0,0
21272,-100,4,1,1,70,0,0
22336,-100,4,1,1,50,0,0
25529,-100,4,1,1,70,0,0
26593,-100,4,1,1,50,0,0
27790,-100,4,1,1,5,0,0
27857,-100,4,1,1,50,0,0
27990,-100,4,1,1,5,0,0
28056,-100,4,1,1,50,0,0
28322,-100,4,1,1,5,0,0
28389,-100,4,1,1,50,0,0
28522,-100,4,1,1,5,0,0
28589,-100,4,1,1,50,0,0
28855,-100,4,1,1,5,0,0
28921,-100,4,1,1,50,0,0
29054,-100,4,1,1,5,0,0
29121,-100,4,1,1,50,0,0
29254,-100,4,1,1,5,0,0
29387,-100,4,1,1,50,0,0
29786,-100,4,1,1,60,0,0
31049,-100,4,1,1,5,0,0
31116,-100,4,1,1,60,0,0
31315,-100,4,1,1,5,0,0
31382,-100,4,1,1,60,0,0
31581,-100,4,1,1,5,0,0
31648,-100,4,1,1,60,0,0
31847,-100,4,1,1,5,0,0
31915,-100,4,1,1,60,0,0
33644,-100,4,1,1,5,0,0
33711,-100,4,1,1,60,0,0
33844,-100,4,1,1,5,0,0
33910,-100,4,1,1,60,0,0
38034,-100,4,1,2,60,0,0
38101,-100,4,1,1,60,0,0
44287,-100,4,1,1,5,0,0
44354,-100,4,1,1,60,0,0
44487,-100,4,1,1,5,0,0
44553,-100,4,1,1,60,0,0
45883,-100,4,1,1,5,0,0
45950,-100,4,1,1,60,0,0
46083,-100,4,1,1,5,0,0
46150,-100,4,1,1,60,0,0
46549,-100,4,1,2,60,0,0
46682,-100,4,1,1,60,0,0
46815,-100,4,1,1,80,0,1
60784,-100,4,1,1,5,0,1
60850,-100,4,1,1,80,0,1
60983,-100,4,1,1,5,0,1
61050,-100,4,1,1,80,0,1
61316,-100,4,1,1,5,0,1
61382,-100,4,1,1,80,0,1
61515,-100,4,1,1,5,0,1
61582,-100,4,1,1,80,0,1
64908,-100,4,1,2,70,0,0
66770,-100,4,1,1,70,0,0
73422,-100,4,1,3,70,0,0
73621,-100,4,1,3,5,0,0
73688,-100,4,1,3,70,0,0
73887,-100,4,1,3,5,0,0
73954,-100,4,1,3,70,0,0
74153,-100,4,1,3,5,0,0
74221,-100,4,1,3,70,0,0
74420,-100,4,1,3,5,0,0
74487,-100,4,1,3,70,0,0
74686,-100,4,1,3,5,0,0
74753,-100,4,1,3,70,0,0
74952,-100,4,1,3,5,0,0
75019,-100,4,1,3,70,0,0
75218,-100,4,1,3,5,0,0
75285,-100,4,1,3,70,0,0
75750,-100,4,1,3,5,0,0
75817,-100,4,1,3,70,0,0
76016,-100,4,1,3,5,0,0
76083,-100,4,1,3,70,0,0
76282,-100,4,1,3,5,0,0
76349,-100,4,1,3,70,0,0
76548,-100,4,1,3,5,0,0
76615,-100,4,1,3,70,0,0
76814,-100,4,1,3,5,0,0
76881,-100,4,1,3,70,0,0
77080,-100,4,1,3,5,0,0
77147,-100,4,1,3,70,0,0
77612,-100,4,1,3,5,0,0
77680,-100,4,1,3,70,0,0
79808,-100,4,1,1,70,0,0
86327,-100,4,1,1,40,0,0
87923,-100,4,1,1,5,0,0
87990,-100,4,1,1,40,0,0
88123,-100,4,1,1,5,0,0
88189,-100,4,1,1,40,0,0
89520,-100,4,1,1,5,0,0
89586,-100,4,1,1,40,0,0
89719,-100,4,1,1,5,0,0
89786,-100,4,1,1,40,0,0
90052,-100,4,1,1,5,0,0
90119,-100,4,1,1,40,0,0
90252,-100,4,1,1,5,0,0
90318,-100,4,1,1,40,0,0
96837,-100,4,1,1,80,0,1
98034,-100,4,1,1,5,0,1
98101,-100,4,1,1,80,0,1
98234,-100,4,1,1,5,0,1
98300,-100,4,1,1,80,0,1
98566,-100,4,1,1,5,0,1
98633,-100,4,1,1,80,0,1
98766,-100,4,1,1,5,0,1
98833,-100,4,1,1,80,0,1
106549,-100,4,1,1,5,0,1
106615,-100,4,1,1,80,0,1
106748,-100,4,1,1,5,0,1
106815,-100,4,1,1,80,0,1
107081,-100,4,1,1,5,0,1
107147,-100,4,1,1,80,0,1
107280,-100,4,1,1,5,0,1
107347,-100,4,1,1,80,0,1
112801,-100,4,1,2,80,0,1
114930,-100,4,1,1,80,0,1
117059,-100,4,1,5,80,0,0

[Colours]
Combo1 : 251,228,153
Combo2 : 237,156,84
Combo3 : 131,87,247
Combo4 : 193,218,232

[HitObjects]
117,227,1050,6,0,L|109:291,3,45,2|0|0|0,1:0|1:0|1:0|1:0,1:0:0:0:
154,191,1316,1,0,1:0:0:0:
172,203,1382,1,0,1:0:0:0:
193,212,1449,1,2,1:0:0:0:
215,216,1515,1,0,1:0:0:0:
241,214,1582,2,0,L|298:207,3,45,0|0|0|0,1:0|1:0|1:0|1:0,1:0:0:0:
217,268,1848,1,2,1:0:0:0:
263,115,1981,1,0,1:0:0:0:
340,273,2114,6,0,L|349:322,3,45,0|0|2|0,1:0|1:0|1:0|1:0,1:0:0:0:
379,232,2380,1,2,1:0:0:0:
366,213,2447,1,0,1:0:0:0:
360,191,2513,1,2,1:0:0:0:
361,169,2580,1,0,1:0:0:0:
369,145,2646,2,0,L|396:101,3,45,2|0|0|0,1:0|1:0|1:0|1:0,1:0:0:0:
309,143,2912,2,0,P|262:157|201:136,1,90,0|0,1:0|1:0,1:0:0:0:
33,42,3178,6,0,L|91:29,3,45,2|0|0|0,1:0|1:0|1:0|1:0,1:0:0:0:
16,99,3444,1,0,1:0:0:0:
31,115,3511,1,0,1:0:0:0:
41,135,3578,1,2,1:0:0:0:
46,157,3644,1,0,1:0:0:0:
49,182,3711,2,0,L|106:190,3,45,0|0|0|0,1:0|1:0|1:0|1:0,1:0:0:0:
13,230,3977,1,2,1:0:0:0:
121,115,4110,1,0,1:0:0:0:
125,275,4243,6,0,L|119:325,3,45,0|0|2|0,1:0|1:0|1:0|1:0,1:0:0:0:
166,242,4509,1,2,1:0:0:0:
186,250,4575,1,0,1:0:0:0:
208,256,4642,1,2,1:0:0:0:
230,258,4708,1,0,1:0:0:0:
254,258,4775,2,0,L|310:252,3,45,2|0|0|0,1:0|1:0|1:0|1:0,1:0:0:0:
248,177,5041,2,0,P|220:132|218:73,1,90,0|0,1:0|1:0,1:0:0:0:
365,32,5307,5,2,1:0:0:0:
363,54,5374,1,0,1:0:0:0:
361,76,5440,1,0,1:0:0:0:
359,99,5507,1,0,1:0:0:0:
397,124,5573,1,2,1:0:0:0:
398,146,5640,1,0,1:0:0:0:
400,168,5706,1,0,1:0:0:0:
402,191,5773,1,0,1:0:0:0:
404,213,5839,2,0,L|410:278,3,45,2|0|0|0,1:0|1:0|1:0|1:0,1:0:0:0:
343,236,6105,5,2,1:0:0:0:
311,249,6172,1,0,1:0:0:0:
278,254,6238,1,0,1:0:0:0:
245,252,6305,1,0,1:0:0:0:
213,241,6371,5,2,1:0:0:0:
215,219,6438,1,0,1:0:0:0:
217,197,6504,1,0,1:0:0:0:
220,174,6571,1,0,1:0:0:0:
182,149,6637,1,2,1:0:0:0:
179,126,6704,1,0,1:0:0:0:
177,104,6770,1,0,1:0:0:0:
174,81,6837,1,0,1:0:0:0:
172,58,6903,2,0,L|168:7,3,45,2|0|2|2,1:0|1:0|1:0|1:0,1:0:0:0:
106,40,7170,5,2,1:0:0:0:
76,55,7236,1,0,1:0:0:0:
52,79,7303,1,0,1:0:0:0:
36,108,7369,1,0,1:0:0:0:
29,141,7436,5,2,1:0:0:0:
52,141,7502,1,0,1:0:0:0:
73,147,7569,1,2,1:0:0:0:
93,158,7635,1,0,1:0:0:0:
109,177,7702,6,0,L|157:195,1,45,2|0,1:0|1:0,1:0:0:0:
83,253,7835,2,0,L|131:271,1,45,2|2,1:0|1:0,1:0:0:0:
199,325,7968,5,2,1:0:0:0:
216,311,8034,1,0,1:0:0:0:
237,302,8101,1,2,1:0:0:0:
259,299,8167,1,0,1:0:0:0:
284,303,8234,6,0,L|292:244,1,45,2|2,1:0|1:0,1:0:0:0:
365,308,8367,2,0,L|373:249,1,45,2|2,1:0|1:0,1:0:0:0:
441,205,8500,5,2,1:0:0:0:
429,173,8566,1,2,1:0:0:0:
412,144,8633,1,2,1:0:0:0:
390,118,8699,1,2,1:0:0:0:
363,98,8766,1,2,1:0:0:0:
333,82,8833,1,2,1:0:0:0:
301,73,8899,1,2,1:0:0:0:
267,70,8966,1,2,1:0:0:0:
234,74,9032,5,2,1:0:0:0:
216,87,9099,1,2,1:0:0:0:
195,95,9165,1,2,1:0:0:0:
172,97,9232,1,2,1:0:0:0:
147,95,9298,5,2,1:0:0:0:
145,106,9365,1,2,1:0:0:0:
143,117,9431,1,2,1:0:0:0:
141,128,9498,1,2,1:0:0:0:
139,139,9564,5,2,1:0:0:0:
256,192,9631,12,0,10895,1:0:0:0:
345,85,11161,5,0,1:0:0:0:
265,246,11294,1,0,1:0:0:0:
261,121,11427,1,0,1:0:0:0:
349,210,11560,1,0,1:0:0:0:
138,148,11693,5,4,2:0:0:0:
122,164,11759,1,0,2:0:0:0:
110,183,11826,1,0,2:0:0:0:
103,204,11892,1,0,2:0:0:0:
100,227,11959,1,0,2:0:0:0:
102,249,12025,1,0,2:0:0:0:
109,270,12092,1,0,2:0:0:0:
119,290,12158,1,0,2:0:0:0:
137,310,12225,2,0,P|160:333|181:341,7,45,0|0|0|0|0|0|0|0,2:0|2:0|2:0|2:0|2:0|2:0|2:0|2:0,2:0:0:0:
193,252,12757,6,0,P|250:220|330:249,1,135,0|0,2:0|2:0,2:0:0:0:
263,310,13023,2,0,L|245:171,1,135,0|0,2:0|2:0,2:0:0:0:
168,130,13289,2,0,P|222:97|308:112,1,135,0|0,2:0|2:0,2:0:0:0:
370,150,13555,2,0,P|312:183|246:177,1,135,0|0,2:0|2:0,2:0:0:0:
151,219,13821,5,0,2:0:0:0:
152,241,13888,1,0,2:0:0:0:
158,262,13954,1,0,2:0:0:0:
169,282,14021,1,0,2:0:0:0:
185,298,14087,1,0,2:0:0:0:
204,310,14154,1,0,2:0:0:0:
225,317,14221,1,0,2:0:0:0:
247,319,14287,1,0,2:0:0:0:
271,317,14354,2,0,L|325:310,7,45,0|0|0|0|0|0|0|0,2:0|2:0|2:0|2:0|2:0|2:0|2:0|2:0,2:0:0:0:
311,220,14886,6,0,B|368:150|464:164|467:226|404:214,1,180,0|0,2:0|2:0,2:0:0:0:
192,172,15418,2,0,B|144:234|48:220|45:158|86:169,1,180,0|0,2:0|2:0,2:0:0:0:
169,38,15950,5,0,2:0:0:0:
190,32,16017,1,0,2:0:0:0:
213,30,16083,1,0,2:0:0:0:
235,32,16150,1,0,2:0:0:0:
257,39,16216,1,0,2:0:0:0:
277,49,16283,1,0,2:0:0:0:
295,62,16349,1,0,2:0:0:0:
310,79,16416,1,0,2:0:0:0:
323,101,16482,2,0,L|327:150,3,45,0|0|0|0,2:0|2:0|2:0|2:0,2:0:0:0:
401,95,16748,2,0,L|405:46,3,45,0|0|0|0,2:0|2:0|2:0|2:0,2:0:0:0:
480,100,17014,6,0,B|505:166|481:242|481:242|454:209,1,180,0|0,2:0|2:0,2:0:0:0:
256,352,17546,2,0,B|231:286|255:210|255:210|282:243,1,180,0|0,2:0|2:0,2:0:0:0:
371,83,18079,5,0,2:0:0:0:
352,95,18145,1,0,2:0:0:0:
332,105,18212,1,0,2:0:0:0:
310,111,18278,1,0,2:0:0:0:
288,114,18345,1,0,2:0:0:0:
265,113,18411,1,0,2:0:0:0:
243,108,18478,1,0,2:0:0:0:
222,100,18544,1,0,2:0:0:0:
202,88,18611,2,0,L|197:41,3,45,0|0|0|0,2:0|2:0|2:0|2:0,2:0:0:0:
123,96,18877,2,0,L|118:143,3,45,0|0|0|0,2:0|2:0|2:0|2:0,2:0:0:0:
36,102,19143,5,0,2:0:0:0:
36,113,19209,1,0,2:0:0:0:
37,124,19276,1,0,2:0:0:0:
38,135,19342,1,0,2:0:0:0:
39,146,19409,1,0,2:0:0:0:
40,158,19476,1,0,2:0:0:0:
41,169,19542,1,0,2:0:0:0:
42,180,19609,1,0,2:0:0:0:
43,191,19675,1,0,2:0:0:0:
44,202,19742,1,0,2:0:0:0:
45,214,19808,1,0,2:0:0:0:
46,225,19875,1,0,2:0:0:0:
47,236,19941,1,0,2:0:0:0:
48,247,20008,1,0,2:0:0:0:
49,258,20074,1,0,2:0:0:0:
50,270,20141,1,0,2:0:0:0:
50,282,20207,6,0,L|56:341,3,45,4|0|0|0,2:0|2:0|2:0|2:0,2:0:0:0:
129,275,20473,2,0,L|135:216,3,45,0|0|0|0,2:0|2:0|2:0|2:0,2:0:0:0:
209,279,20739,2,0,L|215:338,3,45,0|0|0|0,2:0|2:0|2:0|2:0,2:0:0:0:
288,272,21005,2,0,L|294:213,3,45,0|0|0|0,2:0|2:0|2:0|2:0,2:0:0:0:
368,276,21272,6,0,P|426:259|498:288,1,135,0|0,2:0|2:0,2:0:0:0:
428,346,21538,2,0,L|433:198,1,135,0|0,2:0|2:0,2:0:0:0:
437,120,21804,2,0,P|396:89|294:95,1,135,0|0,2:0|2:0,2:0:0:0:
235,129,22070,2,0,P|290:165|357:163,1,135,0|2,2:0|2:0,2:0:0:0:
367,253,22336,5,10,2:0:0:0:
355,253,22402,1,0,2:0:0:0:
344,254,22469,1,0,2:0:0:0:
333,255,22535,1,0,2:0:0:0:
322,256,22602,1,0,2:0:0:0:
310,256,22668,1,0,2:0:0:0:
299,257,22735,1,0,2:0:0:0:
288,258,22801,1,0,2:0:0:0:
257,291,22868,5,10,2:0:0:0:
245,290,22935,1,0,2:0:0:0:
234,289,23001,1,0,2:0:0:0:
223,288,23068,1,0,2:0:0:0:
212,287,23134,1,0,2:0:0:0:
200,287,23201,1,0,2:0:0:0:
189,286,23267,1,0,2:0:0:0:
178,285,23334,1,0,2:0:0:0:
166,283,23400,6,0,L|65:274,1,90,10|0,2:0|2:0,2:0:0:0:
76,275,23600,1,0,2:0:0:0:
76,275,23666,1,0,2:0:0:0:
14,348,23799,1,0,2:0:0:0:
18,199,23932,5,10,2:0:0:0:
17,176,23999,1,0,2:0:0:0:
22,154,24065,1,0,2:0:0:0:
32,134,24132,1,0,2:0:0:0:
48,117,24198,1,0,2:0:0:0:
57,122,24265,1,0,2:0:0:0:
68,127,24331,1,2,2:0:0:0:
78,129,24398,1,2,2:0:0:0:
94,131,24464,6,0,P|149:129|202:105,1,90,10|0,2:0|2:0,2:0:0:0:
264,47,24731,1,0,2:0:0:0:
285,41,24797,1,0,2:0:0:0:
308,41,24864,1,0,2:0:0:0:
330,45,24930,1,0,2:0:0:0:
351,54,24997,1,0,2:0:0:0:
342,74,25063,1,0,2:0:0:0:
338,96,25130,1,0,2:0:0:0:
339,119,25196,1,0,2:0:0:0:
348,142,25263,1,0,2:0:0:0:
358,161,25329,1,0,2:0:0:0:
365,183,25396,1,0,2:0:0:0:
367,205,25462,1,0,2:0:0:0:
364,229,25529,6,0,P|361:295|338:326,1,90,10|0,2:0|2:0,2:0:0:0:
349,314,25728,1,0,2:0:0:0:
349,314,25795,1,0,2:0:0:0:
264,343,25928,1,0,2:0:0:0:
283,255,26061,6,0,P|229:234|184:245,1,90,10|0,2:0|2:0,2:0:0:0:
198,238,26260,1,0,2:0:0:0:
198,238,26327,1,0,2:0:0:0:
116,276,26460,1,0,2:0:0:0:
59,205,26593,5,10,2:0:0:0:
60,193,26660,1,0,2:0:0:0:
62,182,26726,1,0,2:0:0:0:
64,171,26793,1,0,2:0:0:0:
66,160,26859,1,0,2:0:0:0:
67,149,26926,1,0,2:0:0:0:
69,138,26992,1,0,2:0:0:0:
71,127,27059,1,0,2:0:0:0:
72,115,27125,2,0,P|112:69|151:63,1,90,10|0,2:0|2:0,2:0:0:0:
133,232,27391,2,0,P|93:278|54:284,1,90,10|0,2:0|2:0,2:0:0:0:
197,149,27657,6,0,L|289:135,1,90,10|0,2:0|2:0,2:0:0:0:
359,82,27857,2,0,P|364:134|393:174,1,90,0|0,2:0|2:0,2:0:0:0:
463,206,28056,1,0,2:0:0:0:
477,356,28189,6,0,L|379:338,1,90,0|0,2:0|2:0,2:0:0:0:
302,363,28389,2,0,P|314:295|300:259,1,90,0|0,2:0|2:0,2:0:0:0:
262,198,28589,1,0,2:0:0:0:
183,341,28722,6,0,L|79:329,1,90,8|0,2:0|2:0,2:0:0:0:
145,257,28921,2,0,L|41:245,1,90,8|0,2:0|2:0,2:0:0:0:
107,172,29121,2,0,L|3:160,1,90,8|0,2:0|2:0,2:0:0:0:
177,112,29387,6,0,B|215:92|291:92|234:131|310:131|348:112,1,180,0|0,2:0|2:0,2:0:0:0:
481,35,29786,5,2,1:0:0:0:
469,54,29852,1,0,1:0:0:0:
462,75,29919,1,0,1:0:0:0:
458,97,29986,1,0,1:0:0:0:
459,120,30052,1,8,1:0:0:0:
464,142,30119,1,0,1:0:0:0:
428,169,30185,1,0,1:0:0:0:
439,188,30252,1,0,1:0:0:0:
446,209,30318,1,2,1:0:0:0:
450,231,30385,1,0,1:0:0:0:
449,254,30451,1,0,1:0:0:0:
444,276,30518,1,0,1:0:0:0:
436,297,30584,2,0,L|416:348,3,45,8|0|0|0,1:0|1:0|1:0|1:0,1:0:0:0:
374,296,30850,6,0,P|329:260|238:280,1,135,2|0,1:0|1:0,1:0:0:0:
300,345,31116,2,0,L|325:207,1,135,8|0,1:0|1:0,1:0:0:0:
356,127,31382,2,0,P|287:129|233:70,1,135,2|0,1:0|1:0,1:0:0:0:
319,43,31648,2,0,P|388:41|442:100,1,135,8|0,1:0|1:0,1:0:0:0:
492,210,31915,5,2,1:0:0:0:
471,201,31981,1,0,1:0:0:0:
448,198,32048,1,0,1:0:0:0:
426,199,32114,1,0,1:0:0:0:
405,206,32181,1,8,1:0:0:0:
385,217,32247,1,0,1:0:0:0:
369,232,32314,1,0,1:0:0:0:
356,251,32380,1,0,1:0:0:0:
346,275,32447,2,0,P|309:307|261:311,1,90,2|0,1:0|1:0,1:0:0:0:
90,296,32713,2,0,P|127:264|175:260,1,90,8|0,1:0|1:0,1:0:0:0:
277,228,32979,5,2,1:0:0:0:
267,221,33045,1,0,1:0:0:0:
260,213,33112,1,0,1:0:0:0:
254,203,33178,1,0,1:0:0:0:
251,190,33245,1,8,1:0:0:0:
284,193,33311,1,0,1:0:0:0:
317,186,33378,1,0,1:0:0:0:
346,169,33444,1,0,1:0:0:0:
370,145,33511,6,0,P|407:113|407:53,1,90,2|2,1:0|1:0,1:0:0:0:
332,37,33711,2,0,P|285:53|222:29,1,90,2|0,1:0|1:0,1:0:0:0:
159,21,33910,1,2,1:0:0:0:
94,88,34043,5,2,1:0:0:0:
107,105,34110,1,0,1:0:0:0:
118,125,34176,1,0,1:0:0:0:
126,146,34243,1,0,1:0:0:0:
129,168,34309,1,8,1:0:0:0:
129,191,34376,1,0,1:0:0:0:
125,213,34442,1,0,1:0:0:0:
118,234,34509,1,0,1:0:0:0:
105,255,34575,2,0,P|96:287|97:313,1,45,2|0,1:0|1:0,1:0:0:0:
180,331,34708,1,0,1:0:0:0:
202,329,34775,1,0,1:0:0:0:
226,328,34841,2,0,P|281:332|328:359,1,90,8|0,1:0|1:0,1:0:0:0:
487,337,35107,6,0,L|481:275,1,45,2|0,1:0|1:0,1:0:0:0:
399,328,35240,2,0,L|393:266,1,45,0|0,1:0|1:0,1:0:0:0:
444,207,35374,1,8,1:0:0:0:
442,195,35440,1,0,1:0:0:0:
441,184,35507,1,0,1:0:0:0:
440,173,35573,1,0,1:0:0:0:
437,161,35640,6,0,L|431:108,1,45,2|0,1:0|1:0,1:0:0:0:
355,67,35773,2,0,L|349:120,1,45,0|0,1:0|1:0,1:0:0:0:
273,160,35906,2,0,L|267:107,1,45,8|0,1:0|1:0,1:0:0:0:
191,66,36039,2,0,L|185:119,1,45,0|0,1:0|1:0,1:0:0:0:
113,142,36172,5,2,1:0:0:0:
99,160,36238,1,0,1:0:0:0:
89,180,36305,1,0,1:0:0:0:
82,202,36371,1,0,1:0:0:0:
79,224,36438,1,8,1:0:0:0:
79,246,36504,1,0,1:0:0:0:
84,268,36571,1,0,1:0:0:0:
92,289,36637,1,0,1:0:0:0:
105,312,36704,1,2,1:0:0:0:
124,300,36770,1,0,1:0:0:0:
144,291,36837,1,0,1:0:0:0:
166,285,36903,1,0,1:0:0:0:
188,282,36970,1,8,1:0:0:0:
211,283,37036,1,0,1:0:0:0:
233,287,37103,1,0,1:0:0:0:
254,295,37170,1,0,1:0:0:0:
275,305,37236,6,0,L|323:310,1,45,2|0,1:0|1:0,1:0:0:0:
304,220,37369,2,0,L|323:175,1,45,0|0,1:0|1:0,1:0:0:0:
234,166,37502,2,0,L|198:133,1,45,8|0,1:0|1:0,1:0:0:0:
160,217,37635,2,0,L|118:241,1,45,0|0,1:0|1:0,1:0:0:0:
186,305,37768,2,0,L|196:352,1,45,2|0,1:0|1:0,1:0:0:0:
275,312,37901,1,0,1:0:0:0:
297,310,37968,1,0,1:0:0:0:
319,309,38034,2,0,P|388:293|416:263,1,90,8|0,1:0|1:0,1:0:0:0:
459,81,38300,6,0,B|467:129|467:129|441:186,1,90,2|0,1:0|1:0,1:0:0:0:
347,182,38566,2,0,P|296:165|246:169,1,90,8|0,1:0|1:0,1:0:0:0:
278,335,38833,2,0,P|296:290|285:240,1,90,2|0,1:0|1:0,1:0:0:0:
159,69,39099,2,0,P|153:113|170:154,1,90,8|0,1:0|1:0,1:0:0:0:
120,283,39365,6,0,P|163:272|227:284,1,90,2|0,1:0|1:0,1:0:0:0:
327,107,39631,2,0,P|282:111|239:100,1,90,8|0,1:0|1:0,1:0:0:0:
401,61,39897,2,0,P|415:103|391:165,1,90,2|0,1:0|1:0,1:0:0:0:
165,139,40163,2,0,P|154:95|168:53,1,90,8|0,1:0|1:0,1:0:0:0:
285,154,40429,5,2,1:0:0:0:
286,176,40495,1,0,1:0:0:0:
293,197,40562,1,0,1:0:0:0:
303,217,40629,1,0,1:0:0:0:
318,234,40695,1,8,1:0:0:0:
336,248,40762,1,0,1:0:0:0:
356,257,40828,1,0,1:0:0:0:
378,262,40895,1,0,1:0:0:0:
401,264,40961,5,2,1:0:0:0:
379,289,41028,1,0,1:0:0:0:
353,310,41094,1,0,1:0:0:0:
323,326,41161,1,0,1:0:0:0:
291,336,41227,1,8,1:0:0:0:
257,340,41294,1,0,1:0:0:0:
224,337,41360,1,0,1:0:0:0:
191,328,41427,1,0,1:0:0:0:
161,312,41493,5,2,1:0:0:0:
180,272,41560,1,0,1:0:0:0:
208,236,41626,1,0,1:0:0:0:
243,208,41693,1,0,1:0:0:0:
283,189,41759,1,8,1:0:0:0:
327,178,41826,1,0,1:0:0:0:
372,178,41892,1,0,1:0:0:0:
416,188,41959,1,0,1:0:0:0:
456,208,42025,5,2,1:0:0:0:
435,168,42092,1,0,1:0:0:0:
405,134,42158,1,0,1:0:0:0:
369,108,42225,1,0,1:0:0:0:
327,91,42291,1,10,1:0:0:0:
283,84,42358,1,0,1:0:0:0:
238,86,42425,1,10,1:0:0:0:
195,99,42491,1,0,1:0:0:0:
156,121,42558,6,0,L|139:167,3,45,2|0|0|0,1:0|1:0|1:0|1:0,1:0:0:0:
230,176,42824,2,0,L|225:224,3,45,8|0|0|0,1:0|1:0|1:0|1:0,1:0:0:0:
313,200,43090,2,0,L|321:248,3,45,2|0|0|0,1:0|1:0|1:0|1:0,1:0:0:0:
398,197,43356,2,0,L|418:241,3,45,8|0|0|0,1:0|1:0|1:0|1:0,1:0:0:0:
481,173,43622,5,2,1:0:0:0:
484,150,43688,1,0,1:0:0:0:
488,128,43755,1,0,1:0:0:0:
491,106,43821,1,0,1:0:0:0:
495,83,43888,1,2,1:0:0:0:
473,88,43954,1,0,1:0:0:0:
450,88,44021,1,2,1:0:0:0:
428,84,44087,1,0,1:0:0:0:
406,74,44154,6,0,P|356:67|307:80,1,90,2|2,1:0|1:0,1:0:0:0:
227,65,44354,2,0,P|241:115|221:161,1,90,2|0,1:0|1:0,1:0:0:0:
172,218,44553,1,2,1:0:0:0:
316,162,44686,5,2,1:0:0:0:
338,158,44753,1,0,1:0:0:0:
360,159,44819,1,2,1:0:0:0:
382,164,44886,1,0,1:0:0:0:
403,173,44952,1,10,1:0:0:0:
422,185,45019,1,0,1:0:0:0:
438,200,45085,1,2,1:0:0:0:
452,218,45152,1,0,1:0:0:0:
464,241,45218,2,0,L|470:292,3,45,2|0|2|0,1:0|1:0|1:0|1:0,1:0:0:0:
382,260,45484,2,0,L|374:310,3,45,10|0|2|0,1:0|1:0|1:0|1:0,1:0:0:0:
298,256,45750,6,0,P|240:265|201:247,1,90,2|0,1:0|1:0,1:0:0:0:
138,308,45950,2,0,P|108:276|96:233,1,90,2|0,1:0|1:0,1:0:0:0:
166,177,46150,1,2,1:0:0:0:
25,155,46283,5,2,1:0:0:0:
232,62,46416,1,0,1:0:0:0:
95,87,46549,1,8,1:0:0:0:
237,147,46682,1,0,1:0:0:0:
85,221,46815,5,2,1:0:0:0:
96,240,46881,1,0,1:0:0:0:
109,258,46948,1,0,1:0:0:0:
125,274,47014,1,0,1:0:0:0:
142,288,47081,1,10,1:0:0:0:
161,300,47147,1,0,1:0:0:0:
182,309,47214,1,0,1:0:0:0:
204,315,47280,1,0,1:0:0:0:
227,316,47347,1,2,1:0:0:0:
245,302,47413,1,0,1:0:0:0:
265,292,47480,1,0,1:0:0:0:
286,284,47546,1,0,1:0:0:0:
308,280,47613,1,10,1:0:0:0:
330,278,47680,1,0,1:0:0:0:
353,280,47746,1,0,1:0:0:0:
375,285,47813,1,0,1:0:0:0:
398,295,47879,6,0,P|436:258|439:158,1,135,2|0,1:0|1:0,1:0:0:0:
361,209,48145,2,0,P|347:157|262:104,1,135,2|0,1:0|1:0,1:0:0:0:
270,198,48411,2,0,P|218:183|130:230,1,135,2|0,1:0|1:0,1:0:0:0:
216,269,48677,2,0,P|178:306|175:406,1,135,10|0,1:0|1:0,1:0:0:0:
252,354,48943,5,2,1:0:0:0:
274,352,49010,1,0,1:0:0:0:
296,351,49076,1,0,1:0:0:0:
319,349,49143,1,0,1:0:0:0:
341,348,49209,1,10,1:0:0:0:
364,346,49276,1,0,1:0:0:0:
386,345,49342,1,0,1:0:0:0:
409,343,49409,1,0,1:0:0:0:
434,343,49476,1,2,1:0:0:0:
445,323,49542,1,0,1:0:0:0:
452,302,49609,1,0,1:0:0:0:
453,279,49675,1,0,1:0:0:0:
448,256,49742,1,10,1:0:0:0:
439,235,49808,1,0,1:0:0:0:
436,212,49875,1,0,1:0:0:0:
436,190,49941,1,0,1:0:0:0:
443,166,50008,6,0,P|444:108|418:69,1,90,2|0,1:0|1:0,1:0:0:0:
343,27,50274,1,10,1:0:0:0:
325,40,50340,1,0,1:0:0:0:
304,50,50407,1,0,1:0:0:0:
282,54,50473,1,0,1:0:0:0:
258,53,50540,6,0,L|208:59,1,45,2|0,1:0|1:0,1:0:0:0:
88,94,50673,2,0,L|138:100,1,45,2|0,1:0|1:0,1:0:0:0:
257,137,50806,2,0,L|207:143,1,45,2|0,1:0|1:0,1:0:0:0:
87,178,50939,2,0,L|137:184,1,45,2|0,1:0|1:0,1:0:0:0:
196,246,51072,6,0,P|205:301|183:346,1,90,2|0,1:0|1:0,1:0:0:0:
334,355,51338,1,10,1:0:0:0:
367,353,51405,1,0,1:0:0:0:
401,351,51471,1,0,1:0:0:0:
435,349,51538,1,0,1:0:0:0:
468,347,51604,1,2,1:0:0:0:
480,316,51671,1,0,1:0:0:0:
484,282,51737,1,0,1:0:0:0:
481,249,51804,1,0,1:0:0:0:
470,217,51870,1,10,1:0:0:0:
439,228,51937,1,0,1:0:0:0:
405,233,52003,1,0,1:0:0:0:
372,229,52070,1,0,1:0:0:0:
340,218,52136,6,0,P|293:203|243:208,1,90,2|0,1:0|1:0,1:0:0:0:
253,205,52336,1,0,1:0:0:0:
253,205,52402,1,10,1:0:0:0:
282,299,52535,1,0,1:0:0:0:
186,272,52668,6,0,P|126:263|90:274,1,90,2|0,1:0|1:0,1:0:0:0:
98,270,52868,1,0,1:0:0:0:
98,270,52935,1,10,1:0:0:0:
30,342,53068,1,0,1:0:0:0:
5,246,53201,5,2,1:0:0:0:
7,223,53267,1,0,1:0:0:0:
9,201,53334,1,0,1:0:0:0:
11,178,53400,1,0,1:0:0:0:
14,156,53467,1,10,1:0:0:0:
35,163,53533,1,0,1:0:0:0:
57,166,53600,1,0,1:0:0:0:
79,164,53666,1,0,1:0:0:0:
99,154,53733,5,2,1:0:0:0:
120,146,53799,1,0,1:0:0:0:
142,143,53866,1,0,1:0:0:0:
164,145,53932,1,0,1:0:0:0:
186,141,53999,1,10,1:0:0:0:
203,126,54065,1,0,1:0:0:0:
216,108,54132,1,0,1:0:0:0:
224,87,54198,1,0,1:0:0:0:
237,68,54265,5,2,1:0:0:0:
259,65,54331,1,0,1:0:0:0:
281,67,54398,1,0,1:0:0:0:
303,72,54464,1,0,1:0:0:0:
323,82,54531,1,10,1:0:0:0:
341,96,54597,1,0,1:0:0:0:
356,112,54664,1,0,1:0:0:0:
368,131,54731,1,0,1:0:0:0:
379,155,54797,2,0,P|368:202|389:256,1,90,2|0,1:0|1:0,1:0:0:0:
467,356,55063,2,0,L|371:345,1,90,0|0,1:0|1:0,1:0:0:0:
260,359,55329,5,2,1:0:0:0:
258,336,55396,1,0,1:0:0:0:
260,314,55462,1,0,1:0:0:0:
267,293,55529,1,0,1:0:0:0:
279,273,55595,1,10,1:0:0:0:
294,257,55662,1,0,1:0:0:0:
312,243,55728,1,0,1:0:0:0:
332,234,55795,1,0,1:0:0:0:
356,229,55861,1,2,1:0:0:0:
336,218,55928,1,0,1:0:0:0:
314,211,55994,1,0,1:0:0:0:
292,208,56061,1,0,1:0:0:0:
270,210,56127,1,10,1:0:0:0:
248,216,56194,1,0,1:0:0:0:
228,226,56260,1,0,1:0:0:0:
210,240,56327,1,0,1:0:0:0:
193,258,56393,6,0,B|121:260|121:260|57:223,1,135,2|0,1:0|1:0,1:0:0:0:
142,179,56660,2,0,B|104:117|104:117|104:43,1,135,10|0,1:0|1:0,1:0:0:0:
185,94,56926,2,0,B|219:30|219:30|283:-6,1,135,2|0,1:0|1:0,1:0:0:0:
279,89,57192,2,0,B|351:86|351:86|415:124,1,135,2|0,1:0|1:0,1:0:0:0:
330,168,57458,5,2,1:0:0:0:
322,189,57524,1,0,1:0:0:0:
319,211,57591,1,0,1:0:0:0:
320,233,57657,1,0,1:0:0:0:
324,255,57724,1,10,1:0:0:0:
334,276,57790,1,0,1:0:0:0:
346,294,57857,1,0,1:0:0:0:
362,310,57923,1,0,1:0:0:0:
382,325,57990,1,2,1:0:0:0:
360,330,58056,1,0,1:0:0:0:
337,333,58123,1,0,1:0:0:0:
315,333,58189,1,0,1:0:0:0:
293,330,58256,1,10,1:0:0:0:
271,323,58323,1,0,1:0:0:0:
251,314,58389,1,0,1:0:0:0:
232,302,58456,1,0,1:0:0:0:
213,286,58522,6,0,P|175:256|148:199,1,90,2|0,1:0|1:0,1:0:0:0:
100,80,58788,1,10,1:0:0:0:
120,89,58855,1,0,1:0:0:0:
141,95,58921,1,0,1:0:0:0:
164,98,58988,1,0,1:0:0:0:
189,98,59054,2,0,P|237:91|281:105,1,90,2|0,1:0|1:0,1:0:0:0:
224,219,59320,6,0,L|230:163,1,45,2|0,1:0|1:0,1:0:0:0:
271,57,59453,2,0,L|277:113,1,45,2|0,1:0|1:0,1:0:0:0:
316,180,59586,6,0,P|366:198|414:194,1,90,2|0,1:0|1:0,1:0:0:0:
406,44,59852,1,10,1:0:0:0:
372,47,59919,1,0,1:0:0:0:
338,50,59986,1,0,1:0:0:0:
305,54,60052,1,0,1:0:0:0:
271,57,60119,1,2,1:0:0:0:
246,79,60185,1,0,1:0:0:0:
215,93,60252,1,0,1:0:0:0:
182,99,60318,1,0,1:0:0:0:
148,95,60385,1,10,1:0:0:0:
126,70,60451,1,0,1:0:0:0:
97,53,60518,1,2,1:0:0:0:
64,44,60584,1,0,1:0:0:0:
31,44,60651,6,0,P|14:88|25:139,1,90,2|0,1:0|1:0,1:0:0:0:
81,194,60850,2,0,P|98:238|87:289,1,90,0|0,1:0|1:0,1:0:0:0:
19,331,61050,1,0,1:0:0:0:
171,304,61183,6,0,L|285:301,1,90,2|0,1:0|1:0,1:0:0:0:
350,296,61382,2,0,P|358:246|338:197,1,90,0|0,1:0|1:0,1:0:0:0:
283,143,61582,1,0,1:0:0:0:
260,301,61715,5,2,1:0:0:0:
411,243,61848,1,2,1:0:0:0:
251,216,61981,1,10,1:0:0:0:
310,366,62114,1,2,1:0:0:0:
335,206,62247,1,2,1:0:0:0:
183,263,62380,1,2,1:0:0:0:
342,289,62513,1,10,1:0:0:0:
284,137,62646,1,2,1:0:0:0:
284,137,62713,1,2,1:0:0:0:
284,137,62779,5,2,1:0:0:0:
260,301,62912,1,2,1:0:0:0:
411,243,63045,1,10,1:0:0:0:
247,212,63178,1,2,1:0:0:0:
247,212,63245,1,2,1:0:0:0:
247,212,63311,1,2,1:0:0:0:
310,366,63444,1,2,1:0:0:0:
335,206,63578,1,10,1:0:0:0:
183,263,63711,1,2,1:0:0:0:
183,263,63777,1,2,1:0:0:0:
183,263,63844,5,2,1:0:0:0:
152,249,63910,1,2,1:0:0:0:
127,226,63977,1,2,1:0:0:0:
113,196,64043,1,2,1:0:0:0:
110,162,64110,1,10,1:0:0:0:
142,173,64176,1,2,1:0:0:0:
175,178,64243,1,2,1:0:0:0:
209,178,64309,1,2,1:0:0:0:
242,171,64376,1,2,1:0:0:0:
274,159,64442,1,2,1:0:0:0:
302,141,64509,1,2,1:0:0:0:
328,119,64575,1,2,1:0:0:0:
349,93,64642,1,10,1:0:0:0:
359,125,64708,1,2,1:0:0:0:
360,159,64775,1,2,1:0:0:0:
351,191,64841,1,2,1:0:0:0:
333,220,64908,5,6,1:0:0:0:
123,97,66770,5,2,1:0:0:0:
135,108,66970,5,2,1:0:0:0:
223,120,67036,1,2,1:0:0:0:
362,300,68810,5,0,1:0:0:0:
362,205,69065,5,0,1:0:0:0:
362,205,69165,2,0,L|372:132,2,59.99999999999999,2|0|0,1:0|1:0|1:0,1:0:0:0:
255,260,69431,2,0,L|265:333,2,59.99999999999999,8|0|2,1:0|1:0|1:0,1:0:0:0:
152,196,69697,2,0,L|162:123,2,59.99999999999999,0|0|2,1:0|1:0|1:0,1:0:0:0:
47,256,69963,1,8,1:0:0:0:
159,312,70141,1,2,1:0:0:0:
159,312,70229,6,0,L|232:309,2,59.99999999999999,0|0|2,1:0|1:0|1:0,1:0:0:0:
341,248,70495,2,0,L|267:245,2,59.99999999999999,8|0|2,1:0|1:0|1:0,1:0:0:0:
155,189,70762,2,0,L|228:186,2,59.99999999999999,0|0|2,1:0|1:0|1:0,1:0:0:0:
47,256,71028,1,8,1:0:0:0:
119,90,71194,5,0,1:0:0:0:
119,90,71294,2,0,L|124:22,2,59.99999999999999,2|0|0,1:0|1:0|1:0,1:0:0:0:
174,196,71560,1,8,1:0:0:0:
337,65,71737,1,2,1:0:0:0:
337,65,71826,2,0,L|406:60,2,59.99999999999999,0|0|2,1:0|1:0|1:0,1:0:0:0:
222,27,72092,1,8,1:0:0:0:
360,223,72269,5,2,1:0:0:0:
360,223,72358,2,0,L|363:186,6,22.5,2|0|0|0|0|0|0,1:0|1:0|1:0|1:0|1:0|1:0|1:0,1:0:0:0:
300,291,72624,2,0,L|303:328,6,22.5,2|0|0|0|0|0|0,1:0|1:0|1:0|1:0|1:0|1:0|1:0,1:0:0:0:
239,223,72890,2,0,L|242:186,6,22.5,2|0|0|0|0|0|0,1:0|1:0|1:0|1:0|1:0|1:0|1:0,1:0:0:0:
179,291,73156,2,0,L|182:328,6,22.5,2|0|0|0|0|0|0,1:0|1:0|1:0|1:0|1:0|1:0|1:0,1:0:0:0:
129,214,73422,6,0,P|105:174|127:77,1,135,2|0,1:0|1:0,1:0:0:0:
186,148,73688,2,0,P|208:107|303:77,1,135,0|0,1:0|1:0,1:0:0:0:
280,165,73954,2,0,P|326:164|399:231,1,135,0|0,1:0|1:0,1:0:0:0:
424,302,74221,2,0,P|377:302|304:235,1,135,0|0,1:0|1:0,1:0:0:0:
220,237,74487,6,0,P|216:295|213:373,1,135,2|0,1:0|1:0,1:0:0:0:
132,209,74753,2,0,P|128:267|125:345,1,135,2|0,1:0|1:0,1:0:0:0:
44,181,75019,2,0,P|40:239|37:317,1,135,2|0,1:0|1:0,1:0:0:0:
37,315,75285,1,2,1:0:0:0:
401,163,75462,5,0,1:0:0:0:
401,163,75551,2,0,B|377:100|377:100|317:68,1,135,2|0,1:0|1:0,1:0:0:0:
314,158,75817,2,0,B|247:147|247:147|190:183,1,135,2|0,1:0|1:0,1:0:0:0:
265,233,76083,2,0,B|222:285|222:285|224:352,1,135,2|0,1:0|1:0,1:0:0:0:
307,315,76349,2,0,B|349:262|349:262|347:195,1,135,2|0,1:0|1:0,1:0:0:0:
272,143,76615,6,0,L|134:132,1,135,2|0,1:0|1:0,1:0:0:0:
265,233,76881,2,0,L|127:222,1,135,2|0,1:0|1:0,1:0:0:0:
256,322,77147,2,0,L|182:316,2,59.99999999999999,2|0|0,1:0|1:0|1:0,1:0:0:0:
370,357,77413,2,0,P|407:310|405:229,1,135,2|0,1:0|1:0,1:0:0:0:
452,157,77680,5,2,1:0:0:0:
413,111,77768,1,0,1:0:0:0:
359,88,77857,1,0,1:0:0:0:
300,93,77946,1,0,1:0:0:0:
242,110,78034,1,0,1:0:0:0:
183,107,78123,1,0,1:0:0:0:
128,83,78212,1,0,1:0:0:0:
100,135,78300,1,0,1:0:0:0:
96,195,78389,1,0,1:0:0:0:
115,251,78478,2,0,P|146:295|219:325,1,119.99999999999999,0|0,1:0|1:0,1:0:0:0:
322,352,78744,5,0,1:0:0:0:
314,293,78833,1,0,1:0:0:0:
340,240,78921,1,0,1:0:0:0:
390,209,79010,1,0,1:0:0:0:
400,150,79099,1,0,1:0:0:0:
378,95,79187,1,0,1:0:0:0:
330,60,79276,1,0,1:0:0:0:
270,64,79365,1,0,1:0:0:0:
211,67,79453,1,0,1:0:0:0:
151,71,79542,1,0,1:0:0:0:
61,250,79808,6,0,L|57:196,3,45,2|0|2|0,1:0|1:0|1:0|1:0,1:0:0:0:
116,274,80074,2,0,L|112:328,3,45,2|0|2|2,1:0|1:0|1:0|1:0,1:0:0:0:
171,249,80340,2,0,L|167:195,3,45,2|0|2|0,1:0|1:0|1:0|1:0,1:0:0:0:
226,273,80606,2,0,L|222:327,3,45,2|2|2|2,1:0|1:0|1:0|1:0,1:0:0:0:
279,247,80872,5,2,1:0:0:0:
299,236,80939,1,2,1:0:0:0:
320,229,81005,1,2,1:0:0:0:
342,224,81072,1,2,1:0:0:0:
364,222,81138,1,2,1:0:0:0:
387,223,81205,1,2,1:0:0:0:
409,227,81272,1,2,1:0:0:0:
430,234,81338,1,2,1:0:0:0:
453,246,81405,5,2,1:0:0:0:
422,278,81471,1,2,1:0:0:0:
385,304,81538,1,2,1:0:0:0:
344,322,81604,1,2,1:0:0:0:
300,331,81671,1,2,1:0:0:0:
255,332,81737,1,2,1:0:0:0:
211,323,81804,1,2,1:0:0:0:
170,305,81870,1,2,1:0:0:0:
133,280,81937,5,2,1:0:0:0:
113,213,86327,6,0,L|103:108,2,90,0|0|0,2:0|2:0|2:0,2:0:0:0:
168,284,86726,1,0,2:0:0:0:
250,247,86859,1,0,2:0:0:0:
312,311,86992,1,0,2:0:0:0:
394,274,87125,1,0,2:0:0:0:
363,55,87391,6,0,L|373:165,2,90,0|0|0,2:0|2:0|2:0,2:0:0:0:
275,34,87790,2,0,P|227:53|184:49,1,90,0|0,2:0|2:0,2:0:0:0:
100,43,87990,2,0,P|52:24|9:28,1,90,0|0,2:0|2:0,2:0:0:0:
39,113,88189,1,0,2:0:0:0:
123,294,88456,6,0,L|132:197,2,90,0|0|0,2:0|2:0|2:0,2:0:0:0:
203,333,88855,2,0,P|259:354|306:345,1,90,0|0,2:0|2:0,2:0:0:0:
159,130,89121,2,0,P|114:129|73:148,1,90,0|0,2:0|2:0,2:0:0:0:
238,220,89387,6,0,L|358:211,1,90,0|0,2:0|2:0,2:0:0:0:
283,135,89586,2,0,L|403:126,1,90,0|0,2:0|2:0,2:0:0:0:
417,207,89786,1,0,2:0:0:0:
327,213,89919,6,0,P|318:264|333:309,1,90,0|0,2:0|2:0,2:0:0:0:
252,257,90119,2,0,P|291:290|338:299,1,90,0|0,2:0|2:0,2:0:0:0:
327,299,90318,1,0,2:0:0:0:
381,136,90451,6,0,P|331:115|282:130,1,90,0|0,2:0|2:0,2:0:0:0:
278,133,90651,1,0,2:0:0:0:
258,143,90717,1,0,2:0:0:0:
236,149,90784,1,0,2:0:0:0:
214,153,90850,1,0,2:0:0:0:
192,154,90917,1,0,2:0:0:0:
167,149,90983,1,0,2:0:0:0:
150,163,91050,1,0,2:0:0:0:
136,181,91116,1,0,2:0:0:0:
127,201,91183,1,0,2:0:0:0:
121,223,91249,1,0,2:0:0:0:
121,246,91316,1,0,2:0:0:0:
126,268,91382,1,0,2:0:0:0:
135,288,91449,1,0,2:0:0:0:
148,307,91515,6,0,B|192:262|303:262|236:351|347:351|391:307,1,270,0|0,2:0|2:0,2:0:0:0:
216,119,92048,5,0,2:0:0:0:
148,307,92181,1,0,2:0:0:0:
330,254,92314,1,8,2:0:0:0:
210,359,92447,1,0,2:0:0:0:
248,170,92580,5,6,1:0:0:0:
236,169,92646,1,0,1:0:0:0:
225,168,92713,1,0,1:0:0:0:
214,167,92779,1,0,1:0:0:0:
203,166,92846,1,0,1:0:0:0:
191,166,92912,1,0,1:0:0:0:
180,165,92979,1,0,1:0:0:0:
169,164,93045,1,0,1:0:0:0:
158,163,93112,1,0,1:0:0:0:
151,153,93178,1,0,1:0:0:0:
147,143,93245,1,0,1:0:0:0:
143,132,93311,1,0,1:0:0:0:
141,121,93378,1,0,1:0:0:0:
141,110,93444,1,0,1:0:0:0:
142,99,93511,1,0,1:0:0:0:
144,88,93578,1,0,1:0:0:0:
148,75,93644,6,0,L|284:54,1,135,0|0,1:0|1:0,1:0:0:0:
210,110,93910,2,0,L|296:217,1,135,0|0,1:0|1:0,1:0:0:0:
209,182,94176,2,0,L|159:310,1,135,0|0,1:0|1:0,1:0:0:0:
146,218,94442,2,0,L|9:239,1,135,0|0,1:0|1:0,1:0:0:0:
88,91,94708,5,0,1:0:0:0:
96,83,94775,1,0,1:0:0:0:
105,77,94841,1,0,1:0:0:0:
116,72,94908,1,0,1:0:0:0:
126,69,94974,1,0,1:0:0:0:
137,66,95041,1,0,1:0:0:0:
148,65,95107,1,0,1:0:0:0:
160,66,95174,1,0,1:0:0:0:
171,68,95240,1,0,1:0:0:0:
181,72,95307,1,0,1:0:0:0:
191,77,95374,1,0,1:0:0:0:
200,83,95440,1,0,1:0:0:0:
209,90,95507,5,0,1:0:0:0:
218,97,95573,1,0,1:0:0:0:
228,103,95640,1,0,1:0:0:0:
238,109,95706,1,0,1:0:0:0:
248,112,95773,1,0,1:0:0:0:
259,115,95839,1,0,1:0:0:0:
270,115,95906,1,0,1:0:0:0:
282,114,95972,1,0,1:0:0:0:
293,112,96039,1,0,1:0:0:0:
303,108,96105,1,0,1:0:0:0:
313,103,96172,1,0,1:0:0:0:
323,97,96238,1,0,1:0:0:0:
331,90,96305,5,2,1:0:0:0:
446,93,96438,2,0,L|451:68,2,22.5,2|0|2,1:0|1:0|1:0,1:0:0:0:
418,129,96571,1,2,1:0:0:0:
496,184,96704,2,2,L|501:245,1,45,0|0,1:0|1:0,1:0:0:0:
455,308,96837,6,0,P|415:330|346:332,1,90,6|0,1:0|1:0,1:0:0:0:
240,207,97103,2,0,P|280:185|349:183,1,90,10|0,1:0|1:0,1:0:0:0:
270,308,97369,1,2,1:0:0:0:
247,306,97436,1,0,1:0:0:0:
225,305,97502,1,0,1:0:0:0:
202,303,97569,1,0,1:0:0:0:
177,300,97635,1,10,1:0:0:0:
183,278,97702,1,0,1:0:0:0:
185,256,97768,1,0,1:0:0:0:
182,233,97835,1,0,1:0:0:0:
175,210,97901,6,0,P|153:173|163:111,1,90,2|0,1:0|1:0,1:0:0:0:
93,60,98101,2,0,P|130:38|192:48,1,90,0|0,1:0|1:0,1:0:0:0:
239,101,98300,1,0,1:0:0:0:
387,39,98433,6,0,L|396:135,1,90,2|0,1:0|1:0,1:0:0:0:
334,195,98633,2,0,P|380:218|434:210,1,90,0|0,1:0|1:0,1:0:0:0:
482,154,98833,1,0,1:0:0:0:
451,300,98966,6,0,P|406:323|308:313,1,135,6|0,1:0|1:0,1:0:0:0:
235,342,99232,2,0,P|250:276|235:198,1,135,10|0,1:0|1:0,1:0:0:0:
183,139,99498,2,0,P|224:98|332:97,1,135,6|0,1:0|1:0,1:0:0:0:
369,29,99764,2,0,P|406:68|427:174,1,135,10|0,1:0|1:0,1:0:0:0:
468,226,100030,5,6,1:0:0:0:
448,237,100096,1,0,1:0:0:0:
427,246,100163,1,0,1:0:0:0:
406,252,100229,1,0,1:0:0:0:
384,255,100296,1,10,1:0:0:0:
361,255,100362,1,0,1:0:0:0:
339,252,100429,1,0,1:0:0:0:
317,246,100495,1,0,1:0:0:0:
284,276,100562,5,10,1:0:0:0:
264,264,100629,1,0,1:0:0:0:
243,255,100695,1,0,1:0:0:0:
222,249,100762,1,0,1:0:0:0:
200,246,100828,1,0,1:0:0:0:
177,246,100895,1,0,1:0:0:0:
155,249,100961,1,0,1:0:0:0:
133,255,101028,1,0,1:0:0:0:
108,265,101094,6,0,P|86:227|83:168,1,90,6|0,1:0|1:0,1:0:0:0:
93,20,101360,2,0,P|115:58|118:117,1,90,10|0,1:0|1:0,1:0:0:0:
80,181,101626,1,2,1:0:0:0:
101,186,101693,1,0,1:0:0:0:
124,188,101759,1,0,1:0:0:0:
146,187,101826,1,0,1:0:0:0:
168,183,101892,1,10,1:0:0:0:
189,175,101959,1,0,1:0:0:0:
209,165,102025,1,0,1:0:0:0:
227,151,102092,1,0,1:0:0:0:
244,132,102158,6,0,B|286:105|286:105|343:112|384:155,1,135,2|0,1:0|1:0,1:0:0:0:
293,196,102425,2,0,B|337:218|337:218|359:271|343:328,1,135,10|0,1:0|1:0,1:0:0:0:
263,271,102691,2,0,B|265:320|265:320|230:366|173:380,1,135,2|0,1:0|1:0,1:0:0:0:
184,282,102957,2,0,B|142:309|142:309|84:302|43:259,1,135,2|0,1:0|1:0,1:0:0:0:
29,175,103223,5,2,1:0:0:0:
45,160,103289,1,0,1:0:0:0:
64,148,103356,1,0,1:0:0:0:
85,139,103422,1,0,1:0:0:0:
107,133,103489,1,10,1:0:0:0:
129,131,103555,1,0,1:0:0:0:
151,132,103622,1,0,1:0:0:0:
173,136,103688,1,0,1:0:0:0:
195,142,103755,5,2,1:0:0:0:
211,127,103821,1,0,1:0:0:0:
230,115,103888,1,0,1:0:0:0:
251,106,103954,1,0,1:0:0:0:
273,100,104021,1,10,1:0:0:0:
295,98,104087,1,0,1:0:0:0:
317,99,104154,1,0,1:0:0:0:
339,103,104221,1,0,1:0:0:0:
362,112,104287,6,0,P|404:136|430:181,1,90,2|0,1:0|1:0,1:0:0:0:
426,170,104487,1,0,1:0:0:0:
426,170,104553,1,10,1:0:0:0:
409,258,104686,1,0,1:0:0:0:
344,194,104819,6,0,L|240:197,1,90,2|0,1:0|1:0,1:0:0:0:
254,196,105019,1,0,1:0:0:0:
254,196,105085,1,10,1:0:0:0:
185,254,105218,1,2,1:0:0:0:
181,164,105351,6,0,P|196:116|188:71,1,90,6|0,1:0|1:0,1:0:0:0:
68,31,105617,1,10,1:0:0:0:
63,75,105684,1,0,1:0:0:0:
59,120,105750,1,0,1:0:0:0:
54,165,105817,1,0,1:0:0:0:
50,210,105884,1,2,1:0:0:0:
84,239,105950,1,0,1:0:0:0:
125,256,106017,1,0,1:0:0:0:
170,261,106083,1,0,1:0:0:0:
214,253,106150,1,10,1:0:0:0:
186,288,106216,1,0,1:0:0:0:
147,309,106283,1,2,1:0:0:0:
102,316,106349,1,0,1:0:0:0:
59,306,106416,6,0,P|40:260|46:208,1,90,2|0,1:0|1:0,1:0:0:0:
24,133,106615,2,0,L|127:126,1,90,0|2,1:0|1:0,1:0:0:0:
204,125,106815,1,2,1:0:0:0:
326,50,106948,6,0,P|312:98|331:159,1,90,2|0,1:0|1:0,1:0:0:0:
406,152,107147,2,0,P|420:200|401:261,1,90,0|2,1:0|1:0,1:0:0:0:
363,314,107347,1,2,1:0:0:0:
329,198,107480,6,0,P|280:204|231:197,1,90,6|0,1:0|1:0,1:0:0:0:
239,199,107680,1,0,1:0:0:0:
239,199,107746,1,10,1:0:0:0:
196,120,107879,1,2,1:0:0:0:
148,196,108012,6,0,L|141:301,1,90,2|0,1:0|1:0,1:0:0:0:
142,285,108212,1,0,1:0:0:0:
142,285,108278,1,10,1:0:0:0:
97,363,108411,1,2,1:0:0:0:
186,366,108544,5,6,1:0:0:0:
208,370,108611,1,0,1:0:0:0:
230,372,108677,1,2,1:0:0:0:
252,372,108744,1,0,1:0:0:0:
275,370,108810,1,10,1:0:0:0:
297,365,108877,1,0,1:0:0:0:
318,358,108943,1,2,1:0:0:0:
339,349,109010,1,2,1:0:0:0:
361,338,109076,1,2,1:0:0:0:
338,337,109143,1,0,1:0:0:0:
316,333,109209,1,2,1:0:0:0:
295,326,109276,1,0,1:0:0:0:
274,316,109342,1,10,1:0:0:0:
256,303,109409,1,0,1:0:0:0:
239,288,109476,1,2,1:0:0:0:
225,270,109542,1,2,1:0:0:0:
210,246,109609,6,0,L|201:194,7,45,2|2|2|2|10|2|2|2,1:0|1:0|1:0|1:0|1:0|1:0|1:0|1:0,1:0:0:0:
132,259,110141,2,0,L|123:311,7,45,2|2|2|2|10|2|2|2,1:0|1:0|1:0|1:0|1:0|1:0|1:0|1:0,1:0:0:0:
57,240,110673,5,2,1:0:0:0:
37,212,110739,1,0,1:0:0:0:
26,181,110806,1,2,1:0:0:0:
25,147,110872,1,0,1:0:0:0:
34,115,110939,1,10,1:0:0:0:
52,86,111005,1,0,1:0:0:0:
78,65,111072,1,2,1:0:0:0:
109,52,111138,1,2,1:0:0:0:
142,49,111205,1,2,1:0:0:0:
128,79,111272,1,0,1:0:0:0:
124,112,111338,1,2,1:0:0:0:
132,145,111405,1,0,1:0:0:0:
149,174,111471,1,10,1:0:0:0:
175,196,111538,1,0,1:0:0:0:
206,208,111604,1,2,1:0:0:0:
240,209,111671,1,2,1:0:0:0:
272,200,111737,5,2,1:0:0:0:
252,160,111804,1,2,1:0:0:0:
221,127,111870,1,2,1:0:0:0:
182,106,111937,1,2,1:0:0:0:
138,97,112003,1,2,1:0:0:0:
93,102,112070,1,2,1:0:0:0:
52,120,112136,1,2,1:0:0:0:
19,150,112203,1,2,1:0:0:0:
0,188,112269,1,2,1:0:0:0:
37,206,112336,1,2,1:0:0:0:
81,216,112402,1,2,1:0:0:0:
126,216,112469,1,2,1:0:0:0:
170,208,112535,1,2,1:0:0:0:
211,191,112602,1,2,1:0:0:0:
249,166,112668,1,2,1:0:0:0:
281,134,112735,1,2,1:0:0:0:
306,97,112801,6,0,B|256:97|258:43|312:12|368:43|364:95|354:137|308:156|276:220|308:284,1,337.5,6|0,1:0|1:0,1:0:0:0:
233,356,114930,5,2,1:0:0:0:
210,359,114997,1,2,1:0:0:0:
188,358,115063,1,2,1:0:0:0:
166,354,115130,1,2,1:0:0:0:
145,345,115196,1,2,1:0:0:0:
126,334,115263,1,2,1:0:0:0:
109,319,115329,1,2,1:0:0:0:
94,302,115396,1,2,1:0:0:0:
82,280,115462,1,2,1:0:0:0:
103,285,115529,1,2,1:0:0:0:
126,287,115595,1,2,1:0:0:0:
148,285,115662,1,2,1:0:0:0:
170,279,115728,1,2,1:0:0:0:
190,269,115795,1,2,1:0:0:0:
208,255,115861,1,2,1:0:0:0:
223,239,115928,1,2,1:0:0:0:
235,218,115994,6,0,L|240:166,1,45,2|2,1:0|1:0,1:0:0:0:
317,127,116127,2,0,L|322:179,1,45,2|2,1:0|1:0,1:0:0:0:
398,220,116260,2,0,L|403:168,1,45,2|2,1:0|1:0,1:0:0:0:
432,89,116393,5,2,1:0:0:0:
399,57,116460,1,2,1:0:0:0:
360,35,116527,1,0,1:0:0:0:
317,24,116593,1,0,1:0:0:0:
272,25,116660,1,0,1:0:0:0:
229,38,116726,1,0,1:0:0:0:
191,61,116793,5,0,1:0:0:0:
197,83,116859,1,0,1:0:0:0:
199,105,116926,1,0,1:0:0:0:
197,128,116992,1,0,1:0:0:0:
191,149,117059,5,4,1:0:0:0:
