osu file format v14

[General]
AudioFilename: audio.mp3
AudioLeadIn: 0
PreviewTime: 46283
Countdown: 0
SampleSet: Soft
StackLeniency: 0.2
Mode: 0
LetterboxInBreaks: 0
WidescreenStoryboard: 1

[Editor]
DistanceSpacing: 1
BeatDivisor: 4
GridSize: 4
TimelineZoom: 2.1

[Metadata]
Title:Glorious Crown
TitleUnicode:Glorious Crown
Artist:xi
ArtistUnicode:xi
Creator:Anxient
Version:LP's CROWN ULTRA
Source:maimai PiNK
Tags:Electronic Instrumental Video Games freedom dive sequel deathstream snownino_ happy hardcore lama poluna toybot
BeatmapID:992474
BeatmapSetID:460515

[Difficulty]
HPDrainRate:7
CircleSize:4
OverallDifficulty:8
ApproachRate:9.5
SliderMultiplier:1.8
SliderTickRate:1

[Events]
//Background and Video events
0,0,"bg.jpg",0,0
//Break Periods
2,9764,10635
2,86394,91522
//Storyboard Layer 0 (Background)
//Storyboard Layer 1 (Fail)
//Storyboard Layer 2 (Pass)
//Storyboard Layer 3 (Foreground)
//Storyboard Layer 4 (Overlay)
//Storyboard Sound Samples

[TimingPoints]
-14,266.075388026608,4,2,1,80,1,0
29520,-83.3333333333333,4,2,1,80,0,0
46815,-83.3333333333333,4,2,1,80,0,1
54797,-200,4,2,1,80,0,1
56127,-83.3333333333333,4,2,1,80,0,1
63844,-83.3333333333333,4,2,2,80,0,1
64908,-83.3333333333333,4,2,1,80,0,0
65174,-100,4,2,1,80,0,0
73156,-200,4,2,1,80,0,0
73422,-100,4,2,1,80,0,0
77680,-76.9230769230769,4,2,1,80,0,0
80207,-100,4,2,1,80,0,0
96438,-66.6666666666667,4,2,1,80,0,0
96837,-66.6666666666667,4,2,1,80,0,1
97768,-83.3333333333333,4,2,1,80,0,1
114930,-83.3333333333333,4,2,2,80,0,1
117059,-83.3333333333333,4,2,1,80,0,0

[Colours]
Combo1 : 251,228,153
Combo2 : 237,156,84
Combo3 : 131,87,247
Combo4 : 193,218,232

[HitObjects]
24,332,1050,5,0,2:0:0:0:
60,357,1116,1,0,2:0:0:0:
104,363,1183,1,0,2:0:0:0:
147,349,1249,1,0,2:0:0:0:
179,318,1316,2,0,L|188:252,1,45,0|0,2:0|2:0,2:0:0:0:
208,112,1449,5,0,2:0:0:0:
244,87,1515,1,0,2:0:0:0:
288,81,1582,1,0,2:0:0:0:
331,95,1648,1,0,2:0:0:0:
363,126,1715,2,0,L|372:192,1,45,0|0,2:0|2:0,2:0:0:0:
484,316,1848,6,0,B|452:332|452:332|360:320,1,90,0|0,2:0|2:0,2:0:0:0:
264,316,2114,1,0,2:0:0:0:
260,308,2181,1,0,2:0:0:0:
256,300,2247,2,0,L|320:308,1,45,0|0,2:0|2:0,2:0:0:0:
452,224,2380,2,0,L|388:232,1,45,0|0,2:0|2:0,2:0:0:0:
248,200,2513,2,0,L|312:208,1,45,0|0,2:0|2:0,2:0:0:0:
444,124,2646,2,0,L|380:132,1,45,0|0,2:0|2:0,2:0:0:0:
260,52,2779,6,0,L|256:92,2,22.5,0|0|0,2:0|2:0|2:0,2:0:0:0:
299,43,2912,2,0,L|293:103,3,45,0|0|0|0,2:0|2:0|2:0|2:0,2:0:0:0:
340,32,3178,5,0,2:0:0:0:
335,76,3245,1,0,2:0:0:0:
331,121,3311,1,0,2:0:0:0:
326,166,3378,1,0,2:0:0:0:
322,211,3444,2,0,L|312:288,1,45,0|0,2:0|2:0,2:0:0:0:
444,124,3578,5,0,2:0:0:0:
439,169,3644,1,0,2:0:0:0:
435,214,3711,1,0,2:0:0:0:
428,260,3777,1,0,2:0:0:0:
424,304,3844,2,0,L|413:380,1,45,0|0,2:0|2:0,2:0:0:0:
196,332,3977,6,0,B|180:300|180:300|200:212,1,90,0|0,2:0|2:0,2:0:0:0:
232,132,4243,1,0,2:0:0:0:
224,128,4309,1,0,2:0:0:0:
216,124,4376,2,0,P|160:136|152:140,1,45,0|0,2:0|2:0,2:0:0:0:
40,172,4509,2,0,P|96:184|104:188,1,45,0|0,2:0|2:0,2:0:0:0:
192,247,4642,2,0,P|136:259|128:263,1,45,0|0,2:0|2:0,2:0:0:0:
16,295,4775,2,0,P|72:307|80:311,1,45,0|0,2:0|2:0,2:0:0:0:
188,364,4908,6,0,L|185:341,2,22.5,0|0|0,2:0|2:0|2:0,2:0:0:0:
228,360,5041,1,0,2:0:0:0:
268,356,5107,1,0,2:0:0:0:
310,351,5174,2,0,L|308:328,2,22.5,0|0|0,2:0|2:0|2:0,2:0:0:0:
352,348,5307,5,0,2:0:0:0:
379,313,5374,1,0,2:0:0:0:
389,269,5440,1,0,2:0:0:0:
379,226,5507,1,0,2:0:0:0:
351,191,5573,1,0,2:0:0:0:
311,172,5640,1,0,2:0:0:0:
266,172,5706,1,0,2:0:0:0:
226,192,5773,1,0,2:0:0:0:
196,216,5839,1,0,2:0:0:0:
162,243,5906,1,0,2:0:0:0:
118,253,5972,1,0,2:0:0:0:
75,243,6039,1,0,2:0:0:0:
40,215,6105,1,0,2:0:0:0:
21,175,6172,1,0,2:0:0:0:
21,130,6238,1,0,2:0:0:0:
41,90,6305,1,0,2:0:0:0:
108,48,6371,5,0,2:0:0:0:
102,92,6438,1,0,2:0:0:0:
96,137,6504,1,0,2:0:0:0:
91,181,6571,1,0,2:0:0:0:
85,226,6637,1,0,2:0:0:0:
80,271,6704,1,0,2:0:0:0:
74,315,6770,1,0,2:0:0:0:
110,340,6837,1,0,2:0:0:0:
154,336,6903,1,0,2:0:0:0:
185,306,6970,1,0,2:0:0:0:
191,262,7036,6,0,L|144:260,1,45,0|0,2:0|2:0,2:0:0:0:
308,272,7170,2,0,L|355:274,1,45,0|0,2:0|2:0,2:0:0:0:
258,181,7303,6,0,L|254:223,2,22.5,0|0|0,2:0|2:0|2:0,2:0:0:0:
235,86,7436,6,0,P|273:84|294:90,1,45,0|0,2:0|2:0,2:0:0:0:
397,273,7569,2,0,P|359:275|338:269,1,45,0|0,2:0|2:0,2:0:0:0:
486,77,7702,2,0,B|501:121|501:121|476:191,1,90,0|0,2:0|2:0,2:0:0:0:
486,161,7901,1,0,2:0:0:0:
486,161,7968,6,0,L|421:169,1,45,0|0,2:0|2:0,2:0:0:0:
352,7,8101,2,0,L|416:15,1,45,0|0,2:0|2:0,2:0:0:0:
258,181,8234,2,0,L|149:190,1,90,0|0,2:0|2:0,2:0:0:0:
168,188,8433,1,0,2:0:0:0:
168,188,8500,5,0,2:0:0:0:
178,241,8566,1,0,2:0:0:0:
206,287,8633,1,0,2:0:0:0:
249,319,8699,1,0,2:0:0:0:
301,334,8766,1,0,2:0:0:0:
355,329,8833,1,0,2:0:0:0:
404,305,8899,1,0,2:0:0:0:
440,265,8966,1,0,2:0:0:0:
459,215,9032,1,0,2:0:0:0:
459,161,9099,1,0,2:0:0:0:
440,110,9165,1,0,2:0:0:0:
404,70,9232,1,0,2:0:0:0:
355,46,9298,1,0,2:0:0:0:
301,41,9365,1,0,2:0:0:0:
249,56,9431,1,0,2:0:0:0:
206,89,9498,1,0,2:0:0:0:
178,135,9564,5,0,2:0:0:0:
352,192,11161,5,2,2:0:0:0:
372,60,11294,1,2,2:0:0:0:
500,264,11427,5,2,2:0:0:0:
480,132,11560,1,2,2:0:0:0:
384,320,11693,5,4,2:0:0:0:
364,312,11759,1,0,2:0:0:0:
340,308,11826,1,0,2:0:0:0:
316,308,11892,1,2,2:0:0:0:
292,312,11959,1,0,2:0:0:0:
272,320,12025,1,0,2:0:0:0:
252,328,12092,5,2,2:0:0:0:
232,336,12158,1,0,2:0:0:0:
208,340,12225,1,0,2:0:0:0:
184,340,12291,1,2,2:0:0:0:
160,336,12358,1,0,2:0:0:0:
140,328,12425,1,0,2:0:0:0:
120,316,12491,1,2,2:0:0:0:
192,236,12624,1,0,2:0:0:0:
96,8,12757,5,0,2:0:0:0:
92,32,12824,1,0,2:0:0:0:
88,56,12890,1,0,2:0:0:0:
84,76,12957,1,0,2:0:0:0:
60,76,13023,5,0,2:0:0:0:
64,100,13090,1,0,2:0:0:0:
68,124,13156,1,0,2:0:0:0:
72,144,13223,1,0,2:0:0:0:
96,148,13289,5,0,2:0:0:0:
92,172,13356,1,0,2:0:0:0:
88,196,13422,1,2,2:0:0:0:
84,216,13489,1,0,2:0:0:0:
60,212,13555,6,0,L|68:264,3,45,0|0|0|0,2:0|2:0|2:0|2:0,2:0:0:0:
80,348,13821,5,0,2:0:0:0:
100,356,13888,1,0,2:0:0:0:
124,356,13954,2,0,P|172:344|200:324,1,45,0|0,2:0|2:0,2:0:0:0:
248,288,14087,5,0,2:0:0:0:
268,280,14154,1,0,2:0:0:0:
292,280,14221,2,0,P|340:292|368:312,1,45,0|0,2:0|2:0,2:0:0:0:
428,344,14354,5,0,2:0:0:0:
432,320,14420,1,0,2:0:0:0:
436,296,14487,1,0,2:0:0:0:
440,272,14553,1,0,2:0:0:0:
444,252,14620,2,0,L|454:179,3,45,0|0|0|0,2:0|2:0|2:0|2:0,2:0:0:0:
348,172,14886,5,0,2:0:0:0:
328,176,14952,1,0,2:0:0:0:
308,180,15019,1,0,2:0:0:0:
284,184,15085,1,2,2:0:0:0:
264,180,15152,5,0,2:0:0:0:
260,160,15218,1,0,2:0:0:0:
256,140,15285,1,0,2:0:0:0:
252,116,15351,1,0,2:0:0:0:
256,92,15418,5,0,2:0:0:0:
276,88,15484,1,0,2:0:0:0:
296,84,15551,1,0,2:0:0:0:
320,80,15617,1,2,2:0:0:0:
340,92,15684,6,0,L|348:140,3,45,0|0|0|0,2:0|2:0|2:0|2:0,2:0:0:0:
447,96,15950,5,0,2:0:0:0:
444,118,16017,1,0,2:0:0:0:
441,140,16083,1,0,2:0:0:0:
439,163,16150,1,0,2:0:0:0:
436,185,16216,1,0,2:0:0:0:
433,207,16283,1,0,2:0:0:0:
431,230,16349,1,0,2:0:0:0:
428,252,16416,1,0,2:0:0:0:
426,274,16482,2,0,L|419:326,1,45,0|0,2:0|2:0,2:0:0:0:
314,375,16615,2,0,L|320:330,1,45,0|0,2:0|2:0,2:0:0:0:
337,194,16748,2,0,L|329:245,1,45,0|0,2:0|2:0,2:0:0:0:
224,294,16881,2,0,L|230:249,1,45,0|0,2:0|2:0,2:0:0:0:
186,157,17014,5,0,2:0:0:0:
165,148,17081,1,0,2:0:0:0:
143,143,17147,1,0,2:0:0:0:
121,142,17214,1,0,2:0:0:0:
98,144,17280,1,0,2:0:0:0:
77,150,17347,1,0,2:0:0:0:
56,160,17413,1,0,2:0:0:0:
38,172,17480,1,0,2:0:0:0:
21,188,17546,2,0,L|24:236,3,45,0|0|0|0,2:0|2:0|2:0|2:0,2:0:0:0:
28,320,17813,2,0,L|31:368,3,45,0|0|0|0,2:0|2:0|2:0|2:0,2:0:0:0:
104,268,18079,5,0,2:0:0:0:
108,244,18145,1,0,2:0:0:0:
112,224,18212,1,0,2:0:0:0:
116,200,18278,1,2,2:0:0:0:
120,176,18345,1,0,2:0:0:0:
124,152,18411,1,0,2:0:0:0:
128,132,18478,1,0,2:0:0:0:
132,108,18544,1,2,2:0:0:0:
136,84,18611,1,0,2:0:0:0:
140,60,18677,1,0,2:0:0:0:
144,36,18744,2,0,L|200:48,2,45,0|0|0,2:0|2:0|2:0,2:0:0:0:
44,100,18943,2,0,L|0:90,2,45,0|0|0,2:0|2:0|2:0,2:0:0:0:
212,172,19143,6,0,L|256:168,1,45,0|0,2:0|2:0,2:0:0:0:
456,152,19276,1,0,2:0:0:0:
452,178,19342,1,0,2:0:0:0:
448,205,19409,1,0,2:0:0:0:
444,232,19476,1,0,2:0:0:0:
436,260,19542,5,0,2:0:0:0:
424,280,19609,1,0,2:0:0:0:
408,296,19675,1,0,2:0:0:0:
388,308,19742,1,0,2:0:0:0:
368,316,19808,1,0,2:0:0:0:
344,320,19875,1,0,2:0:0:0:
320,320,19941,6,0,P|272:304|256:288,1,45,0|0,2:0|2:0,2:0:0:0:
76,320,20074,2,0,P|124:336|140:352,1,45,0|0,2:0|2:0,2:0:0:0:
208,352,20207,5,6,2:0:0:0:
204,328,20274,1,0,2:0:0:0:
200,304,20340,1,0,2:0:0:0:
196,280,20407,1,0,2:0:0:0:
192,256,20473,1,0,2:0:0:0:
188,232,20540,1,0,2:0:0:0:
184,208,20606,1,0,2:0:0:0:
180,184,20673,1,0,2:0:0:0:
176,164,20739,2,0,L|112:180,1,45,0|0,2:0|2:0,2:0:0:0:
272,204,20872,2,0,L|315:193,1,45,0|0,2:0|2:0,2:0:0:0:
104,296,21005,2,0,L|40:312,1,45,0|0,2:0|2:0,2:0:0:0:
320,348,21138,2,0,L|363:337,1,45,0|0,2:0|2:0,2:0:0:0:
400,248,21272,5,0,2:0:0:0:
420,256,21338,1,0,2:0:0:0:
436,272,21405,1,0,2:0:0:0:
135,288,21538,5,0,2:0:0:0:
118,302,21604,1,0,2:0:0:0:
96,307,21671,1,0,2:0:0:0:
232,39,21804,5,0,2:0:0:0:
229,17,21870,1,0,2:0:0:0:
235,0,21937,1,0,2:0:0:0:
244,188,22070,5,0,2:0:0:0:
248,189,22136,1,0,2:0:0:0:
252,190,22203,1,2,2:0:0:0:
256,191,22269,1,0,2:0:0:0:
260,192,22336,6,0,L|336:184,1,45,6|0,2:0|2:0,2:0:0:0:
254,195,22469,2,0,L|222:265,1,45,0|0,2:0|2:0,2:0:0:0:
254,188,22602,2,0,L|209:126,1,45,0|0,2:0|2:0,2:0:0:0:
388,176,22735,6,0,L|464:168,1,45,0|0,2:0|2:0,2:0:0:0:
203,314,22868,2,0,L|172:384,1,45,2|0,2:0|2:0,2:0:0:0:
176,85,23001,2,0,L|131:23,1,45,0|0,2:0|2:0,2:0:0:0:
335,298,23134,6,0,L|380:360,1,45,0|0,2:0|2:0,2:0:0:0:
124,208,23267,2,0,L|47:216,1,45,0|0,2:0|2:0,2:0:0:0:
308,69,23400,2,0,L|339:0,1,45,2|0,2:0|2:0,2:0:0:0:
410,83,23533,5,0,2:0:0:0:
448,105,23600,1,0,2:0:0:0:
475,141,23666,1,0,2:0:0:0:
486,184,23733,1,0,2:0:0:0:
480,228,23799,1,0,2:0:0:0:
457,267,23866,1,0,2:0:0:0:
421,293,23932,1,0,2:0:0:0:
378,304,23999,1,0,2:0:0:0:
334,297,24065,1,0,2:0:0:0:
300,268,24132,1,0,2:0:0:0:
264,241,24198,1,0,2:0:0:0:
220,230,24265,1,0,2:0:0:0:
176,237,24331,1,0,2:0:0:0:
136,260,24398,1,0,2:0:0:0:
116,300,24464,6,0,P|120:364|128:376,15,45,0|0|0|0|0|0|0|0|0|0|0|0|0|0|0|0,2:0|2:0|2:0|2:0|2:0|2:0|2:0|2:0|2:0|2:0|2:0|2:0|2:0|2:0|2:0|2:0,2:0:0:0:
212,360,25529,6,0,L|276:368,7,45,0|0|0|0|0|0|0|0,2:0|2:0|2:0|2:0|2:0|2:0|2:0|2:0,2:0:0:0:
332,224,26061,2,0,L|324:276,7,45,0|0|0|0|0|0|0|0,2:0|2:0|2:0|2:0|2:0|2:0|2:0|2:0,2:0:0:0:
404,384,26593,2,0,L|340:376,7,45,0|0|0|0|0|0|0|0,2:0|2:0|2:0|2:0|2:0|2:0|2:0|2:0,2:0:0:0:
228,232,27125,6,0,L|220:176,3,45,0|0|0|0,2:0|2:0|2:0|2:0,2:0:0:0:
440,220,27391,2,0,L|416:276,3,45,0|0|0|0,2:0|2:0|2:0|2:0,2:0:0:0:
325,268,27657,5,0,2:0:0:0:
325,263,27724,1,0,2:0:0:0:
326,259,27790,1,0,2:0:0:0:
326,254,27857,1,0,2:0:0:0:
327,250,27923,1,0,2:0:0:0:
328,245,27990,1,0,2:0:0:0:
328,241,28056,1,0,2:0:0:0:
329,236,28123,1,0,2:0:0:0:
330,232,28189,5,0,2:0:0:0:
330,227,28256,1,0,2:0:0:0:
331,223,28323,1,0,2:0:0:0:
332,219,28389,1,0,2:0:0:0:
332,214,28456,1,0,2:0:0:0:
333,210,28522,1,0,2:0:0:0:
334,205,28589,1,0,2:0:0:0:
334,201,28655,1,0,2:0:0:0:
335,196,28722,5,0,2:0:0:0:
336,192,28788,1,0,2:0:0:0:
336,187,28855,1,0,2:0:0:0:
337,183,28921,1,0,2:0:0:0:
338,178,28988,2,0,L|345:104,4,45,0|0|0|0|0,2:0|2:0|2:0|2:0|2:0,2:0:0:0:
355,47,29387,1,0,2:0:0:0:
97,310,29520,6,0,L|182:320,2,72,0|0|0,2:0|2:0|2:0,2:0:0:0:
136,264,29786,5,6,2:0:0:0:
96,156,29919,1,0,2:0:0:0:
96,156,29986,1,0,2:0:0:0:
96,156,30052,2,0,B|152:144|152:144|216:172,1,108,8|0,2:0|2:0,2:0:0:0:
416,112,30318,1,0,1:0:0:0:
416,112,30385,1,0,2:0:0:0:
416,112,30451,2,0,B|360:100|360:100|296:128,1,108,0|8,2:0|2:0,2:0:0:0:
372,216,30717,1,0,2:0:0:0:
280,352,30850,6,0,B|248:344|224:340|224:340|284:340|324:296,1,162,2|0,2:0|2:0,2:0:0:0:
240,248,31116,1,8,2:0:0:0:
88,352,31249,5,0,2:0:0:0:
88,352,31316,1,0,2:0:0:0:
88,352,31382,2,0,L|80:244,1,108,2|0,2:0|2:0,2:0:0:0:
264,38,31648,2,0,L|252:148,1,108,8|0,2:0|2:0,2:0:0:0:
60,132,31915,5,2,2:0:0:0:
240,248,32048,1,0,2:0:0:0:
264,240,32114,1,0,2:0:0:0:
292,236,32181,1,8,2:0:0:0:
320,240,32247,1,0,2:0:0:0:
344,252,32314,1,0,2:0:0:0:
364,272,32380,1,0,2:0:0:0:
376,296,32447,1,0,1:0:0:0:
224,372,32580,1,0,2:0:0:0:
129,258,32713,2,0,P|148:187|182:157,1,108,8|0,2:0|2:0,2:0:0:0:
272,116,32979,6,0,L|268:52,4,54,2|0|0|0|8,2:0|2:0|2:0|2:0|2:0,2:0:0:0:
460,156,33378,2,0,L|464:104,3,36,0|0|0|2,2:0|2:0|2:0|2:0,2:0:0:0:
360,268,33644,5,0,2:0:0:0:
388,264,33711,1,0,2:0:0:0:
416,260,33777,2,0,L|456:256,2,27,10|0|0,1:2|2:0|2:0,2:0:0:0:
444,284,33910,2,0,L|500:276,1,54,0|0,2:0|2:0,2:0:0:0:
328,356,34043,6,0,L|208:340,1,108,2|0,2:0|2:0,2:0:0:0:
97,380,34309,1,0,2:0:0:0:
85,343,34376,1,0,2:0:0:0:
90,306,34442,1,0,2:0:0:0:
111,274,34509,1,0,2:0:0:0:
133,247,34575,1,0,2:0:0:0:
153,214,34642,1,0,2:0:0:0:
158,177,34708,1,0,2:0:0:0:
147,141,34775,1,0,2:0:0:0:
120,112,34841,1,0,2:0:0:0:
1,193,34974,2,0,L|75:184,1,54,0|0,2:0|2:0,2:0:0:0:
259,154,35107,5,0,2:0:0:0:
45,54,35240,1,0,2:0:0:0:
32,286,35374,1,0,2:0:0:0:
272,304,35507,5,0,2:0:0:0:
296,312,35573,1,0,2:0:0:0:
324,308,35640,1,2,2:0:0:0:
348,292,35706,1,0,2:0:0:0:
360,268,35773,1,0,2:0:0:0:
356,240,35839,1,0,2:0:0:0:
344,216,35906,1,8,2:0:0:0:
340,188,35972,1,0,2:0:0:0:
352,164,36039,1,0,2:0:0:0:
376,148,36105,1,0,2:0:0:0:
404,144,36172,6,0,P|448:156|472:184,3,54,2|0|0|2,2:0|2:0|2:0|2:0,2:0:0:0:
472,180,36438,1,8,2:0:0:0:
232,96,36571,1,0,2:0:0:0:
236,68,36637,1,0,2:0:0:0:
240,40,36704,1,2,2:0:0:0:
332,80,36837,1,0,2:0:0:0:
136,132,36970,2,0,L|148:240,1,108,8|0,2:0|2:0,2:0:0:0:
324,336,37236,5,2,2:0:0:0:
300,328,37303,1,0,2:0:0:0:
272,324,37369,1,0,2:0:0:0:
244,328,37436,1,0,2:0:0:0:
220,336,37502,1,8,2:0:0:0:
196,344,37569,1,0,2:0:0:0:
172,352,37635,1,0,2:0:0:0:
144,356,37702,1,0,2:0:0:0:
116,352,37768,1,2,2:0:0:0:
92,344,37835,1,0,2:0:0:0:
72,328,37901,2,0,L|56:260,5,54,0|0|4|0|0|0,2:0|2:0|2:0|2:0|2:0|2:0,2:0:0:0:
32,196,38300,5,2,2:0:0:0:
80,92,38433,1,0,2:0:0:0:
104,104,38500,1,0,2:0:0:0:
124,124,38566,1,8,2:0:0:0:
240,68,38699,1,0,2:0:0:0:
250,92,38766,1,0,2:0:0:0:
253,120,38833,1,2,2:0:0:0:
380,132,38966,1,0,2:0:0:0:
372,156,39032,1,0,2:0:0:0:
356,180,39099,1,8,2:0:0:0:
424,280,39232,1,0,2:0:0:0:
402,293,39298,1,0,2:0:0:0:
374,301,39365,5,2,2:0:0:0:
74,341,39498,1,0,2:0:0:0:
98,329,39564,1,0,2:0:0:0:
118,309,39631,1,8,2:0:0:0:
234,365,39764,1,0,2:0:0:0:
244,341,39830,1,0,2:0:0:0:
247,313,39897,1,2,2:0:0:0:
374,301,40030,1,0,2:0:0:0:
366,277,40096,1,0,2:0:0:0:
350,253,40163,1,8,2:0:0:0:
418,153,40296,5,0,2:0:0:0:
396,140,40362,1,0,2:0:0:0:
368,132,40429,1,2,2:0:0:0:
340,128,40495,1,0,2:0:0:0:
312,132,40562,1,0,2:0:0:0:
284,140,40629,1,0,2:0:0:0:
260,152,40695,1,8,2:0:0:0:
236,164,40762,1,0,2:0:0:0:
214,177,40828,1,0,2:0:0:0:
186,185,40895,1,0,2:0:0:0:
158,189,40961,1,2,2:0:0:0:
130,185,41028,1,0,2:0:0:0:
102,177,41094,1,0,2:0:0:0:
78,165,41161,1,0,2:0:0:0:
56,148,41227,2,0,P|24:104|20:88,3,54,8|0|0|0,2:0|2:0|2:0|2:0,2:0:0:0:
108,88,41493,5,2,2:0:0:0:
112,116,41560,1,2,2:0:0:0:
116,144,41626,1,0,2:0:0:0:
120,172,41693,1,0,2:0:0:0:
124,200,41759,1,8,2:0:0:0:
128,228,41826,1,2,2:0:0:0:
132,256,41892,1,0,2:0:0:0:
136,284,41959,1,0,2:0:0:0:
140,312,42025,6,0,B|160:328|160:328|220:340,1,54,2|2,2:0|2:0,2:0:0:0:
236,216,42158,2,0,B|238:241|238:241|272:292,1,54,0|0,2:0|2:0,2:0:0:0:
376,216,42291,2,0,B|360:236|360:236|348:295,1,54,8|2,2:0|2:0,2:0:0:0:
480,300,42425,2,0,B|454:302|454:302|403:336,1,54,0|0,2:0|2:0,2:0:0:0:
481,195,42558,5,0,2:0:0:0:
471,169,42624,1,0,2:0:0:0:
455,148,42691,1,0,2:0:0:0:
435,130,42757,1,0,2:0:0:0:
410,118,42824,1,0,2:0:0:0:
384,112,42890,1,0,2:0:0:0:
357,113,42957,1,0,2:0:0:0:
331,120,43023,1,0,2:0:0:0:
308,133,43090,1,0,2:0:0:0:
286,149,43156,1,0,2:0:0:0:
265,166,43223,1,0,2:0:0:0:
241,176,43289,1,0,2:0:0:0:
215,182,43356,1,0,2:0:0:0:
187,180,43422,1,0,2:0:0:0:
161,172,43489,1,0,2:0:0:0:
139,157,43555,1,0,2:0:0:0:
120,138,43622,5,0,2:0:0:0:
208,78,43755,2,0,L|214:25,2,54,0|0|0,2:0|2:0|2:0,2:0:0:0:
172,366,44021,1,0,2:0:0:0:
308,346,44154,5,2,2:0:0:0:
306,334,44221,1,0,2:0:0:0:
304,320,44287,2,0,L|388:324,1,54,0|0,2:0|2:0,2:0:0:0:
180,272,44420,2,0,L|96:276,1,54,0|0,2:0|2:0,2:0:0:0:
328,208,44553,2,0,L|412:212,1,54,0|0,2:0|2:0,2:0:0:0:
200,152,44686,6,0,L|84:160,1,108,2|2,2:0|2:0,2:0:0:0:
36,76,44952,1,10,2:0:0:0:
36,76,45085,1,2,2:0:0:0:
36,76,45218,6,0,P|108:92|128:104,1,54,2|0,2:0|2:0,2:0:0:0:
89,299,45351,2,0,P|62:306|36:308,1,54,2|0,2:0|2:0,2:0:0:0:
200,140,45484,2,0,P|272:156|292:168,1,54,10|0,2:0|2:0,2:0:0:0:
252,232,45617,2,0,P|225:238|198:240,1,54,2|0,2:0|2:0,2:0:0:0:
120,192,45750,5,2,2:0:0:0:
392,192,45884,1,0,2:0:0:0:
392,192,45950,1,2,2:0:0:0:
392,192,46017,1,0,2:0:0:0:
188,74,46150,1,2,2:0:0:0:
188,74,46216,1,0,2:0:0:0:
324,309,46349,1,0,2:0:0:0:
324,309,46416,1,0,2:0:0:0:
324,74,46549,1,8,2:0:0:0:
188,309,46682,1,0,2:0:0:0:
188,309,46748,1,0,2:0:0:0:
188,309,46815,6,0,B|136:332|136:332|72:320,1,108,6|0,2:0|2:0,2:0:0:0:
72,208,47014,1,0,2:0:0:0:
72,208,47081,2,0,B|124:185|124:185|188:197,1,108,8|0,2:0|2:0,2:0:0:0:
260,240,47280,1,0,2:0:0:0:
260,240,47347,2,0,P|284:288|288:308,1,54,2|0,2:0|2:0,2:0:0:0:
464,256,47480,2,0,P|440:304|436:324,1,54,0|2,2:0|2:1,2:0:0:0:
356,352,47613,2,0,L|368:236,1,108,8|0,2:0|2:0,2:0:0:0:
396,32,47879,5,2,2:0:0:0:
392,60,47946,1,0,2:0:0:0:
388,88,48012,1,0,2:0:0:0:
384,116,48079,1,0,2:0:0:0:
380,144,48145,2,0,P|316:168|260:152,1,108,8|0,2:0|2:0,2:0:0:0:
192,104,48345,1,0,2:0:0:0:
192,104,48411,2,0,P|128:80|72:96,1,108,2|0,2:0|2:0,2:0:0:0:
24,156,48611,1,0,2:0:0:0:
24,156,48677,2,0,L|36:224,1,54,8|0,2:0|2:0,2:0:0:0:
176,232,48810,2,0,L|164:300,1,54,0|0,2:0|2:0,2:0:0:0:
56,320,48943,6,0,L|68:388,1,54,2|0,2:0|2:0,2:0:0:0:
204,368,49076,1,0,2:0:0:0:
228,352,49143,1,2,2:1:0:0:
252,340,49209,1,8,2:0:0:0:
276,332,49276,1,0,2:0:0:0:
304,328,49342,1,0,2:0:0:0:
332,324,49409,1,0,2:0:0:0:
360,328,49476,1,2,2:0:0:0:
352,304,49542,5,2,2:1:0:0:
376,320,49609,1,0,2:0:0:0:
400,332,49675,1,0,2:0:0:0:
424,340,49742,1,8,2:0:0:0:
452,344,49808,1,0,2:0:0:0:
480,348,49875,1,0,2:0:0:0:
508,344,49941,1,0,2:0:0:0:
504,316,50008,6,0,L|492:248,1,54,2|0,2:0|2:0,2:0:0:0:
376,192,50141,2,0,L|388:124,1,54,2|0,2:1|2:0,2:0:0:0:
444,64,50274,2,0,B|412:48|412:48|372:48,2,72,8|0|0,2:0|2:0|2:0,2:0:0:0:
480,148,50540,5,2,2:0:0:0:
272,236,50673,1,2,2:0:0:0:
466,260,50806,5,10,2:0:0:0:
285,123,50939,1,2,2:0:0:0:
376,192,51072,5,6,2:0:0:0:
372,220,51138,1,0,2:0:0:0:
368,248,51205,1,0,2:0:0:0:
364,276,51272,1,2,2:1:0:0:
360,304,51338,2,0,L|352:360,1,54,8|0,2:0|2:0,2:0:0:0:
256,312,51471,5,0,2:0:0:0:
238,303,51538,1,0,2:0:0:0:
217,300,51604,1,2,2:0:0:0:
196,300,51671,1,0,2:0:0:0:
175,303,51737,1,0,2:0:0:0:
158,309,51804,1,2,2:1:0:0:
137,314,51870,5,8,2:0:0:0:
119,323,51937,1,0,2:0:0:0:
98,326,52003,1,0,2:0:0:0:
77,326,52070,1,0,2:0:0:0:
57,323,52136,5,2,2:0:0:0:
39,317,52203,1,0,2:0:0:0:
24,305,52269,2,0,L|35:183,1,108,0|8,2:0|2:0,2:0:0:0:
132,156,52469,1,0,2:0:0:0:
144,152,52535,1,0,2:0:0:0:
156,148,52602,1,0,2:0:0:0:
164,144,52668,2,0,L|156:24,1,108,2|0,2:0|2:0,2:0:0:0:
156,36,52868,1,2,2:1:0:0:
156,36,52935,2,0,L|212:40,1,54,8|0,2:0|2:0,2:0:0:0:
284,112,53068,2,0,L|339:108,1,54,0|0,2:0|2:0,2:0:0:0:
416,40,53201,6,0,P|436:96|428:152,1,108,6|0,2:0|2:0,2:0:0:0:
372,228,53400,1,0,2:0:0:0:
372,228,53467,2,0,P|352:284|360:340,1,108,8|2,2:0|2:0,2:0:0:0:
232,256,53733,2,0,B|176:268|176:268|136:244|136:244|60:260,1,162,6|0,2:0|2:0,2:0:0:0:
120,332,53999,6,0,L|132:384,1,54,8|0,2:0|2:0,2:0:0:0:
192,176,54132,2,0,L|180:124,1,54,2|0,2:0|2:0,2:0:0:0:
168,24,54265,2,0,B|224:28|224:28|288:92,1,108,6|2,2:0|2:1,2:0:0:0:
200,272,54531,2,0,B|144:268|144:268|80:204,1,108,8|0,1:0|2:0,2:0:0:0:
96,140,54797,6,0,B|200:104|176:192|280:148,1,180,2|6,2:0|2:0,2:0:0:0:
369,69,55462,5,0,2:0:0:0:
365,41,55529,1,2,2:1:0:0:
361,13,55595,1,8,2:0:0:0:
460,216,55728,1,0,2:0:0:0:
464,188,55795,1,0,2:0:0:0:
468,160,55861,1,2,2:0:0:0:
267,152,55994,1,0,2:0:0:0:
344,344,56127,2,0,B|288:356|288:356|216:328,1,108,8|0,2:0|2:0,2:0:0:0:
148,288,56327,1,0,2:0:0:0:
148,288,56393,6,0,B|92:276|92:276|20:304,1,108,2|0,2:0|2:0,2:0:0:0:
28,304,56593,1,2,2:1:0:0:
28,304,56660,2,0,L|36:360,1,54,8|0,2:0|2:0,2:0:0:0:
136,200,56793,2,0,L|128:146,1,54,0|0,2:0|2:0,2:0:0:0:
328,40,56926,5,2,2:0:0:0:
324,68,56992,1,2,2:1:0:0:
320,96,57059,1,0,2:0:0:0:
316,124,57125,1,2,2:1:0:0:
312,152,57192,2,0,P|360:156|408:180,1,54,8|0,2:0|2:0,2:0:0:0:
448,208,57325,2,0,P|496:204|544:180,1,54,0|0,2:0|2:0,2:0:0:0:
328,252,57458,5,2,2:0:0:0:
332,280,57524,1,0,2:0:0:0:
336,308,57591,1,0,2:0:0:0:
340,336,57657,1,2,2:1:0:0:
344,364,57724,2,0,L|260:356,1,54,8|0,2:0|2:0,2:0:0:0:
160,292,57857,2,0,L|76:300,1,54,0|0,2:0|2:0,2:0:0:0:
0,208,57990,5,2,2:0:0:0:
16,188,58056,1,2,2:1:0:0:
36,172,58123,1,0,2:0:0:0:
60,160,58189,1,0,2:0:0:0:
88,152,58256,1,8,2:0:0:0:
116,152,58323,1,0,2:0:0:0:
144,156,58389,1,0,2:0:0:0:
168,168,58456,1,0,2:0:0:0:
192,180,58522,1,2,2:0:0:0:
212,195,58589,1,0,2:0:0:0:
235,206,58655,1,0,2:0:0:0:
261,213,58722,1,2,2:1:0:0:
290,214,58788,1,8,2:0:0:0:
317,208,58855,1,0,2:0:0:0:
344,198,58921,1,0,2:0:0:0:
364,181,58988,1,0,2:0:0:0:
380,160,59054,6,0,P|400:104|400:88,3,54,2|2|0|0,2:0|2:1|2:0|2:0,2:0:0:0:
336,44,59320,2,0,P|309:50|286:63,3,54,8|0|2|0,2:0|2:0|2:0|2:0,2:0:0:0:
488,64,59586,5,6,2:0:0:0:
484,92,59653,1,0,2:0:0:0:
480,120,59719,1,0,2:0:0:0:
476,148,59786,1,0,2:0:0:0:
472,176,59852,1,8,2:0:0:0:
468,204,59919,1,0,2:0:0:0:
464,232,59986,1,0,2:0:0:0:
460,260,60052,1,0,2:0:0:0:
456,288,60119,6,0,B|432:304|432:304|396:312,1,54,2|2,2:0|2:1,2:0:0:0:
312,360,60252,2,0,B|283:356|283:356|250:339,1,54,0|2,2:0|2:1,2:0:0:0:
152,328,60385,1,8,2:0:0:0:
316,240,60518,1,0,2:0:0:0:
128,192,60651,5,6,2:0:0:0:
100,192,60717,1,0,2:0:0:0:
76,180,60784,1,0,2:0:0:0:
60,160,60850,1,2,2:1:0:0:
56,132,60917,1,8,2:0:0:0:
64,108,60983,1,0,2:0:0:0:
80,88,61050,2,0,P|128:80|180:88,1,54,0|0,2:0|2:0,2:0:0:0:
321,128,61183,5,6,2:0:0:0:
349,128,61249,1,2,2:1:0:0:
373,140,61316,1,0,2:0:0:0:
389,160,61382,1,2,2:1:0:0:
393,188,61449,1,8,2:0:0:0:
385,212,61515,1,0,2:0:0:0:
369,232,61582,2,0,P|321:240|269:232,1,54,0|0,2:0|2:0,2:0:0:0:
216,220,61715,5,6,2:0:0:0:
384,56,61848,1,0,2:0:0:0:
186,106,61981,1,8,2:0:0:0:
413,169,62114,1,0,2:0:0:0:
270,24,62247,1,6,2:0:0:0:
329,251,62380,1,0,2:0:0:0:
329,251,62513,1,8,2:0:0:0:
67,112,62646,6,0,L|24:72,2,54,0|0|6,2:0|2:0|2:0,2:0:0:0:
293,169,62912,1,0,2:0:0:0:
34,242,63045,1,8,2:0:0:0:
197,76,63178,2,0,L|212:20,2,54,0|0|2,2:0|2:0|2:0,2:0:0:0:
130,336,63444,1,2,2:1:0:0:
448,268,63578,1,8,1:0:0:0:
496,160,63711,5,2,2:0:0:0:
456,148,63777,1,0,2:0:0:0:
412,152,63844,1,2,2:0:0:0:
372,172,63910,1,0,2:0:0:0:
344,200,63977,1,0,2:0:0:0:
308,224,64043,1,0,2:0:0:0:
268,236,64110,1,8,2:0:0:0:
224,232,64176,1,0,2:0:0:0:
184,220,64243,1,0,2:0:0:0:
152,192,64309,1,0,2:0:0:0:
132,156,64376,1,2,2:0:0:0:
124,112,64442,1,0,2:0:0:0:
132,68,64509,6,0,P|160:16|172:8,1,54,0|0,2:0|2:0,2:0:0:0:
425,146,64642,2,0,P|456:196|457:211,1,54,8|2,2:0|2:3,2:0:0:0:
210,361,64775,2,0,P|151:363|138:356,1,54,0|2,2:0|2:3,2:0:0:0:
80,296,64908,6,0,L|72:216,2,54,6|0|0,2:0|2:0|2:0,2:0:0:0:
64,160,65174,6,0,L|144:152,2,60,0|0|0,2:0|2:0|2:0,2:0:0:0:
204,148,65440,6,0,L|212:228,2,60,0|0|0,2:0|2:0|2:0,2:0:0:0:
220,284,65706,1,0,2:0:0:0:
484,208,65884,6,0,L|492:128,2,60,0|0|0,2:0|2:0|2:0,2:0:0:0:
500,72,66150,6,0,L|420:64,2,60,0|0|0,2:0|2:0|2:0,2:0:0:0:
360,60,66416,6,0,L|352:140,2,60,0|0|0,2:0|2:0|2:0,2:0:0:0:
344,196,66682,1,0,2:0:0:0:
344,196,66770,1,2,2:0:0:0:
332,292,66948,6,0,P|272:304|232:324,2,60,0|2|0,2:0|2:0|2:0,2:0:0:0:
192,264,67214,6,0,P|180:204|160:164,2,60,0|0|0,2:0|2:0|2:0,2:0:0:0:
216,120,67480,6,0,P|276:108|316:88,2,60,0|0|0,2:0|2:0|2:0,2:0:0:0:
344,196,67746,5,0,2:0:0:0:
344,196,67835,1,0,2:0:0:0:
304,312,68012,5,0,2:0:0:0:
352,320,68101,1,0,2:0:0:0:
400,308,68189,1,0,2:0:0:0:
456,244,68278,5,0,2:0:0:0:
464,196,68367,1,0,2:0:0:0:
452,148,68456,1,0,2:0:0:0:
388,92,68544,5,0,2:0:0:0:
340,84,68633,1,0,2:0:0:0:
292,96,68722,1,0,2:0:0:0:
236,160,68810,5,0,2:0:0:0:
228,208,68899,1,0,2:0:0:0:
240,256,68988,1,0,2:0:0:0:
240,256,69076,1,0,2:0:0:0:
240,256,69165,6,0,L|172:264,2,60,0|0|0,2:0|2:0|2:0,2:0:0:0:
80,336,69431,2,0,L|148:344,2,60,0|0|0,2:0|2:0|2:0,2:0:0:0:
220,144,69697,6,0,L|152:152,2,60,0|0|0,2:0|2:0|2:0,2:0:0:0:
16,232,69963,2,0,L|84:240,2,60,12|0|0,2:1|2:0|2:0,2:0:0:0:
60,128,70229,6,0,P|88:68|104:56,2,60,2|0|0,2:0|2:0|2:0,2:0:0:0:
160,151,70495,2,0,P|220:123|239:124,2,60,0|0|0,2:0|2:0|2:0,2:0:0:0:
208,248,70762,6,0,P|236:308|252:320,2,60,0|0|0,2:0|2:0|2:0,2:0:0:0:
308,225,71028,2,0,P|368:252|387:251,2,60,12|0|0,2:1|2:0|2:0,2:0:0:0:
376,160,71294,6,0,L|368:88,2,60,2|0|0,2:0|2:0|2:0,2:0:0:0:
476,208,71560,2,0,L|484:136,2,60,0|0|0,2:0|2:0|2:0,2:0:0:0:
253,263,71826,6,0,L|245:191,2,60,2|0|0,2:0|2:0|2:0,2:0:0:0:
353,311,72092,2,0,L|361:239,2,60,12|0|0,2:1|2:0|2:0,2:0:0:0:
194,330,72358,6,0,B|138:306|138:306|66:314,1,120,2|0,1:0|2:0,2:0:0:0:
54,234,72624,2,0,B|102:197|102:197|131:131,1,120,2|0,1:0|2:0,2:0:0:0:
210,154,72890,2,0,B|217:214|217:214|260:272,1,120,2|0,1:0|2:0,2:0:0:0:
336,160,73156,6,0,P|304:168|308:188,1,60,2|0,1:0|2:0,2:0:0:0:
424,144,73422,6,0,P|388:80|356:56,1,60,6|0,1:0|2:0,2:0:0:0:
220,200,73600,1,0,2:0:0:0:
220,200,73688,2,0,P|256:264|288:288,1,60,2|0,1:0|2:0,2:0:0:0:
472,232,73866,1,0,2:0:0:0:
472,232,73954,2,0,P|488:257|498:285,1,60,2|0,1:0|2:0,2:0:0:0:
328,384,74132,1,0,2:0:0:0:
327,383,74221,2,0,P|310:357|300:329,1,60,2|0,1:0|2:0,2:0:0:0:
372,260,74398,5,0,2:0:0:0:
372,260,74487,2,0,L|404:328,1,60,2|0,1:0|2:0,2:0:0:0:
296,128,74664,1,0,2:0:0:0:
296,128,74753,2,0,L|328:196,1,60,2|0,1:0|2:0,2:0:0:0:
248,52,74930,1,0,2:0:0:0:
248,52,75019,2,0,B|280:40|280:40|336:44,1,60,2|0,1:0|2:0,2:0:0:0:
448,112,75196,1,0,2:0:0:0:
448,112,75285,2,0,B|416:124|416:124|360:120,1,60,4|0,1:0|2:0,2:0:0:0:
296,128,75462,5,0,2:0:0:0:
296,128,75551,2,0,P|248:184|236:212,1,60,2|0,1:0|2:0,2:0:0:0:
272,316,75728,1,0,2:0:0:0:
272,316,75817,2,0,P|247:246|229:222,1,60,2|0,1:0|2:0,2:0:0:0:
116,204,75994,1,0,2:0:0:0:
116,204,76083,2,0,P|188:217|218:213,1,60,2|0,1:0|2:0,2:0:0:0:
392,216,76260,5,0,2:0:0:0:
392,216,76349,2,0,P|311:229|281:244,1,60,2|0,1:0|2:0,2:0:0:0:
156,360,76527,1,0,2:0:0:0:
156,360,76615,2,0,P|184:283|186:250,1,60,2|0,1:0|2:0,2:0:0:0:
144,88,76793,1,0,2:0:0:0:
144,88,76881,2,0,P|195:151|223:169,1,60,2|0,1:0|2:0,2:0:0:0:
296,128,77059,5,0,2:0:0:0:
300,116,77147,1,2,1:0:0:0:
304,104,77236,1,0,2:0:0:0:
308,92,77325,1,0,2:0:0:0:
312,80,77413,1,2,1:0:0:0:
316,68,77502,1,0,2:0:0:0:
320,56,77591,1,0,2:0:0:0:
324,44,77680,6,0,B|364:36|364:36|424:76,1,78,2|0,1:0|1:0,2:0:0:0:
464,180,77857,2,0,B|424:188|424:188|364:148,1,78,0|2,1:0|1:0,2:0:0:0:
184,128,78034,2,0,B|224:120|224:120|284:160,1,78,0|0,1:0|1:0,2:0:0:0:
324,264,78212,2,0,B|284:272|284:272|224:232,1,78,2|0,1:0|1:0,2:0:0:0:
68,260,78389,2,0,B|108:252|108:252|168:292,1,78,0|6,1:0|1:0,2:0:0:0:
205,355,78744,6,0,P|262:357|284:365,1,78,2|0,1:0|1:0,2:0:0:0:
114,198,78921,2,0,P|82:246|64:261,1,78,0|2,1:0|1:0,2:0:0:0:
295,198,79099,2,0,P|268:146|264:123,1,78,0|0,1:0|1:0,2:0:0:0:
324,48,79276,2,0,P|381:50|403:58,1,78,2|0,1:0|1:0,2:0:0:0:
436,152,79453,2,0,P|404:200|386:215,1,78,0|6,1:0|1:0,2:0:0:0:
349,129,79808,5,6,2:0:0:0:
344,352,79941,1,0,2:0:0:0:
340,328,80008,1,0,2:0:0:0:
336,304,80074,1,8,2:0:0:0:
332,280,80141,1,0,2:0:0:0:
328,256,80207,2,0,L|400:268,1,45,0|0,2:0|2:0,2:0:0:0:
193,272,80340,5,6,2:0:0:0:
197,296,80407,1,0,2:0:0:0:
201,320,80473,1,0,2:0:0:0:
205,344,80540,1,0,2:0:0:0:
209,368,80606,2,0,L|137:356,3,45,8|0|0|0,2:0|2:0|2:0|2:0,2:0:0:0:
75,338,80872,5,0,2:0:0:0:
41,305,80939,1,0,2:0:0:0:
24,262,81005,1,0,2:0:0:0:
26,215,81072,1,0,2:0:0:0:
46,173,81138,1,0,2:0:0:0:
81,143,81205,1,0,2:0:0:0:
126,129,81272,1,0,2:0:0:0:
172,135,81338,1,0,2:0:0:0:
212,159,81405,5,0,2:0:0:0:
248,193,81471,1,0,2:0:0:0:
289,216,81538,1,0,2:0:0:0:
335,220,81604,1,0,2:0:0:0:
379,206,81671,1,0,2:0:0:0:
415,175,81737,1,0,2:0:0:0:
435,128,81804,2,0,L|427:68,1,45,0|0,2:0|2:0,2:0:0:0:
416,0,81937,1,0,2:0:0:0:
256,192,82003,12,0,86194,2:0:0:0:
42,336,92048,5,0,2:0:0:0:
138,352,92181,1,0,2:0:0:0:
228,236,92314,5,8,2:0:0:0:
104,256,92447,1,0,2:0:0:0:
144,132,92580,5,6,2:0:0:0:
156,136,92646,1,0,2:0:0:0:
168,136,92713,1,0,2:0:0:0:
180,136,92779,1,0,2:0:0:0:
192,132,92846,1,0,2:0:0:0:
204,124,92912,1,0,2:0:0:0:
212,116,92979,1,0,2:0:0:0:
220,104,93045,1,0,2:0:0:0:
224,92,93112,2,0,L|220:32,7,45,0|0|0|0|0|0|0|0,2:0|2:0|2:0|2:0|2:0|2:0|2:0|2:0,2:0:0:0:
312,60,93644,5,2,2:0:0:0:
332,68,93711,1,0,2:0:0:0:
348,84,93777,2,0,P|376:124|384:156,1,45,0|0,2:0|2:0,2:0:0:0:
328,200,93910,5,0,2:0:0:0:
338,218,93977,1,0,2:0:0:0:
340,241,94043,2,0,P|335:289|321:319,1,45,0|0,2:0|2:0,2:0:0:0:
244,292,94176,5,2,2:0:0:0:
240,312,94243,1,0,2:0:0:0:
226,331,94309,2,0,P|191:365|161:378,1,45,0|0,2:0|2:0,2:0:0:0:
76,332,94442,5,0,2:0:0:0:
72,308,94509,1,0,2:0:0:0:
68,284,94575,1,0,2:0:0:0:
64,260,94642,1,0,2:0:0:0:
60,236,94708,5,6,2:0:0:0:
96,244,94775,1,0,2:0:0:0:
132,244,94841,1,0,2:0:0:0:
168,236,94908,1,0,2:0:0:0:
200,224,94974,1,0,2:0:0:0:
236,216,95041,1,0,2:0:0:0:
272,216,95107,1,0,2:0:0:0:
308,224,95174,1,0,2:0:0:0:
356,248,95240,5,2,2:0:0:0:
372,300,95307,1,0,2:0:0:0:
360,352,95374,1,0,2:0:0:0:
312,376,95440,1,0,2:0:0:0:
260,364,95507,1,0,2:0:0:0:
232,316,95573,1,0,2:0:0:0:
240,264,95640,1,0,2:0:0:0:
273,224,95706,1,0,2:0:0:0:
320,200,95773,5,6,2:0:0:0:
376,200,95839,1,0,2:0:0:0:
428,216,95906,2,0,P|480:240|500:256,1,45,0|0,2:0|2:0,2:0:0:0:
408,96,96039,2,0,P|459:71|484:66,1,45,0|0,2:0|2:0,2:0:0:0:
308,48,96172,2,0,P|322:-7|334:-29,1,45,0|0,2:0|2:0,2:0:0:0:
172,64,96305,6,0,L|180:148,1,67.5,2|0,2:0|2:0,2:0:0:0:
176,184,96438,2,0,L|172:136,4,33.75,2|0|2|0|6,2:0|2:0|2:0|2:0|2:0,2:0:0:0:
54,350,96671,2,0,L|58:398,3,33.75,2|0|2|0,2:0|2:0|2:0|2:0,2:0:0:0:
52,328,96837,5,6,2:0:0:0:
92,292,96903,1,0,2:0:0:0:
144,276,96970,1,0,2:0:0:0:
204,280,97036,1,2,2:1:0:0:
250,310,97103,1,8,2:0:0:0:
292,344,97170,1,0,2:0:0:0:
344,360,97236,1,0,2:0:0:0:
397,352,97303,1,0,2:0:0:0:
443,323,97369,1,2,2:0:0:0:
473,279,97436,1,0,2:0:0:0:
482,225,97502,1,2,2:1:0:0:
469,173,97569,1,0,2:0:0:0:
436,130,97635,1,8,2:0:0:0:
388,105,97702,1,0,2:0:0:0:
334,101,97768,2,0,P|280:116|256:136,1,54,0|0,2:0|2:0,2:0:0:0:
188,60,97901,5,2,2:0:0:0:
192,96,97968,1,0,2:0:0:0:
196,132,98034,1,0,2:0:0:0:
200,168,98101,1,2,2:1:0:0:
238,198,98167,5,8,2:0:0:0:
235,224,98234,1,0,2:0:0:0:
232,251,98300,1,0,2:0:0:0:
229,277,98367,1,0,2:0:0:0:
196,312,98433,5,2,2:0:0:0:
197,325,98500,1,0,2:0:0:0:
199,338,98566,1,0,2:0:0:0:
200,351,98633,1,0,2:0:0:0:
200,364,98699,6,0,L|136:360,1,54,8|0,2:0|2:0,2:0:0:0:
84,288,98833,2,0,L|24:292,1,54,0|0,2:0|3:0,2:0:0:0:
8,180,98966,5,6,2:0:0:0:
19,145,99032,1,0,2:0:0:0:
41,117,99099,1,0,2:0:0:0:
71,97,99165,1,2,2:1:0:0:
106,89,99232,1,8,2:0:0:0:
142,91,99298,1,0,2:0:0:0:
175,106,99365,2,0,P|200:132|216:172,1,54,0|0,2:0|2:0,2:0:0:0:
275,271,99498,6,0,L|295:87,1,162,6|2,2:0|2:1,2:0:0:0:
292,109,99764,6,0,P|359:115|379:131,1,54,8|0,2:0|2:0,2:0:0:0:
436,200,99897,2,0,P|429:267|413:287,1,54,0|0,2:0|2:0,2:0:0:0:
300,316,100030,6,0,B|276:268|276:268|300:200,1,108,6|0,2:0|2:0,2:0:0:0:
430,100,100296,2,0,B|454:148|454:148|430:216,1,108,8|0,2:0|2:0,2:0:0:0:
294,82,100562,6,0,L|290:122,1,27,2|0,2:0|2:0,2:0:0:0:
180,176,100762,2,0,L|184:216,1,27,2|0,2:0|2:0,2:0:0:0:
302,289,100961,2,0,L|298:329,1,27,2|0,2:0|2:0,2:0:0:0:
196,304,101094,5,2,2:0:0:0:
157,342,101161,1,0,2:0:0:0:
105,356,101227,1,0,2:0:0:0:
53,342,101294,1,2,2:1:0:0:
15,303,101360,1,8,2:0:0:0:
1,251,101427,1,0,2:0:0:0:
15,199,101493,1,0,2:0:0:0:
53,161,101560,1,0,2:0:0:0:
105,147,101626,1,2,2:0:0:0:
156,156,101693,1,2,2:1:0:0:
204,184,101759,1,0,2:0:0:0:
256,204,101826,1,2,2:1:0:0:
308,208,101892,1,8,2:0:0:0:
360,196,101959,1,0,2:0:0:0:
400,164,102025,1,0,2:0:0:0:
428,116,102092,1,2,2:1:0:0:
432,64,102158,5,2,2:0:0:0:
408,72,102225,1,0,2:0:0:0:
380,76,102291,2,0,P|332:64|312:48,1,54,0|0,2:0|2:0,2:0:0:0:
216,68,102425,1,8,2:0:0:0:
192,60,102491,1,0,2:0:0:0:
164,56,102558,2,0,P|116:68|96:84,1,54,0|0,2:0|2:0,2:0:0:0:
60,164,102691,5,2,2:0:0:0:
64,192,102757,1,0,2:0:0:0:
68,220,102824,1,0,2:0:0:0:
72,248,102890,1,0,2:0:0:0:
76,276,102957,2,0,P|112:320|120:336,1,54,8|0,2:0|2:0,2:0:0:0:
217,316,103090,2,0,P|232:293|251:274,1,54,0|0,2:0|2:0,2:0:0:0:
360,260,103289,5,0,2:0:0:0:
413,254,103356,1,0,2:0:0:0:
458,224,103422,1,2,2:1:0:0:
487,179,103489,1,8,2:0:0:0:
493,126,103555,1,0,2:0:0:0:
475,75,103622,1,0,2:0:0:0:
436,36,103688,1,0,2:0:0:0:
385,18,103755,1,2,2:0:0:0:
331,25,103821,1,2,2:1:0:0:
287,54,103888,1,0,2:0:0:0:
248,88,103954,1,2,2:1:0:0:
209,127,104021,1,8,2:0:0:0:
158,145,104087,1,0,2:0:0:0:
104,138,104154,1,0,2:0:0:0:
60,109,104221,1,0,2:0:0:0:
40,56,104287,6,0,L|124:48,1,54,2|2,2:0|2:1,2:0:0:0:
168,224,104420,2,0,L|252:232,1,54,0|0,2:0|2:0,2:0:0:0:
331,25,104553,2,0,L|415:17,1,54,8|0,2:0|2:0,2:0:0:0:
458,224,104686,2,0,L|542:232,1,54,0|0,2:0|2:0,2:0:0:0:
320,376,104819,5,2,2:0:0:0:
301,364,104886,1,0,2:0:0:0:
288,347,104952,1,0,2:0:0:0:
282,326,105019,1,0,2:0:0:0:
284,305,105085,1,8,2:0:0:0:
294,285,105152,1,0,2:0:0:0:
310,271,105218,1,0,2:0:0:0:
330,263,105285,1,0,2:0:0:0:
352,263,105351,5,6,2:0:0:0:
304,288,105418,1,0,2:0:0:0:
252,296,105484,1,0,2:0:0:0:
200,288,105551,1,0,2:0:0:0:
152,264,105617,1,8,2:0:0:0:
104,239,105684,1,0,2:0:0:0:
52,231,105750,1,0,2:0:0:0:
0,239,105817,5,0,2:0:0:0:
8,256,105884,1,2,2:0:0:0:
16,272,105950,1,0,2:0:0:0:
24,288,106017,1,2,2:1:0:0:
32,304,106083,1,0,2:0:0:0:
40,320,106150,6,0,P|128:320|140:328,1,54,8|0,2:0|2:0,2:0:0:0:
212,196,106283,2,0,P|300:196|312:188,1,54,0|0,2:0|2:0,2:0:0:0:
432,80,106416,5,6,2:0:0:0:
388,88,106482,1,0,2:0:0:0:
344,96,106549,1,0,2:0:0:0:
300,104,106615,1,0,2:0:0:0:
256,112,106682,2,0,L|248:48,1,54,8|0,2:0|2:0,2:0:0:0:
264,206,106815,5,0,2:0:0:0:
308,198,106881,1,2,2:1:0:0:
352,190,106948,1,6,2:0:0:0:
396,182,107014,1,0,2:0:0:0:
440,174,107081,2,0,L|448:238,1,54,2|0,2:1|2:0,2:0:0:0:
368,368,107214,5,8,2:0:0:0:
372,356,107280,1,0,2:0:0:0:
376,344,107347,1,0,2:0:0:0:
380,332,107413,1,0,2:0:0:0:
384,320,107480,5,6,2:0:0:0:
204,336,107613,1,0,2:0:0:0:
48,240,107746,5,8,2:0:0:0:
298,262,107879,1,0,2:0:0:0:
424,96,108012,5,6,2:0:0:0:
113,123,108145,1,0,2:0:0:0:
284,32,108278,6,0,L|280:100,3,54,8|0|0|0,2:0|2:0|2:0|2:0,2:0:0:0:
248,16,108544,5,6,2:0:0:0:
284,378,108677,1,0,2:0:0:0:
68,315,108810,5,8,2:0:0:0:
95,339,108877,1,0,2:0:0:0:
131,354,108943,1,0,2:0:0:0:
170,354,109010,1,0,2:0:0:0:
206,339,109076,1,2,2:0:0:0:
234,314,109143,1,0,2:0:0:0:
251,280,109209,1,0,2:0:0:0:
264,242,109276,1,0,2:0:0:0:
281,276,109342,1,0,2:0:0:0:
309,301,109409,1,2,2:0:0:0:
345,316,109476,1,0,2:0:0:0:
384,316,109542,1,0,2:0:0:0:
430,306,109609,5,6,2:0:0:0:
472,271,109675,1,0,2:0:0:0:
499,224,109742,1,0,2:0:0:0:
508,171,109808,1,0,2:0:0:0:
499,118,109875,1,8,2:0:0:0:
472,71,109941,1,0,2:0:0:0:
430,37,110008,1,0,2:0:0:0:
380,18,110074,1,0,2:0:0:0:
326,18,110141,1,2,2:0:0:0:
275,37,110207,1,0,2:0:0:0:
233,71,110274,1,0,2:0:0:0:
206,118,110340,1,0,2:0:0:0:
197,171,110407,2,0,L|264:176,1,54,8|0,2:0|2:0,2:0:0:0:
328,244,110540,2,0,L|395:239,1,54,0|0,2:0|2:0,2:0:0:0:
508,171,110673,5,6,2:0:0:0:
458,156,110739,1,0,2:0:0:0:
408,172,110806,1,0,2:0:0:0:
364,204,110872,1,0,2:0:0:0:
328,244,110939,1,8,2:0:0:0:
284,276,111005,1,0,2:0:0:0:
232,292,111072,1,0,2:0:0:0:
180,292,111138,1,0,2:0:0:0:
128,280,111205,1,2,2:0:0:0:
88,248,111272,1,0,2:0:0:0:
60,200,111338,1,0,2:0:0:0:
52,148,111405,1,0,2:0:0:0:
56,92,111471,6,0,P|80:40|108:20,1,54,8|0,2:0|2:0,2:0:0:0:
176,12,111604,2,0,P|228:36|248:64,1,54,0|0,2:0|2:0,2:0:0:0:
320,24,111737,5,6,2:0:0:0:
316,52,111804,1,0,2:0:0:0:
312,80,111870,1,0,2:0:0:0:
308,108,111937,1,0,2:0:0:0:
304,136,112003,6,0,P|372:128|392:136,1,54,8|0,2:0|2:0,2:0:0:0:
280,261,112136,2,0,P|253:324|236:337,1,54,0|0,2:0|2:0,2:0:0:0:
183,178,112269,2,0,P|142:123|139:102,1,54,2|0,2:0|2:0,2:0:0:0:
384,216,112402,6,0,P|429:277|433:301,1,54,0|0,2:0|2:0,2:0:0:0:
168,288,112535,2,0,P|91:296|69:288,1,54,10|2,2:0|2:0,2:0:0:0:
216,72,112668,2,0,P|246:1|265:-13,1,54,2|2,2:0|2:0,2:0:0:0:
363,323,112801,5,4,2:0:0:0:
128,196,114930,5,6,2:0:0:0:
75,208,114997,1,0,2:0:0:0:
33,174,115063,1,2,2:0:0:0:
33,120,115130,1,0,2:0:0:0:
75,86,115196,1,10,2:0:0:0:
128,98,115263,1,0,2:0:0:0:
151,147,115329,1,2,2:0:0:0:
128,196,115396,1,0,2:0:0:0:
121,248,115462,1,2,2:0:0:0:
142,298,115529,1,0,2:0:0:0:
180,336,115595,1,2,2:0:0:0:
230,353,115662,1,0,2:0:0:0:
284,347,115728,1,10,2:0:0:0:
329,317,115795,1,0,2:0:0:0:
358,270,115861,1,2,2:0:0:0:
363,216,115928,1,0,2:0:0:0:
344,166,115994,1,2,2:0:0:0:
305,129,116061,1,0,2:0:0:0:
254,111,116127,1,2,2:0:0:0:
201,119,116194,1,0,2:0:0:0:
151,147,116260,6,0,P|128:212|132:236,3,54,10|0|2|0,2:0|2:0|2:0|2:0,2:0:0:0:
347,123,116527,6,0,P|302:71|279:62,3,54,2|0|2|0,2:0|2:0|2:0|2:0,2:0:0:0:
269,305,116793,6,0,P|337:292|356:277,3,54,10|0|2|0,2:0|2:0|2:0|2:0,2:0:0:0:
248,196,117059,5,6,2:0:0:0:
