osu file format v14

[General]
AudioFilename: audio.mp3
AudioLeadIn: 0
PreviewTime:46283
Countdown: 0
SampleSet: Soft
StackLeniency: 0.5
Mode: 0
LetterboxInBreaks: 0
WidescreenStoryboard: 0

[Editor]
Bookmarks:30212,90877,101520,102558
DistanceSpacing: 5.21
BeatDivisor: 4
GridSize: 32
TimelineZoom: 3.999998

[Metadata]
Title:Glorious Crown
TitleUnicode:Glorious Crown
Artist:xi
ArtistUnicode:xi
Creator:Anxient
Version:FiNAL CROWN
Source:maimai PiNK
Tags:Electronic Instrumental Video Games freedom dive sequel deathstream snownino_ happy hardcore lama poluna toybot
BeatmapID:986232
BeatmapSetID:460515

[Difficulty]
HPDrainRate:6.5
CircleSize:4.5
OverallDifficulty:9.5
ApproachRate:10
SliderMultiplier:1.8
SliderTickRate:1

[Events]
//Background and Video events
0,0,"bg.jpg",0,0
//Break Periods
2,65108,66321
2,67237,68361
2,86394,90001
//Storyboard Layer 0 (Background)
//Storyboard Layer 1 (Fail)
//Storyboard Layer 2 (Pass)
//Storyboard Layer 3 (Foreground)
//Storyboard Layer 4 (Overlay)
//Storyboard Sound Samples

[TimingPoints]
-14,266.075388026608,4,2,1,80,1,0
252,-153.846153846153,4,2,1,80,0,0
983,-153.846153846153,4,2,1,30,0,0
1050,-153.846153846153,4,2,1,80,0,0
1316,-100,4,2,1,80,0,0
46815,-100,4,2,1,80,0,1
64908,-100,4,2,1,80,0,0
66770,-142.857142857143,4,2,1,80,0,0
72358,-133.333333333333,4,2,1,80,0,0
79808,-100,4,2,1,80,0,0
84066,-100,4,2,1,5,0,0
86194,-100,4,2,2,50,0,0
91515,-100,4,2,1,50,0,0
92314,-100,4,2,1,80,0,0
92580,-100,4,2,1,70,0,0
96837,-100,4,2,1,80,0,1
117059,-100,4,2,1,80,0,0
117192,-100,4,2,1,20,0,0

[Colours]
Combo1 : 251,228,153
Combo2 : 237,156,84
Combo3 : 131,87,247
Combo4 : 193,218,232

[HitObjects]
80,330,252,6,0,P|49:336|99:314,1,321.75000000000176,0|0,2:0|2:0,2:0:0:0:
161,365,1050,5,6,2:0:0:0:
187,363,1116,1,0,2:0:0:0:
214,364,1183,1,0,2:0:0:0:
240,361,1249,1,0,2:0:0:0:
267,359,1316,2,0,L|271:314,1,45,0|0,2:0|2:0,2:0:0:0:
178,112,1449,5,2,2:0:0:0:
180,145,1515,1,0,2:0:0:0:
183,179,1582,1,8,2:0:0:0:
186,212,1648,1,0,2:0:0:0:
189,246,1715,1,0,2:0:0:0:
288,141,1848,2,0,P|293:94|276:46,1,90,2|0,2:0|2:0,2:0:0:0:
268,47,2048,1,0,2:0:0:0:
255,41,2114,1,0,2:0:0:0:
284,228,2247,6,0,L|329:232,1,45,2|0,2:0|2:0,2:0:0:0:
394,279,2380,2,0,L|428:250,1,45,2|0,2:0|2:0,2:0:0:0:
507,237,2513,2,0,L|511:192,1,45,0|0,2:0|2:0,2:0:0:0:
379,31,2646,5,2,2:0:0:0:
381,64,2713,1,0,2:0:0:0:
384,98,2779,1,0,2:0:0:0:
387,131,2846,1,0,2:0:0:0:
390,165,2912,2,0,L|435:169,1,45,2|0,2:0|2:0,2:0:0:0:
466,321,3045,2,0,L|511:317,1,45,0|0,2:0|2:0,2:0:0:0:
346,355,3178,5,2,2:0:0:0:
320,357,3245,1,0,2:0:0:0:
293,358,3311,1,0,2:0:0:0:
267,359,3378,1,0,2:0:0:0:
240,361,3444,2,0,L|236:316,1,45,0|0,2:0|2:0,2:0:0:0:
57,148,3578,5,2,2:0:0:0:
48,180,3644,1,0,2:0:0:0:
45,214,3711,1,8,2:0:0:0:
47,247,3777,1,0,2:0:0:0:
55,280,3844,1,0,2:0:0:0:
155,170,3977,2,0,P|160:123|143:75,1,90,2|0,2:0|2:0,2:0:0:0:
135,76,4176,1,0,2:0:0:0:
122,70,4243,1,0,2:0:0:0:
271,2,4376,6,0,L|267:47,1,45,2|0,2:0|2:0,2:0:0:0:
235,117,4509,2,0,L|239:162,1,45,2|0,2:0|2:0,2:0:0:0:
271,232,4642,2,0,L|267:277,1,45,0|0,2:0|2:0,2:0:0:0:
161,348,4775,5,2,2:0:0:0:
344,371,4908,2,0,L|389:375,1,45,0|0,2:0|2:0,2:0:0:0:
384,265,5041,1,2,2:0:0:0:
381,232,5107,1,0,2:0:0:0:
378,198,5174,1,0,2:0:0:0:
376,165,5240,1,0,2:0:0:0:
374,132,5307,6,0,L|378:87,1,45,6|0,2:0|2:0,2:0:0:0:
506,128,5440,2,0,L|510:173,1,45,0|0,2:0|2:0,2:0:0:0:
430,15,5573,2,0,P|387:2|342:7,1,90,2|0,2:0|2:0,2:0:0:0:
235,117,5839,5,2,2:0:0:0:
201,114,5906,1,0,2:0:0:0:
167,111,5972,1,0,2:0:0:0:
134,108,6039,1,0,2:0:0:0:
100,105,6105,2,0,L|96:60,1,45,10|0,2:0|2:0,2:0:0:0:
59,235,6238,2,0,L|55:280,1,45,0|0,2:0|2:0,2:0:0:0:
190,365,6371,6,0,L|181:270,1,90,6|0,2:0|2:0,2:0:0:0:
199,248,6571,1,0,2:0:0:0:
216,221,6637,1,2,2:0:0:0:
378,198,6770,1,0,2:0:0:0:
308,295,6903,5,2,2:0:0:0:
306,317,6970,1,0,2:0:0:0:
304,339,7036,1,0,2:0:0:0:
302,362,7103,1,0,2:0:0:0:
300,384,7170,1,10,2:0:0:0:
465,326,7303,2,0,L|461:281,1,45,0|0,2:0|2:0,2:0:0:0:
325,111,7436,6,0,L|419:102,1,90,2|2,2:0|2:0,2:0:0:0:
243,169,7702,1,10,2:0:0:0:
282,15,7835,1,2,2:0:0:0:
276,27,7901,1,0,2:0:0:0:
270,39,7968,2,0,L|180:46,1,90,2|2,2:0|2:0,2:0:0:0:
19,64,8234,1,10,2:0:0:0:
29,95,8300,1,0,2:0:0:0:
33,129,8367,1,2,2:0:0:0:
29,162,8433,1,0,2:0:0:0:
9,202,8500,5,2,2:0:0:0:
31,203,8566,1,0,2:0:0:0:
53,205,8633,1,0,2:0:0:0:
76,207,8699,1,0,2:0:0:0:
98,209,8766,1,10,2:0:0:0:
120,210,8833,1,0,2:0:0:0:
142,212,8899,1,0,2:0:0:0:
165,214,8966,1,0,2:0:0:0:
186,215,9032,5,2,2:0:0:0:
199,182,9099,1,0,2:0:0:0:
228,162,9165,1,0,2:0:0:0:
264,162,9232,1,0,2:0:0:0:
293,183,9298,1,10,2:0:0:0:
305,216,9365,1,0,2:0:0:0:
297,250,9431,1,0,2:0:0:0:
270,274,9498,1,0,2:0:0:0:
234,280,9564,6,0,L|230:325,3,45,4|0|4|0,2:0|2:0|2:0|2:0,2:0:0:0:
355,327,9830,2,0,L|359:372,3,45,2|0|0|0,2:0|2:0|2:0|2:0,2:0:0:0:
414,230,10096,6,0,L|418:185,1,45,2|0,2:0|2:0,2:0:0:0:
293,183,10229,2,0,L|289:138,1,45,2|0,2:0|2:0,2:0:0:0:
373,76,10362,1,2,2:0:0:0:
373,64,10429,1,0,2:0:0:0:
374,53,10495,1,0,2:0:0:0:
375,42,10562,1,0,2:0:0:0:
376,31,10629,6,0,L|331:27,1,45,2|0,2:0|2:0,2:0:0:0:
180,45,10762,2,0,L|225:41,1,45,2|0,2:0|2:0,2:0:0:0:
375,42,10895,6,0,L|330:38,1,45,2|0,2:0|2:0,2:0:0:0:
179,56,11028,2,0,L|224:52,1,45,2|0,2:0|2:0,2:0:0:0:
479,18,11161,5,2,2:0:0:0:
473,98,11294,1,2,2:0:0:0:
468,178,11427,1,2,2:0:0:0:
463,258,11560,1,2,2:0:0:0:
230,324,11693,5,4,2:0:0:0:
211,315,11759,1,0,2:0:0:0:
192,309,11826,1,0,2:0:0:0:
173,306,11892,1,2,2:0:0:0:
153,304,11959,1,0,2:0:0:0:
133,304,12025,1,0,2:0:0:0:
113,307,12092,1,2,2:0:0:0:
93,311,12158,1,0,2:0:0:0:
75,318,12225,6,0,L|71:363,1,45,0|2,2:0|2:0,2:0:0:0:
152,178,12358,6,0,L|156:223,1,45,0|0,2:0|2:0,2:0:0:0:
0,261,12491,2,0,L|4:216,1,45,2|0,2:0|2:0,2:0:0:0:
35,145,12624,2,0,L|31:100,1,45,0|0,2:0|2:0,2:0:0:0:
119,0,12757,5,0,2:0:0:0:
141,1,12824,1,0,2:0:0:0:
163,3,12890,1,0,2:0:0:0:
186,5,12957,1,0,2:0:0:0:
208,7,13023,1,0,2:0:0:0:
222,24,13090,1,0,2:0:0:0:
236,41,13156,1,0,2:0:0:0:
251,58,13223,1,0,2:0:0:0:
265,76,13289,5,0,2:0:0:0:
263,98,13356,1,0,2:0:0:0:
261,120,13422,1,2,2:0:0:0:
259,143,13489,1,0,2:0:0:0:
258,165,13555,1,0,2:0:0:0:
241,179,13622,1,0,2:0:0:0:
224,193,13688,1,0,2:0:0:0:
207,208,13755,1,0,2:0:0:0:
189,222,13821,6,0,L|197:312,1,90,0|0,2:0|2:0,2:0:0:0:
219,326,14021,1,0,2:0:0:0:
241,340,14087,1,0,2:0:0:0:
326,264,14221,1,0,2:0:0:0:
432,334,14354,6,0,L|427:388,1,45,0|0,2:0|2:0,2:0:0:0:
329,308,14487,2,0,L|326:264,1,45,0|0,2:0|2:0,2:0:0:0:
441,247,14620,2,0,L|448:157,1,90,0|0,2:0|2:0,2:0:0:0:
337,22,14886,6,0,L|344:111,1,90,0|0,2:0|2:0,2:0:0:0:
191,103,15152,1,0,2:0:0:0:
191,23,15240,1,0,2:0:0:0:
259,63,15329,1,0,2:0:0:0:
252,139,15418,2,0,L|244:228,1,90,0|0,2:0|2:0,2:0:0:0:
223,246,15617,1,2,2:0:0:0:
202,263,15684,2,0,L|209:352,1,90,0|0,2:0|2:0,2:0:0:0:
75,260,15950,5,0,2:0:0:0:
66,241,16017,1,0,2:0:0:0:
60,222,16083,1,0,2:0:0:0:
57,203,16150,1,0,2:0:0:0:
55,183,16216,1,0,2:0:0:0:
55,163,16283,1,2,2:0:0:0:
58,143,16349,1,0,2:0:0:0:
62,123,16416,1,0,2:0:0:0:
69,105,16482,6,0,L|114:101,1,45,0|0,2:0|2:0,2:0:0:0:
251,138,16615,1,0,2:0:0:0:
251,138,16682,1,0,2:0:0:0:
251,138,16748,2,0,L|296:142,1,45,0|0,2:0|2:0,2:0:0:0:
358,96,16881,2,0,L|403:92,1,45,0|0,2:0|2:0,2:0:0:0:
384,244,17014,6,0,L|376:333,1,90,0|0,2:0|2:0,2:0:0:0:
354,340,17214,1,0,2:0:0:0:
332,347,17280,1,2,2:0:0:0:
214,368,17413,1,0,2:0:0:0:
91,173,17546,6,0,L|98:262,1,90,0|0,2:0|2:0,2:0:0:0:
121,269,17746,1,2,2:0:0:0:
143,276,17813,1,0,2:0:0:0:
261,297,17946,1,0,2:0:0:0:
220,94,18079,5,0,2:0:0:0:
215,115,18145,1,0,2:0:0:0:
211,137,18212,2,0,L|214:181,1,45,0|2,2:0|2:0,2:0:0:0:
341,123,18345,5,0,2:0:0:0:
336,144,18411,1,0,2:0:0:0:
332,166,18478,2,0,L|335:210,1,45,0|2,2:0|2:0,2:0:0:0:
408,279,18611,5,0,2:0:0:0:
413,300,18677,1,0,2:0:0:0:
417,322,18744,2,0,L|413:366,1,45,0|2,2:0|2:0,2:0:0:0:
266,384,18877,5,0,2:0:0:0:
261,363,18943,1,0,2:0:0:0:
257,341,19010,2,0,L|260:296,1,45,0|2,2:0|2:0,2:0:0:0:
335,210,19143,6,0,P|388:180|453:184,1,90,0|0,2:0|2:0,2:0:0:0:
433,182,19342,1,0,2:0:0:0:
450,187,19409,1,0,2:0:0:0:
416,65,19542,5,0,2:0:0:0:
395,49,19609,1,0,2:0:0:0:
371,38,19675,2,0,L|327:41,1,45,0|0,2:0|2:0,2:0:0:0:
175,90,19808,5,0,2:0:0:0:
175,90,19875,1,0,2:0:0:0:
175,90,19941,2,0,L|219:93,1,45,0|0,2:0|2:0,2:0:0:0:
107,0,20074,2,0,L|63:3,1,45,0|0,2:0|2:0,2:0:0:0:
96,153,20207,5,6,2:0:0:0:
97,169,20274,1,0,2:0:0:0:
98,186,20340,1,0,2:0:0:0:
98,203,20407,1,0,2:0:0:0:
97,220,20473,1,0,2:0:0:0:
95,237,20540,1,0,2:0:0:0:
93,253,20606,1,0,2:0:0:0:
89,270,20673,1,0,2:0:0:0:
84,286,20739,6,0,L|40:289,1,45,0|0,2:0|2:0,2:0:0:0:
223,327,20872,2,0,L|267:330,1,45,0|0,2:0|2:0,2:0:0:0:
85,308,21005,6,0,L|41:311,1,45,0|0,2:0|2:0,2:0:0:0:
224,349,21138,2,0,L|268:352,1,45,0|0,2:0|2:0,2:0:0:0:
434,222,21272,5,0,2:0:0:0:
406,202,21338,1,0,2:0:0:0:
374,194,21405,1,0,2:0:0:0:
341,200,21471,1,0,2:0:0:0:
313,219,21538,1,0,2:0:0:0:
285,239,21604,1,0,2:0:0:0:
253,246,21671,1,0,2:0:0:0:
220,240,21737,1,0,2:0:0:0:
192,221,21804,5,0,2:0:0:0:
180,178,21870,1,0,2:0:0:0:
197,137,21937,1,0,2:0:0:0:
235,114,22003,1,0,2:0:0:0:
279,119,22070,6,0,L|282:75,1,45,0|0,2:0|2:0,2:0:0:0:
96,153,22203,2,0,L|93:109,1,45,2|0,2:0|2:0,2:0:0:0:
293,33,22336,5,6,2:0:0:0:
315,35,22402,1,0,2:0:0:0:
337,37,22469,1,0,2:0:0:0:
360,39,22535,1,0,2:0:0:0:
382,41,22602,2,0,L|379:85,1,45,0|0,2:0|2:0,2:0:0:0:
488,77,22735,2,0,L|485:121,1,45,0|0,2:0|2:0,2:0:0:0:
406,202,22868,5,2,2:0:0:0:
408,235,22935,1,0,2:0:0:0:
410,269,23001,1,0,2:0:0:0:
412,303,23068,1,0,2:0:0:0:
415,336,23134,2,0,L|371:333,1,45,0|0,2:0|2:0,2:0:0:0:
294,349,23267,2,0,L|250:352,1,45,0|0,2:0|2:0,2:0:0:0:
172,350,23400,6,0,L|66:342,1,90,2|0,2:0|2:0,2:0:0:0:
134,178,23666,5,0,2:0:0:0:
134,258,23755,1,0,2:0:0:0:
66,218,23844,1,0,2:0:0:0:
66,138,23932,6,0,L|74:49,1,90,2|0,2:0|2:0,2:0:0:0:
256,113,24198,1,0,2:0:0:0:
167,82,24331,2,0,L|170:37,1,45,2|2,2:0|2:0,2:0:0:0:
345,144,24464,6,0,L|353:233,1,90,6|0,2:0|2:0,2:0:0:0:
331,350,24731,5,0,2:0:0:0:
364,354,24797,1,0,2:0:0:0:
397,348,24864,1,0,2:0:0:0:
426,332,24930,1,0,2:0:0:0:
449,307,24997,1,0,2:0:0:0:
415,302,25063,1,0,2:0:0:0:
382,308,25130,1,0,2:0:0:0:
353,324,25196,1,0,2:0:0:0:
331,350,25263,1,0,2:0:0:0:
301,365,25329,1,0,2:0:0:0:
268,371,25396,1,2,2:0:0:0:
234,368,25462,1,0,2:0:0:0:
204,354,25529,5,2,2:0:0:0:
206,331,25595,1,0,2:0:0:0:
208,309,25662,1,0,2:0:0:0:
210,286,25728,1,0,2:0:0:0:
212,264,25795,1,0,2:0:0:0:
197,246,25861,1,0,2:0:0:0:
183,229,25928,1,0,2:0:0:0:
168,212,25994,1,0,2:0:0:0:
154,194,26061,5,2,2:0:0:0:
115,216,26127,1,0,2:0:0:0:
72,207,26194,1,0,2:0:0:0:
46,172,26260,1,0,2:0:0:0:
50,128,26327,2,0,L|53:83,1,45,0|0,2:0|2:0,2:0:0:0:
160,91,26460,2,0,L|163:46,1,45,0|0,2:0|2:0,2:0:0:0:
270,54,26593,5,2,2:0:0:0:
292,56,26660,1,0,2:0:0:0:
314,58,26726,1,0,2:0:0:0:
337,60,26793,1,0,2:0:0:0:
359,62,26859,1,0,2:0:0:0:
502,78,26992,1,0,2:0:0:0:
367,151,27125,5,2,2:0:0:0:
367,151,27192,1,0,2:0:0:0:
367,151,27258,2,0,L|370:195,1,45,0|2,2:0|2:0,2:0:0:0:
480,236,27391,5,2,2:0:0:0:
480,236,27458,1,0,2:0:0:0:
480,236,27524,2,0,L|476:280,1,45,0|0,2:0|2:0,2:0:0:0:
383,330,27657,5,2,2:0:0:0:
353,315,27724,1,0,2:0:0:0:
319,310,27790,1,0,2:0:0:0:
286,315,27857,1,0,2:0:0:0:
256,330,27923,1,2,2:0:0:0:
225,345,27990,1,0,2:0:0:0:
192,350,28056,1,0,2:0:0:0:
159,345,28123,1,0,2:0:0:0:
129,330,28189,1,0,2:0:0:0:
109,302,28256,1,0,2:0:0:0:
100,270,28323,1,0,2:0:0:0:
103,236,28389,1,0,2:0:0:0:
117,206,28456,1,0,2:0:0:0:
136,178,28522,1,0,2:0:0:0:
145,146,28589,1,0,2:0:0:0:
142,113,28655,1,0,2:0:0:0:
128,82,28722,5,0,2:0:0:0:
13,143,28855,2,0,L|21:232,1,90,0|0,2:0|2:0,2:0:0:0:
189,264,29121,1,0,2:0:0:0:
227,97,29254,2,0,P|224:46|201:2,2,90,0|0|0,2:0|2:0|2:0,2:0:0:0:
437,17,29786,5,6,2:0:0:0:
407,25,29852,1,0,2:0:0:0:
376,34,29919,2,0,L|372:78,1,45,0|0,2:0|2:0,2:0:0:0:
365,219,30052,1,8,2:0:0:0:
227,97,30185,5,0,2:0:0:0:
257,105,30252,1,0,2:0:0:0:
288,114,30318,2,0,L|292:158,1,45,0|0,1:0|2:0,2:0:0:0:
299,299,30451,1,0,2:0:0:0:
458,263,30584,2,0,P|468:207|443:150,1,90,8|0,2:0|2:0,2:0:0:0:
394,340,30850,5,2,2:0:0:0:
394,340,30917,1,0,2:0:0:0:
394,340,30983,2,0,L|390:384,1,45,0|0,2:0|2:0,2:0:0:0:
275,303,31116,5,8,2:0:0:0:
275,303,31183,1,0,2:0:0:0:
275,303,31249,2,0,L|271:347,1,45,0|0,2:0|2:0,2:0:0:0:
156,266,31382,5,2,2:0:0:0:
156,266,31449,1,0,2:0:0:0:
156,266,31515,2,0,L|152:310,1,45,0|0,2:0|2:0,2:0:0:0:
47,279,31648,1,8,2:0:0:0:
37,246,31715,1,0,2:0:0:0:
34,213,31782,1,0,2:0:0:0:
37,179,31848,1,0,2:0:0:0:
47,147,31915,5,2,2:0:0:0:
229,177,32048,2,0,L|225:221,1,45,0|0,2:0|2:0,2:0:0:0:
145,106,32181,1,8,2:0:0:0:
142,83,32247,1,0,2:0:0:0:
140,61,32314,2,0,L|144:17,1,45,0|0,2:0|2:0,2:0:0:0:
329,46,32447,6,0,L|320:135,1,90,0|0,1:0|2:0,2:0:0:0:
451,86,32713,1,8,2:0:0:0:
453,108,32779,1,0,2:0:0:0:
455,130,32846,1,0,2:0:0:0:
457,153,32912,1,0,2:0:0:0:
459,175,32979,5,2,2:0:0:0:
450,207,33045,1,0,2:0:0:0:
432,235,33112,1,0,2:0:0:0:
406,257,33178,1,0,2:0:0:0:
375,268,33245,1,8,2:0:0:0:
343,279,33311,1,0,2:0:0:0:
317,300,33378,1,0,2:0:0:0:
299,329,33444,1,0,2:0:0:0:
291,361,33511,5,2,2:0:0:0:
211,214,33644,2,0,L|207:170,1,45,0|0,2:0|2:0,2:0:0:0:
127,300,33777,2,0,L|104:302,4,22.5,10|0|0|0|0,1:2|2:0|2:0|2:0|2:0,2:0:0:0:
113,98,34043,5,2,2:0:0:0:
137,74,34110,1,0,2:0:0:0:
167,59,34176,1,0,2:0:0:0:
200,52,34243,1,0,2:0:0:0:
233,55,34309,1,8,2:0:0:0:
265,67,34376,1,0,2:0:0:0:
298,68,34442,1,0,2:0:0:0:
331,58,34509,1,0,2:0:0:0:
358,39,34575,6,0,L|402:35,1,45,2|0,2:0|2:0,2:0:0:0:
394,125,34708,2,0,L|438:121,1,45,0|0,2:0|2:0,2:0:0:0:
430,211,34841,2,0,L|421:307,1,90,8|0,2:0|2:0,2:0:0:0:
211,214,35107,6,0,L|207:170,1,45,2|0,2:0|2:0,2:0:0:0:
330,255,35240,2,0,L|334:211,1,45,0|0,2:0|2:0,2:0:0:0:
204,254,35374,6,0,L|199:205,1,45,8|0,2:0|2:0,2:0:0:0:
334,299,35507,2,0,L|338:250,1,45,0|0,2:0|2:0,2:0:0:0:
247,367,35640,1,2,2:0:0:0:
211,363,35706,1,0,2:0:0:0:
175,360,35773,1,0,2:0:0:0:
139,357,35839,1,0,2:0:0:0:
103,353,35906,1,8,2:0:0:0:
99,317,35972,1,0,2:0:0:0:
96,281,36039,1,0,2:0:0:0:
93,245,36105,1,0,2:0:0:0:
89,209,36172,5,2,2:0:0:0:
74,198,36238,1,0,2:0:0:0:
59,187,36305,1,0,2:0:0:0:
44,176,36371,1,2,2:0:0:0:
28,165,36438,2,0,L|36:75,1,90,8|0,2:0|2:0,2:0:0:0:
191,119,36704,6,0,L|199:208,1,90,2|0,2:0|2:0,2:0:0:0:
205,211,36903,1,0,2:0:0:0:
211,214,36970,2,0,L|300:222,1,90,8|0,2:0|2:0,2:0:0:0:
358,39,37236,6,0,L|313:43,1,45,2|0,2:0|2:0,2:0:0:0:
368,108,37369,2,0,L|323:112,1,45,0|0,2:0|2:0,2:0:0:0:
430,206,37502,6,0,L|474:210,1,45,8|0,2:0|2:0,2:0:0:0:
420,275,37635,2,0,L|464:279,1,45,0|0,2:0|2:0,2:0:0:0:
358,378,37768,6,0,L|313:382,1,45,2|0,2:0|2:0,2:0:0:0:
300,222,37901,5,0,2:0:0:0:
288,220,37968,1,0,2:0:0:0:
277,219,38034,2,0,L|269:308,1,90,4|0,2:0|2:0,2:0:0:0:
93,245,38300,5,2,2:0:0:0:
120,88,38433,1,0,2:0:0:0:
13,200,38566,2,0,P|2:255|24:310,1,90,8|0,2:0|2:0,2:0:0:0:
26,303,38766,1,0,2:0:0:0:
41,319,38833,2,0,L|130:327,1,90,2|0,2:0|2:0,2:0:0:0:
269,308,39099,2,0,L|277:219,1,90,8|0,2:0|2:0,2:0:0:0:
294,41,39365,5,2,2:0:0:0:
271,42,39431,1,0,2:0:0:0:
249,44,39498,2,0,L|204:48,1,45,0|0,2:0|2:0,2:0:0:0:
383,78,39631,5,8,2:0:0:0:
405,79,39697,1,0,2:0:0:0:
428,81,39764,2,0,L|473:85,1,45,0|0,2:0|2:0,2:0:0:0:
300,138,39897,5,2,2:0:0:0:
277,139,39963,1,0,2:0:0:0:
255,141,40030,2,0,L|210:145,1,45,0|0,2:0|2:0,2:0:0:0:
389,175,40163,5,8,2:0:0:0:
411,176,40229,1,0,2:0:0:0:
434,178,40296,2,0,L|479:182,1,45,0|0,2:0|2:0,2:0:0:0:
308,236,40429,5,2,2:0:0:0:
305,258,40495,1,0,2:0:0:0:
303,280,40562,1,0,2:0:0:0:
301,303,40629,1,0,2:0:0:0:
299,325,40695,1,8,2:0:0:0:
269,308,40762,1,0,2:0:0:0:
236,302,40828,1,0,2:0:0:0:
203,307,40895,1,0,2:0:0:0:
173,322,40961,1,2,2:0:0:0:
143,339,41028,1,0,2:0:0:0:
110,345,41094,1,0,2:0:0:0:
77,340,41161,1,0,2:0:0:0:
45,323,41227,1,8,2:0:0:0:
30,290,41294,1,0,2:0:0:0:
30,255,41360,1,0,2:0:0:0:
44,222,41427,1,0,2:0:0:0:
71,199,41493,5,2,2:0:0:0:
63,187,41560,1,2,2:0:0:0:
55,175,41626,2,0,L|51:130,1,45,0|0,2:0|2:0,2:0:0:0:
160,139,41759,5,8,2:0:0:0:
168,127,41826,1,2,2:0:0:0:
176,115,41892,2,0,L|180:70,1,45,0|0,2:0|2:0,2:0:0:0:
216,233,42025,5,2,2:0:0:0:
224,245,42092,1,2,2:0:0:0:
232,257,42158,2,0,L|236:302,1,45,0|0,2:0|2:0,2:0:0:0:
388,277,42291,2,0,L|377:391,1,90,8|0,2:0|2:0,2:0:0:0:
319,163,42558,5,2,2:0:0:0:
349,148,42624,1,0,2:0:0:0:
382,141,42691,1,2,2:0:0:0:
416,143,42757,1,0,2:0:0:0:
448,153,42824,2,0,L|459:267,1,90,8|0,2:0|2:0,2:0:0:0:
437,28,43090,6,0,L|347:19,1,90,2|2,2:0|2:0,2:0:0:0:
331,35,43289,1,0,2:0:0:0:
315,51,43356,2,0,L|225:59,1,90,8|0,2:0|2:0,2:0:0:0:
92,106,43622,6,0,P|82:54|92:7,1,90,2|0,2:0|2:0,2:0:0:0:
109,24,43821,1,0,2:0:0:0:
130,30,43888,1,8,2:0:0:0:
189,169,44021,1,0,2:0:0:0:
0,202,44154,2,0,L|8:112,1,90,2|0,2:0|2:0,2:0:0:0:
50,109,44354,1,0,2:0:0:0:
92,106,44420,2,0,L|83:195,1,90,0|0,2:0|2:0,2:0:0:0:
143,339,44686,5,2,2:0:0:0:
310,312,44819,1,2,2:0:0:0:
189,169,44952,5,10,2:0:0:0:
159,352,45085,1,2,2:0:0:0:
283,208,45218,6,0,P|291:159|287:139,1,45,2|0,2:0|2:0,2:0:0:0:
275,88,45351,2,0,P|246:47|229:36,1,45,2|0,2:0|2:0,2:0:0:0:
351,113,45484,1,10,2:0:0:0:
373,115,45551,1,0,2:0:0:0:
395,117,45617,1,2,2:0:0:0:
418,119,45684,1,0,2:0:0:0:
440,121,45750,6,0,L|444:165,1,45,2|0,2:0|2:0,2:0:0:0:
310,312,45950,6,0,L|305:356,1,45,2|0,2:0|2:0,2:0:0:0:
421,312,46150,6,0,L|416:267,1,45,2|0,2:0|2:0,2:0:0:0:
283,208,46283,5,0,2:0:0:0:
260,210,46349,1,0,2:0:0:0:
238,212,46416,1,0,2:0:0:0:
82,195,46549,1,8,2:0:0:0:
146,292,46682,2,0,L|141:337,1,45,0|0,2:0|2:0,2:0:0:0:
91,105,46815,6,0,L|82:194,1,90,6|0,2:0|2:0,2:0:0:0:
60,209,47014,1,0,2:0:0:0:
36,223,47081,2,0,L|45:312,1,90,8|0,2:0|2:0,2:0:0:0:
193,216,47347,5,2,2:0:0:0:
215,214,47413,1,0,2:0:0:0:
238,212,47480,1,0,2:0:0:0:
260,210,47546,1,2,2:1:0:0:
283,208,47613,1,8,2:0:0:0:
301,185,47680,1,0,2:0:0:0:
320,162,47746,1,0,2:0:0:0:
339,140,47813,1,0,2:0:0:0:
358,117,47879,5,2,2:0:0:0:
376,114,47946,1,0,2:0:0:0:
393,112,48012,2,0,L|398:67,1,45,0|0,2:0|2:0,2:0:0:0:
512,176,48145,5,8,2:0:0:0:
494,179,48212,1,0,2:0:0:0:
477,181,48278,2,0,L|472:226,1,45,0|0,2:0|2:0,2:0:0:0:
375,251,48411,5,2,2:0:0:0:
364,265,48478,1,0,2:0:0:0:
353,279,48544,2,0,L|381:314,1,45,0|0,2:0|2:0,2:0:0:0:
245,322,48677,5,8,2:0:0:0:
247,339,48744,1,0,2:0:0:0:
249,357,48810,2,0,L|294:362,1,45,0|0,2:0|2:0,2:0:0:0:
283,208,48943,5,2,2:0:0:0:
291,175,49010,1,0,2:0:0:0:
294,141,49076,1,0,2:0:0:0:
289,108,49143,1,0,2:0:0:0:
277,76,49209,2,0,L|272:31,1,45,8|0,2:0|2:0,2:0:0:0:
107,68,49342,2,0,L|112:113,1,45,0|0,2:0|2:0,2:0:0:0:
193,198,49476,5,2,2:0:0:0:
238,203,49542,1,2,2:1:0:0:
283,208,49609,1,0,2:0:0:0:
367,66,49742,5,8,2:0:0:0:
322,71,49808,1,0,2:0:0:0:
277,76,49875,1,0,2:0:0:0:
430,153,50008,6,0,L|421:242,1,90,2|2,2:0|2:1,2:0:0:0:
398,256,50207,1,0,2:0:0:0:
374,270,50274,2,0,L|383:359,2,59.99999999999999,8|0|0,2:0|2:0|2:0,2:0:0:0:
249,357,50540,6,0,L|160:348,1,90,2|2,2:0|2:0,2:0:0:0:
9,263,50806,2,0,L|98:254,1,90,10|2,2:0|2:0,2:0:0:0:
153,62,51072,5,6,2:0:0:0:
183,43,51138,1,0,2:0:0:0:
218,39,51205,1,0,2:0:0:0:
252,51,51272,1,2,2:1:0:0:
277,76,51338,1,8,2:0:0:0:
307,95,51405,1,0,2:0:0:0:
342,99,51471,1,0,2:0:0:0:
376,87,51538,1,0,2:0:0:0:
401,62,51604,1,2,2:0:0:0:
426,37,51671,1,0,2:0:0:0:
461,32,51737,1,0,2:0:0:0:
493,48,51804,1,2,2:1:0:0:
509,80,51870,1,8,2:0:0:0:
503,115,51937,1,0,2:0:0:0:
479,140,52003,2,0,P|438:159|416:162,1,45,0|0,2:0|2:0,2:0:0:0:
281,264,52136,6,0,L|290:175,1,90,2|0,2:0|2:0,2:0:0:0:
313,187,52336,1,0,2:0:0:0:
336,200,52402,1,8,2:0:0:0:
322,346,52535,1,0,2:0:0:0:
423,285,52668,6,0,L|512:294,1,90,2|0,2:0|2:0,2:0:0:0:
500,317,52868,1,2,2:1:0:0:
487,340,52935,1,8,2:0:0:0:
341,326,53068,1,0,2:0:0:0:
195,312,53201,5,6,2:0:0:0:
162,334,53267,1,0,2:0:0:0:
122,336,53334,1,0,2:0:0:0:
86,317,53400,1,0,2:0:0:0:
63,284,53467,1,8,2:0:0:0:
67,243,53533,1,0,2:0:0:0:
70,203,53600,1,2,2:0:0:0:
75,163,53666,1,0,2:0:0:0:
80,122,53733,5,6,2:0:0:0:
110,96,53799,1,0,2:0:0:0:
149,89,53866,1,0,2:0:0:0:
187,104,53932,1,0,2:0:0:0:
211,135,53999,1,8,2:0:0:0:
241,161,54065,1,0,2:0:0:0:
280,168,54132,1,2,2:0:0:0:
318,153,54198,1,0,2:0:0:0:
342,122,54265,6,0,L|351:33,1,90,6|2,2:0|2:1,2:0:0:0:
503,115,54531,2,0,L|512:204,1,90,8|0,1:0|2:0,2:0:0:0:
494,219,54731,1,0,2:0:0:0:
477,233,54797,2,0,L|464:357,2,119.99999999999999,2|0|0,2:0|2:0|2:0,2:0:0:0:
281,264,55329,5,6,2:0:0:0:
253,235,55396,1,0,2:0:0:0:
214,223,55462,1,0,2:0:0:0:
175,232,55529,1,2,2:1:0:0:
145,259,55595,1,8,2:0:0:0:
117,287,55662,1,0,2:0:0:0:
78,299,55728,1,0,2:0:0:0:
39,290,55795,1,0,2:0:0:0:
9,263,55861,6,0,L|15:200,1,45,2|0,2:0|2:0,2:0:0:0:
63,159,55994,2,0,L|58:114,1,45,0|0,2:0|2:0,2:0:0:0:
219,178,56127,2,0,L|213:222,1,45,8|0,2:0|2:0,2:0:0:0:
107,55,56260,2,0,L|100:-7,1,45,0|0,2:0|2:0,2:0:0:0:
232,16,56393,5,2,2:0:0:0:
253,21,56460,1,0,2:0:0:0:
276,23,56527,2,0,L|338:16,1,45,0|2,2:0|2:1,2:0:0:0:
479,67,56660,5,8,2:0:0:0:
457,72,56726,1,0,2:0:0:0:
435,74,56793,2,0,L|390:69,1,45,0|0,2:0|2:0,2:0:0:0:
222,100,56926,5,2,2:0:0:0:
243,105,56992,1,2,2:1:0:0:
266,107,57059,2,0,L|328:100,1,45,0|2,2:0|2:1,2:0:0:0:
469,151,57192,5,8,2:0:0:0:
447,156,57258,1,0,2:0:0:0:
425,158,57325,2,0,L|380:153,1,45,0|0,2:0|2:0,2:0:0:0:
214,305,57458,5,2,2:0:0:0:
242,276,57524,1,0,2:0:0:0:
281,264,57591,1,0,2:0:0:0:
320,273,57657,1,2,2:1:0:0:
350,300,57724,1,8,2:0:0:0:
378,328,57790,1,0,2:0:0:0:
417,340,57857,1,0,2:0:0:0:
456,331,57923,1,0,2:0:0:0:
486,304,57990,6,0,L|492:241,1,45,2|2,2:0|2:1,2:0:0:0:
283,340,58123,2,0,L|287:384,1,45,0|0,2:0|2:0,2:0:0:0:
418,267,58256,2,0,L|426:177,1,90,8|0,2:0|2:0,2:0:0:0:
438,20,58522,6,0,L|348:11,1,90,2|0,2:0|2:0,2:0:0:0:
209,95,58788,1,8,2:0:0:0:
209,15,58877,1,0,2:0:0:0:
277,55,58966,1,0,2:0:0:0:
270,131,59054,2,0,L|262:220,1,90,2|0,2:0|2:0,2:0:0:0:
234,236,59254,1,0,2:0:0:0:
207,252,59320,2,0,L|215:341,1,90,8|2,2:0|2:0,2:0:0:0:
418,267,59586,5,6,2:0:0:0:
420,237,59653,1,0,2:0:0:0:
423,207,59719,1,0,2:0:0:0:
426,177,59786,1,0,2:0:0:0:
428,147,59852,1,8,2:0:0:0:
408,123,59919,1,0,2:0:0:0:
389,100,59986,1,0,2:0:0:0:
370,77,60052,1,0,2:0:0:0:
350,55,60119,5,2,2:0:0:0:
322,26,60185,1,2,2:1:0:0:
283,14,60252,1,0,2:0:0:0:
244,23,60318,1,2,2:1:0:0:
214,50,60385,1,8,2:0:0:0:
186,78,60451,1,0,2:0:0:0:
147,90,60518,1,0,2:0:0:0:
108,81,60584,1,0,2:0:0:0:
78,54,60651,6,0,L|72:-9,1,45,6|0,2:0|2:0,2:0:0:0:
4,130,60784,2,0,L|0:174,1,45,0|2,2:0|2:1,2:0:0:0:
156,227,60917,1,8,2:0:0:0:
154,215,60983,1,0,2:0:0:0:
153,204,61050,1,0,2:0:0:0:
152,193,61116,1,0,2:0:0:0:
151,181,61183,6,0,L|196:186,1,45,6|2,2:0|2:1,2:0:0:0:
185,343,61316,2,0,L|140:347,1,45,0|2,2:0|2:1,2:0:0:0:
271,267,61449,1,8,2:0:0:0:
282,269,61515,1,0,2:0:0:0:
293,270,61582,1,0,2:0:0:0:
304,271,61648,1,0,2:0:0:0:
315,272,61715,5,6,2:0:0:0:
340,110,61848,1,0,2:0:0:0:
399,262,61981,2,0,P|400:315|371:369,1,90,8|0,2:0|2:0,2:0:0:0:
468,196,62247,6,0,L|513:201,1,45,6|0,2:0|2:0,2:0:0:0:
340,147,62380,2,0,L|295:155,1,45,0|0,2:0|2:0,2:0:0:0:
422,30,62513,2,0,L|511:20,1,90,8|0,2:0|2:0,2:0:0:0:
340,110,62779,5,6,2:0:0:0:
299,114,62846,1,0,2:0:0:0:
259,118,62912,1,0,2:0:0:0:
218,122,62979,1,0,2:0:0:0:
178,126,63045,1,8,2:0:0:0:
173,166,63112,1,0,2:0:0:0:
170,207,63178,1,0,2:0:0:0:
166,248,63245,1,0,2:0:0:0:
162,288,63311,5,2,2:0:0:0:
140,326,63378,1,0,2:0:0:0:
101,347,63444,1,2,2:1:0:0:
56,344,63511,1,0,2:0:0:0:
21,317,63578,1,8,1:0:0:0:
5,276,63644,1,0,2:0:0:0:
14,232,63711,1,2,2:0:0:0:
45,200,63777,1,0,2:0:0:0:
89,191,63844,5,2,2:0:0:0:
93,151,63910,1,0,2:0:0:0:
97,110,63977,1,0,2:0:0:0:
100,69,64043,1,0,2:0:0:0:
105,29,64110,1,8,2:0:0:0:
145,25,64176,1,0,2:0:0:0:
186,21,64243,1,0,2:0:0:0:
226,17,64309,1,0,2:0:0:0:
267,13,64376,6,0,L|312:18,1,45,2|0,2:0|2:0,2:0:0:0:
292,195,64509,2,0,L|247:200,1,45,0|0,2:0|2:0,2:0:0:0:
394,92,64642,1,0,2:0:0:0:
421,128,64708,1,0,2:0:0:0:
435,171,64775,1,0,2:0:0:0:
435,216,64841,1,0,2:0:0:0:
420,258,64908,5,4,2:0:0:0:
97,89,66770,6,0,L|100:203,1,83.99999999999989,2|0,2:0|2:0,2:0:0:0:
101,255,67036,5,2,2:0:0:0:
101,255,68810,6,0,L|180:257,1,41.99999999999996,0|0,2:0|2:0,2:0:0:0:
286,324,69076,5,0,2:0:0:0:
256,300,69165,6,0,L|258:216,1,83.99999999999989,0|0,2:0|2:0,2:0:0:0:
288,193,69431,2,0,L|285:109,1,83.99999999999989,0|0,2:0|2:0,2:0:0:0:
285,109,69875,5,0,2:0:0:0:
415,76,69963,2,0,L|413:151,1,41.99999999999996,12|0,2:1|2:0,2:0:0:0:
413,193,70141,2,0,L|416:335,2,125.99999999999986,0|0|0,2:0|2:0|2:0,2:0:0:0:
413,117,70762,6,0,L|415:76,2,41.99999999999996,0|0|0,2:0|2:0|2:0,2:0:0:0:
288,193,71028,2,0,P|238:204|188:180,1,83.99999999999989,12|0,2:1|2:0,2:0:0:0:
144,152,71294,6,0,P|133:202|157:252,1,83.99999999999989,2|0,2:0|2:0,2:0:0:0:
143,232,71560,1,0,2:0:0:0:
245,35,71737,6,0,P|286:25|326:37,1,83.99999999999989,0|0,2:0|2:0,2:0:0:0:
189,85,72003,1,0,2:0:0:0:
135,33,72092,2,0,P|95:21|54:31,1,83.99999999999989,12|0,2:1|2:0,2:0:0:0:
3,88,72358,6,0,L|6:230,3,135.00000000000034,2|2|2|2,1:0|1:0|1:0|1:0,2:0:0:0:
58,354,73422,5,6,1:0:0:0:
102,349,73511,1,0,2:0:0:0:
146,344,73600,1,0,2:0:0:0:
204,282,73688,5,2,1:0:0:0:
248,287,73777,1,0,2:0:0:0:
292,292,73866,1,0,2:0:0:0:
370,259,73954,6,0,P|373:311|361:338,2,45.00000000000011,2|0|0,1:0|2:0|2:0,2:0:0:0:
299,210,74221,2,0,P|292:158|312:92,1,90.00000000000023,2|0,1:0|2:0,2:0:0:0:
313,30,74487,5,2,1:0:0:0:
269,35,74575,1,0,2:0:0:0:
225,40,74664,1,0,2:0:0:0:
167,102,74753,5,2,1:0:0:0:
123,97,74841,1,0,2:0:0:0:
79,92,74930,1,0,2:0:0:0:
70,176,75019,5,2,1:0:0:0:
65,220,75107,1,0,2:0:0:0:
61,264,75196,1,0,2:0:0:0:
57,308,75285,1,4,1:0:0:0:
299,210,75551,5,2,1:0:0:0:
339,190,75640,1,0,2:0:0:0:
380,171,75728,1,0,2:0:0:0:
454,212,75817,5,2,1:0:0:0:
468,170,75906,1,0,2:0:0:0:
483,127,75994,1,0,2:0:0:0:
407,89,76083,6,0,P|402:62|404:22,2,45.00000000000011,2|0|0,1:0|2:0|2:0,2:0:0:0:
380,171,76349,2,0,P|366:236|336:277,1,90.00000000000023,2|0,1:0|2:0,2:0:0:0:
295,326,76615,5,2,1:0:0:0:
251,321,76704,1,0,2:0:0:0:
207,316,76793,1,0,2:0:0:0:
149,254,76881,5,2,1:0:0:0:
105,259,76970,1,0,2:0:0:0:
61,264,77059,1,0,2:0:0:0:
53,177,77147,5,2,1:0:0:0:
48,134,77236,1,0,2:0:0:0:
43,90,77325,1,0,2:0:0:0:
38,46,77413,2,0,P|96:59|158:38,1,90.00000000000023,2|0,1:0|2:0,2:0:0:0:
206,25,77680,5,2,1:0:0:0:
223,66,77768,1,0,1:0:0:0:
225,111,77857,1,0,1:0:0:0:
186,177,77946,5,2,1:0:0:0:
227,193,78034,1,0,1:0:0:0:
260,224,78123,1,0,1:0:0:0:
279,298,78212,5,2,1:0:0:0:
319,280,78300,1,0,1:0:0:0:
364,279,78389,1,0,1:0:0:0:
415,336,78478,2,0,P|439:295|423:232,1,90.00000000000023,6|0,1:0|1:0,2:0:0:0:
378,202,78744,5,2,1:0:0:0:
383,157,78833,1,0,1:0:0:0:
388,112,78921,1,0,1:0:0:0:
395,26,79010,5,2,1:0:0:0:
352,41,79099,1,0,1:0:0:0:
306,43,79187,1,0,1:0:0:0:
224,16,79276,5,2,1:0:0:0:
219,61,79365,1,0,1:0:0:0:
214,106,79453,1,0,1:0:0:0:
209,151,79542,1,6,1:0:0:0:
187,348,79808,6,0,L|142:352,1,45,6|0,2:0|2:0,2:0:0:0:
204,196,79941,2,0,L|249:200,1,45,0|0,2:0|2:0,2:0:0:0:
355,320,80074,1,8,2:0:0:0:
397,331,80141,1,0,2:0:0:0:
439,315,80207,1,0,2:0:0:0:
463,279,80274,1,0,2:0:0:0:
462,234,80340,6,0,L|458:189,1,45,6|0,2:0|2:0,2:0:0:0:
288,279,80473,2,0,P|278:323|284:347,1,45,0|0,2:0|2:0,2:0:0:0:
368,221,80606,1,8,2:0:0:0:
364,176,80673,1,0,2:0:0:0:
360,131,80739,1,0,2:0:0:0:
356,86,80806,1,0,2:0:0:0:
352,41,80872,5,6,2:0:0:0:
315,67,80939,1,0,2:0:0:0:
271,76,81005,1,2,2:0:0:0:
228,66,81072,1,0,2:0:0:0:
192,39,81138,1,8,2:0:0:0:
155,12,81205,1,0,2:0:0:0:
111,3,81272,1,0,2:0:0:0:
68,13,81338,1,0,2:0:0:0:
32,39,81405,5,6,2:0:0:0:
16,81,81471,1,0,2:0:0:0:
22,126,81538,1,2,2:0:0:0:
46,163,81604,1,0,2:0:0:0:
85,185,81671,2,0,L|130:189,1,45,0|0,2:0|2:0,2:0:0:0:
315,205,81804,2,0,L|270:201,1,45,0|0,2:0|2:0,2:0:0:0:
110,98,81937,5,4,2:0:0:0:
256,192,82003,12,0,86194,2:0:0:0:
79,82,90451,6,0,L|75:37,3,45,0|2|0|0,2:0|2:1|2:0|2:0,2:0:0:0:
117,59,90717,1,0,2:0:0:0:
159,74,90784,1,0,2:0:0:0:
203,76,90850,1,0,2:0:0:0:
247,65,90917,1,0,2:0:0:0:
283,38,90983,1,0,2:0:0:0:
282,49,91050,1,0,2:0:0:0:
281,60,91116,1,0,2:0:0:0:
280,71,91183,1,0,2:0:0:0:
279,82,91249,1,0,2:0:0:0:
278,94,91316,1,0,2:0:0:0:
277,105,91382,1,0,2:0:0:0:
276,116,91449,1,0,2:0:0:0:
275,127,91515,5,0,2:0:0:0:
479,18,92048,5,0,2:0:0:0:
473,98,92181,1,0,2:0:0:0:
468,178,92314,1,8,2:0:0:0:
463,258,92447,1,0,2:0:0:0:
230,324,92580,5,6,2:0:0:0:
214,316,92646,1,0,2:0:0:0:
198,311,92713,1,0,2:0:0:0:
182,307,92779,1,0,2:0:0:0:
165,306,92846,1,0,2:0:0:0:
148,307,92912,1,0,2:0:0:0:
132,311,92979,1,0,2:0:0:0:
116,316,93045,1,0,2:0:0:0:
101,324,93112,1,0,2:0:0:0:
102,313,93178,1,0,2:0:0:0:
103,302,93245,1,0,2:0:0:0:
103,290,93311,1,0,2:0:0:0:
104,279,93378,1,0,2:0:0:0:
105,268,93444,1,0,2:0:0:0:
106,257,93511,2,0,L|102:212,1,45,0|0,2:0|2:0,2:0:0:0:
212,78,93644,5,2,2:0:0:0:
212,78,93711,1,0,2:0:0:0:
212,78,93777,2,0,L|208:123,1,45,0|0,2:0|2:0,2:0:0:0:
367,116,93910,5,0,2:0:0:0:
367,116,93977,1,0,2:0:0:0:
367,116,94043,2,0,L|371:161,1,45,0|0,2:0|2:0,2:0:0:0:
288,197,94176,5,2,2:0:0:0:
288,197,94243,1,0,2:0:0:0:
288,197,94309,2,0,L|284:242,1,45,0|0,2:0|2:0,2:0:0:0:
443,235,94442,5,0,2:0:0:0:
443,235,94509,1,0,2:0:0:0:
443,235,94575,2,0,L|447:280,1,45,0|0,2:0|2:0,2:0:0:0:
345,335,94708,5,6,2:0:0:0:
306,346,94775,1,0,2:0:0:0:
266,345,94841,1,0,2:0:0:0:
228,330,94908,1,0,2:0:0:0:
198,303,94974,1,0,2:0:0:0:
167,276,95041,1,0,2:0:0:0:
130,261,95107,1,0,2:0:0:0:
90,259,95174,1,0,2:0:0:0:
51,271,95240,5,2,2:0:0:0:
52,260,95307,1,0,2:0:0:0:
53,249,95374,1,0,2:0:0:0:
53,237,95440,1,0,2:0:0:0:
54,226,95507,2,0,L|50:181,1,45,0|0,2:0|2:0,2:0:0:0:
204,167,95640,2,0,L|208:122,1,45,0|0,2:0|2:0,2:0:0:0:
102,20,95773,5,6,2:0:0:0:
146,16,95839,1,0,2:0:0:0:
191,12,95906,1,0,2:0:0:0:
236,8,95972,1,0,2:0:0:0:
281,4,96039,1,0,2:0:0:0:
314,32,96105,1,0,2:0:0:0:
349,61,96172,1,0,2:0:0:0:
384,90,96238,1,0,2:0:0:0:
418,119,96305,5,2,2:0:0:0:
421,164,96371,1,0,2:0:0:0:
425,209,96438,1,2,2:0:0:0:
429,254,96504,1,0,2:0:0:0:
434,298,96571,2,0,L|430:343,1,45,6|2,2:0|2:1,2:0:0:0:
332,201,96704,2,0,L|328:156,1,45,0|0,2:0|2:0,2:0:0:0:
232,331,96837,5,6,2:0:0:0:
191,348,96903,1,0,2:0:0:0:
148,338,96970,1,0,2:0:0:0:
121,303,97036,1,2,2:1:0:0:
120,259,97103,1,8,2:0:0:0:
140,219,97170,1,0,2:0:0:0:
143,174,97236,1,0,2:0:0:0:
126,133,97303,1,0,2:0:0:0:
94,102,97369,6,0,P|163:106|203:95,1,90,2|2,2:0|2:1,2:0:0:0:
208,91,97569,1,0,2:0:0:0:
232,79,97635,1,8,2:0:0:0:
408,7,97768,1,0,2:0:0:0:
316,21,97901,5,2,2:0:0:0:
319,65,97968,1,0,2:0:0:0:
323,110,98034,1,0,2:0:0:0:
327,155,98101,1,2,2:1:0:0:
331,200,98167,1,8,2:0:0:0:
293,178,98234,1,0,2:0:0:0:
249,184,98300,1,0,2:0:0:0:
219,216,98367,1,0,2:0:0:0:
214,260,98433,5,2,2:0:0:0:
197,299,98500,1,0,2:0:0:0:
158,322,98566,1,0,2:0:0:0:
114,315,98633,1,0,2:0:0:0:
84,284,98699,2,0,L|80:239,1,45,8|0,2:0|2:0,2:0:0:0:
51,166,98833,2,0,L|55:121,1,45,0|0,2:0|3:0,2:0:0:0:
192,18,98966,5,6,2:0:0:0:
213,23,99032,1,0,2:0:0:0:
236,25,99099,2,0,L|298:18,1,45,0|2,2:0|2:1,2:0:0:0:
439,69,99232,5,8,2:0:0:0:
417,74,99298,1,0,2:0:0:0:
395,76,99365,2,0,L|350:71,1,45,0|0,2:0|2:0,2:0:0:0:
182,102,99498,5,6,2:0:0:0:
203,107,99564,1,2,2:1:0:0:
226,109,99631,2,0,L|288:102,1,45,0|2,2:0|2:1,2:0:0:0:
429,153,99764,5,8,2:0:0:0:
407,158,99830,1,0,2:0:0:0:
385,160,99897,2,0,L|340:155,1,45,0|0,2:0|2:0,2:0:0:0:
280,346,100030,6,0,P|284:285|276:230,1,90,6|0,2:0|2:0,2:0:0:0:
270,103,100296,1,8,2:0:0:0:
152,294,100429,2,0,L|197:299,1,45,0|0,2:0|2:0,2:0:0:0:
475,322,100562,5,0,2:0:0:0:
280,346,100762,1,0,2:0:0:0:
450,326,100961,1,0,2:0:0:0:
254,185,101094,5,2,2:0:0:0:
209,178,101161,1,0,2:0:0:0:
168,193,101227,1,0,2:0:0:0:
138,226,101294,1,2,2:1:0:0:
128,270,101360,1,8,2:0:0:0:
88,289,101427,1,0,2:0:0:0:
44,282,101493,1,0,2:0:0:0:
12,252,101560,1,0,2:0:0:0:
2,209,101626,6,0,L|9:147,1,45,2|2,2:0|2:1,2:0:0:0:
30,0,101759,2,0,L|35:44,1,45,0|2,2:0|2:1,2:0:0:0:
68,114,101892,2,0,L|103:142,1,45,8|0,2:0|2:0,2:0:0:0:
175,167,102025,2,0,L|219:161,1,45,0|2,2:0|2:1,2:0:0:0:
438,10,102158,5,2,2:0:0:0:
433,31,102225,1,0,2:0:0:0:
431,54,102291,2,0,L|438:116,1,45,0|0,2:0|2:0,2:0:0:0:
387,257,102425,5,8,2:0:0:0:
382,235,102491,1,0,2:0:0:0:
380,213,102558,2,0,L|385:168,1,45,0|0,2:0|2:0,2:0:0:0:
354,0,102691,5,2,2:0:0:0:
349,21,102757,1,0,2:0:0:0:
347,44,102824,2,0,L|354:106,1,45,0|0,2:0|2:0,2:0:0:0:
303,247,102957,5,8,2:0:0:0:
298,225,103023,1,0,2:0:0:0:
296,203,103090,2,0,L|301:158,1,45,0|0,2:0|2:0,2:0:0:0:
425,356,103223,5,0,2:0:0:0:
380,349,103289,1,0,2:0:0:0:
335,343,103356,1,0,2:0:0:0:
291,337,103422,1,2,2:1:0:0:
246,331,103489,1,8,2:0:0:0:
218,295,103555,1,0,2:0:0:0:
191,259,103622,1,0,2:0:0:0:
164,223,103688,1,0,2:0:0:0:
137,187,103755,5,2,2:0:0:0:
169,157,103821,1,2,2:1:0:0:
181,114,103888,1,0,2:0:0:0:
167,72,103954,1,2,2:1:0:0:
133,44,104021,1,8,2:0:0:0:
89,45,104087,1,0,2:0:0:0:
53,71,104154,1,0,2:0:0:0:
37,113,104221,1,0,2:0:0:0:
48,156,104287,5,2,2:0:0:0:
57,200,104354,1,0,2:0:0:0:
59,245,104420,2,0,L|54:290,1,45,0|0,2:0|2:0,2:0:0:0:
229,286,104553,5,8,2:0:0:0:
229,366,104642,1,0,2:0:0:0:
161,326,104731,1,0,2:0:0:0:
161,246,104819,2,0,L|169:157,1,90,2|0,2:0|2:0,2:0:0:0:
303,247,105085,2,0,P|314:291|298:335,1,90,8|0,2:0|2:0,2:0:0:0:
278,120,105351,5,6,2:0:0:0:
263,73,105418,1,0,2:0:0:0:
282,28,105484,1,0,2:0:0:0:
326,6,105551,1,0,2:0:0:0:
373,17,105617,2,0,L|368:62,1,45,8|0,2:0|2:0,2:0:0:0:
508,89,105750,2,0,L|513:134,1,45,0|0,2:0|2:0,2:0:0:0:
400,295,105884,5,2,2:0:0:0:
405,245,105950,1,0,2:0:0:0:
411,196,106017,2,0,L|406:151,1,45,2|0,2:1|2:0,2:0:0:0:
299,332,106150,6,0,L|304:377,1,45,8|0,2:0|2:0,2:0:0:0:
483,311,106283,2,0,P|484:291|478:266,1,45,0|0,2:0|2:0,2:0:0:0:
326,173,106416,5,6,2:0:0:0:
284,147,106482,1,0,2:0:0:0:
235,146,106549,1,0,2:0:0:0:
192,170,106615,1,0,2:0:0:0:
167,212,106682,1,8,2:0:0:0:
125,237,106748,1,0,2:0:0:0:
76,238,106815,1,0,2:0:0:0:
33,214,106881,1,2,2:1:0:0:
10,169,106948,5,6,2:0:0:0:
10,120,107014,1,0,2:0:0:0:
35,78,107081,1,2,2:1:0:0:
78,54,107147,1,0,2:0:0:0:
127,56,107214,1,0,2:0:0:0:
181,57,107280,1,0,2:0:0:0:
234,46,107347,1,0,2:0:0:0:
282,23,107413,1,8,2:0:0:0:
334,37,107480,6,0,L|339:82,1,45,6|0,2:0|2:0,2:0:0:0:
494,126,107613,2,0,L|499:81,1,45,0|0,2:0|2:0,2:0:0:0:
284,147,107746,2,0,L|289:192,1,45,6|0,2:0|2:0,2:0:0:0:
444,236,107879,2,0,L|449:191,1,45,0|0,2:0|2:0,2:0:0:0:
305,292,108012,5,6,2:0:0:0:
258,314,108079,1,0,2:0:0:0:
212,290,108145,1,0,2:0:0:0:
203,239,108212,1,0,2:0:0:0:
240,202,108278,1,8,2:0:0:0:
281,170,108345,1,0,2:0:0:0:
279,118,108411,1,0,2:0:0:0:
236,90,108478,1,0,2:0:0:0:
187,108,108544,5,6,2:0:0:0:
73,315,108677,1,0,2:0:0:0:
35,78,108810,5,8,2:0:0:0:
100,304,108943,1,0,2:0:0:0:
73,315,109010,1,0,2:0:0:0:
46,326,109076,5,2,2:0:0:0:
258,314,109209,1,0,2:0:0:0:
28,214,109342,5,8,2:0:0:0:
264,347,109476,1,0,2:0:0:0:
258,314,109542,1,0,2:0:0:0:
252,281,109609,5,6,2:0:0:0:
302,295,109675,1,0,2:0:0:0:
351,275,109742,1,0,2:0:0:0:
376,229,109808,1,0,2:0:0:0:
367,177,109875,1,8,2:0:0:0:
327,142,109941,1,0,2:0:0:0:
274,143,110008,1,0,2:0:0:0:
236,180,110074,1,0,2:0:0:0:
227,234,110141,5,2,2:0:0:0:
173,230,110207,1,0,2:0:0:0:
119,227,110274,1,0,2:0:0:0:
65,224,110340,1,0,2:0:0:0:
11,218,110407,2,0,L|6:173,1,45,8|0,2:0|2:0,2:0:0:0:
78,334,110540,2,0,L|73:379,1,45,0|0,2:0|2:0,2:0:0:0:
145,151,110673,5,6,2:0:0:0:
131,99,110739,1,0,2:0:0:0:
150,50,110806,1,0,2:0:0:0:
195,22,110872,1,0,2:0:0:0:
248,34,110939,1,8,2:0:0:0:
301,35,111005,1,0,2:0:0:0:
355,37,111072,1,0,2:0:0:0:
409,39,111138,1,0,2:0:0:0:
463,41,111205,6,0,L|458:86,1,45,2|0,2:0|2:0,2:0:0:0:
236,180,111338,2,0,L|231:135,1,45,0|0,2:0|2:0,2:0:0:0:
359,145,111471,1,8,2:0:0:0:
390,188,111538,1,0,2:0:0:0:
401,240,111604,1,0,2:0:0:0:
390,292,111671,1,0,2:0:0:0:
357,335,111737,6,0,L|312:340,1,45,6|0,2:0|2:0,2:0:0:0:
136,290,111870,2,0,L|181:295,1,45,0|0,2:0|2:0,2:0:0:0:
361,356,112003,6,0,L|316:361,1,45,8|0,2:0|2:0,2:0:0:0:
236,180,112136,2,0,L|281:185,1,45,0|0,2:0|2:0,2:0:0:0:
99,362,112269,1,2,2:0:0:0:
56,330,112336,1,0,2:0:0:0:
42,279,112402,1,0,2:0:0:0:
64,230,112469,1,0,2:0:0:0:
111,206,112535,1,2,2:0:0:0:
154,174,112602,1,0,2:0:0:0:
168,123,112668,1,0,2:0:0:0:
146,74,112735,1,0,2:0:0:0:
99,50,112801,5,14,2:0:0:0:
256,192,112868,12,0,114664,2:0:0:0:
84,24,114930,5,6,2:0:0:0:
68,39,114997,1,0,2:0:0:0:
52,54,115063,1,2,2:0:0:0:
33,67,115130,1,0,2:0:0:0:
13,78,115196,1,10,2:0:0:0:
12,99,115263,1,0,2:0:0:0:
11,121,115329,1,2,2:0:0:0:
7,144,115396,1,0,2:0:0:0:
0,166,115462,5,2,2:0:0:0:
15,182,115529,1,0,2:0:0:0:
30,198,115595,1,2,2:0:0:0:
43,217,115662,1,0,2:0:0:0:
54,237,115728,1,10,2:0:0:0:
75,238,115795,1,0,2:0:0:0:
97,239,115861,1,2,2:0:0:0:
120,243,115928,1,0,2:0:0:0:
142,250,115994,6,0,L|147:295,1,45,0|0,2:0|2:0,2:0:0:0:
368,246,116127,2,0,L|373:201,1,45,0|0,2:0|2:0,2:0:0:0:
253,135,116260,6,0,L|208:130,1,45,0|0,2:0|2:0,2:0:0:0:
257,361,116393,2,0,L|302:356,1,45,0|0,2:0|2:0,2:0:0:0:
452,281,116527,5,0,2:0:0:0:
461,237,116593,1,0,2:0:0:0:
448,194,116660,1,0,2:0:0:0:
416,163,116726,1,0,2:0:0:0:
373,152,116793,1,0,2:0:0:0:
329,158,116859,1,0,2:0:0:0:
294,185,116926,1,0,2:0:0:0:
276,226,116992,1,0,2:0:0:0:
281,270,117059,6,0,L|367:245,1,90,0|0,2:0|2:0,2:0:0:0:
