osu file format v14

[General]
AudioFilename: audio.mp3
AudioLeadIn: 0
PreviewTime:46283
Countdown: 0
SampleSet: Soft
StackLeniency: 0.5
Mode: 0
LetterboxInBreaks: 0
WidescreenStoryboard: 1

[Editor]
Bookmarks: 102558
DistanceSpacing: 0.5
BeatDivisor: 4
GridSize: 32
TimelineZoom: 2.1

[Metadata]
Title:Glorious Crown
TitleUnicode:Glorious Crown
Artist:xi
ArtistUnicode:xi
Creator:Anxient
Version:EXPERT
Source:maimai PiNK
Tags:Electronic Instrumental Video Games freedom dive sequel deathstream snownino_ happy hardcore lama poluna toybot
BeatmapID:988082
BeatmapSetID:460515

[Difficulty]
HPDrainRate:6
CircleSize:4.2
OverallDifficulty:8
ApproachRate:9.3
SliderMultiplier:1.4
SliderTickRate:1

[Events]
//Background and Video events
0,0,"bg.jpg",0,0
//Break Periods
2,67236,68211
2,86394,89897
//Storyboard Layer 0 (Background)
//Storyboard Layer 1 (Fail)
//Storyboard Layer 2 (Pass)
//Storyboard Layer 3 (Foreground)
//Storyboard Layer 4 (Overlay)
//Storyboard Sound Samples

[TimingPoints]
-14,266.075388026608,4,2,1,80,1,0
46815,-100,4,2,1,80,0,1
64908,-100,4,2,1,80,0,0
72358,-133.333333333333,4,2,1,80,0,0
80340,-100,4,2,1,80,0,0
84066,-100,4,2,1,5,0,0
86194,-100,4,2,2,50,0,0
91515,-100,4,2,1,50,0,0
92314,-100,4,2,1,80,0,0
92580,-100,4,2,1,70,0,0
96837,-100,4,2,1,80,0,1
117059,-100,4,2,1,80,0,0

[Colours]
Combo1 : 251,228,153
Combo2 : 237,156,84
Combo3 : 131,87,247
Combo4 : 193,218,232

[HitObjects]
115,132,1050,6,0,P|139:95|232:82,1,140,6|0,2:0|2:0,2:0:0:0:
302,133,1449,1,2,2:0:0:0:
377,82,1582,2,0,P|386:43|383:-1,1,70,8|0,2:0|2:0,2:0:0:0:
314,161,1848,1,2,2:0:0:0:
459,144,1981,1,0,2:0:0:0:
302,133,2114,6,0,P|293:166|293:201,1,70,0|2,2:0|2:0,2:0:0:0:
350,273,2380,2,0,P|358:306|358:341,1,70,2|0,2:0|2:0,2:0:0:0:
417,224,2646,1,2,2:0:0:0:
276,317,2779,1,0,2:0:0:0:
456,338,2912,1,2,2:0:0:0:
159,304,3178,5,2,2:0:0:0:
106,229,3311,1,0,2:0:0:0:
145,146,3444,2,0,P|157:105|156:62,1,70,0|2,2:0|2:0,2:0:0:0:
24,210,3711,2,0,P|26:244|36:278,1,70,8|0,2:0|2:0,2:0:0:0:
68,99,3977,1,2,2:0:0:0:
68,99,4110,1,0,2:0:0:0:
106,229,4243,6,0,L|204:221,1,70,0|2,2:0|2:0,2:0:0:0:
255,179,4509,2,0,L|353:187,1,70,2|0,2:0|2:0,2:0:0:0:
444,111,4775,1,2,2:0:0:0:
390,257,4908,1,0,2:0:0:0:
359,100,5041,2,0,L|353:30,1,70,2|0,2:0|2:0,2:0:0:0:
499,187,5307,6,0,L|493:256,1,70,6|0,2:0|2:0,2:0:0:0:
489,347,5573,1,2,2:0:0:0:
489,347,5706,1,0,2:0:0:0:
390,257,5839,2,0,P|350:241|312:237,1,70,2|0,2:0|2:0,2:0:0:0:
444,111,6105,2,0,P|478:105|510:91,1,70,10|0,2:0|2:0,2:0:0:0:
317,14,6371,6,0,B|281:-1|281:-1|293:120,1,140,6|2,2:0|2:0,2:0:0:0:
224,161,6770,1,0,2:0:0:0:
105,41,6903,2,0,P|163:25|197:31,1,70,2|0,2:0|2:0,2:0:0:0:
107,146,7170,2,0,P|72:143|39:130,1,70,10|0,2:0|2:0,2:0:0:0:
224,161,7436,6,0,L|230:210,3,35,2|0|2|0,2:0|2:0|2:0|2:0,2:0:0:0:
210,238,7702,2,0,L|205:272,3,35,10|0|2|0,2:0|2:0|2:0|2:0,2:0:0:0:
197,317,7968,2,0,P|164:330|129:332,1,70,2|2,2:0|2:0,2:0:0:0:
298,268,8234,1,10,2:0:0:0:
315,267,8300,1,0,2:0:0:0:
332,270,8367,1,2,2:0:0:0:
349,275,8433,1,0,2:0:0:0:
365,283,8500,5,2,2:0:0:0:
374,192,8633,1,0,2:0:0:0:
383,101,8766,2,0,L|459:113,1,70,10|0,2:0|2:0,2:0:0:0:
335,3,9032,2,0,L|265:13,1,70,2|0,2:0|2:0,2:0:0:0:
172,25,9298,1,10,2:0:0:0:
154,25,9365,1,0,2:0:0:0:
137,27,9431,1,0,2:0:0:0:
120,33,9498,1,0,2:0:0:0:
104,41,9564,6,0,L|99:77,3,35,4|0|4|0,2:0|2:0|2:0|2:0,2:0:0:0:
72,113,9830,2,0,L|77:149,3,35,2|0|0|0,2:0|2:0|2:0|2:0,2:0:0:0:
103,185,10096,2,0,L|98:221,3,35,2|0|2|0,2:0|2:0|2:0|2:0,2:0:0:0:
71,257,10362,2,0,L|76:293,3,35,2|0|0|0,2:0|2:0|2:0|2:0,2:0:0:0:
86,336,10629,5,2,2:0:0:0:
110,328,10695,1,0,2:0:0:0:
136,324,10762,1,2,2:0:0:0:
163,326,10828,1,0,2:0:0:0:
188,335,10895,2,0,L|228:347,1,35,2|0,2:0|2:0,2:0:0:0:
240,184,11028,2,0,L|206:194,1,35,2|0,2:0|2:0,2:0:0:0:
295,275,11161,6,0,P|342:283|388:279,2,70,2|2|2,2:0|2:0|2:0,2:0:0:0:
394,179,11560,1,2,2:0:0:0:
429,347,11693,6,0,B|473:327|473:327|464:217,1,140,4|0,2:0|2:0,2:0:0:0:
394,179,12092,1,2,2:0:0:0:
458,114,12225,2,0,P|467:76|461:23,1,70,0|0,2:0|2:0,2:0:0:0:
305,156,12491,2,0,P|304:190|313:224,1,70,2|0,2:0|2:0,2:0:0:0:
366,62,12757,6,0,L|248:52,1,105,0|0,2:0|2:0,2:0:0:0:
200,164,13023,2,0,L|304:155,1,105,0|0,2:0|2:0,2:0:0:0:
152,92,13289,2,0,P|121:119|110:139,3,35,0|0|2|0,2:0|2:0|2:0|2:0,2:0:0:0:
33,105,13555,1,0,2:0:0:0:
38,131,13622,1,0,2:0:0:0:
40,157,13688,1,0,2:0:0:0:
41,183,13755,1,0,2:0:0:0:
40,209,13821,6,0,B|22:255|22:255|83:230|129:242|129:242|144:265|190:265,1,210,0|0,2:0|2:0,2:0:0:0:
281,350,14354,2,0,B|264:311|264:311|275:188,1,140,0|0,2:0|2:0,2:0:0:0:
195,165,14753,1,0,2:0:0:0:
348,300,14886,6,0,P|391:312|434:312,1,70,0|0,2:0|2:0,2:0:0:0:
402,223,15152,2,0,P|440:201|471:170,2,46.666666666666664,0|0|0,2:0|2:0|2:0,2:0:0:0:
360,199,15418,2,0,L|370:96,1,70,0|0,2:0|2:0,2:0:0:0:
504,39,15684,2,0,L|510:108,1,70,0|0,2:0|2:0,2:0:0:0:
403,34,15950,6,0,B|367:18|367:18|254:25,1,140,0|0,2:0|2:0,2:0:0:0:
198,84,16349,1,0,2:0:0:0:
119,37,16482,2,0,P|109:90|121:131,1,70,0|0,2:0|2:0,2:0:0:0:
198,84,16748,1,0,2:0:0:0:
35,127,16881,1,0,2:0:0:0:
42,161,16948,1,0,2:0:0:0:
49,194,17014,6,0,L|43:290,1,70,0|0,2:0|2:0,2:0:0:0:
182,309,17280,2,0,L|177:239,1,70,2|0,2:0|2:0,2:0:0:0:
102,371,17546,2,0,B|136:350|136:350|261:361,1,140,0|0,2:0|2:0,2:0:0:0:
307,302,17946,1,0,2:0:0:0:
464,347,18079,6,0,P|471:310|464:262,1,70,0|0,2:0|2:0,2:0:0:0:
422,199,18345,1,0,2:0:0:0:
422,199,18478,1,0,2:0:0:0:
463,38,18611,1,0,2:0:0:0:
485,126,18744,1,0,2:0:0:0:
397,101,18877,2,0,P|348:99|308:105,1,70,0|0,2:0|2:0,2:0:0:0:
167,157,19143,5,0,2:0:0:0:
228,88,19276,1,0,2:0:0:0:
96,6,19409,1,0,2:0:0:0:
81,121,19542,2,0,P|77:162|77:183,1,35,0|0,2:0|2:0,2:0:0:0:
228,88,19675,2,0,L|224:1,1,70,0|0,2:0|2:0,2:0:0:0:
167,157,19941,2,0,L|163:226,1,70,0|2,2:0|2:0,2:0:0:0:
145,376,20207,6,0,P|123:334|44:289,2,140,6|0|0,2:0|2:0|2:0,2:0:0:0:
219,323,20872,1,0,2:0:0:0:
309,331,21005,2,0,L|384:338,1,70,0|0,2:0|2:0,2:0:0:0:
402,322,21205,1,0,2:0:0:0:
425,307,21272,5,0,2:0:0:0:
350,184,21405,1,0,2:0:0:0:
321,181,21471,2,0,L|251:174,1,70,0|0,2:0|2:0,2:0:0:0:
410,89,21737,5,0,2:0:0:0:
438,91,21804,2,0,L|507:97,1,70,0|0,2:0|2:0,2:0:0:0:
504,125,22003,1,0,2:0:0:0:
500,152,22070,2,0,P|495:194|495:205,1,35,0|0,2:0|2:0,2:0:0:0:
354,218,22203,2,0,P|352:200|349:183,1,35,2|0,2:0|2:0,2:0:0:0:
364,5,22336,6,0,L|224:18,1,140,6|0,2:0|2:0,2:0:0:0:
204,36,22735,1,0,2:0:0:0:
89,152,22868,6,0,B|70:109|70:109|81:6,1,140,2|0,2:0|2:0,2:0:0:0:
102,33,23267,1,0,2:0:0:0:
170,183,23400,6,0,P|145:221|99:242,1,70,2|0,2:0|2:0,2:0:0:0:
250,125,23666,1,0,2:0:0:0:
253,162,23755,1,0,2:0:0:0:
256,198,23844,1,0,2:0:0:0:
224,310,23932,6,0,L|306:305,1,70,2|0,2:0|2:0,2:0:0:0:
404,248,24198,1,0,2:0:0:0:
360,367,24331,1,2,2:0:0:0:
337,179,24464,6,0,L|332:98,1,70,6|0,2:0|2:0,2:0:0:0:
499,216,24731,2,0,L|494:285,1,70,0|0,2:0|2:0,2:0:0:0:
428,81,24997,1,0,2:0:0:0:
501,191,25130,1,0,2:0:0:0:
337,179,25263,2,0,L|267:174,1,70,0|2,2:0|2:0,2:0:0:0:
119,79,25529,5,2,2:0:0:0:
154,227,25662,2,0,P|154:269|144:309,1,70,0|0,2:0|2:0,2:0:0:0:
127,301,25861,1,0,2:0:0:0:
106,306,25928,1,0,2:0:0:0:
261,262,26061,6,0,L|330:266,1,70,2|0,2:0|2:0,2:0:0:0:
336,287,26260,1,0,2:0:0:0:
342,307,26327,1,0,2:0:0:0:
416,202,26460,1,0,2:0:0:0:
271,104,26593,6,0,L|266:173,1,70,2|0,2:0|2:0,2:0:0:0:
364,114,26859,1,0,2:0:0:0:
219,30,26992,2,0,P|196:56|188:70,1,35,0|0,2:0|2:0,2:0:0:0:
332,21,27125,6,0,L|401:25,1,70,2|0,2:0|2:0,2:0:0:0:
187,81,27391,2,0,L|117:85,1,70,2|0,2:0|2:0,2:0:0:0:
364,114,27657,5,2,2:0:0:0:
383,202,27790,1,0,2:0:0:0:
378,229,27857,1,0,2:0:0:0:
373,256,27923,2,0,L|442:251,1,70,2|0,2:0|2:0,2:0:0:0:
267,366,28189,6,0,L|260:261,2,105,0|0|0,2:0|2:0|2:0,2:0:0:0:
199,208,28722,2,0,P|237:182|285:182,1,70,0|0,2:0|2:0,2:0:0:0:
60,278,28988,2,0,P|26:269|0:248,1,70,0|0,2:0|2:0,2:0:0:0:
121,169,29254,1,0,2:0:0:0:
152,353,29387,1,0,2:0:0:0:
198,60,29786,5,6,2:0:0:0:
75,88,29919,2,0,P|71:50|79:13,1,70,0|8,2:0|2:0,2:0:0:0:
199,208,30185,5,0,2:0:0:0:
83,173,30318,1,0,1:0:0:0:
268,130,30451,1,2,2:0:0:0:
302,135,30518,1,0,2:0:0:0:
337,137,30584,1,8,2:0:0:0:
372,134,30651,1,0,2:0:0:0:
406,126,30717,1,0,2:0:0:0:
439,114,30784,1,0,2:0:0:0:
469,95,30850,6,0,P|475:148|463:208,1,105,2|0,2:0|2:0,2:0:0:0:
453,231,31116,1,8,2:0:0:0:
493,361,31249,1,0,2:0:0:0:
374,319,31382,2,0,P|337:310|294:308,1,70,2|0,2:0|2:0,2:0:0:0:
196,220,31648,1,8,2:0:0:0:
241,366,31782,1,0,2:0:0:0:
274,161,31915,6,0,P|279:119|277:68,1,70,2|0,2:0|2:0,2:0:0:0:
196,220,32181,1,8,2:0:0:0:
102,136,32314,6,0,P|97:94|99:43,1,70,0|0,2:0|1:0,2:0:0:0:
191,251,32580,1,0,2:0:0:0:
118,306,32713,6,0,P|88:320|61:327,1,35,8|0,2:0|2:0,2:0:0:0:
70,243,32846,2,0,P|38:231|14:217,1,35,0|0,2:0|2:0,2:0:0:0:
102,136,32979,2,0,P|97:94|99:43,1,70,2|0,2:0|2:0,2:0:0:0:
279,91,33245,2,0,P|278:126|274:161,1,70,8|0,2:0|2:0,2:0:0:0:
301,176,33444,1,0,2:0:0:0:
328,191,33511,5,2,2:0:0:0:
385,37,33644,2,0,P|387:8|387:-8,1,35,0|0,2:0|2:0,2:0:0:0:
446,140,33777,1,10,1:2:0:0:
279,91,33910,1,0,2:0:0:0:
481,151,34043,6,0,P|481:185|486:220,1,70,2|0,2:0|2:0,2:0:0:0:
473,249,34243,1,0,2:0:0:0:
457,280,34309,2,0,P|457:314|462:349,1,70,8|0,2:0|2:0,2:0:0:0:
271,299,34575,1,2,2:0:0:0:
277,264,34642,1,0,2:0:0:0:
280,229,34708,1,0,2:0:0:0:
279,194,34775,1,0,2:0:0:0:
273,161,34841,2,0,P|273:126|278:91,1,70,8|0,2:0|2:0,2:0:0:0:
164,190,35107,5,2,2:0:0:0:
365,238,35240,1,0,2:0:0:0:
164,268,35374,1,8,2:0:0:0:
129,263,35440,1,0,2:0:0:0:
101,243,35507,1,0,2:0:0:0:
84,213,35573,1,0,2:0:0:0:
84,178,35640,5,2,2:0:0:0:
154,22,35773,1,0,2:0:0:0:
29,112,35906,2,0,P|3:146|-2:199,1,70,8|0,2:0|2:0,2:0:0:0:
163,114,36172,6,0,L|244:108,1,70,2|0,2:0|2:0,2:0:0:0:
422,61,36438,1,8,2:0:0:0:
344,120,36571,1,0,2:0:0:0:
420,276,36704,2,0,L|501:270,1,70,2|0,2:0|2:0,2:0:0:0:
339,147,36970,1,8,2:0:0:0:
311,339,37103,1,0,2:0:0:0:
279,194,37236,5,2,2:0:0:0:
103,222,37369,1,0,2:0:0:0:
108,241,37436,1,0,2:0:0:0:
114,261,37502,1,8,2:0:0:0:
172,98,37635,1,0,2:0:0:0:
19,175,37768,5,2,2:0:0:0:
14,194,37835,1,0,2:0:0:0:
8,214,37901,1,0,2:0:0:0:
14,248,37968,1,0,2:0:0:0:
21,282,38034,1,4,2:0:0:0:
194,210,38167,1,0,2:0:0:0:
73,94,38300,6,0,P|72:50|78:5,1,70,2|0,2:0|2:0,2:0:0:0:
260,62,38566,2,0,P|262:96|261:131,1,70,8|0,2:0|2:0,2:0:0:0:
172,17,38833,1,2,2:0:0:0:
172,17,38966,1,0,2:0:0:0:
194,210,39099,2,0,P|228:212|263:211,1,70,8|0,2:0|2:0,2:0:0:0:
366,41,39365,6,0,P|331:39|296:42,1,70,2|0,2:0|2:0,2:0:0:0:
421,163,39631,1,8,2:0:0:0:
385,13,39764,1,0,2:0:0:0:
339,182,39897,2,0,P|357:218|385:237,1,70,2|0,2:0|2:0,2:0:0:0:
465,68,40163,1,8,2:0:0:0:
324,147,40296,1,0,2:0:0:0:
512,209,40429,6,0,L|508:289,1,70,2|0,2:0|2:0,2:0:0:0:
362,329,40695,2,0,L|358:259,1,70,8|0,2:0|2:0,2:0:0:0:
247,360,40961,1,2,2:0:0:0:
212,353,41028,1,0,2:0:0:0:
180,340,41094,1,0,2:0:0:0:
152,319,41161,1,0,2:0:0:0:
129,292,41227,1,8,2:0:0:0:
133,285,41294,1,0,2:0:0:0:
138,277,41360,1,0,2:0:0:0:
144,271,41427,1,0,2:0:0:0:
150,265,41493,6,0,L|146:195,1,70,2|0,2:0|2:0,2:0:0:0:
3,217,41759,2,0,L|0:286,1,70,8|0,2:0|2:0,2:0:0:0:
71,127,42025,2,0,L|72:92,3,35,2|2|0|0,2:0|2:0|2:0|2:0,2:0:0:0:
101,112,42291,2,0,P|146:101|211:122,1,105,8|0,2:0|2:0,2:0:0:0:
215,83,42558,6,0,P|260:94|345:55,1,140,2|8,2:0|2:0,2:0:0:0:
413,114,42957,1,0,2:0:0:0:
492,5,43090,2,0,L|415:0,1,70,2|2,2:0|2:0,2:0:0:0:
443,140,43356,2,0,L|512:135,1,70,8|0,2:0|2:0,2:0:0:0:
334,96,43622,6,0,P|299:155|308:223,1,140,2|8,2:0|2:0,2:0:0:0:
379,281,44021,1,0,2:0:0:0:
287,362,44154,5,2,2:0:0:0:
463,308,44287,1,0,2:0:0:0:
460,280,44354,1,0,2:0:0:0:
457,251,44420,1,8,2:0:0:0:
382,373,44553,1,0,2:0:0:0:
308,223,44686,6,0,B|272:206|272:206|161:215,1,140,2|10,2:0|2:0,2:0:0:0:
164,220,45019,1,0,2:0:0:0:
155,226,45085,1,2,2:0:0:0:
57,138,45218,6,0,P|48:89|61:40,1,70,2|2,2:0|2:0,2:0:0:0:
191,20,45484,1,10,2:0:0:0:
193,37,45551,1,0,2:0:0:0:
192,54,45617,1,2,2:0:0:0:
189,72,45684,1,0,2:0:0:0:
184,88,45750,6,0,L|265:84,1,70,2|0,2:0|2:0,2:0:0:0:
279,55,45950,2,0,L|392:60,1,105,2|2,2:0|2:0,2:0:0:0:
506,159,46283,5,2,2:0:0:0:
472,12,46416,1,0,2:0:0:0:
388,183,46549,1,8,2:0:0:0:
512,124,46682,1,0,2:0:0:0:
462,307,46815,6,0,P|413:285|368:283,1,70,6|0,2:0|2:0,2:0:0:0:
235,310,47081,1,8,2:0:0:0:
241,279,47147,1,0,2:0:0:0:
248,248,47214,2,0,L|246:206,1,35,0|0,2:0|2:0,2:0:0:0:
69,255,47347,2,0,L|70:289,1,35,2|0,2:0|2:0,2:0:0:0:
146,179,47480,1,0,2:0:0:0:
134,23,47613,2,0,P|95:36|62:39,1,70,8|0,2:0|2:0,2:0:0:0:
219,92,47879,6,0,P|268:76|323:77,1,105,2|0,2:0|2:0,2:0:0:0:
351,84,48145,2,0,B|365:129|365:129|348:202,1,105,8|0,2:0|2:0,2:0:0:0:
330,213,48411,2,0,B|371:234|371:234|411:298,1,105,2|0,2:0|2:0,2:0:0:0:
406,319,48677,2,0,B|451:305|451:305|524:322,1,105,8|0,2:0|2:0,2:0:0:0:
311,297,48943,5,2,2:0:0:0:
217,268,49076,1,0,2:0:0:0:
63,239,49209,2,0,P|55:200|59:157,1,70,8|0,2:0|2:0,2:0:0:0:
135,316,49476,2,0,P|135:350|128:384,1,70,2|0,2:0|2:0,2:0:0:0:
175,156,49742,2,0,L|264:147,1,70,8|0,2:0|2:0,2:0:0:0:
73,30,50008,5,2,2:0:0:0:
53,125,50141,1,2,2:1:0:0:
186,53,50274,2,0,P|191:11|188:-16,2,46.666666666666664,8|0|0,2:0|2:0|2:0,2:0:0:0:
244,148,50540,2,0,L|333:139,1,70,2|2,2:0|2:0,2:0:0:0:
331,119,50739,1,0,2:0:0:0:
348,97,50806,2,0,L|345:48,1,35,10|0,2:0|2:0,2:0:0:0:
493,135,50939,2,0,L|490:169,1,35,2|0,2:0|2:0,2:0:0:0:
401,249,51072,6,0,L|405:318,1,70,6|0,2:0|2:0,2:0:0:0:
313,140,51338,1,8,2:0:0:0:
489,169,51471,1,0,2:0:0:0:
309,251,51604,2,0,L|313:320,1,70,2|0,2:0|2:0,2:0:0:0:
493,238,51870,2,0,L|489:169,1,70,8|0,2:0|2:0,2:0:0:0:
309,251,52136,6,0,P|271:238|165:257,1,140,2|8,2:0|2:0,2:0:0:0:
104,310,52535,1,0,2:0:0:0:
37,180,52668,2,0,P|32:135|37:99,1,70,2|0,2:0|2:0,2:0:0:0:
165,222,52935,1,8,2:0:0:0:
15,268,53068,1,0,2:0:0:0:
66,93,53201,6,0,L|135:89,1,70,6|0,2:0|2:0,2:0:0:0:
211,139,53467,1,8,2:0:0:0:
191,7,53600,1,2,2:0:0:0:
294,137,53733,2,0,P|286:177|257:209,1,70,6|0,2:0|2:0,2:0:0:0:
354,11,53999,1,8,2:0:0:0:
222,31,54132,1,2,2:0:0:0:
399,121,54265,6,0,P|393:155|380:199,1,70,6|2,2:0|2:1,2:0:0:0:
388,209,54464,1,2,2:0:0:0:
392,229,54531,1,8,1:0:0:0:
303,344,54664,1,0,2:0:0:0:
309,314,54731,1,0,2:0:0:0:
316,284,54797,2,0,P|271:297|199:267,2,105,2|2|2,2:0|2:1|2:1,2:0:0:0:
464,382,55329,5,6,2:0:0:0:
400,318,55462,1,0,2:0:0:0:
483,220,55595,2,0,P|492:186|498:151,1,70,8|0,2:0|2:0,2:0:0:0:
293,136,55861,2,0,P|284:102|278:68,1,70,2|0,2:0|2:0,2:0:0:0:
399,121,56127,5,8,2:0:0:0:
396,138,56194,1,0,2:0:0:0:
392,155,56260,1,0,2:0:0:0:
388,172,56327,1,0,2:0:0:0:
383,189,56393,5,2,2:0:0:0:
301,227,56527,1,0,2:0:0:0:
168,95,56660,2,0,L|172:17,1,70,8|0,2:0|2:0,2:0:0:0:
34,110,56926,2,0,P|32:145|37:180,1,70,2|0,2:0|2:0,2:0:0:0:
49,201,57125,1,2,2:1:0:0:
61,221,57192,1,8,2:0:0:0:
180,134,57325,1,0,2:0:0:0:
158,288,57458,6,0,P|207:292|259:261,1,105,2|2,2:0|2:1,2:0:0:0:
267,244,57724,1,8,2:0:0:0:
414,323,57857,1,0,2:0:0:0:
358,234,57990,2,0,P|351:184|356:151,1,70,2|0,2:0|2:0,2:0:0:0:
496,115,58256,2,0,P|497:149|490:184,1,70,8|0,2:0|2:0,2:0:0:0:
409,66,58522,5,2,2:0:0:0:
306,90,58655,1,0,2:0:0:0:
209,48,58788,2,0,P|185:43|162:46,2,46.666666666666664,8|0|0,2:0|2:0|2:0,2:0:0:0:
180,134,59054,5,2,2:0:0:0:
68,63,59187,1,0,2:0:0:0:
64,195,59320,1,8,2:0:0:0:
63,229,59387,1,0,2:0:0:0:
62,263,59453,1,2,2:0:0:0:
61,297,59520,1,0,2:0:0:0:
60,331,59586,6,0,B|104:317|104:317|217:331,1,140,6|8,2:0|2:0,2:0:0:0:
273,340,59986,1,0,2:0:0:0:
395,228,60119,2,0,P|387:186|391:145,1,70,2|0,2:0|2:0,2:0:0:0:
251,196,60385,2,0,P|251:230|244:265,1,70,8|0,2:0|2:0,2:0:0:0:
395,337,60651,6,0,P|437:333|500:241,1,140,6|8,2:0|2:0,2:0:0:0:
495,242,61050,1,0,2:0:0:0:
388,158,61183,2,0,P|380:123|381:88,1,70,6|0,2:0|2:0,2:0:0:0:
391,74,61382,1,2,2:1:0:0:
401,59,61449,1,8,2:0:0:0:
512,108,61582,1,0,2:0:0:0:
325,27,61715,6,0,L|239:23,1,70,6|0,2:0|2:0,2:0:0:0:
169,55,61981,2,0,L|83:59,1,70,8|0,2:0|2:0,2:0:0:0:
91,81,62181,1,0,2:0:0:0:
83,104,62247,1,6,2:0:0:0:
146,219,62380,1,0,2:0:0:0:
292,180,62513,2,0,L|288:94,1,70,8|0,2:0|2:0,2:0:0:0:
154,249,62779,5,6,2:0:0:0:
83,104,62912,1,0,2:0:0:0:
54,271,63045,2,0,L|57:340,1,70,8|0,2:0|2:0,2:0:0:0:
207,148,63311,5,2,2:0:0:0:
27,192,63444,1,2,2:1:0:0:
154,249,63578,2,0,P|194:261|235:261,1,70,8|2,1:0|2:0,2:0:0:0:
235,258,63777,1,0,2:0:0:0:
248,254,63844,5,2,2:0:0:0:
357,346,63977,1,0,2:0:0:0:
421,153,64110,1,8,2:0:0:0:
449,253,64243,1,0,2:0:0:0:
292,180,64376,6,0,L|288:94,1,70,2|0,2:0|2:0,2:0:0:0:
293,96,64575,1,0,2:0:0:0:
297,82,64642,1,8,2:0:0:0:
356,242,64775,1,0,2:0:0:0:
407,27,64908,1,6,2:0:0:0:
256,192,64974,12,0,67036,2:0:0:0:
258,41,68766,5,0,2:0:0:0:
220,163,68899,1,0,2:0:0:0:
420,128,69099,1,0,2:0:0:0:
395,103,69165,1,4,2:0:0:0:
207,186,69963,5,0,2:0:0:0:
409,203,70163,1,0,2:0:0:0:
391,173,70229,1,4,2:0:0:0:
194,209,71028,5,12,2:1:0:0:
394,314,71294,1,6,2:0:0:0:
409,203,71560,1,2,2:0:0:0:
394,314,71826,5,6,2:0:0:0:
358,323,71915,1,0,2:0:0:0:
321,332,72003,1,0,2:0:0:0:
285,342,72092,2,0,L|292:246,1,70.00000000000001,12|0,2:1|2:0,2:0:0:0:
271,250,72358,6,0,L|280:125,1,105.00000000000026,2|2,1:0|1:0,2:0:0:0:
318,42,72890,6,0,L|310:146,1,105.00000000000026,2|2,1:0|1:0,2:0:0:0:
60,57,73422,5,6,1:0:0:0:
66,87,73511,1,0,2:0:0:0:
72,117,73600,1,0,2:0:0:0:
143,154,73688,5,2,1:0:0:0:
137,184,73777,1,0,2:0:0:0:
131,214,73866,1,0,2:0:0:0:
131,294,73954,6,0,P|98:288|72:273,2,35.000000000000085,2|0|0,1:0|2:0|2:0,2:0:0:0:
201,255,74221,2,0,L|270:249,1,70.00000000000017,2|0,1:0|2:0,2:0:0:0:
338,294,74487,5,2,1:0:0:0:
348,261,74575,1,0,2:0:0:0:
346,226,74664,1,0,2:0:0:0:
403,168,74753,5,2,1:0:0:0:
393,135,74841,1,0,2:0:0:0:
395,100,74930,1,0,2:0:0:0:
438,31,75019,6,0,P|406:21|382:21,2,35.000000000000085,2|0|0,1:0|2:0|2:0,2:0:0:0:
476,102,75285,1,4,1:0:0:0:
246,36,75551,5,2,1:0:0:0:
213,48,75640,1,0,2:0:0:0:
178,53,75728,1,0,2:0:0:0:
102,27,75817,5,2,1:0:0:0:
87,59,75906,1,0,2:0:0:0:
66,87,75994,1,0,2:0:0:0:
96,161,76083,6,0,P|68:169|46:166,2,35.000000000000085,2|0|0,1:0|2:0|2:0,2:0:0:0:
174,142,76349,2,0,P|217:137|261:147,1,70.00000000000017,2|0,1:0|2:0,2:0:0:0:
305,192,76615,5,2,1:0:0:0:
338,204,76704,1,0,2:0:0:0:
373,209,76793,1,0,2:0:0:0:
449,183,76881,5,2,1:0:0:0:
464,215,76970,1,0,2:0:0:0:
485,243,77059,1,0,2:0:0:0:
455,317,77147,6,0,P|483:325|505:322,2,35.000000000000085,2|0|0,1:0|2:0|2:0,2:0:0:0:
377,298,77413,2,0,P|334:293|290:303,1,70.00000000000017,2|0,1:0|2:0,2:0:0:0:
233,329,77680,5,2,1:0:0:0:
199,338,77768,1,0,1:0:0:0:
164,339,77857,1,0,1:0:0:0:
93,377,77946,5,2,1:0:0:0:
63,360,78034,1,0,1:0:0:0:
37,336,78123,1,0,1:0:0:0:
67,261,78212,6,0,P|37:257|7:260,2,35.000000000000085,2|0|0,1:0|1:0|1:0,2:0:0:0:
143,235,78478,2,0,L|150:137,1,70.00000000000017,6|0,1:0|1:0,2:0:0:0:
159,84,78744,6,0,P|124:87|105:96,2,35.000000000000085,2|0|0,1:0|1:0|1:0,2:0:0:0:
221,134,79010,2,0,P|238:133|255:136,2,35.000000000000085,2|0|0,1:0|1:0|1:0,2:0:0:0:
147,165,79276,5,2,1:0:0:0:
112,167,79365,1,0,1:0:0:0:
77,169,79453,1,0,1:0:0:0:
24,108,79542,5,6,1:0:0:0:
321,52,79808,6,0,P|326:102|323:135,1,70.00000000000017,6|0,2:0|2:0,2:0:0:0:
385,186,80074,1,8,2:0:0:0:
511,95,80207,1,0,2:0:0:0:
411,298,80340,6,0,P|376:298|341:294,1,70,6|0,2:0|2:0,2:0:0:0:
326,274,80540,1,0,2:0:0:0:
311,254,80606,1,8,2:0:0:0:
422,169,80739,1,0,2:0:0:0:
221,134,80872,5,6,2:0:0:0:
417,90,81005,1,2,2:0:0:0:
202,39,81138,6,0,P|197:89|200:122,1,70,8|0,2:0|2:0,2:0:0:0:
221,134,81338,1,0,2:0:0:0:
244,160,81405,1,6,2:0:0:0:
244,348,81538,1,2,2:0:0:0:
134,196,81671,1,10,2:0:0:0:
311,254,81804,1,2,2:0:0:0:
134,311,81937,5,4,2:0:0:0:
256,192,82003,12,0,86194,2:0:0:0:
73,138,90451,6,0,P|117:124|160:126,1,70,2|0,2:0|2:0,2:0:0:0:
222,162,90717,2,0,P|252:170|281:174,3,35,0|0|0|0,2:0|2:0|2:0|2:0,2:0:0:0:
291,239,90983,2,0,P|317:223|341:205,3,35,2|0|0|0,2:0|2:0|2:0|2:0,2:0:0:0:
396,239,91249,5,0,2:0:0:0:
408,206,91316,1,0,2:0:0:0:
413,171,91382,1,0,2:0:0:0:
412,136,91449,1,0,2:0:0:0:
404,102,91515,1,4,2:1:0:0:
404,102,92048,5,0,2:0:0:0:
321,221,92181,1,0,2:0:0:0:
260,67,92314,2,0,P|262:32|274:0,1,70,8|0,2:0|2:0,2:0:0:0:
140,123,92580,6,0,L|146:173,3,35,6|0|0|0,2:0|2:0|2:0|2:0,2:0:0:0:
165,199,92846,2,0,L|159:249,3,35,0|0|0|0,2:0|2:0|2:0|2:0,2:0:0:0:
154,279,93112,1,0,2:0:0:0:
188,273,93178,1,0,2:0:0:0:
222,267,93245,1,0,2:0:0:0:
256,261,93311,1,0,2:0:0:0:
290,256,93378,2,0,L|356:244,1,35,0|0,2:0|2:0,2:0:0:0:
346,384,93511,2,0,L|311:377,1,35,0|0,2:0|2:0,2:0:0:0:
450,311,93644,6,0,B|471:237|471:237|457:188,1,105,2|0,2:0|2:0,2:0:0:0:
496,197,93910,2,0,B|458:129|458:129|413:105,1,105,0|0,2:0|2:0,2:0:0:0:
447,83,94176,2,0,B|372:62|372:62|324:75,1,105,2|0,2:0|2:0,2:0:0:0:
313,82,94442,1,0,2:0:0:0:
315,116,94509,1,0,2:0:0:0:
317,151,94575,1,0,2:0:0:0:
319,186,94642,1,0,2:0:0:0:
321,221,94708,6,0,L|213:215,1,105,6|0,2:0|2:0,2:0:0:0:
191,190,94974,1,0,2:0:0:0:
173,325,95107,1,0,2:0:0:0:
29,222,95240,2,0,P|27:180|32:139,1,70,2|0,2:0|2:0,2:0:0:0:
190,120,95507,2,0,P|192:154|190:189,1,70,0|0,2:0|2:0,2:0:0:0:
92,57,95773,5,6,2:0:0:0:
92,57,95906,1,0,2:0:0:0:
174,18,96039,2,0,P|224:21|240:27,2,46.666666666666664,0|0|0,2:0|2:0|2:0,2:0:0:0:
313,82,96305,5,2,2:0:0:0:
361,159,96438,2,0,P|363:193|361:228,2,70,2|6|0,2:0|2:0|2:0,2:0:0:0:
481,115,96837,5,6,2:0:0:0:
402,69,96970,1,0,2:0:0:0:
259,189,97103,2,0,P|225:191|190:189,1,70,8|0,2:0|2:0,2:0:0:0:
170,180,97303,1,0,2:0:0:0:
150,171,97369,5,2,2:0:0:0:
221,308,97502,1,2,2:1:0:0:
67,301,97635,1,8,2:0:0:0:
23,153,97768,2,0,P|19:115|22:93,1,35,0|0,2:0|2:0,2:0:0:0:
150,19,97901,6,0,P|184:17|219:19,1,70,2|0,2:0|2:0,2:0:0:0:
88,118,98167,2,0,P|53:120|18:118,1,70,8|0,2:0|2:0,2:0:0:0:
145,261,98433,5,2,2:0:0:0:
221,308,98566,1,0,2:0:0:0:
307,287,98699,1,8,2:0:0:0:
354,211,98833,1,0,2:0:0:0:
482,291,98966,6,0,P|491:345|488:373,1,70,6|0,2:0|2:0,2:0:0:0:
354,211,99232,2,0,P|354:176|362:142,1,70,8|0,2:0|2:0,2:0:0:0:
378,118,99431,1,0,2:0:0:0:
394,95,99498,1,6,2:0:0:0:
302,8,99631,1,0,2:0:0:0:
259,189,99764,1,8,2:0:0:0:
439,187,99897,1,0,2:0:0:0:
246,151,100030,6,0,P|211:148|176:150,1,70,6|0,2:0|2:0,2:0:0:0:
163,126,100229,1,0,2:0:0:0:
149,101,100296,1,8,2:0:0:0:
48,214,100429,1,0,2:0:0:0:
45,241,100495,1,0,2:0:0:0:
42,269,100562,2,0,L|159:260,1,105,2|2,2:0|2:0,2:0:0:0:
162,283,100828,2,0,L|231:288,1,70,4|2,2:0|2:0,2:0:0:0:
473,312,101094,5,2,2:0:0:0:
405,251,101227,1,0,2:0:0:0:
476,147,101360,2,0,P|480:104|475:63,1,70,8|0,2:0|2:0,2:0:0:0:
314,218,101626,2,0,P|311:252|315:287,1,70,2|0,2:0|2:0,2:0:0:0:
387,145,101892,1,8,2:0:0:0:
389,127,101959,1,0,2:0:0:0:
390,110,102025,1,0,2:0:0:0:
390,92,102092,1,2,2:1:0:0:
388,75,102158,5,2,2:0:0:0:
301,31,102291,1,0,2:0:0:0:
214,76,102425,2,0,P|165:84|121:82,1,70,8|0,2:0|2:0,2:0:0:0:
244,209,102691,2,0,P|279:211|314:218,1,70,2|0,2:0|2:0,2:0:0:0:
101,169,102957,1,8,2:0:0:0:
98,186,103023,1,0,2:0:0:0:
97,203,103090,1,0,2:0:0:0:
97,221,103156,1,0,2:0:0:0:
99,238,103223,5,2,2:0:0:0:
162,312,103356,1,0,2:0:0:0:
68,342,103489,2,0,P|12:353|-22:351,1,70,8|0,2:0|2:0,2:0:0:0:
101,169,103755,2,0,P|135:171|169:180,1,70,2|0,2:0|2:0,2:0:0:0:
251,349,104021,5,8,2:0:0:0:
292,133,104154,1,0,2:0:0:0:
360,313,104287,2,0,P|326:321|291:324,1,70,2|0,2:0|2:0,2:0:0:0:
459,289,104553,5,8,2:0:0:0:
452,241,104642,1,0,2:0:0:0:
446,194,104731,1,0,2:0:0:0:
447,114,104819,6,0,L|451:18,1,70,2|0,2:0|2:0,2:0:0:0:
467,33,105019,1,0,2:0:0:0:
485,22,105085,1,8,2:0:0:0:
362,83,105218,1,0,2:0:0:0:
239,22,105351,6,0,L|145:15,1,70,6|0,2:0|2:0,2:0:0:0:
160,36,105551,1,0,2:0:0:0:
151,54,105617,1,8,2:0:0:0:
204,146,105750,1,0,2:0:0:0:
22,180,105884,2,0,L|16:110,1,70,2|2,2:0|2:1,2:0:0:0:
121,241,106150,2,0,L|115:310,1,70,8|0,2:0|2:0,2:0:0:0:
204,146,106416,6,0,L|310:140,1,105,6|0,2:0|2:0,2:0:0:0:
323,172,106682,2,0,L|403:176,1,70,8|0,2:0|2:0,2:0:0:0:
237,327,106948,6,0,L|240:257,1,70,6|2,2:0|2:1,2:0:0:0:
356,298,107214,1,8,2:0:0:0:
373,298,107280,1,0,2:0:0:0:
390,299,107347,1,0,2:0:0:0:
408,300,107413,1,0,2:0:0:0:
425,301,107480,5,6,2:0:0:0:
474,224,107613,1,0,2:0:0:0:
326,102,107746,2,0,L|323:172,1,70,8|0,2:0|2:0,2:0:0:0:
498,111,108012,2,0,L|495:41,1,70,6|0,2:0|2:0,2:0:0:0:
368,3,108278,1,8,2:0:0:0:
351,2,108345,1,0,2:0:0:0:
333,1,108411,1,0,2:0:0:0:
316,0,108478,1,0,2:0:0:0:
299,0,108544,5,6,2:0:0:0:
224,52,108677,1,0,2:0:0:0:
87,6,108810,2,0,P|80:49|86:86,1,70,8|0,2:0|2:0,2:0:0:0:
90,90,109010,1,0,2:0:0:0:
97,105,109076,5,2,2:0:0:0:
80,264,109209,1,0,2:0:0:0:
204,146,109342,5,8,2:0:0:0:
221,305,109476,1,0,2:0:0:0:
351,210,109609,6,0,L|431:214,1,70,6|0,2:0|2:0,2:0:0:0:
432,239,109808,1,0,2:0:0:0:
443,264,109875,1,8,2:0:0:0:
374,343,110008,1,0,2:0:0:0:
226,229,110141,2,0,L|231:117,1,105,2|0,2:0|2:0,2:0:0:0:
197,114,110407,2,0,L|193:44,1,70,8|0,2:0|2:0,2:0:0:0:
80,264,110673,6,0,L|6:267,1,70,6|0,2:0|2:0,2:0:0:0:
117,172,110939,1,8,2:0:0:0:
138,340,111072,1,0,2:0:0:0:
155,342,111138,1,0,2:0:0:0:
172,345,111205,5,2,2:0:0:0:
268,303,111338,1,0,2:0:0:0:
306,205,111471,2,0,L|309:135,1,70,8|0,2:0|2:0,2:0:0:0:
443,346,111737,6,0,L|373:342,1,70,6|0,2:0|2:0,2:0:0:0:
373,324,111937,1,0,2:0:0:0:
374,307,112003,1,8,2:0:0:0:
375,289,112070,1,0,2:0:0:0:
376,271,112136,1,0,2:0:0:0:
377,254,112203,1,0,2:0:0:0:
378,237,112269,5,2,2:0:0:0:
442,153,112402,1,0,2:0:0:0:
427,48,112535,1,10,2:0:0:0:
273,21,112668,1,2,2:0:0:0:
306,205,112801,1,4,2:0:0:0:
512,42,114930,5,6,2:0:0:0:
435,102,115063,2,0,P|387:118|352:122,1,70,2|10,2:0|2:0,2:0:0:0:
341,111,115263,1,0,2:0:0:0:
314,101,115329,1,2,2:0:0:0:
283,265,115462,1,2,2:0:0:0:
310,275,115529,1,0,2:0:0:0:
336,284,115595,2,0,P|370:277|403:265,1,70,2|10,2:0|2:0,2:0:0:0:
231,168,115861,1,2,2:0:0:0:
154,296,115994,6,0,B|177:317|199:327,1,35,2|0,2:0|2:0,2:0:0:0:
27,345,116127,2,0,B|4:366|-18:376,1,35,2|0,2:0|2:0,2:0:0:0:
71,237,116260,1,10,2:0:0:0:
77,211,116327,1,0,2:0:0:0:
80,185,116393,1,2,2:0:0:0:
80,159,116460,1,0,2:0:0:0:
77,133,116527,6,0,B|54:112|32:102,1,35,2|0,2:0|2:0,2:0:0:0:
204,84,116660,2,0,B|227:63|249:53,1,35,2|0,2:0|2:0,2:0:0:0:
367,120,116793,1,10,2:0:0:0:
363,155,116859,1,0,2:0:0:0:
359,189,116926,1,2,2:0:0:0:
356,224,116992,1,0,2:0:0:0:
353,259,117059,5,4,2:0:0:0:
