osu file format v14

[General]
AudioFilename: audio.mp3
AudioLeadIn: 0
PreviewTime:46283
Countdown: 0
SampleSet: None
StackLeniency: 0.5
Mode: 0
LetterboxInBreaks: 0
WidescreenStoryboard: 1

[Editor]
Bookmarks: 102558
DistanceSpacing: 2.1
BeatDivisor: 4
GridSize: 32
TimelineZoom: 2.1

[Metadata]
Title:Glorious Crown
TitleUnicode:Glorious Crown
Artist:xi
ArtistUnicode:xi
Creator:Anxient
Version:BEGINNER
Source:maimai PiNK
Tags:Electronic Instrumental Video Games freedom dive sequel deathstream snownino_ happy hardcore lama poluna toybot
BeatmapID:987964
BeatmapSetID:460515

[Difficulty]
HPDrainRate:2
CircleSize:2
OverallDifficulty:2
ApproachRate:3
SliderMultiplier:0.5
SliderTickRate:1

[Events]
//Background and Video events
0,0,"bg.jpg",0,0
//Break Periods
2,67235,70918
2,86393,89011
//Storyboard Layer 0 (Background)
//Storyboard Layer 1 (Fail)
//Storyboard Layer 2 (Pass)
//Storyboard Layer 3 (Foreground)
//Storyboard Layer 4 (Overlay)
//Storyboard Sound Samples

[TimingPoints]
-14,266.075388026608,4,3,1,80,1,0
46815,-100,4,3,1,80,0,1
64908,-100,4,3,1,80,0,0
91515,-100,4,3,1,50,0,0
92580,-100,4,3,1,70,0,0
96837,-100,4,3,1,70,0,1
114930,-100,4,3,1,80,0,1
117059,-100,4,3,1,80,0,0

[Colours]
Combo1 : 251,228,153
Combo2 : 237,156,84
Combo3 : 131,87,247
Combo4 : 193,218,232

[HitObjects]
63,174,1050,6,0,P|48:135|162:64,1,200,6|2,2:0|2:0,2:0:0:0:
230,132,2380,2,0,L|329:127,1,100,2|2,2:0|2:0,2:0:0:0:
434,119,3178,2,0,B|477:99|477:99|469:255,1,200,2|2,2:0|2:0,2:0:0:0:
464,356,4509,2,0,L|364:360,1,100,2|2,2:0|2:0,2:0:0:0:
300,276,5307,6,0,L|150:283,1,150,6|2,2:0|2:0,2:0:0:0:
55,238,6371,2,0,P|46:220|55:133,2,100,6|8|6,2:0|2:0|2:0,2:0:0:0:
150,283,7702,5,2,2:0:0:0:
185,184,7968,2,0,L|180:84,1,100,6|6,2:0|2:0,2:0:0:0:
277,45,8766,2,0,P|329:55|383:40,1,100,0|2,2:0|2:0,2:0:0:0:
470,3,9564,6,0,B|493:81|435:132|435:132|466:177|466:245|426:286,1,300,6|2,2:0|2:0,2:0:0:0:
229,344,11693,6,0,B|194:329|194:329|77:338,1,150,4|2,2:0|2:0,2:0:0:0:
15,256,12757,2,0,P|5:207|16:149,1,100,2|2,2:0|2:0,2:0:0:0:
83,81,13555,1,2,2:0:0:0:
187,82,13821,6,0,L|290:80,1,100,2|2,2:0|2:0,2:0:0:0:
372,141,14620,1,0,2:0:0:0:
465,94,14886,2,0,P|476:143|464:191,1,100,2|2,2:0|2:0,2:0:0:0:
373,244,15684,1,0,2:0:0:0:
268,244,15950,6,0,L|168:245,1,100,2|2,2:0|2:0,2:0:0:0:
103,162,16748,1,2,2:0:0:0:
23,230,17014,2,0,P|14:256|19:336,2,100,2|2|2,2:0|2:0|2:0,2:0:0:0:
103,162,18345,5,2,2:0:0:0:
162,75,18611,2,0,L|262:74,1,100,2|0,2:0|2:0,2:0:0:0:
367,72,19409,2,0,P|376:98|371:178,1,100,2|2,2:0|2:0,2:0:0:0:
315,256,20207,6,0,P|302:304|308:353,2,100,4|0|2,2:0|2:0|2:0,2:0:0:0:
249,174,21538,1,0,2:0:0:0:
144,174,21804,2,0,L|44:175,1,100,2|6,2:0|2:0,2:0:0:0:
77,275,22602,5,0,2:0:0:0:
111,374,22868,2,0,L|211:373,1,100,4|4,2:0|2:0,2:0:0:0:
243,273,23666,1,2,2:0:0:0:
277,174,23932,6,0,L|377:175,1,100,6|4,2:0|2:0,2:0:0:0:
466,119,24731,2,0,P|477:141|467:224,1,100,0|2,2:0|2:0,2:0:0:0:
385,273,25529,2,0,P|374:295|384:378,2,100,4|4|6,2:0|2:0|2:0,2:0:0:0:
256,192,26859,12,0,28722,2:0:0:0:
443,101,29786,6,0,P|427:88|257:99,1,200,4|2,1:2|1:2,2:0:0:0:
212,189,31116,2,0,P|182:170|157:107,1,100,10|10,1:2|1:2,2:0:0:0:
70,53,31915,2,0,B|32:75|32:75|41:237,1,200,2|2,1:2|1:2,2:0:0:0:
115,304,33245,2,0,P|139:297|217:307,1,100,10|10,1:2|1:2,2:0:0:0:
310,341,34043,6,0,P|338:348|389:255,1,150,2|10,1:2|1:2,2:0:0:0:
327,180,35107,2,0,P|320:153|326:80,1,100,2|2,1:2|1:2,2:0:0:0:
405,14,35906,1,10,1:2:0:0:
473,93,36172,6,0,P|480:142|471:191,1,100,2|0,1:2|1:0,2:0:0:0:
393,262,36970,1,10,1:2:0:0:
327,180,37236,2,0,P|278:169|229:179,1,100,2|2,1:2|1:2,2:0:0:0:
136,227,38034,1,10,1:2:0:0:
43,177,38300,6,0,P|36:156|43:72,1,100,4|2,1:2|1:2,2:0:0:0:
125,18,39099,1,10,1:2:0:0:
229,15,39365,2,0,L|332:10,2,100,2|2|2,1:2|1:2|1:2,2:0:0:0:
125,18,40695,5,8,1:0:0:0:
40,79,40961,2,0,P|32:128|42:176,1,100,2|2,1:2|1:2,2:0:0:0:
114,252,41759,2,0,P|122:301|112:349,1,100,10|10,1:2|1:2,2:0:0:0:
216,341,42558,6,0,L|316:331,1,100,0|0,1:0|1:0,2:0:0:0:
414,364,43356,1,8,1:0:0:0:
487,288,43622,2,0,L|477:188,1,100,0|0,1:0|1:0,2:0:0:0:
405,111,44420,1,0,2:0:0:0:
301,94,44686,2,0,L|201:84,2,100,4|4|4,1:2|1:2|1:2,2:0:0:0:
55,36,46815,6,0,P|65:57|51:233,1,200,4|0,1:2|1:0,2:0:0:0:
18,326,48145,2,0,P|47:333|120:309,1,100,8|8,1:0|1:0,2:0:0:0:
204,262,48943,2,0,P|228:254|350:263,1,150,4|8,1:2|1:0,2:0:0:0:
443,310,50008,2,0,P|452:286|438:207,1,100,0|0,1:0|1:0,2:0:0:0:
369,137,50806,1,8,1:0:0:0:
418,44,51072,6,0,P|388:32|265:121,1,200,4|4,1:2|1:2,2:0:0:0:
161,102,52402,2,0,P|160:151|187:192,1,100,8|8,1:0|1:0,2:0:0:0:
286,227,53201,2,0,L|291:379,1,150,4|10,1:2|1:0,2:0:0:0:
189,348,54265,2,0,P|115:331|37:353,1,150,4|8,1:2|1:0,2:0:0:0:
38,244,55329,6,0,L|33:94,1,150,4|8,1:2|1:0,2:0:0:0:
110,22,56393,2,0,P|126:14|205:26,1,100,2|0,1:0|1:0,2:0:0:0:
291,83,57192,1,8,1:0:0:0:
224,164,57458,2,0,L|228:313,1,150,4|8,1:2|1:0,2:0:0:0:
322,361,58522,2,0,P|398:382|457:343,1,150,4|8,1:2|1:0,2:0:0:0:
379,272,59586,6,0,L|374:122,1,150,4|8,1:2|1:0,2:0:0:0:
307,40,60651,2,0,P|333:23|410:22,2,100,4|4|4,1:2|1:2|1:2,2:0:0:0:
218,96,61981,2,0,P|168:97|124:74,1,100,8|8,1:0|1:0,2:0:0:0:
31,123,62779,6,0,B|53:222|53:222|37:277,1,150,4|8,1:2|1:0,2:0:0:0:
126,326,63844,2,0,B|172:312|172:312|271:334,1,150,2|2,2:3|2:3,2:0:0:0:
353,267,64908,5,6,2:0:0:0:
256,192,65041,12,0,67036,2:0:0:0:
325,25,72358,6,0,P|332:38|259:127,1,150,4|2,2:0|2:0,2:0:0:0:
189,54,73422,6,0,L|82:50,2,100,4|4|4,2:0|2:0|2:0,2:0:0:0:
264,128,74753,2,0,P|268:154|263:233,1,100,4|8,2:0|2:0,2:0:0:0:
179,289,75551,6,0,L|79:285,2,100,4|4|4,2:0|2:0|2:0,2:0:0:0:
264,227,76881,2,0,L|363:230,1,100,4|8,2:0|2:0,2:0:0:0:
443,297,77680,6,0,P|466:253|463:204,2,100,4|4|4,2:0|2:0|2:0,2:0:0:0:
359,359,79010,2,0,L|259:355,1,100,4|4,2:0|2:0,2:0:0:0:
178,288,79808,6,0,P|172:239|179:188,1,100,4|4,2:0|2:0,2:0:0:0:
226,95,80606,1,2,2:0:0:0:
150,22,80872,2,0,P|100:14|51:20,2,100,4|4|4,2:0|2:0|2:0,2:0:0:0:
256,192,82070,12,0,86194,2:0:0:0:
86,18,90451,6,0,P|102:29|275:10,1,200,0|2,2:0|2:0,2:0:0:0:
470,76,92048,1,0,2:0:0:0:
317,220,92580,6,0,B|148:211|148:211|163:246,1,200,4|2,2:0|2:0,2:0:0:0:
68,290,93910,2,0,L|30:188,1,100,0|2,2:0|2:0,2:0:0:0:
62,95,94708,6,0,P|75:47|59:1,2,100,2|0|2,2:0|2:0|2:0,2:0:0:0:
33,196,96039,2,0,L|28:276,1,75,2|0,2:0|2:0,2:0:0:0:
152,172,96837,6,0,P|183:163|253:177,1,100,4|0,1:2|1:0,2:0:0:0:
343,218,97635,1,10,1:0:0:0:
433,165,97901,2,0,P|441:141|432:62,2,100,2|2|4,1:0|1:0|1:2,2:0:0:0:
343,218,99232,6,0,P|328:240|388:330,1,150,8|4,1:0|1:2,2:0:0:0:
477,282,100296,2,0,L|481:177,1,100,8|0,1:0|2:0,2:0:0:0:
487,77,101094,6,0,B|459:59|459:59|385:94|289:71,1,200,4|2,1:2|1:0,2:0:0:0:
199,25,102425,2,0,P|147:12|100:25,1,100,10|10,1:0|1:0,2:0:0:0:
147,120,103223,6,0,P|153:147|145:271,1,150,2|10,1:0|1:0,2:0:0:0:
42,248,104287,2,0,P|45:308|107:367,1,150,2|8,1:0|1:0,2:0:0:0:
145,268,105351,6,0,P|218:257|293:266,1,150,4|10,1:2|1:0,2:0:0:0:
387,312,106416,2,0,P|410:316|483:280,1,100,4|0,1:2|1:0,2:0:0:0:
407,208,107214,1,8,1:0:0:0:
500,178,107480,6,0,P|509:103|498:29,1,150,4|8,1:2|1:0,2:0:0:0:
394,36,108544,2,0,L|186:44,1,200,4|4,1:2|1:2,2:0:0:0:
118,116,109875,1,8,1:0:0:0:
24,67,110141,2,0,P|15:86|24:169,1,100,4|4,1:2|1:2,2:0:0:0:
104,226,110939,6,0,P|113:245|104:328,1,100,12|8,1:2|1:2,2:0:0:0:
208,350,111737,2,0,B|317:332|317:332|359:352|359:352|356:301,1,200,4|4,1:2|1:2,2:0:0:0:
356,308,114930,6,0,P|347:259|351:210,1,100,2|2,2:3|2:3,2:0:0:0:
277,135,115728,1,2,2:3:0:0:
182,180,115994,2,0,P|161:189|81:184,1,100,2|2,2:3|2:3,2:0:0:0:
127,89,116793,1,0,2:0:0:0:
22,101,117059,5,4,2:0:0:0:
