osu file format v14

[General]
AudioFilename: audio.mp3
AudioLeadIn: 0
PreviewTime:46283
Countdown: 0
SampleSet: Soft
StackLeniency: 0.5
Mode: 0
LetterboxInBreaks: 0
WidescreenStoryboard: 1

[Editor]
Bookmarks: 102558
DistanceSpacing: 1.4
BeatDivisor: 4
GridSize: 32
TimelineZoom: 2.1

[Metadata]
Title:Glorious Crown
TitleUnicode:Glorious Crown
Artist:xi
ArtistUnicode:xi
Creator:Anxient
Version:BASIC
Source:maimai PiNK
Tags:Electronic Instrumental Video Games freedom dive sequel deathstream snownino_ happy hardcore lama poluna toybot
BeatmapID:988030
BeatmapSetID:460515

[Difficulty]
HPDrainRate:3
CircleSize:3
OverallDifficulty:4
ApproachRate:5
SliderMultiplier:0.7
SliderTickRate:1

[Events]
//Background and Video events
0,0,"bg.jpg",0,0
//Break Periods
2,67236,72222
2,86394,89251
//Storyboard Layer 0 (Background)
//Storyboard Layer 1 (Fail)
//Storyboard Layer 2 (Pass)
//Storyboard Layer 3 (Foreground)
//Storyboard Layer 4 (Overlay)
//Storyboard Sound Samples

[TimingPoints]
-14,266.075388026608,4,2,1,80,1,0
46815,-100,4,2,1,80,0,1
64908,-100,4,2,1,80,0,0
84066,-100,4,2,1,5,0,0
86194,-100,4,2,2,50,0,0
91515,-100,4,2,1,50,0,0
92314,-100,4,2,1,80,0,0
92580,-100,4,2,1,70,0,0
96837,-100,4,2,1,80,0,1
117059,-100,4,2,1,80,0,0

[Colours]
Combo1 : 251,228,153
Combo2 : 237,156,84
Combo3 : 131,87,247
Combo4 : 193,218,232

[HitObjects]
51,312,1050,6,0,P|79:288|185:293,1,140,6|8,2:0|2:0,2:0:0:0:
260,339,1848,1,2,2:0:0:0:
351,304,2114,2,0,B|361:190|361:190|339:164,1,140,0|2,2:0|2:0,2:0:0:0:
263,225,2912,1,2,2:0:0:0:
198,151,3178,6,0,P|130:162|73:120,1,140,2|8,2:0|2:0,2:0:0:0:
151,62,3977,1,2,2:0:0:0:
242,25,4243,2,0,P|262:39|317:50,1,70,0|2,2:0|2:0,2:0:0:0:
395,90,4775,2,0,P|415:76|470:65,1,70,2|2,2:0|2:0,2:0:0:0:
461,162,5307,6,0,P|472:190|450:308,1,140,6|2,2:0|2:0,2:0:0:0:
377,351,6105,1,10,2:0:0:0:
303,286,6371,2,0,B|273:269|273:269|160:283,1,140,6|2,2:0|2:0,2:0:0:0:
71,297,7170,1,10,2:0:0:0:
105,205,7436,6,0,P|114:182|107:62,2,140,2|2|2,2:0|2:0|2:0,2:0:0:0:
71,297,8766,1,10,2:0:0:0:
168,281,9032,2,0,L|249:272,2,70,2|10|4,2:0|2:0|2:0,2:0:0:0:
256,192,9697,12,4,11161,2:0:0:0:
358,147,11693,6,0,P|329:125|226:158,1,140,4|0,2:0|2:0,2:0:0:0:
176,224,12491,1,2,2:0:0:0:
86,263,12757,2,0,P|62:269|5:267,2,70,0|0|0,2:0|2:0|2:0,2:0:0:0:
176,224,13555,1,0,2:0:0:0:
236,300,13821,6,0,B|267:323|267:323|371:314,1,140,0|0,2:0|2:0,2:0:0:0:
458,351,14620,1,0,2:0:0:0:
438,254,14886,2,0,P|432:208|435:174,1,70,0|0,2:0|2:0,2:0:0:0:
476,96,15418,2,0,P|482:50|479:16,1,70,0|0,2:0|2:0,2:0:0:0:
386,52,15950,6,0,B|355:75|355:75|251:66,1,140,0|0,2:0|2:0,2:0:0:0:
173,122,16748,1,0,2:0:0:0:
91,67,17014,2,0,P|81:38|84:-11,2,70,0|2|0,2:0|2:0|2:0,2:0:0:0:
173,122,17813,1,0,2:0:0:0:
88,171,18079,6,0,P|54:181|20:180,2,70,0|0|0,2:0|2:0|2:0,2:0:0:0:
173,122,18877,1,0,2:0:0:0:
253,178,19143,2,0,P|263:196|246:313,1,140,0|0,2:0|2:0,2:0:0:0:
322,373,19941,1,0,2:0:0:0:
419,360,20207,6,0,B|461:346|461:346|430:310|424:274|425:249,1,140,6|0,2:0|2:0,2:0:0:0:
480,178,21005,1,0,2:0:0:0:
420,100,21272,2,0,P|387:79|344:74,1,70,0|0,2:0|2:0,2:0:0:0:
277,16,21804,2,0,P|244:37|201:42,1,70,0|0,2:0|2:0,2:0:0:0:
117,21,22336,6,0,L|122:177,1,140,6|2,2:0|2:0,2:0:0:0:
200,219,23134,1,0,2:0:0:0:
131,289,23400,2,0,P|98:287|50:269,2,70,2|0|2,2:0|2:0|2:0,2:0:0:0:
200,219,24198,1,0,2:0:0:0:
276,280,24464,6,0,P|299:294|406:272,1,140,6|0,2:0|2:0,2:0:0:0:
450,188,25263,1,0,2:0:0:0:
394,106,25529,2,0,P|390:82|397:26,2,70,2|0|2,2:0|2:0|2:0,2:0:0:0:
316,166,26327,1,0,2:0:0:0:
241,102,26593,6,0,P|178:74|113:96,2,140,2|2|2,2:0|2:0|2:0,2:0:0:0:
174,174,27923,1,2,2:0:0:0:
236,249,28189,2,0,P|240:283|235:318,1,70,0|0,2:0|2:0,2:0:0:0:
143,285,28722,2,0,P|121:312|93:333,2,70,0|0|0,2:0|2:0|2:0,2:0:0:0:
307,177,29786,6,0,P|338:165|435:218,1,140,6|0,2:0|1:0,2:0:0:0:
350,264,30584,1,8,2:0:0:0:
417,334,30850,2,0,P|441:339|488:340,2,70,2|8|2,2:0|2:0|2:0,2:0:0:0:
350,264,31648,1,8,2:0:0:0:
265,314,31915,6,0,P|234:326|137:273,1,140,2|0,2:0|1:0,2:0:0:0:
172,191,32713,1,8,2:0:0:0:
122,106,32979,2,0,P|115:82|123:27,1,70,2|8,2:0|2:0,2:0:0:0:
212,67,33511,2,0,L|285:60,1,70,2|10,2:0|1:2,2:0:0:0:
367,13,34043,6,0,L|436:19,2,70,2|8|2,2:0|2:0|2:0,2:0:0:0:
281,60,34841,1,8,2:0:0:0:
362,114,35107,2,0,L|368:183,1,70,2|8,2:0|2:0,2:0:0:0:
427,262,35640,2,0,L|420:331,1,70,2|8,2:0|2:0,2:0:0:0:
323,320,36172,6,0,P|302:332|185:315,1,140,2|2,2:0|2:0,2:0:0:0:
110,264,36970,1,8,2:0:0:0:
17,294,37236,2,0,P|3:322|-4:368,2,70,2|8|2,2:0|2:0|2:0,2:0:0:0:
40,198,38034,1,4,2:0:0:0:
133,169,38300,6,0,P|145:141|124:32,2,140,2|2|2,2:0|2:0|2:0,2:0:0:0:
110,264,39631,1,8,2:0:0:0:
204,236,39897,2,0,P|235:226|286:224,1,70,2|8,2:0|2:0,2:0:0:0:
365,193,40429,6,0,P|396:203|447:205,2,70,2|8|2,2:0|2:0|2:0,2:0:0:0:
292,126,41227,1,8,2:0:0:0:
361,56,41493,6,0,P|394:45|429:42,2,70,2|8|2,2:0|2:0|2:0,2:0:0:0:
292,126,42291,1,8,2:0:0:0:
223,55,42558,2,0,P|208:42|93:64,1,140,2|2,2:0|2:0,2:0:0:0:
65,148,43356,1,8,2:0:0:0:
93,242,43622,2,0,P|97:271|90:327,2,70,2|8|2,2:0|2:0|2:0,2:0:0:0:
162,172,44420,1,8,2:0:0:0:
243,227,44686,6,0,L|322:231,1,70,2|10,2:0|2:0,2:0:0:0:
390,290,45218,2,0,L|469:286,1,70,2|10,2:0|2:0,2:0:0:0:
420,196,45750,1,2,2:0:0:0:
364,115,46017,1,0,2:0:0:0:
420,34,46283,2,0,P|394:18|350:19,1,70,2|8,2:0|2:0,2:0:0:0:
271,68,46815,6,0,L|201:71,1,70,6|8,2:0|2:0,2:0:0:0:
115,23,47347,1,2,2:0:0:0:
40,86,47613,1,8,2:0:0:0:
102,161,47879,2,0,P|105:189|101:245,1,70,2|8,2:0|2:0,2:0:0:0:
37,303,48411,2,0,P|34:331|38:387,1,70,2|8,2:0|2:0,2:0:0:0:
127,337,48943,6,0,L|197:334,1,70,2|8,2:0|2:0,2:0:0:0:
282,286,49476,2,0,L|352:289,1,70,2|8,2:0|2:0,2:0:0:0:
446,263,50008,2,0,P|447:300|432:344,2,70,2|8|2,2:0|2:0|2:0,2:0:0:0:
370,200,50806,1,10,2:0:0:0:
424,116,51072,6,0,P|357:99|297:131,1,140,6|2,2:0|2:0,2:0:0:0:
217,188,51870,1,8,2:0:0:0:
148,118,52136,2,0,P|146:92|150:38,2,70,2|8|2,2:0|2:0|2:0,2:0:0:0:
217,188,52935,1,8,2:0:0:0:
172,275,53201,6,0,P|146:277|92:273,2,70,6|8|6,2:0|2:0|2:0,2:0:0:0:
222,359,53999,1,8,2:0:0:0:
300,300,54265,2,0,P|326:284|434:321,1,140,6|2,2:0|2:0,2:0:0:0:
492,237,55063,1,4,2:0:0:0:
438,155,55329,6,0,P|430:130|432:77,1,70,6|8,2:0|2:0,2:0:0:0:
361,16,55861,2,0,L|279:10,1,70,2|8,2:0|2:0,2:0:0:0:
193,3,56393,2,0,P|194:37|184:71,1,70,2|8,2:0|2:0,2:0:0:0:
118,143,56926,2,0,P|116:177|126:211,1,70,2|8,2:0|2:0,2:0:0:0:
214,167,57458,6,0,L|353:177,1,140,2|2,2:0|2:0,2:0:0:0:
418,250,58256,1,8,2:0:0:0:
371,336,58522,2,0,L|289:330,1,70,2|8,2:0|2:0,2:0:0:0:
209,297,59054,2,0,L|127:303,1,70,2|8,2:0|2:0,2:0:0:0:
50,259,59586,6,0,P|41:290|46:340,2,70,6|8|2,2:0|2:0|2:0,2:0:0:0:
124,195,60385,1,8,2:0:0:0:
73,111,60651,1,6,2:0:0:0:
123,27,60917,2,0,P|90:16|46:20,2,70,8|6|8,2:0|2:0|2:0,2:0:0:0:
203,83,61715,6,0,L|342:72,1,140,6|6,2:0|2:0,2:0:0:0:
421,131,62513,1,8,2:0:0:0:
501,74,62779,2,0,P|504:42|500:0,2,70,6|8|2,2:0|2:0|2:0,2:0:0:0:
421,131,63578,1,8,1:0:0:0:
422,228,63844,6,0,L|421:306,1,70,2|8,2:0|2:0,2:0:0:0:
341,354,64376,1,2,2:0:0:0:
249,318,64642,1,8,2:0:0:0:
157,354,64908,5,6,2:0:0:0:
256,192,64974,12,0,67036,2:0:0:0:
158,115,73422,6,0,P|134:129|86:137,2,70,6|2|2,1:0|1:0|1:0,2:0:0:0:
228,47,74221,1,2,1:0:0:0:
295,117,74487,2,0,P|319:131|367:139,2,70,2|2|2,1:0|1:0|1:0,2:0:0:0:
224,185,75285,1,4,1:0:0:0:
218,282,75551,6,0,L|213:365,2,70,2|2|2,1:0|1:0|1:0,2:0:0:0:
307,241,76349,1,2,1:0:0:0:
404,252,76615,2,0,L|473:256,2,70,2|2|2,1:0|1:0|1:0,2:0:0:0:
366,161,77413,1,2,1:0:0:0:
430,87,77680,6,0,P|437:59|431:13,2,70,2|2|2,1:0|1:0|1:0,2:0:0:0:
366,161,78478,1,6,1:0:0:0:
299,88,78744,2,0,L|229:83,1,70,2|2,1:0|1:0,2:0:0:0:
142,38,79276,2,0,L|72:42,1,70,2|6,1:0|1:0,2:0:0:0:
78,139,79808,6,0,L|82:208,1,70,6|8,2:0|2:0,2:0:0:0:
139,288,80340,2,0,L|134:357,2,70,6|8|6,2:0|2:0|2:0,2:0:0:0:
199,211,81138,1,8,2:0:0:0:
296,208,81405,2,0,L|365:203,1,70,6|10,2:0|2:0,2:0:0:0:
462,197,81937,1,4,2:0:0:0:
256,192,82003,12,0,86194,2:0:0:0:
65,81,90451,6,0,P|73:116|68:156,1,70,2|0,2:0|2:0,2:0:0:0:
32,240,90983,2,0,P|24:275|29:315,1,70,2|0,2:0|2:0,2:0:0:0:
123,282,91515,2,0,P|141:291|225:221,1,140,4|0,2:1|2:0,2:0:0:0:
188,140,92314,1,8,2:0:0:0:
224,48,92580,6,0,L|375:44,1,140,6|0,2:0|2:0,2:0:0:0:
449,91,93378,1,0,2:0:0:0:
364,140,93644,2,0,L|294:141,2,70,2|0|2,2:0|2:0|2:0,2:0:0:0:
449,91,94442,1,0,2:0:0:0:
486,181,94708,6,0,P|493:206|477:321,1,140,6|2,2:0|2:0,2:0:0:0:
393,364,95507,1,0,2:0:0:0:
323,294,95773,2,0,L|253:295,1,70,2|0,2:0|2:0,2:0:0:0:
182,362,96305,2,0,L|112:361,1,70,2|0,2:0|2:0,2:0:0:0:
69,273,96837,6,0,P|86:223|45:148,1,140,6|2,2:0|2:0,2:0:0:0:
103,69,97635,1,8,2:0:0:0:
200,75,97901,2,0,L|279:79,1,70,2|8,2:0|2:0,2:0:0:0:
348,20,98433,2,0,L|417:16,1,70,2|8,2:0|2:0,2:0:0:0:
364,116,98966,6,0,P|326:173|342:239,1,140,6|6,2:0|2:0,2:0:0:0:
428,192,99764,1,8,2:0:0:0:
431,290,100030,2,0,L|434:359,2,70,6|8|2,2:0|2:0|2:0,2:0:0:0:
428,192,100828,1,4,2:0:0:0:
342,239,101094,6,0,L|202:231,1,140,2|2,2:0|2:0,2:0:0:0:
120,286,101892,1,8,2:0:0:0:
42,226,102158,2,0,P|27:250|23:303,2,70,2|8|2,2:0|2:0|2:0,2:0:0:0:
122,170,102957,1,8,2:0:0:0:
50,103,103223,6,0,P|74:84|126:73,1,70,2|8,2:0|2:0,2:0:0:0:
194,19,103755,2,0,P|218:38|270:49,1,70,2|8,2:0|2:0,2:0:0:0:
353,45,104287,2,0,L|438:40,2,70,2|8|2,2:0|2:0|2:0,2:0:0:0:
303,129,105085,1,8,2:0:0:0:
296,226,105351,6,0,L|288:365,1,140,6|2,2:0|2:0,2:0:0:0:
380,330,106150,1,8,2:0:0:0:
471,294,106416,2,0,L|466:224,1,70,6|8,2:0|2:0,2:0:0:0:
384,169,106948,2,0,L|388:99,1,70,6|8,2:0|2:0,2:0:0:0:
328,21,107480,6,0,P|354:6|403:5,2,70,6|8|6,2:0|2:0|2:0,2:0:0:0:
257,89,108278,1,8,2:0:0:0:
183,24,108544,2,0,P|157:9|108:8,1,70,6|8,2:0|2:0,2:0:0:0:
25,38,109076,2,0,L|20:107,1,70,2|8,2:0|2:0,2:0:0:0:
85,181,109609,6,0,L|89:250,2,70,6|8|2,2:0|2:0|2:0,2:0:0:0:
162,120,110407,1,8,2:0:0:0:
210,205,110673,6,0,P|236:220|285:221,1,70,6|8,2:0|2:0,2:0:0:0:
334,145,111205,2,0,P|360:130|409:129,1,70,2|8,2:0|2:0,2:0:0:0:
465,198,111737,2,0,L|460:267,2,70,6|8|2,2:0|2:0|2:0,2:0:0:0:
493,104,112535,2,0,L|488:34,1,70,10|4,2:0|2:0,2:0:0:0:
162,120,114930,5,6,2:0:0:0:
101,197,115196,1,10,2:0:0:0:
136,288,115462,2,0,L|219:284,1,70,2|10,2:0|2:0,2:0:0:0:
303,280,115994,5,2,2:0:0:0:
380,219,116260,1,10,2:0:0:0:
471,254,116527,2,0,L|467:323,2,70,2|10|6,2:0|2:0|2:0,2:0:0:0:
