osu file format v14

[General]
AudioFilename: audio.mp3
AudioLeadIn: 0
PreviewTime:46283
Countdown: 0
SampleSet: Soft
StackLeniency: 0.5
Mode: 0
LetterboxInBreaks: 0
WidescreenStoryboard: 1

[Editor]
Bookmarks: 102558
DistanceSpacing: 1.3
BeatDivisor: 4
GridSize: 32
TimelineZoom: 2.1

[Metadata]
Title:Glorious Crown
TitleUnicode:Glorious Crown
Artist:xi
ArtistUnicode:xi
Creator:Anxient
Version:ADVANCED
Source:maimai PiNK
Tags:Electronic Instrumental Video Games freedom dive sequel deathstream snownino_ happy hardcore lama poluna toybot
BeatmapID:986472
BeatmapSetID:460515

[Difficulty]
HPDrainRate:5
CircleSize:4
OverallDifficulty:6
ApproachRate:8
SliderMultiplier:1.1
SliderTickRate:1

[Events]
//Background and Video events
0,0,"bg.jpg",0,0
//Break Periods
2,67235,71608
2,86393,89701
//Storyboard Layer 0 (Background)
//Storyboard Layer 1 (Fail)
//Storyboard Layer 2 (Pass)
//Storyboard Layer 3 (Foreground)
//Storyboard Layer 4 (Overlay)
//Storyboard Sound Samples

[TimingPoints]
-14,266.075388026608,4,2,1,80,1,0
46815,-100,4,2,1,80,0,1
64908,-100,4,2,1,80,0,0
73422,-111.111111111111,4,2,1,80,0,0
80074,-100,4,2,1,80,0,0
84066,-100,4,2,1,5,0,0
86194,-100,4,2,2,50,0,0
91515,-100,4,2,1,50,0,0
92314,-100,4,2,1,80,0,0
92580,-100,4,2,1,70,0,0
96837,-100,4,2,1,80,0,1
101892,-95.2380952380952,4,2,1,80,0,1
117059,-95.2380952380952,4,2,1,80,0,0

[Colours]
Combo1 : 251,228,153
Combo2 : 237,156,84
Combo3 : 131,87,247
Combo4 : 193,218,232

[HitObjects]
182,162,1050,6,0,P|215:129|284:138,1,110,6|0,2:0|2:0,2:0:0:0:
308,213,1449,2,0,P|347:248|401:243,1,110,2|0,2:0|2:0,2:0:0:0:
479,202,1848,1,2,2:0:0:0:
479,202,1981,1,0,2:0:0:0:
473,289,2114,6,0,L|468:360,2,55,0|2|2,2:0|2:0|2:0,2:0:0:0:
479,202,2513,1,0,2:0:0:0:
401,160,2646,2,0,L|397:105,2,55,2|0|2,2:0|2:0|2:0,2:0:0:0:
323,318,3178,6,0,L|208:309,1,110,2|0,2:0|2:0,2:0:0:0:
133,341,3578,2,0,P|126:287|155:242,1,110,2|0,2:0|2:0,2:0:0:0:
241,227,3977,1,2,2:0:0:0:
241,227,4110,1,0,2:0:0:0:
289,153,4243,6,0,P|299:120|296:86,2,55,0|2|2,2:0|2:0|2:0,2:0:0:0:
211,110,4642,1,0,2:0:0:0:
126,135,4775,2,0,P|81:146|51:142,1,55,2|0,2:0|2:0,2:0:0:0:
84,58,5041,1,2,2:0:0:0:
116,231,5307,6,0,P|108:284|137:329,1,110,6|2,2:0|2:0,2:0:0:0:
197,264,5706,2,0,L|309:253,1,110,0|0,2:0|2:0,2:0:0:0:
374,308,6105,1,10,2:0:0:0:
374,308,6238,1,0,2:0:0:0:
437,247,6371,6,0,B|450:220|450:220|441:126,1,110,6|2,2:0|2:0,2:0:0:0:
371,88,6770,2,0,B|358:115|358:115|365:194,1,110,0|0,2:0|2:0,2:0:0:0:
450,51,7170,2,0,P|419:19|385:9,1,55,10|0,2:0|2:0,2:0:0:0:
322,20,7436,6,0,L|244:24,1,55,2|2,2:0|2:0,2:0:0:0:
193,70,7702,2,0,L|115:66,1,55,10|2,2:0|2:0,2:0:0:0:
63,113,7968,2,0,P|52:70|58:37,2,55,2|2|10,2:0|2:0|2:0,2:0:0:0:
139,157,8367,1,2,2:0:0:0:
63,202,8500,6,0,P|56:245|85:322,1,110,2|10,2:0|2:0,2:0:0:0:
158,335,8899,1,0,2:0:0:0:
234,292,9032,2,0,P|269:287|309:296,2,55,2|0|10,2:0|2:0|2:0,2:0:0:0:
158,335,9431,1,0,2:0:0:0:
159,247,9564,1,4,2:0:0:0:
256,192,9631,12,0,11161,2:0:0:0:
373,92,11693,6,0,P|331:74|256:95,1,110,4|0,2:0|2:0,2:0:0:0:
200,139,12092,1,2,2:0:0:0:
127,89,12225,2,0,P|120:57|126:22,2,55,0|0|2,2:0|2:0|2:0,2:0:0:0:
200,139,12624,1,0,2:0:0:0:
135,198,12757,6,0,L|131:266,1,55,0|0,2:0|2:0,2:0:0:0:
125,340,13023,2,0,P|94:362|18:332,2,110,0|0|0,2:0|2:0|2:0,2:0:0:0:
204,301,13688,1,0,2:0:0:0:
278,348,13821,6,0,P|309:326|385:356,1,110,0|0,2:0|2:0,2:0:0:0:
452,301,14221,1,0,2:0:0:0:
400,229,14354,2,0,P|395:193|399:158,1,55,0|0,2:0|2:0,2:0:0:0:
438,97,14620,2,0,P|438:69|434:42,1,55,0|0,2:0|2:0,2:0:0:0:
352,74,14886,6,0,L|222:83,1,110,0|0,2:0|2:0,2:0:0:0:
185,148,15285,1,0,2:0:0:0:
235,220,15418,2,0,P|246:260|242:295,1,55,0|0,2:0|2:0,2:0:0:0:
158,265,15684,2,0,P|137:301|109:322,1,55,0|0,2:0|2:0,2:0:0:0:
77,238,15950,6,0,P|55:197|51:113,1,110,0|0,2:0|2:0,2:0:0:0:
102,65,16349,1,0,2:0:0:0:
189,58,16482,2,0,L|243:54,1,55,0|0,2:0|2:0,2:0:0:0:
320,94,16748,2,0,P|328:68|329:40,1,55,0|0,2:0|2:0,2:0:0:0:
247,142,17014,6,0,P|254:195|286:239,1,110,0|2,2:0|2:0,2:0:0:0:
363,197,17413,1,0,2:0:0:0:
431,251,17546,2,0,P|439:276|440:304,2,55,0|0|0,2:0|2:0|2:0,2:0:0:0:
363,197,17946,1,0,2:0:0:0:
286,239,18079,6,0,L|156:248,1,110,0|0,2:0|2:0,2:0:0:0:
107,191,18478,1,0,2:0:0:0:
19,208,18611,2,0,P|17:180|25:154,1,55,0|0,2:0|2:0,2:0:0:0:
77,275,18877,2,0,P|84:301|83:328,1,55,0|0,2:0|2:0,2:0:0:0:
107,191,19143,6,0,P|114:148|73:77,1,110,0|0,2:0|2:0,2:0:0:0:
135,15,19542,1,0,2:0:0:0:
222,16,19675,2,0,L|286:20,1,55,0|0,2:0|2:0,2:0:0:0:
348,70,19941,2,0,L|412:66,1,55,0|2,2:0|2:0,2:0:0:0:
473,14,20207,6,0,P|487:43|458:137,1,110,6|0,2:0|2:0,2:0:0:0:
411,177,20606,1,0,2:0:0:0:
323,179,20739,2,0,P|327:205|340:230,2,55,0|0|0,2:0|2:0|2:0,2:0:0:0:
411,177,21138,1,0,2:0:0:0:
419,264,21272,6,0,P|401:293|311:308,1,110,0|0,2:0|2:0,2:0:0:0:
253,275,21671,1,0,2:0:0:0:
184,330,21804,2,0,P|171:305|166:278,2,55,0|0|0,2:0|2:0|2:0,2:0:0:0:
253,275,22203,1,2,2:0:0:0:
201,203,22336,6,0,P|187:174|216:80,1,110,6|0,2:0|2:0,2:0:0:0:
270,48,22735,1,0,2:0:0:0:
188,14,22868,2,0,P|150:7|117:9,2,55,2|0|0,2:0|2:0|2:0,2:0:0:0:
270,48,23267,1,0,2:0:0:0:
340,100,23400,6,0,P|354:152|337:203,1,110,2|0,2:0|2:0,2:0:0:0:
349,290,23799,1,0,2:0:0:0:
361,377,23932,2,0,P|396:365|418:340,1,55,2|0,2:0|2:0,2:0:0:0:
496,341,24198,2,0,P|512:307|510:274,1,55,0|2,2:0|2:0,2:0:0:0:
459,220,24464,6,0,P|441:168|456:116,1,110,6|0,2:0|2:0,2:0:0:0:
407,43,24864,1,0,2:0:0:0:
340,100,24997,2,0,P|313:119|281:134,1,55,0|0,2:0|2:0,2:0:0:0:
215,87,25263,1,0,2:0:0:0:
215,87,25396,1,2,2:0:0:0:
138,131,25529,6,0,P|143:163|155:196,1,55,2|0,2:0|2:0,2:0:0:0:
218,240,25795,2,0,P|212:272|200:305,1,55,0|0,2:0|2:0,2:0:0:0:
133,343,26061,6,0,P|104:357|14:336,2,110,2|0|2,2:0|2:0|2:0,2:0:0:0:
205,293,26726,1,0,2:0:0:0:
292,301,26859,2,0,L|354:305,1,55,0|0,2:0|2:0,2:0:0:0:
425,265,27125,2,0,P|434:291|434:319,1,55,2|0,2:0|2:0,2:0:0:0:
352,217,27391,2,0,P|351:189|371:143,1,55,2|0,2:0|2:0,2:0:0:0:
402,87,27657,6,0,L|491:82,2,82.5,2|0|0,2:0|2:0|2:0,2:0:0:0:
359,10,28189,2,0,L|276:5,2,82.5,0|0|0,2:0|2:0|2:0,2:0:0:0:
314,86,28722,2,0,L|190:79,1,110,0|0,2:0|2:0,2:0:0:0:
139,139,29121,1,0,2:0:0:0:
67,88,29254,2,0,P|60:55|67:21,1,55,0|0,2:0|2:0,2:0:0:0:
96,296,29786,6,0,L|205:302,1,110,6|8,2:0|2:0,2:0:0:0:
288,274,30185,2,0,P|287:328|257:373,1,110,0|0,2:0|2:0,2:0:0:0:
222,217,30584,2,0,P|260:192|284:189,1,55,8|0,2:0|2:0,2:0:0:0:
356,180,30850,6,0,L|350:81,1,82.5,2|0,2:0|2:0,2:0:0:0:
387,82,31116,2,0,L|392:-16,1,82.5,8|0,2:0|2:0,2:0:0:0:
354,10,31382,2,0,P|312:25|235:8,1,110,2|8,2:0|2:0,2:0:0:0:
176,65,31782,1,0,2:0:0:0:
97,26,31915,6,0,P|88:59|116:130,1,110,2|8,2:0|2:0,2:0:0:0:
183,181,32314,2,0,P|192:214|164:285,1,110,0|0,2:0|2:0,2:0:0:0:
81,306,32713,2,0,P|78:278|84:252,1,55,8|0,2:0|2:0,2:0:0:0:
140,370,32979,6,0,L|249:363,1,110,2|8,2:0|2:0,2:0:0:0:
309,299,33378,1,0,2:0:0:0:
392,279,33511,2,0,P|394:315|380:348,2,73.33333333333331,2|0|0,2:0|2:0|2:0,2:0:0:0:
322,184,34043,6,0,P|317:154|323:66,2,110,2|8|2,2:0|2:0|2:0,2:0:0:0:
247,230,34708,1,0,2:0:0:0:
171,184,34841,2,0,P|133:176|95:181,1,55,8|0,2:0|2:0,2:0:0:0:
36,140,35107,6,0,P|22:105|54:19,2,110,2|8|2,2:0|2:0|2:0,2:0:0:0:
117,176,35773,1,0,2:0:0:0:
42,232,35906,2,0,P|34:270|39:308,1,55,8|0,2:0|2:0,2:0:0:0:
117,176,36172,6,0,L|171:172,1,55,8|0,2:0|2:0,2:0:0:0:
145,90,36438,2,0,L|261:83,1,110,8|2,2:0|2:0,2:0:0:0:
330,128,36837,1,0,2:0:0:0:
386,60,36970,2,0,P|393:26|388:-9,1,55,8|0,2:0|2:0,2:0:0:0:
330,128,37236,6,0,L|337:244,1,110,2|8,2:0|2:0,2:0:0:0:
409,287,37635,1,0,2:0:0:0:
489,251,37768,2,0,P|495:277|492:304,1,55,2|0,2:0|2:0,2:0:0:0:
416,201,38034,2,0,P|413:173|419:147,1,55,4|0,2:0|2:0,2:0:0:0:
336,237,38300,6,0,L|220:244,1,110,2|8,2:0|2:0,2:0:0:0:
153,292,38699,1,0,2:0:0:0:
75,249,38833,2,0,P|65:274|64:302,1,55,2|0,2:0|2:0,2:0:0:0:
146,198,39099,2,0,P|144:170|135:144,1,55,8|0,2:0|2:0,2:0:0:0:
110,60,39365,6,0,L|-6:67,2,110,2|8|2,2:0|2:0|2:0,2:0:0:0:
197,56,40030,1,0,2:0:0:0:
265,111,40163,2,0,L|319:107,1,55,8|0,2:0|2:0,2:0:0:0:
407,103,40429,6,0,P|428:67|390:-2,2,110,2|8|2,2:0|2:0|2:0,2:0:0:0:
367,181,41094,1,0,2:0:0:0:
417,253,41227,2,0,L|420:307,1,55,8|0,2:0|2:0,2:0:0:0:
342,349,41493,6,0,P|303:335|219:359,1,110,2|8,2:0|2:0,2:0:0:0:
154,377,41892,1,0,2:0:0:0:
160,289,42025,2,0,L|163:234,1,55,2|0,2:0|2:0,2:0:0:0:
102,170,42291,2,0,L|98:115,1,55,8|0,2:0|2:0,2:0:0:0:
110,27,42558,6,0,L|-6:34,2,110,2|8|2,2:0|2:0|2:0,2:0:0:0:
181,77,43223,1,2,2:0:0:0:
261,40,43356,2,0,P|270:78|259:117,1,55,8|0,2:0|2:0,2:0:0:0:
328,157,43622,6,0,P|301:205|306:264,1,110,2|8,2:0|2:0,2:0:0:0:
371,314,44021,1,0,2:0:0:0:
384,226,44154,2,0,L|471:231,2,82.5,2|0|0,2:0|2:0|2:0,2:0:0:0:
303,258,44686,6,0,L|187:265,1,110,2|10,2:0|2:0,2:0:0:0:
120,215,45085,1,2,2:0:0:0:
49,267,45218,2,0,P|43:300|50:344,2,55,2|2|10,2:0|2:0|2:0,2:0:0:0:
120,215,45617,1,2,2:0:0:0:
115,127,45750,6,0,L|109:39,2,82.5,2|2|2,2:0|2:0|2:0,2:0:0:0:
193,167,46283,1,2,2:0:0:0:
193,167,46416,1,0,2:0:0:0:
266,118,46549,1,8,2:0:0:0:
266,118,46682,1,0,2:0:0:0:
339,167,46815,6,0,P|355:128|335:62,1,110,6|8,2:0|2:0,2:0:0:0:
266,118,47214,1,0,2:0:0:0:
264,205,47347,2,0,L|261:282,1,55,2|0,2:0|2:0,2:0:0:0:
337,305,47613,2,0,L|339:359,1,55,8|0,2:0|2:0,2:0:0:0:
409,255,47879,6,0,P|438:238|514:265,2,110,2|8|2,2:0|2:0|2:0,2:0:0:0:
337,305,48544,1,0,2:0:0:0:
261,259,48677,2,0,L|184:256,1,55,8|0,2:0|2:0,2:0:0:0:
134,307,48943,6,0,L|14:311,2,110,2|8|2,2:0|2:0|2:0,2:0:0:0:
206,256,49609,1,0,2:0:0:0:
162,179,49742,2,0,P|154:138|160:102,1,55,8|0,2:0|2:0,2:0:0:0:
193,45,50008,5,2,2:0:0:0:
193,45,50141,1,2,2:1:0:0:
280,40,50274,2,0,L|334:38,1,55,8|0,2:0|2:0,2:0:0:0:
413,76,50540,2,0,P|422:49|421:22,1,55,2|2,2:0|2:0,2:0:0:0:
339,122,50806,2,0,P|338:149|346:175,1,55,10|2,2:0|2:0,2:0:0:0:
411,235,51072,6,0,P|432:265|388:335,1,110,6|8,2:0|2:0,2:0:0:0:
326,363,51471,1,0,2:0:0:0:
243,332,51604,2,0,P|202:323|174:326,1,55,2|0,2:0|2:0,2:0:0:0:
110,281,51870,2,0,P|102:308|101:335,1,55,8|0,2:0|2:0,2:0:0:0:
183,233,52136,6,0,P|190:206|172:124,1,110,2|8,2:0|2:0,2:0:0:0:
94,88,52535,1,0,2:0:0:0:
43,160,52668,2,0,P|43:187|51:213,2,55,2|0|8,2:0|2:0|2:0,2:0:0:0:
94,88,53068,1,0,2:0:0:0:
173,127,53201,6,0,P|199:134|281:116,1,110,6|8,2:0|2:0,2:0:0:0:
347,64,53600,1,2,2:0:0:0:
418,115,53733,2,0,P|426:155|421:193,1,55,6|0,2:0|2:0,2:0:0:0:
408,255,53999,1,8,2:0:0:0:
408,255,54132,1,2,2:0:0:0:
326,287,54265,6,0,P|319:260|318:232,2,55,6|2|8,2:0|2:1|1:0,2:0:0:0:
282,362,54664,1,0,2:0:0:0:
200,332,54797,2,0,L|114:342,2,82.5,2|2|2,2:0|2:1|2:1,2:0:0:0:
226,248,55329,6,0,P|233:221|217:136,2,110,6|8|2,2:0|2:0|2:0,2:0:0:0:
152,199,55994,1,0,2:0:0:0:
65,210,56127,2,0,P|65:182|74:157,1,55,8|0,2:0|2:0,2:0:0:0:
125,85,56393,5,2,2:0:0:0:
125,85,56527,1,0,2:0:0:0:
56,29,56660,2,0,L|-11:25,2,55,8|0|2,2:0|2:0|2:0,2:0:0:0:
125,85,57059,1,0,2:0:0:0:
196,33,57192,2,0,L|250:36,1,55,8|0,2:0|2:0,2:0:0:0:
338,41,57458,6,0,P|368:66|339:142,1,110,2|8,2:0|2:0,2:0:0:0:
311,205,57857,1,0,2:0:0:0:
315,292,57990,2,0,L|316:357,2,55,2|0|8,2:0|2:0|2:0,2:0:0:0:
389,245,58389,1,0,2:0:0:0:
311,205,58522,6,0,L|199:218,1,110,2|8,2:0|2:0,2:0:0:0:
131,270,58921,1,0,2:0:0:0:
65,211,59054,2,0,P|59:174|70:134,1,55,2|0,2:0|2:0,2:0:0:0:
87,72,59320,2,0,P|92:46|90:18,1,55,8|2,2:0|2:0,2:0:0:0:
147,136,59586,6,0,L|256:123,1,110,6|8,2:0|2:0,2:0:0:0:
321,64,59986,1,0,2:0:0:0:
401,97,60119,2,0,P|407:70|405:42,1,55,2|0,2:0|2:0,2:0:0:0:
332,150,60385,2,0,P|329:178|335:205,1,55,8|0,2:0|2:0,2:0:0:0:
394,270,60651,6,0,L|382:368,2,82.5,6|2|0,2:0|2:1|2:0,2:0:0:0:
335,205,61183,2,0,L|256:214,1,55,6|0,2:0|2:0,2:0:0:0:
225,280,61449,2,0,L|146:270,1,55,8|0,2:0|2:0,2:0:0:0:
88,304,61715,6,0,L|72:176,1,110,6|8,2:0|2:0,2:0:0:0:
132,128,62114,1,0,2:0:0:0:
81,56,62247,2,0,P|44:62|8:78,2,55,6|0|8,2:0|2:0|2:0,2:0:0:0:
168,46,62646,1,0,2:0:0:0:
255,34,62779,6,0,L|382:18,2,110,6|8|2,2:0|2:0|2:0,2:0:0:0:
225,117,63444,1,2,2:1:0:0:
285,180,63578,2,0,P|322:174|358:158,1,55,8|2,1:0|2:0,2:0:0:0:
417,130,63844,6,0,L|430:239,1,110,2|8,2:0|2:0,2:0:0:0:
374,307,64243,1,0,2:0:0:0:
297,263,64376,2,0,P|260:269|224:285,1,55,2|0,2:0|2:0,2:0:0:0:
164,313,64642,2,0,P|127:307|91:291,1,55,8|0,2:0|2:0,2:0:0:0:
53,234,64908,1,6,2:0:0:0:
256,192,64974,12,0,67036,2:0:0:0:
174,114,72358,6,0,P|166:78|175:12,3,100.83333333333334,2|2|2|2,1:0|1:0|1:0|1:0,2:0:0:0:
321,73,73422,6,0,P|328:121|323:151,1,66.00000000000006,6|0,1:0|2:0,2:0:0:0:
306,176,73688,2,0,P|298:224|304:254,1,66.00000000000006,2|0,1:0|2:0,2:0:0:0:
306,283,73954,2,0,P|303:299|298:314,2,33.00000000000003,2|0|0,1:0|2:0|2:0,2:0:0:0:
339,255,74221,2,0,P|371:252|403:260,1,66.00000000000006,2|0,1:0|2:0,2:0:0:0:
445,250,74487,6,0,P|452:201|447:172,1,66.00000000000006,2|0,1:0|2:0,2:0:0:0:
430,147,74753,2,0,P|422:98|428:69,1,66.00000000000006,2|0,1:0|2:0,2:0:0:0:
418,50,75019,2,0,P|420:33|425:18,2,33.00000000000003,2|0|0,1:0|2:0|2:0,2:0:0:0:
385,78,75285,2,0,P|352:80|320:72,1,66.00000000000006,4|0,1:0|2:0,2:0:0:0:
282,52,75551,6,0,P|249:49|217:57,1,66.00000000000006,2|0,1:0|2:0,2:0:0:0:
179,78,75817,2,0,P|146:80|114:72,1,66.00000000000006,2|0,1:0|2:0,2:0:0:0:
82,43,76083,2,0,L|78:-6,2,33.00000000000003,2|0|0,1:0|2:0|2:0,2:0:0:0:
80,86,76349,2,0,L|74:159,1,66.00000000000006,2|0,1:0|2:0,2:0:0:0:
109,176,76615,6,0,L|114:241,1,66.00000000000006,2|0,1:0|2:0,2:0:0:0:
144,272,76881,2,0,P|176:274|208:266,1,66.00000000000006,2|0,1:0|2:0,2:0:0:0:
247,245,77147,2,0,P|263:243|279:243,2,33.00000000000003,2|0|0,1:0|2:0|2:0,2:0:0:0:
209,223,77413,1,2,1:0:0:0:
368,298,77680,6,0,P|381:267|386:235,1,66.00000000000006,2|0,1:0|2:0,2:0:0:0:
417,205,77946,2,0,P|397:156|372:129,1,66.00000000000006,2|0,1:0|2:0,2:0:0:0:
364,111,78212,2,0,P|356:78|359:49,2,33.00000000000003,2|0|0,1:0|2:0|2:0,2:0:0:0:
338,139,78478,2,0,L|255:135,1,66.00000000000006,6|0,1:0|2:0,2:0:0:0:
237,109,78744,6,0,L|154:113,1,66.00000000000006,2|0,1:0|2:0,2:0:0:0:
130,97,79010,2,0,L|85:145,1,66.00000000000006,2|0,1:0|2:0,2:0:0:0:
89,181,79276,1,2,1:0:0:0:
93,217,79365,1,0,2:0:0:0:
97,253,79453,1,0,2:0:0:0:
101,289,79542,1,6,1:0:0:0:
279,313,79808,6,0,L|267:235,1,55.687500000000064,6|0,2:0|2:0,2:0:0:0:
329,193,80074,2,0,L|337:138,1,55,8|0,2:0|2:0,2:0:0:0:
350,51,80340,2,0,L|291:48,2,55,6|0|8,2:0|2:0|2:0,2:0:0:0:
421,102,80739,1,0,2:0:0:0:
489,156,80872,6,0,L|480:210,1,55,6|2,2:0|2:0,2:0:0:0:
417,270,81138,2,0,L|425:324,2,55,8|0|6,2:0|2:0|2:0,2:0:0:0:
347,215,81538,1,2,2:0:0:0:
347,215,81671,1,10,2:0:0:0:
270,258,81804,1,2,2:0:0:0:
194,212,81937,5,4,2:0:0:0:
256,192,82003,12,0,86194,2:0:0:0:
74,67,90451,6,0,L|70:131,1,55,2|0,2:0|2:0,2:0:0:0:
122,192,90717,2,0,L|126:256,1,55,0|0,2:0|2:0,2:0:0:0:
179,316,90983,2,0,P|136:332|102:330,2,55,2|0|0,2:0|2:0|2:0,2:0:0:0:
247,261,91382,1,0,2:0:0:0:
316,315,91515,1,4,2:1:0:0:
316,315,92048,6,0,P|333:269|328:240,1,55,0|0,2:0|2:0,2:0:0:0:
391,197,92314,2,0,P|370:152|346:135,1,55,8|0,2:0|2:0,2:0:0:0:
315,77,92580,6,0,L|197:74,2,110,6|0|0,2:0|2:0|2:0,2:0:0:0:
366,148,93245,1,0,2:0:0:0:
281,170,93378,2,0,L|210:168,1,55,0|0,2:0|2:0,2:0:0:0:
138,161,93644,6,0,P|108:141|21:159,2,110,2|0|2,2:0|2:0|2:0,2:0:0:0:
77,224,94309,1,0,2:0:0:0:
73,311,94442,2,0,L|71:365,1,55,0|0,2:0|2:0,2:0:0:0:
152,272,94708,6,0,P|204:261|253:286,1,110,6|0,2:0|2:0,2:0:0:0:
319,343,95107,1,0,2:0:0:0:
397,303,95240,2,0,P|404:258|398:228,1,55,2|0,2:0|2:0,2:0:0:0:
363,170,95507,2,0,P|399:143|416:117,1,55,0|0,2:0|2:0,2:0:0:0:
459,66,95773,6,0,P|465:32|394:-2,2,110,6|0|2,2:0|2:0|2:0,2:0:0:0:
405,136,96438,2,0,P|375:103|368:69,1,55,2|6,2:0|2:0,2:0:0:0:
180,40,96837,6,0,P|135:26|62:66,1,110,6|8,2:0|2:0,2:0:0:0:
35,123,97236,1,0,2:0:0:0:
78,199,97369,2,0,P|81:240|72:277,1,55,2|2,2:0|2:1,2:0:0:0:
115,332,97635,2,0,P|98:354|77:372,1,55,8|0,2:0|2:0,2:0:0:0:
163,259,97901,6,0,L|292:255,1,110,2|8,2:0|2:0,2:0:0:0:
343,308,98300,1,0,2:0:0:0:
411,253,98433,2,0,P|417:211|409:175,1,55,2|0,2:0|2:0,2:0:0:0:
345,145,98699,2,0,P|339:103|347:67,1,55,8|0,2:0|2:0,2:0:0:0:
349,3,98966,6,0,L|239:6,1,110,6|8,2:0|2:0,2:0:0:0:
180,71,99365,1,0,2:0:0:0:
94,85,99498,2,0,P|93:58|101:32,1,55,6|0,2:0|2:0,2:0:0:0:
150,153,99764,2,0,P|158:199|150:227,1,55,8|0,2:0|2:0,2:0:0:0:
106,279,100030,6,0,P|157:296|208:278,1,110,6|8,2:0|2:0,2:0:0:0:
281,229,100429,1,0,2:0:0:0:
366,250,100562,2,0,B|373:300|373:300|364:320,2,73.33333333333331,2|0|0,2:0|2:0|2:0,2:0:0:0:
337,135,101094,6,0,P|324:97|389:33,2,116.87500000000001,2|8|2,2:0|2:0|2:0,2:0:0:0:
269,197,101759,1,0,2:0:0:0:
193,143,101892,2,0,P|153:137|121:140,1,57.75000000000002,8|0,2:0|2:0,2:0:0:0:
49,170,102158,6,0,L|45:227,1,57.75000000000002,2|0,2:0|2:0,2:0:0:0:
64,78,102425,2,0,L|60:20,1,57.75000000000002,8|0,2:0|2:0,2:0:0:0:
135,137,102691,2,0,P|164:137|193:143,1,57.75000000000002,2|0,2:0|2:0,2:0:0:0:
269,197,102957,2,0,P|289:217|305:241,1,57.75000000000002,8|0,2:0|2:0,2:0:0:0:
346,324,103223,6,0,P|392:351|450:314,2,115.50000000000003,2|8|2,2:0|2:0|2:0,2:0:0:0:
396,245,103888,1,0,2:0:0:0:
487,235,104021,2,0,L|490:177,1,57.75000000000002,8|0,2:0|2:0,2:0:0:0:
501,85,104287,5,2,2:0:0:0:
501,85,104420,1,0,2:0:0:0:
423,33,104553,2,0,P|415:51|411:70,2,38.50000000000001,8|0|0,2:0|2:0|2:0,2:0:0:0:
380,6,104819,2,0,L|322:2,1,57.75000000000002,2|0,2:0|2:0,2:0:0:0:
244,53,105085,2,0,L|186:56,1,57.75000000000002,8|0,2:0|2:0,2:0:0:0:
94,65,105351,6,0,L|99:180,1,115.50000000000003,6|8,2:0|2:0,2:0:0:0:
168,241,105750,1,0,2:0:0:0:
110,313,105884,2,0,P|83:322|55:322,1,57.75000000000002,2|2,2:0|2:1,2:0:0:0:
201,329,106150,2,0,P|229:329|256:338,1,57.75000000000002,8|0,2:0|2:0,2:0:0:0:
340,377,106416,6,0,L|345:261,1,115.50000000000003,6|8,2:0|2:0,2:0:0:0:
302,179,106815,1,0,2:0:0:0:
363,108,106948,2,0,P|399:96|453:163,1,115.50000000000003,6|8,2:0|2:0,2:0:0:0:
432,232,107347,1,0,2:0:0:0:
344,261,107480,6,0,L|228:266,1,115.50000000000003,6|8,2:0|2:0,2:0:0:0:
176,190,107879,1,0,2:0:0:0:
93,232,108012,2,0,P|85:191|95:152,1,57.75000000000002,6|0,2:0|2:0,2:0:0:0:
30,102,108278,2,0,P|53:67|87:46,1,57.75000000000002,8|0,2:0|2:0,2:0:0:0:
157,53,108544,6,0,L|273:48,1,115.50000000000003,6|8,2:0|2:0,2:0:0:0:
343,107,108943,1,0,2:0:0:0:
426,68,109076,2,0,P|435:27|436:-6,1,57.75000000000002,2|0,2:0|2:0,2:0:0:0:
419,160,109342,2,0,P|422:188|429:216,1,57.75000000000002,8|0,2:0|2:0,2:0:0:0:
487,288,109609,5,6,2:0:0:0:
487,288,109742,1,0,2:0:0:0:
432,362,109875,1,8,2:0:0:0:
432,362,110008,1,0,2:0:0:0:
339,369,110141,2,0,L|281:371,1,57.75000000000002,2|0,2:0|2:0,2:0:0:0:
210,311,110407,2,0,L|152:308,1,57.75000000000002,8|0,2:0|2:0,2:0:0:0:
68,349,110673,6,0,P|57:311|106:230,1,115.50000000000003,6|8,2:0|2:0,2:0:0:0:
157,185,111072,1,0,2:0:0:0:
157,92,111205,2,0,L|156:34,1,57.75000000000002,2|0,2:0|2:0,2:0:0:0:
77,139,111471,2,0,L|19:139,1,57.75000000000002,8|0,2:0|2:0,2:0:0:0:
157,185,111737,6,0,L|273:190,1,115.50000000000003,6|8,2:0|2:0,2:0:0:0:
346,134,112136,1,0,2:0:0:0:
411,198,112269,2,0,P|418:233|415:272,2,57.75000000000002,2|0|10,2:0|2:0|2:0,2:0:0:0:
346,134,112668,1,2,2:0:0:0:
361,42,112801,1,4,2:0:0:0:
361,42,114930,5,6,2:0:0:0:
361,42,115063,1,2,2:0:0:0:
271,66,115196,1,10,2:0:0:0:
271,66,115329,1,2,2:0:0:0:
185,31,115462,2,0,P|144:24|110:33,1,57.75000000000002,2|2,2:0|2:0,2:0:0:0:
249,149,115728,2,0,P|277:151|305:144,1,57.75000000000002,10|2,2:0|2:0,2:0:0:0:
149,109,115994,6,0,L|145:190,1,57.75000000000002,2|2,2:0|2:0,2:0:0:0:
89,239,116260,2,0,L|91:296,1,57.75000000000002,10|2,2:0|2:0,2:0:0:0:
180,321,116527,1,2,2:0:0:0:
180,321,116660,1,2,2:0:0:0:
270,345,116793,1,10,2:0:0:0:
270,345,116926,1,2,2:0:0:0:
350,309,117059,5,6,2:0:0:0:
