osu file format v14

[General]
AudioFilename: audio.mp3
AudioLeadIn: 0
PreviewTime: 13935
Countdown: 1
SampleSet: Normal
StackLeniency: 0.7
Mode: 0
LetterboxInBreaks: 0
WidescreenStoryboard: 1

[Editor]
Bookmarks: 76185
DistanceSpacing: 1
BeatDivisor: 2
GridSize: 8
TimelineZoom: 1.8

[Metadata]
Title:Garyou Tensei
TitleUnicode:画竜点睛
Artist:xi
ArtistUnicode:xi
Creator:Zonthem
Version:Hard
Source:
Tags:Sullywally Metaku
BeatmapID:1168914
BeatmapSetID:551916

[Difficulty]
HPDrainRate:6
CircleSize:4
OverallDifficulty:6
ApproachRate:7
SliderMultiplier:1.1
SliderTickRate:1

[Events]
//Background and Video events
0,0,"dragon.jpg",0,0
//Break Periods
//Storyboard Layer 0 (Background)
//Storyboard Layer 1 (Fail)
//Storyboard Layer 2 (Pass)
//Storyboard Layer 3 (Foreground)
//Storyboard Sound Samples

[TimingPoints]
11675,300,4,1,0,100,1,0
11675,-166.666666666667,4,1,0,5,0,0
14075,-100,4,1,0,80,0,0
23675,-76.9230769230769,4,1,0,80,0,1
32075,-66.6666666666667,4,1,0,80,0,0
33275,-76.9230769230769,4,1,0,80,0,0
42875,-100,4,1,0,80,0,0
52475,-100,4,1,0,80,0,0
60875,-100,4,1,0,80,0,0
61325,-80,4,1,0,80,0,0
62075,-76.9230769230769,4,1,0,80,0,1
71675,-133.333333333333,4,2,0,90,0,0
74075,-133.333333333333,4,3,0,60,0,0
74300,-133.333333333333,4,2,0,80,0,0
75275,-133.333333333333,4,3,0,60,0,0
75425,-133.333333333333,4,2,0,80,0,0
76475,-133.333333333333,4,3,0,60,0,0
76550,-133.333333333333,4,2,0,100,0,0
78725,-133.333333333333,4,3,0,60,0,0
80150,-133.333333333333,4,2,0,80,0,0
80975,-133.333333333333,4,3,0,60,0,0
81050,-133.333333333333,4,2,0,80,0,0
81125,-133.333333333333,4,3,0,60,0,0
81350,-133.333333333333,4,2,0,80,0,0
82475,-133.333333333333,4,3,0,60,0,0
82550,-133.333333333333,4,2,0,80,0,0
83675,-133.333333333333,4,3,0,60,0,0
83900,-133.333333333333,4,2,0,80,0,0
84875,-133.333333333333,4,3,0,60,0,0
84950,-133.333333333333,4,2,0,80,0,0
85925,-133.333333333333,4,3,0,60,0,0
86150,-133.333333333333,4,2,0,80,0,0
87275,-117.647058823529,4,3,0,80,0,0
87350,-117.647058823529,4,2,0,80,0,0
88475,-105.263157894737,4,2,0,80,0,0
89675,-100,4,2,0,80,0,0
90875,-100,4,1,0,80,0,0
100475,-83.3333333333333,4,1,0,80,0,0
100775,-83.3333333333333,4,1,0,80,0,1
101075,-76.9230769230769,4,1,0,80,0,1
119975,-100,4,1,0,80,0,0
121475,-100,4,1,0,80,0,0
122600,-100,4,1,0,5,0,0
122675,-100,4,1,0,80,0,0

[Colours]
Combo1 : 255,0,128
Combo2 : 0,128,192
Combo3 : 238,49,74
Combo4 : 238,112,49

[HitObjects]
256,192,11675,12,0,13625,0:0:0:0:
373,191,14075,6,0,L|336:125,1,55
277,89,14375,2,0,L|245:145,1,55
285,212,14675,2,0,P|228:220|175:173,1,110
182,98,15125,1,0,0:0:0:0:
111,159,15275,6,0,B|102:229|157:262,1,110
270,300,15875,1,0,0:0:0:0:
186,192,16175,1,0,0:0:0:0:
56,275,16475,6,0,P|26:218|24:158,1,110
159,79,17075,1,0,0:0:0:0:
301,142,17375,1,0,0:0:0:0:
301,142,17525,1,0,0:0:0:0:
301,142,17675,2,0,P|339:149|380:146,1,55
441,133,17975,5,0,0:0:0:0:
473,61,18125,1,0,0:0:0:0:
411,13,18275,2,0,P|368:2|282:20,1,110
287,134,18875,6,0,L|252:197,1,55
205,235,19175,2,0,L|173:178,1,55
108,143,19475,2,0,P|155:109|218:119,1,110
287,134,19925,1,0,0:0:0:0:
366,154,20075,6,0,P|426:171|479:137,1,110
353,64,20675,1,0,0:0:0:0:
260,182,20975,1,0,0:0:0:0:
191,62,21275,6,0,P|139:75|91:128,1,110
136,279,21875,1,0,0:0:0:0:
269,198,22175,1,0,0:0:0:0:
269,198,22325,1,0,0:0:0:0:
269,198,22475,6,0,P|300:206|334:237,1,55
316,295,22775,2,0,P|284:287|259:267,1,55
202,230,23075,2,0,P|194:198|200:166,2,55
267,275,23675,6,0,P|195:309|138:276,1,142.99999345398
105,220,24125,1,0,0:0:0:0:
58,161,24275,2,0,P|102:148|150:159,1,71.4999967269899
196,176,24575,2,0,P|237:181|277:169,1,71.4999967269899
318,114,24875,5,0,0:0:0:0:
392,89,25025,1,0,0:0:0:0:
463,121,25175,2,0,P|465:156|457:191,1,71.4999967269899
379,201,25475,2,0,P|367:234|369:276,1,71.4999967269899
413,334,25775,2,0,P|380:346|338:344,1,71.4999967269899
288,290,26075,5,0,0:0:0:0:
140,345,26375,1,0,1:0:0:0:
222,157,26675,2,0,P|180:166|143:202,1,71.4999967269899
157,182,26900,1,0,0:0:0:0:
157,182,26975,2,0,B|137:212|137:212|101:248,1,71.4999967269899
76,316,27275,6,0,P|112:339|163:340,1,71.4999967269899,0|0,0:0|0:0,0:0:0:0:
140,345,27500,1,0,0:0:0:0:
140,345,27575,1,0,0:0:0:0:
221,330,27725,1,0,0:0:0:0:
298,345,27875,2,0,P|380:339|409:263,1,142.99999345398
409,135,28475,6,0,L|380:214,1,71.4999967269899
332,275,28775,2,0,L|296:198,1,71.4999967269899
329,136,29075,2,0,P|267:137|219:206,1,142.99999345398
202,274,29525,1,0,0:0:0:0:
132,311,29675,6,0,P|121:267|137:227,1,71.4999967269899
149,171,29975,2,0,P|155:136|144:102,1,71.4999967269899
79,58,30275,2,0,P|104:33|138:24,1,71.4999967269899
210,53,30575,5,0,0:0:0:0:
239,125,30725,1,0,0:0:0:0:
303,170,30875,2,0,B|331:173|365:158|365:158|362:168|362:168|395:153|431:156,2,142.99999345398
310,255,31625,5,0,0:0:0:0:
310,255,31700,1,0,0:0:0:0:
310,255,31775,2,0,P|291:293|252:320,1,71.4999967269899
180,319,32075,2,0,B|121:296|103:272|103:272|149:218,1,123.750004720688
101,102,32525,2,0,B|138:185|123:245|123:245|191:229|230:234,1,247.500009441376
305,202,33275,5,0,0:0:0:0:
330,226,33425,2,0,P|374:213|465:138,1,142.99999345398
405,47,33875,2,0,P|367:37|321:47,1,71.4999967269899
364,122,34175,2,0,P|328:125|294:116,1,71.4999967269899
255,47,34475,2,0,P|204:48|115:100,2,142.99999345398
235,187,35375,5,0,0:0:0:0:
235,187,35525,1,0,0:0:0:0:
235,187,35675,2,0,B|240:218|259:249|259:249|212:238|170:257,1,142.99999345398
146,320,36125,5,0,0:0:0:0:
222,338,36275,2,0,P|267:344|299:344,1,71.4999967269899
350,298,36575,2,0,P|357:243|339:209,1,71.4999967269899
310,171,36875,2,0,P|296:131|305:90,1,71.4999967269899
363,59,37175,2,0,P|376:98|367:139,1,71.4999967269899
310,171,37475,6,0,P|361:154|446:203,1,142.99999345398
454,348,38075,1,0,0:0:0:0:
364,235,38375,2,0,P|329:252|280:248,1,71.4999967269899
228,188,38675,2,0,P|254:240|206:334,1,142.99999345398
82,376,39275,5,0,0:0:0:0:
88,231,39575,2,0,P|125:206|174:203,1,71.4999967269899
228,188,39875,2,0,P|173:176|116:111,1,142.99999345398
161,51,40325,1,0,0:0:0:0:
234,62,40475,6,0,P|264:89|271:147,1,71.4999967269899
228,188,40775,2,0,P|237:228|268:256,1,71.4999967269899
338,220,41075,2,0,B|375:237|394:282|394:282|419:235|450:221,1,142.99999345398
512,129,41675,6,0,B|475:112|456:67|456:67|431:114|400:129,1,142.99999345398
275,127,42275,1,0,0:0:0:0:
275,127,42575,1,0,0:0:0:0:
169,77,42875,6,0,B|92:70|50:142|87:218|159:182|159:182|215:162|258:216,1,330
204,324,44075,1,0,0:0:0:0:
190,214,44375,1,0,0:0:0:0:
270,126,44675,2,0,P|313:158|355:210,1,110
273,266,45275,6,0,P|388:293|399:111,1,330
336,50,46475,1,0,0:0:0:0:
258,138,46775,1,0,0:0:0:0:
222,26,47075,1,0,0:0:0:0:
141,111,47375,2,0,P|135:146|146:182,1,55
185,192,47675,6,0,B|205:232|187:298|187:298|107:275|70:239|70:239|45:192|46:137,1,330
118,34,48875,2,0,P|157:57|231:56,1,110
338,15,49475,2,0,P|392:14|440:40,1,110
482,153,50075,5,0,0:0:0:0:
371,98,50375,1,0,0:0:0:0:
394,196,50675,1,0,0:0:0:0:
297,136,50975,1,0,0:0:0:0:
310,249,51275,6,0,B|273:223|231:243|231:243|193:259|151:240,1,165
107,211,51875,2,0,P|100:175|100:145,2,55
78,249,52325,1,0,0:0:0:0:
98,286,52475,6,0,B|174:277|223:327|223:327|255:363|300:371|352:365|388:300,1,330
456,176,53675,2,0,P|421:209|352:210,1,110
296,277,54275,2,0,B|268:246|271:213|271:213|252:213|229:199,1,110
299,57,54875,6,0,B|270:32|214:53|201:104|234:144|268:159|290:170|325:147|358:114|389:93|447:94,1,330
456,176,56075,1,0,0:0:0:0:
328,136,56375,1,0,0:0:0:0:
394,25,56675,2,0,P|440:18|478:34,2,82.5
332,62,57275,6,0,B|284:68|256:48|256:48|231:30|184:36|184:36|176:104|110:126|110:126|80:135|63:174,1,330
42,229,58475,2,0,P|92:232|137:195,1,110
70,159,58925,1,0,0:0:0:0:
202,278,59375,5,0,0:0:0:0:
204,184,59675,2,0,P|262:203|289:241,1,110
202,278,60275,2,0,P|235:320|287:335,1,110
344,291,60725,1,0,0:0:0:0:
398,244,60875,6,0,L|499:253,2,82.5
335,191,61475,2,0,L|228:203,2,103.125
383,127,62075,6,0,B|443:111|501:117|501:117|500:144,1,142.99999345398
467,230,62525,1,0,0:0:0:0:
467,230,62675,2,0,P|423:243|375:232,1,71.4999967269899
335,191,62975,2,0,P|294:186|254:198,1,71.4999967269899
195,231,63275,5,0,0:0:0:0:
153,164,63425,1,0,0:0:0:0:
76,145,63575,2,0,P|90:112|117:89,1,71.4999967269899
192,66,63875,2,0,P|226:63|259:76,1,71.4999967269899
324,122,64175,2,0,P|336:154|334:189,1,71.4999967269899
259,167,64475,5,0,0:0:0:0:
355,272,64775,1,0,0:0:0:0:
430,133,65075,2,0,P|417:99|387:66,1,71.4999967269899
394,72,65300,1,0,0:0:0:0:
395,72,65375,2,0,P|361:58|316:23,1,71.4999967269899
259,16,65675,6,0,P|246:50|216:83,1,71.4999967269899
223,76,65900,1,0,0:0:0:0:
223,76,65975,1,0,0:0:0:0:
152,103,66125,1,0,0:0:0:0:
102,164,66275,2,0,B|129:171|150:186|150:186|192:165|243:155,1,142.99999345398
419,111,66875,6,0,L|390:190,1,71.4999967269899
339,232,67175,2,0,L|303:155,1,71.4999967269899
345,103,67475,2,0,P|282:99|234:185,1,142.99999345398
251,232,67925,1,0,0:0:0:0:
172,224,68075,6,0,P|179:259|198:290,1,71.4999967269899
276,303,68375,2,0,P|259:341|227:364,1,71.4999967269899
158,372,68675,2,0,P|120:355|97:323,1,71.4999967269899
93,253,68975,5,0,0:0:0:0:
47,188,69125,1,0,0:0:0:0:
87,120,69275,2,0,B|103:127|113:142|113:142|156:117|222:122,1,142.99999345398
251,232,69875,1,0,0:0:0:0:
309,284,70025,5,0,0:0:0:0:
309,284,70100,1,0,0:0:0:0:
309,284,70175,2,0,P|333:315|336:360,1,71.4999967269899
263,345,70475,2,0,L|130:339,1,107.249995090485
26,355,70925,2,0,B|86:330|156:339|156:339|148:280|160:228,1,214.49999018097
66,238,71675,6,0,P|69:188|245:250,1,330.000012588501
248,235,73475,1,0,0:0:0:0:
248,235,74075,2,0,L|282:236,2,20.6250007867813
288,146,74975,1,0,0:0:0:0:
288,146,75275,6,0,L|322:194,1,41.2500015735627
247,206,75575,2,0,L|236:264,1,41.2500015735627
175,219,75875,2,0,L|126:253,1,41.2500015735627
111,178,76175,2,0,L|52:167,1,41.2500015735627
170,138,76475,6,0,B|206:110|248:137|248:137|279:113|320:113|353:114|385:146|404:181|396:216|383:242|351:258,2,330.000012588501
170,138,80075,1,0,0:0:0:0:
94,202,80675,6,0,B|110:220|137:219|137:219|163:216|183:232,1,82.5000031471254
263,288,81275,2,0,B|296:282|297:241|347:232|347:232|356:200|356:200|406:183|409:131|374:96,1,247.500009441376
386,111,82475,2,0,L|300:126,1,82.5000031471254
209,104,83075,2,0,L|123:125,1,82.5000031471254
1,173,83675,6,0,B|36:158|70:160|91:184|91:184|121:215|192:232|243:206,1,247.500009441376
339,158,84875,2,0,P|340:184|350:210,1,41.2500015735627
410,169,85175,2,0,P|429:186|454:197,1,41.2500015735627
468,126,85475,2,0,P|448:108|423:97,1,41.2500015735627
359,91,85775,2,0,P|337:80|319:63,1,41.2500015735627
231,61,86075,6,0,P|255:104|320:152,1,123.750004720688
395,153,86675,2,0,P|412:223|398:281,1,123.750004720688
342,319,87275,1,0,0:0:0:0:
216,128,88175,6,0,L|263:86,1,46.7500008916855
293,166,88475,2,0,P|133:132|192:49,1,313.499991628647
340,70,89675,6,0,P|381:88|408:109,1,55
374,164,89975,2,0,P|389:206|394:239,1,55
328,251,90275,2,0,P|309:292|288:319,1,55
237,272,90575,2,0,P|193:287|160:292,1,55
102,249,90875,6,0,P|152:217|206:208,2,110
146,368,91775,1,0,0:0:0:0:
237,272,92075,2,0,P|269:241|271:179,1,110
198,89,92675,1,0,0:0:0:0:
93,77,92975,1,0,0:0:0:0:
18,150,93275,6,0,P|27:188|83:247,1,110
235,278,93875,2,0,P|226:240|170:176,1,110
72,240,94475,5,0,0:0:0:0:
173,222,94775,1,0,0:0:0:0:
261,155,95075,1,0,0:0:0:0:
290,53,95375,1,0,0:0:0:0:
187,80,95675,6,0,P|220:134|262:155,1,110
390,133,96275,2,0,P|437:160|463:207,1,110
443,338,96875,1,0,0:0:0:0:
361,234,97175,1,0,0:0:0:0:
316,339,97475,2,0,L|182:339,1,110
77,275,98075,5,0,0:0:0:0:
173,235,98375,1,0,0:0:0:0:
91,170,98675,1,0,0:0:0:0:
146,301,98975,1,0,0:0:0:0:
167,159,99275,6,0,L|179:84,1,55
234,60,99575,2,0,L|298:70,1,55
353,107,99875,2,0,L|343:171,1,55
292,207,100175,2,0,L|164:187,1,110
69,213,100775,6,0,P|107:282|166:291,1,131.99999597168
245,279,101225,1,0,0:0:0:0:
292,207,101375,2,0,P|248:194|200:205,1,71.4999967269899
138,214,101675,2,0,P|97:219|57:207,1,71.4999967269899
107,135,101975,5,0,0:0:0:0:
188,108,102125,1,0,0:0:0:0:
250,49,102275,2,0,P|308:50|345:68,1,71.4999967269899
371,122,102575,2,0,P|404:134|446:132,2,71.4999967269899
284,127,103025,1,0,0:0:0:0:
284,127,103175,5,0,0:0:0:0:
369,275,103475,1,0,0:0:0:0:
228,217,103775,2,0,P|217:170|198:139,1,71.4999967269899
206,149,104000,1,0,0:0:0:0:
206,149,104075,2,0,B|170:139|170:139|122:148,1,71.4999967269899
109,219,104375,6,0,P|115:271|130:308,1,71.4999967269899
121,288,104600,1,0,0:0:0:0:
122,289,104675,1,0,0:0:0:0:
66,344,104825,1,0,0:0:0:0:
139,366,104975,2,0,B|182:371|182:371|212:359|212:359|250:369|290:359,1,142.99999345398
437,293,105575,6,0,L|461:225,1,71.4999967269899
376,237,105875,2,0,L|340:160,1,71.4999967269899
420,130,106175,2,0,P|366:88|279:109,1,142.99999345398
264,177,106625,1,0,0:0:0:0:
182,151,106775,6,0,P|175:185|186:219,1,71.4999967269899
263,257,107075,2,0,P|273:300|257:340,1,71.4999967269899
194,373,107375,2,0,P|151:383|111:367,1,71.4999967269899
58,322,107675,2,0,P|48:279|64:239,1,71.4999967269899
128,208,107975,2,0,B|140:169|114:142|114:142|90:111|102:73,2,142.99999345398
54,253,108725,5,0,0:0:0:0:
78,283,108800,1,0,0:0:0:0:
117,285,108875,2,0,P|156:301|183:327,1,71.4999967269899
247,356,109175,2,0,L|368:365,1,107.249995090485
376,259,109625,2,0,B|311:281|256:281|256:281|194:278|165:342,1,214.49999018097
58,322,110375,6,0,B|84:278|74:230|74:230|118:195,1,142.99999345398
197,203,110825,1,0,0:0:0:0:
218,119,110975,2,0,P|256:139|279:173,1,71.4999967269899
271,246,111275,2,0,P|294:272|326:287,1,71.4999967269899
402,266,111575,5,0,0:0:0:0:
402,266,111725,1,0,0:0:0:0:
402,266,111875,2,0,P|434:242|449:202,1,71.4999967269899
373,185,112175,2,0,P|352:150|355:107,1,71.4999967269899
413,71,112475,2,0,P|383:44|341:38,1,71.4999967269899
285,77,112775,2,0,B|247:61|215:78|215:78|178:72|178:72|130:79,2,142.99999345398
257,149,113525,5,0,0:0:0:0:
257,149,113600,1,0,0:0:0:0:
257,149,113675,2,0,P|225:175|213:209,1,71.4999967269899
173,263,113975,6,0,P|212:277|247:271,1,71.4999967269899
241,273,114200,1,0,0:0:0:0:
241,273,114275,1,0,0:0:0:0:
215,203,114425,1,0,0:0:0:0:
287,219,114575,2,0,B|320:241|323:274|323:274|364:287|409:267,1,142.99999345398
483,123,115175,6,0,P|499:154|495:201,1,71.4999967269899
414,172,115475,2,0,P|382:152|330:152,1,71.4999967269899
287,219,115775,2,0,P|220:229|143:201,1,142.99999345398
132,121,116225,1,0,0:0:0:0:
68,63,116375,6,0,P|53:95|57:146,1,71.4999967269899
72,214,116675,2,0,P|71:249|56:281,1,71.4999967269899
12,356,116975,1,0,0:0:0:0:
96,342,117125,1,0,0:0:0:0:
172,380,117275,2,0,P|209:383|259:368,1,71.4999967269899
308,321,117575,6,0,B|336:318|370:333|370:333|367:323|367:323|400:338|436:335,2,142.99999345398
253,264,118325,5,0,0:0:0:0:
253,264,118400,1,0,0:0:0:0:
253,264,118475,2,0,P|246:220|258:191,1,71.4999967269899
317,233,118775,2,0,P|355:219|408:172,1,107.249995090485
347,74,119225,2,0,B|385:113|408:172|408:172|448:112|501:92,1,214.49999018097
477,103,119975,5,0,0:0:0:0:
264,90,120425,1,0,0:0:0:0:
446,241,120875,2,0,L|416:271,2,27.5
256,192,121475,5,0,0:0:0:0:
256,192,121625,12,0,122675,0:0:0:0:
