osu file format v14

[General]
AudioFilename: audio.mp3
AudioLeadIn: 0
PreviewTime: 13935
Countdown: 1
SampleSet: Normal
StackLeniency: 0.7
Mode: 0
LetterboxInBreaks: 0
WidescreenStoryboard: 0

[Editor]
DistanceSpacing: 0.7
BeatDivisor: 4
GridSize: 8
TimelineZoom: 1.8

[Metadata]
Title:Garyou Tensei
TitleUnicode:画竜点睛
Artist:xi
ArtistUnicode:xi
Creator:Zonthem
Version:Extra
Source:
Tags:Sullywally Metaku
BeatmapID:1168913
BeatmapSetID:551916

[Difficulty]
HPDrainRate:6
CircleSize:4
OverallDifficulty:8.1
ApproachRate:9.3
SliderMultiplier:1.6
SliderTickRate:1

[Events]
//Background and Video events
0,0,"dragon.jpg",0,0
//Break Periods
//Storyboard Layer 0 (Background)
//Storyboard Layer 1 (Fail)
//Storyboard Layer 2 (Pass)
//Storyboard Layer 3 (Foreground)
//Storyboard Sound Samples

[TimingPoints]
11675,300,4,1,0,100,1,0
12725,-100,4,1,0,15,0,0
12875,-166.666666666667,4,1,0,80,0,0
13925,-166.666666666667,4,1,0,5,0,0
14075,-100,4,1,0,60,0,0
23675,-76.9230769230769,4,1,0,80,0,1
32075,-66.6666666666667,4,1,0,80,0,0
33275,-76.9230769230769,4,1,0,80,0,0
37325,-100,4,1,0,80,0,0
37475,-76.9230769230769,4,1,0,80,0,0
42875,-100,4,1,0,80,0,0
43100,-100,4,1,0,30,0,0
43175,-100,4,1,0,80,0,0
44300,-100,4,1,0,30,0,0
44375,-100,4,1,0,80,0,0
44900,-100,4,1,0,30,0,0
44975,-100,4,1,0,80,0,0
45500,-100,4,1,0,30,0,0
45575,-100,4,1,0,80,0,0
47300,-100,4,1,0,30,0,0
47375,-100,4,1,0,80,0,0
47900,-100,4,1,0,30,0,0
47975,-100,4,1,0,80,0,0
49700,-100,4,1,0,30,0,0
49775,-100,4,1,0,80,0,0
50000,-100,4,1,0,30,0,0
50075,-100,4,1,0,80,0,0
52475,-76.9230769230769,4,1,0,80,0,0
60875,-100,4,1,0,80,0,0
61325,-80,4,1,0,80,0,0
62075,-66.6666666666667,4,1,0,80,0,1
71675,-133.333333333333,4,2,0,80,0,0
74075,-133.333333333333,4,3,0,60,0,0
74300,-133.333333333333,4,2,0,80,0,0
75275,-133.333333333333,4,3,0,60,0,0
75425,-133.333333333333,4,2,0,80,0,0
76475,-133.333333333333,4,3,0,60,0,0
76550,-133.333333333333,4,2,0,80,0,0
78725,-133.333333333333,4,3,0,60,0,0
80150,-133.333333333333,4,2,0,80,0,0
80975,-133.333333333333,4,3,0,60,0,0
81050,-133.333333333333,4,2,0,80,0,0
81125,-133.333333333333,4,3,0,60,0,0
81350,-133.333333333333,4,2,0,80,0,0
82475,-133.333333333333,4,3,0,60,0,0
82550,-133.333333333333,4,2,0,80,0,0
83675,-133.333333333333,4,3,0,60,0,0
83900,-133.333333333333,4,2,0,80,0,0
84875,-133.333333333333,4,3,0,60,0,0
84950,-133.333333333333,4,2,0,80,0,0
85925,-133.333333333333,4,3,0,60,0,0
86150,-133.333333333333,4,2,0,80,0,0
87275,-117.647058823529,4,3,0,80,0,0
87350,-117.647058823529,4,2,0,80,0,0
88475,-105.263157894737,4,1,0,100,0,0
89675,-100,4,1,0,100,0,0
100475,-76.9230769230769,4,1,0,100,0,0
100775,-76.9230769230769,4,1,0,100,0,1
119975,-50,4,1,0,100,0,0
121475,-100,4,1,0,100,0,0
122600,-100,4,1,0,5,0,0
122675,-100,4,1,0,100,0,0

[Colours]
Combo1 : 255,0,128
Combo2 : 0,128,192
Combo3 : 238,49,74
Combo4 : 238,112,49

[HitObjects]
256,192,11675,12,0,12725,0:0:0:0:
304,160,12875,6,0,L|272:184,2,23.9999992675781
256,192,13100,12,0,13925,0:0:0:0:
106,156,14075,5,0,0:0:0:0:
185,62,14225,1,0,0:0:0:0:
185,62,14300,1,0,0:0:0:0:
185,62,14375,2,0,P|220:81|276:80,1,80
387,26,14675,1,0,0:0:0:0:
459,138,14825,1,0,0:0:0:0:
459,138,14900,1,0,0:0:0:0:
459,138,14975,2,0,P|478:173|477:229,1,80
355,339,15275,6,0,P|335:298|336:238,1,80
373,133,15575,2,0,P|392:174|391:234,1,80
355,339,15875,1,0,0:0:0:0:
253,360,16025,1,0,0:0:0:0:
172,295,16175,1,0,0:0:0:0:
161,190,16325,1,0,0:0:0:0:
331,264,16475,6,0,L|428:239,1,80
242,215,16775,1,0,0:0:0:0:
242,215,17075,5,0,0:0:0:0:
378,181,17225,1,0,0:0:0:0:
383,149,17300,1,0,0:0:0:0:
387,117,17375,2,0,L|393:37,1,80
308,157,17675,5,0,0:0:0:0:
457,179,17825,1,0,0:0:0:0:
452,211,17900,1,0,0:0:0:0:
448,243,17975,2,0,L|442:323,1,80
258,343,18275,2,0,P|291:359|342:346,1,80
448,243,18575,1,0,0:0:0:0:
261,234,18725,1,0,0:0:0:0:
353,69,18875,5,0,0:0:0:0:
308,157,19025,1,0,0:0:0:0:
308,157,19100,1,0,0:0:0:0:
308,157,19175,2,0,P|259:144|210:162,1,80
165,264,19475,1,0,0:0:0:0:
103,143,19625,1,0,0:0:0:0:
103,143,19700,1,0,0:0:0:0:
103,143,19775,2,0,P|77:186|30:208,1,80
19,123,20075,5,0,0:0:0:0:
274,74,20225,1,0,0:0:0:0:
53,202,20375,1,0,0:0:0:0:
284,144,20525,1,0,0:0:0:0:
113,49,20675,2,0,L|32:42,1,80
214,238,20975,2,0,L|293:231,1,80
453,117,21275,6,0,L|411:185,1,80
356,43,21575,1,0,0:0:0:0:
356,43,21875,5,0,0:0:0:0:
276,207,22025,1,0,0:0:0:0:
276,207,22100,1,0,0:0:0:0:
276,207,22175,1,0,0:0:0:0:
397,101,22325,1,0,0:0:0:0:
163,144,22475,2,0,L|256:127,1,80
391,218,22775,1,0,0:0:0:0:
391,218,22925,2,0,P|322:233|301:250,1,80
290,260,23150,1,0,0:0:0:0:
267,291,23225,6,0,L|240:340,1,40
202,227,23375,2,0,L|225:194,1,40
101,236,23525,2,0,L|80:270,1,40
49,146,23675,5,0,0:0:0:0:
152,169,23825,1,0,0:0:0:0:
152,169,23900,1,0,0:0:0:0:
152,169,23975,1,0,0:0:0:0:
37,121,24125,1,0,0:0:0:0:
163,84,24275,6,0,P|217:99|254:143,1,103.999995239258
249,132,24500,1,0,0:0:0:0:
249,132,24575,1,0,0:0:0:0:
293,249,24725,1,0,0:0:0:0:
376,88,24875,5,0,0:0:0:0:
376,227,25025,1,0,0:0:0:0:
482,51,25175,1,0,0:0:0:0:
453,202,25325,1,0,0:0:0:0:
304,41,25475,2,0,B|245:37|245:37|201:46,1,103.999995239258
189,146,25775,2,0,B|145:155|145:155|86:151,1,103.999995239258
304,41,26075,6,0,P|353:59|391:107,1,103.999995239258
206,243,26375,2,0,P|185:197|188:146,1,103.999995239258
453,202,26675,5,0,0:0:0:0:
287,187,26825,1,0,0:0:0:0:
287,187,26900,1,0,0:0:0:0:
287,187,26975,1,0,0:0:0:0:
470,273,27125,1,0,0:0:0:0:
204,341,27275,6,0,P|253:325|294:278,1,103.999995239258,0|0,0:0|0:0,0:0:0:0:
289,289,27500,1,0,0:0:0:0:
289,289,27575,1,0,0:0:0:0:
207,244,27725,1,0,0:0:0:0:
470,273,27875,2,0,P|417:269|362:298,1,103.999995239258
434,360,28175,1,0,0:0:0:0:
381,173,28325,1,0,0:0:0:0:
207,244,28475,5,0,0:0:0:0:
295,147,28625,1,0,0:0:0:0:
295,147,28700,1,0,0:0:0:0:
295,147,28775,1,0,0:0:0:0:
344,297,28925,1,0,0:0:0:0:
204,172,29075,6,0,P|205:119|239:74,1,103.999995239258
233,78,29300,1,0,0:0:0:0:
233,78,29375,1,0,0:0:0:0:
381,173,29525,1,0,0:0:0:0:
221,274,29675,5,0,0:0:0:0:
204,172,29825,1,0,0:0:0:0:
315,116,29975,1,0,0:0:0:0:
464,154,30125,1,0,0:0:0:0:
345,249,30275,5,0,0:0:0:0:
398,90,30425,1,0,0:0:0:0:
439,239,30575,1,0,0:0:0:0:
315,116,30725,1,0,0:0:0:0:
414,2,30875,6,0,P|464:27|486:69,1,103.999995239258
277,194,31175,2,0,P|234:156|224:109,1,103.999995239258
161,36,31475,5,0,0:0:0:0:
77,144,31625,1,0,0:0:0:0:
77,144,31700,1,0,0:0:0:0:
77,144,31775,1,0,0:0:0:0:
224,111,31925,1,0,0:0:0:0:
140,241,32075,5,0,0:0:0:0:
293,118,32225,1,0,0:0:0:0:
228,312,32375,1,0,0:0:0:0:
340,184,32525,2,0,P|369:149|396:126,1,60.0000022888184
434,56,32675,1,0,0:0:0:0:
388,28,32750,1,0,0:0:0:0:
334,22,32825,1,0,0:0:0:0:
281,32,32900,1,0,0:0:0:0:
232,55,32975,2,0,L|170:96,1,60.0000022888184
115,205,33125,2,0,L|164:171,1,60.0000022888184
272,137,33275,5,0,0:0:0:0:
69,136,33425,1,0,0:0:0:0:
43,169,33500,1,0,0:0:0:0:
37,210,33575,1,0,0:0:0:0:
164,170,33725,1,0,0:0:0:0:
137,350,33875,1,0,0:0:0:0:
303,352,34025,2,0,L|366:352,1,51.999997619629
338,283,34175,2,0,L|403:283,1,51.999997619629
371,214,34325,2,0,L|437:214,1,51.999997619629
405,145,34475,6,0,B|465:145|465:145|511:108,2,103.999995239258
322,94,34925,1,0,0:0:0:0:
240,43,35075,2,0,B|180:43|180:43|132:82,2,103.999995239258
322,94,35525,1,0,0:0:0:0:
238,140,35675,5,0,0:0:0:0:
234,187,35750,1,0,0:0:0:0:
214,230,35825,1,0,0:0:0:0:
177,261,35900,1,0,0:0:0:0:
129,269,35975,1,0,0:0:0:0:
138,168,36125,1,0,0:0:0:0:
290,241,36275,6,0,L|346:241,2,51.999997619629
216,310,36575,1,0,0:0:0:0:
311,310,36725,1,0,0:0:0:0:
346,311,36800,1,0,0:0:0:0:
382,319,36875,1,0,0:0:0:0:
414,334,36950,1,0,0:0:0:0:
447,350,37025,1,0,0:0:0:0:
447,314,37100,1,0,0:0:0:0:
451,279,37175,1,0,0:0:0:0:
458,243,37250,1,0,0:0:0:0:
468,209,37325,2,0,P|476:180|483:161,1,40
428,93,37475,6,0,P|420:117|413:142,3,51.999997619629
399,193,37775,1,0,0:0:0:0:
310,246,37925,1,0,0:0:0:0:
206,238,38075,5,0,0:0:0:0:
325,162,38225,1,0,0:0:0:0:
282,164,38300,1,0,0:0:0:0:
241,154,38375,2,0,P|209:140|185:123,3,51.999997619629
197,60,38675,2,0,P|174:46|150:36,3,51.999997619629
130,105,38975,1,0,0:0:0:0:
264,86,39125,1,0,0:0:0:0:
139,175,39275,6,0,P|113:228|75:256,1,103.999995239258
63,260,39500,1,0,0:0:0:0:
49,267,39575,2,0,P|24:290|6:313,1,51.999997619629
127,340,39725,2,0,P|108:368|97:395,1,51.999997619629
235,355,39875,1,0,0:0:0:0:
257,326,39950,1,0,0:0:0:0:
291,313,40025,1,0,0:0:0:0:
327,311,40100,1,0,0:0:0:0:
362,301,40175,6,0,P|361:277|356:248,3,51.999997619629
266,159,40475,1,0,0:0:0:0:
227,185,40550,1,0,0:0:0:0:
240,229,40625,1,0,0:0:0:0:
286,230,40700,1,0,0:0:0:0:
303,186,40775,2,0,P|322:137|367:89,1,103.999995239258
474,109,41075,5,0,0:0:0:0:
445,139,41150,1,0,0:0:0:0:
429,177,41225,1,0,0:0:0:0:
431,218,41300,1,0,0:0:0:0:
452,253,41375,2,0,P|469:281|479:308,1,51.999997619629
391,371,41525,5,0,0:0:0:0:
356,347,41600,1,0,0:0:0:0:
335,310,41675,1,0,0:0:0:0:
296,295,41750,1,0,0:0:0:0:
254,297,41825,2,0,P|223:285|193:263,1,51.999997619629
162,178,41975,5,0,0:0:0:0:
140,321,42125,1,0,0:0:0:0:
303,226,42275,1,0,0:0:0:0:
123,122,42425,1,0,0:0:0:0:
251,236,42575,2,0,P|277:232|303:226,1,51.999997619629
346,310,42725,2,0,P|371:315|397:319,1,51.999997619629
452,253,42875,6,0,P|430:196|378:138,1,120
350,117,43175,1,0,0:0:0:0:
478,134,43325,1,0,0:0:0:0:
334,27,43475,5,0,0:0:0:0:
303,227,43625,1,0,0:0:0:0:
222,81,43775,1,0,0:0:0:0:
478,134,43925,1,0,0:0:0:0:
279,152,44075,6,0,P|231:171|170:218,1,120
153,263,44375,1,0,0:0:0:0:
303,227,44525,1,0,0:0:0:0:
221,319,44675,6,0,P|173:349|105:341,1,120
70,306,44975,1,0,0:0:0:0:
57,194,45125,1,0,0:0:0:0:
57,194,45200,1,0,0:0:0:0:
57,194,45275,6,0,B|66:158|82:136|82:136|65:111|64:62,1,120
79,27,45575,2,0,P|129:40|173:32,1,80
267,23,45875,1,0,0:0:0:0:
374,54,46025,1,0,0:0:0:0:
284,121,46175,1,0,0:0:0:0:
368,193,46325,1,0,0:0:0:0:
267,242,46475,6,0,P|222:228|162:228,1,80
109,316,46775,2,0,P|69:312|31:299,1,80
96,193,47075,2,0,P|138:141|212:128,1,120
187,125,47375,1,0,0:0:0:0:
297,143,47525,1,0,0:0:0:0:
91,85,47675,6,0,P|154:57|210:55,1,120
256,75,47975,1,0,0:0:0:0:
189,225,48125,1,0,0:0:0:0:
297,143,48275,2,0,P|322:180|343:221,1,80
187,125,48575,1,0,0:0:0:0:
230,300,48725,1,0,0:0:0:0:
55,237,48875,6,0,P|65:305|126:380,1,160
439,204,49475,2,0,P|387:189|318:204,1,120
293,249,49775,2,0,P|249:243|166:188,1,120
194,151,50075,6,0,P|169:121|130:96,1,80
278,116,50375,2,0,P|261:82|229:48,1,80
365,109,50675,2,0,P|357:72|336:31,1,80
450,125,50975,1,0,0:0:0:0:
323,201,51125,1,0,0:0:0:0:
230,224,51275,6,0,P|248:264|286:290,1,80
152,212,51575,2,0,P|134:172|96:146,1,80
248,126,51875,1,0,0:0:0:0:
263,89,51950,1,0,0:0:0:0:
293,64,52025,1,0,0:0:0:0:
345,54,52100,1,0,0:0:0:0:
390,78,52175,2,0,L|446:72,1,40
512,133,52325,2,0,L|472:137,1,40
442,208,52475,6,0,P|424:245|348:313,1,103.999995239258
173,303,52775,2,0,L|102:303,2,51.999997619629
356,150,53075,1,0,0:0:0:0:
279,269,53225,1,0,0:0:0:0:
173,132,53375,2,0,L|109:132,2,51.999997619629
30,235,53675,6,0,B|70:210|70:210|144:239|238:211,1,207.999990478516
295,72,54125,1,0,0:0:0:0:
295,72,54200,1,0,0:0:0:0:
295,72,54275,1,0,0:0:0:0:
331,226,54425,1,0,0:0:0:0:
169,79,54575,2,0,B|138:83|113:78|113:78|88:95|58:100,1,103.999995239258
66,159,54800,1,0,0:0:0:0:
64,221,54875,6,0,B|95:217|120:222|120:222|145:205|175:200,1,103.999995239258
295,72,55175,2,0,L|395:19,1,103.999995239258
331,226,55475,2,0,L|239:274,1,103.999995239258
388,117,55775,1,0,0:0:0:0:
445,227,55925,1,0,0:0:0:0:
398,343,56075,6,0,B|356:323|317:339|317:339|274:355|239:349,1,155.999992858887
190,321,56375,2,0,P|114:298|50:352,1,155.999992858887
47,277,56675,2,0,B|55:223|48:172,1,103.999995239258
43,99,56900,2,0,P|79:118|145:116,1,103.999995239258
194,69,57125,2,0,P|212:101|210:135,1,51.999997619629
267,150,57275,6,0,L|377:174,1,103.999995239258
194,69,57575,2,0,L|130:55,2,51.999997619629
178,237,57875,2,0,L|288:261,1,103.999995239258
453,120,58175,1,0,0:0:0:0:
275,53,58325,1,0,0:0:0:0:
280,260,58475,6,0,P|298:349|383:317,1,207.999990478516
275,53,58925,2,0,L|281:280,1,207.999990478516
497,252,59375,2,0,L|493:147,1,103.999995239258
259,40,59675,6,0,L|265:267,1,207.999990478516
407,90,60125,1,0,0:0:0:0:
181,84,60275,2,0,L|183:139,2,51.999997619629
367,197,60575,5,0,0:0:0:0:
367,197,60650,1,0,0:0:0:0:
367,197,60725,1,0,0:0:0:0:
367,197,60800,1,0,0:0:0:0:
367,197,60875,6,0,L|371:270,1,40
114,341,61100,2,0,L|113:273,1,40
223,78,61325,2,0,L|225:129,1,50
295,213,61475,1,0,0:0:0:0:
118,31,61700,2,0,L|120:80,1,50
283,339,61925,2,0,L|279:270,1,50
392,189,62075,5,0,0:0:0:0:
370,318,62225,1,0,0:0:0:0:
423,323,62300,1,0,0:0:0:0:
471,300,62375,1,0,0:0:0:0:
392,189,62525,1,0,0:0:0:0:
283,339,62675,1,0,0:0:0:0:
220,263,62825,1,0,0:0:0:0:
268,240,62900,1,0,0:0:0:0:
321,245,62975,1,0,0:0:0:0:
283,339,63125,1,0,0:0:0:0:
44,264,63275,5,0,0:0:0:0:
188,270,63425,1,0,0:0:0:0:
296,175,63575,1,0,0:0:0:0:
441,193,63725,1,0,0:0:0:0:
283,246,63875,2,0,B|262:284|262:284|222:267|178:270,1,120.000004577637
30,373,64175,2,0,B|52:334|52:334|91:352|135:349,1,120.000004577637
215,186,64475,6,0,B|156:183|121:194|121:194|122:172|132:157,1,120.000004577637
258,88,64775,2,0,B|317:91|352:80|352:80|350:101|341:117,1,120.000004577637
283,246,65075,5,0,0:0:0:0:
258,88,65225,1,0,0:0:0:0:
258,88,65300,1,0,0:0:0:0:
258,88,65375,1,0,0:0:0:0:
336,185,65525,1,0,0:0:0:0:
125,169,65675,6,0,P|78:205|64:262,1,120.000004577637
72,310,65900,1,0,0:0:0:0:
72,310,65975,1,0,0:0:0:0:
272,330,66125,5,0,0:0:0:0:
230,185,66275,2,0,P|202:238|185:295,1,120.000004577637
314,225,66575,1,0,0:0:0:0:
314,225,66875,5,0,0:0:0:0:
236,100,67025,1,0,0:0:0:0:
192,120,67100,1,0,0:0:0:0:
162,158,67175,1,0,0:0:0:0:
185,295,67325,1,0,0:0:0:0:
388,174,67475,6,0,P|403:251|379:306,1,120.000004577637
361,327,67700,1,0,0:0:0:0:
361,327,67775,1,0,0:0:0:0:
236,100,67925,1,0,0:0:0:0:
228,203,68075,6,0,B|190:232|190:232|110:233,1,120.000004577637
236,100,68375,2,0,B|273:70|273:70|354:70,1,120.000004577637
169,139,68675,2,0,B|139:101|139:101|139:21,1,120.000004577637
298,150,68975,2,0,B|328:187|328:187|328:268,1,120.000004577637
348,67,69275,6,0,B|380:99|418:110|418:110|404:165|449:209,1,180.000006866455
458,238,69575,2,0,L|458:300,2,60.0000022888184
499,137,69875,5,0,0:0:0:0:
321,238,70025,1,0,0:0:0:0:
321,280,70100,1,0,0:0:0:0:
322,321,70175,1,0,0:0:0:0:
458,238,70325,1,0,0:0:0:0:
244,184,70475,5,0,0:0:0:0:
401,338,70625,1,0,0:0:0:0:
418,109,70775,1,0,0:0:0:0:
321,238,70925,1,0,0:0:0:0:
321,238,71000,1,0,0:0:0:0:
321,238,71075,2,0,L|256:259,1,60.0000022888184
186,202,71225,2,0,L|243:183,1,60.0000022888184
318,124,71375,2,0,L|253:103,1,60.0000022888184
227,17,71525,2,0,L|284:35,1,60.0000022888184
358,64,71675,6,0,B|380:86|421:82|421:82|463:78|500:108|500:108|412:154|435:234|435:234|454:300|400:345,1,420.000016021729
341,265,72875,1,0,0:0:0:0:
341,265,73475,1,0,0:0:0:0:
195,311,74075,5,0,0:0:0:0:
195,311,74150,1,0,0:0:0:0:
195,311,74225,2,0,B|166:289|155:258|164:221|186:201|218:192|218:192|195:168|190:131|215:92|154:52,1,300.000011444092
354,60,75275,6,0,P|331:103|328:132,1,60.0000022888184
408,126,75575,2,0,P|399:154|382:179,1,60.0000022888184
458,217,75875,2,0,B|439:222|436:248|413:256|413:256|394:283|368:283|368:283|353:309|330:324|297:328,1,180.000006866455
294,243,76475,6,0,P|212:214|212:127,1,180.000006866455
272,171,77075,1,0,0:0:0:0:
272,171,77675,6,0,B|333:160|361:207|361:207|385:151|358:95|358:95|408:120|459:102|485:72|484:32,1,360.000013732911
405,26,78725,1,0,0:0:0:0:
405,26,78800,1,0,0:0:0:0:
405,26,78875,1,0,0:0:0:0:
55,76,80075,6,0,B|59:119|86:144|142:133|142:133|180:166|192:222,1,210.000008010865
161,257,80675,2,0,L|175:303,3,30.0000011444092
256,311,80975,2,0,L|248:283,3,30.0000011444092
271,240,81275,6,0,B|280:197|338:184|338:184|306:118|356:71|356:71|393:149|484:124,1,360.000013732911
442,38,82475,1,0,0:0:0:0:
491,223,83075,1,0,0:0:0:0:
320,134,83675,5,0,0:0:0:0:
320,134,83750,1,0,0:0:0:0:
320,134,83825,2,0,B|277:130|219:66|219:66|214:106|214:106|187:125|150:108|150:108|157:144|135:198,1,300.000011444092
285,257,84875,6,0,L|352:265,1,60.0000022888184
205,312,85175,2,0,L|138:320,1,60.0000022888184
277,353,85475,1,0,0:0:0:0:
366,350,85625,1,0,0:0:0:0:
437,311,85775,1,0,0:0:0:0:
437,311,85850,1,0,0:0:0:0:
437,311,85925,2,0,P|459:282|464:263,1,30.0000011444092
481,240,86075,6,0,B|468:199|475:154|475:154|425:143|411:91,1,180.000006866455
489,76,86675,2,0,P|475:46|336:68,1,180.000006866455
264,74,87275,6,0,B|276:117|265:145|265:145|211:202|246:269,1,204.000003890991
318,218,87875,2,0,B|344:253|338:323|276:349|276:349|336:358|372:352,1,238.00000453949
397,310,88475,6,0,P|428:306|492:316,1,75.9999979705811
401,239,88775,2,0,P|429:227|494:220,1,75.9999979705811
391,165,89075,2,0,P|415:146|476:122,1,75.9999979705811
358,101,89375,2,0,P|377:76|429:38,1,75.9999979705811
307,51,89675,6,0,P|316:20|326:3,3,40
358,101,89975,2,0,P|349:132|339:149,3,40
280,115,90275,1,0,0:0:0:0:
265,128,90350,1,0,0:0:0:0:
254,144,90425,1,0,0:0:0:0:
248,163,90500,1,0,0:0:0:0:
246,183,90575,5,0,0:0:0:0:
244,203,90650,1,0,0:0:0:0:
240,223,90725,1,0,0:0:0:0:
232,241,90800,1,0,0:0:0:0:
221,257,90875,2,0,P|199:275|174:285,3,40
117,277,91175,2,0,P|99:286|84:300,3,40
148,347,91475,5,0,0:0:0:0:
177,360,91550,1,0,0:0:0:0:
208,362,91625,1,0,0:0:0:0:
239,357,91700,1,0,0:0:0:0:
268,344,91775,2,0,P|287:330|307:304,3,40
292,239,92075,6,0,P|320:232|354:231,1,40
406,288,92225,2,0,P|378:295|344:296,1,40
327,199,92375,2,0,P|355:192|389:191,1,40
448,303,92525,2,0,P|420:310|386:311,1,40
404,216,92675,5,0,0:0:0:0:
437,194,92750,1,0,0:0:0:0:
461,162,92825,1,0,0:0:0:0:
467,122,92900,1,0,0:0:0:0:
458,82,92975,2,0,P|438:46|395:24,1,80
152,52,93275,5,0,0:0:0:0:
177,70,93350,1,0,0:0:0:0:
198,93,93425,1,0,0:0:0:0:
214,120,93500,1,0,0:0:0:0:
221,151,93575,2,0,P|220:184|213:216,3,40
151,231,93875,2,0,P|150:250|152:270,3,40
223,292,94175,2,0,P|222:325|215:357,3,40
145,364,94475,5,0,0:0:0:0:
118,354,94550,1,0,0:0:0:0:
94,339,94625,1,0,0:0:0:0:
77,316,94700,1,0,0:0:0:0:
65,290,94775,2,0,P|60:260|60:234,3,40
108,197,95075,2,0,P|109:174|106:142,1,40
36,136,95225,2,0,P|35:113|38:81,1,40
131,30,95375,6,0,P|131:49|130:69,1,40
218,154,95525,2,0,P|217:134|218:114,1,40
297,88,95675,6,0,P|323:84|341:87,3,40
371,166,95975,2,0,P|403:163|430:145,3,40
296,162,96275,1,0,0:0:0:0:
295,181,96350,1,0,0:0:0:0:
295,201,96425,1,0,0:0:0:0:
295,221,96500,1,0,0:0:0:0:
295,241,96575,1,0,0:0:0:0:
295,261,96650,1,0,0:0:0:0:
295,281,96725,1,0,0:0:0:0:
295,301,96800,1,0,0:0:0:0:
294,322,96875,6,0,P|324:343|354:348,3,40
390,265,97175,2,0,P|386:301|397:329,3,40
488,322,97475,2,0,P|454:337|435:360,3,40
466,251,97775,2,0,P|483:235|499:219,1,40
487,134,97925,2,0,P|470:150|454:166,1,40
386,179,98075,5,0,0:0:0:0:
293,249,98225,1,0,0:0:0:0:
390,265,98375,1,0,0:0:0:0:
288,163,98525,1,0,0:0:0:0:
267,339,98675,5,0,0:0:0:0:
390,265,98825,1,0,0:0:0:0:
142,250,98975,1,0,0:0:0:0:
279,350,99125,1,0,0:0:0:0:
142,250,99275,6,0,P|125:230|110:202,2,40
309,108,99575,2,0,P|310:77|318:42,2,40
431,209,99875,2,0,P|426:243|432:269,1,40
432,349,100025,5,0,0:0:0:0:
412,327,100100,1,0,0:0:0:0:
387,314,100175,1,0,0:0:0:0:
361,303,100250,1,0,0:0:0:0:
333,298,100325,1,0,0:0:0:0:
305,300,100400,1,0,0:0:0:0:
270,311,100475,1,0,0:0:0:0:
142,250,100775,5,0,0:0:0:0:
269,308,100925,1,0,0:0:0:0:
305,300,101000,1,0,0:0:0:0:
338,286,101075,1,0,0:0:0:0:
431,209,101225,1,0,0:0:0:0:
331,97,101375,6,0,P|273:103|231:133,1,103.999995239258
212,162,101600,1,0,0:0:0:0:
208,203,101675,1,0,0:0:0:0:
338,286,101825,1,0,0:0:0:0:
431,209,101975,5,0,0:0:0:0:
331,97,102125,1,0,0:0:0:0:
167,126,102275,1,0,0:0:0:0:
92,293,102425,1,0,0:0:0:0:
306,185,102575,5,0,0:0:0:0:
174,327,102725,1,0,0:0:0:0:
333,298,102875,1,0,0:0:0:0:
127,209,103025,1,0,0:0:0:0:
394,343,103175,6,0,L|493:296,1,103.999995239258
431,209,103475,1,0,0:0:0:0:
76,143,103775,5,0,0:0:0:0:
187,247,103925,1,0,0:0:0:0:
228,246,104000,1,0,0:0:0:0:
267,233,104075,1,0,0:0:0:0:
193,46,104225,1,0,0:0:0:0:
336,185,104375,6,0,P|349:215|331:284,1,103.999995239258
293,297,104600,1,0,0:0:0:0:
251,301,104675,1,0,0:0:0:0:
105,262,104825,1,0,0:0:0:0:
194,363,104975,2,0,P|249:374|305:370,1,103.999995239258
428,255,105275,1,0,0:0:0:0:
267,233,105425,1,0,0:0:0:0:
391,156,105575,5,0,0:0:0:0:
296,371,105725,1,0,0:0:0:0:
254,368,105800,1,0,0:0:0:0:
217,348,105875,1,0,0:0:0:0:
220,193,106025,1,0,0:0:0:0:
417,59,106175,6,0,P|415:109|378:168,1,103.999995239258
390,155,106400,1,0,0:0:0:0:
390,155,106475,1,0,0:0:0:0:
311,82,106625,1,0,0:0:0:0:
152,275,106775,6,0,L|50:341,1,103.999995239258
189,113,107075,2,0,B|157:65|157:65|146:2,1,103.999995239258
304,308,107375,2,0,L|406:374,1,103.999995239258
429,111,107675,2,0,B|461:63|461:63|472:0,1,103.999995239258
251,170,107975,6,0,L|152:210,1,103.999995239258
347,223,108275,2,0,L|443:184,1,103.999995239258
154,208,108575,5,0,0:0:0:0:
255,58,108725,1,0,0:0:0:0:
291,78,108800,1,0,0:0:0:0:
311,113,108875,1,0,0:0:0:0:
195,301,109025,1,0,0:0:0:0:
347,223,109175,1,0,0:0:0:0:
111,148,109325,2,0,L|157:202,1,51.999997619629
265,339,109475,1,0,0:0:0:0:
251,170,109625,5,0,0:0:0:0:
239,130,109700,1,0,0:0:0:0:
243,88,109775,1,0,0:0:0:0:
269,49,109850,1,0,0:0:0:0:
312,31,109925,1,0,0:0:0:0:
363,39,110000,1,0,0:0:0:0:
406,66,110075,1,0,0:0:0:0:
423,120,110150,1,0,0:0:0:0:
415,176,110225,1,0,0:0:0:0:
364,213,110300,1,0,0:0:0:0:
301,213,110375,6,0,P|234:192|185:189,1,103.999995239258
200,188,110600,1,0,0:0:0:0:
200,188,110675,1,0,0:0:0:0:
77,235,110825,1,0,0:0:0:0:
222,317,110975,5,0,0:0:0:0:
201,69,111125,1,0,0:0:0:0:
243,88,111200,1,0,0:0:0:0:
285,107,111275,1,0,0:0:0:0:
303,219,111425,1,0,0:0:0:0:
184,279,111575,5,0,0:0:0:0:
314,240,111725,1,0,0:0:0:0:
202,153,111875,1,0,0:0:0:0:
189,296,112025,5,0,0:0:0:0:
324,257,112175,1,0,0:0:0:0:
288,122,112325,1,0,0:0:0:0:
122,182,112475,2,0,B|97:188|76:214|76:214|43:210|10:225,1,103.999995239258
125,89,112775,2,0,B|150:83|171:57|171:57|204:61|237:46,1,103.999995239258
468,70,113075,2,0,P|427:38|377:31,1,103.999995239258
324,257,113375,5,0,0:0:0:0:
431,124,113525,1,0,0:0:0:0:
390,114,113600,1,0,0:0:0:0:
350,129,113675,1,0,0:0:0:0:
478,233,113825,1,0,0:0:0:0:
512,90,113975,6,0,P|475:53|427:33,1,103.999995239258
385,35,114200,1,0,0:0:0:0:
346,51,114275,1,0,0:0:0:0:
182,215,114425,1,0,0:0:0:0:
416,261,114575,2,0,B|416:238|438:217|438:217|458:195|457:168,1,103.999995239258
366,93,114875,1,0,0:0:0:0:
499,278,115025,1,0,0:0:0:0:
512,90,115175,5,0,0:0:0:0:
368,173,115325,1,0,0:0:0:0:
364,198,115400,1,0,0:0:0:0:
361,223,115475,1,0,0:0:0:0:
499,278,115625,1,0,0:0:0:0:
265,263,115775,6,0,P|295:303|362:319,1,103.999995239258
370,322,116000,1,0,0:0:0:0:
395,317,116075,1,0,0:0:0:0:
368,173,116225,1,0,0:0:0:0:
194,329,116375,5,0,0:0:0:0:
252,94,116525,1,0,0:0:0:0:
139,269,116675,1,0,0:0:0:0:
362,145,116825,1,0,0:0:0:0:
103,198,116975,5,0,0:0:0:0:
249,258,117125,1,0,0:0:0:0:
252,94,117275,1,0,0:0:0:0:
139,269,117425,1,0,0:0:0:0:
263,178,117575,6,0,L|366:143,1,103.999995239258
249,258,117875,2,0,L|150:291,1,103.999995239258
333,286,118175,5,0,0:0:0:0:
77,232,118325,1,0,0:0:0:0:
49,255,118400,1,0,0:0:0:0:
29,285,118475,1,0,0:0:0:0:
263,178,118625,1,0,0:0:0:0:
120,326,118775,6,0,L|61:344,1,51.999997619629
263,178,118925,1,0,0:0:0:0:
81,165,119075,2,0,L|32:149,1,51.999997619629
104,80,119225,5,0,0:0:0:0:
140,109,119300,1,0,0:0:0:0:
184,122,119375,1,0,0:0:0:0:
228,107,119450,1,0,0:0:0:0:
271,89,119525,1,0,0:0:0:0:
317,90,119600,1,0,0:0:0:0:
355,116,119675,2,0,P|377:144|390:177,1,51.999997619629
216,185,119825,2,0,P|241:159|272:142,1,51.999997619629
327,218,119975,6,0,L|327:317,1,80
252,260,120425,2,0,L|252:359,1,80
418,173,120875,1,0,0:0:0:0:
418,173,120950,1,0,0:0:0:0:
418,173,121025,1,0,0:0:0:0:
256,55,121475,6,0,B|225:49|175:55|127:109|127:194|223:197|223:197|158:245|136:345|136:345|205:340|275:295|311:267,1,600
311,266,122675,1,0,0:0:0:0:
