osu file format v14

[General]
AudioFilename: audio.mp3
AudioLeadIn: 0
PreviewTime: 100770
Countdown: 0
SampleSet: Normal
StackLeniency: 0.7
Mode: 0
LetterboxInBreaks: 0
WidescreenStoryboard: 1

[Editor]
DistanceSpacing: 0.4
BeatDivisor: 4
GridSize: 32
TimelineZoom: 1.9

[Metadata]
Title:Garyou Tensei
TitleUnicode:Garyou Tensei
Artist:xi
ArtistUnicode:xi
Creator:Sulfur
Version:Real's Insane
Source:
Tags:su1fu7 realazy rvmathew eiri- ayyri kiddly leader
BeatmapID:1892725
BeatmapSetID:884992

[Difficulty]
HPDrainRate:5
CircleSize:3.8
OverallDifficulty:8
ApproachRate:9
SliderMultiplier:1.6
SliderTickRate:1

[Events]
//Background and Video events
0,0,"bg.jpg",0,0
//Break Periods
2,71869,80670
//Storyboard Layer 0 (Background)
//Storyboard Layer 1 (Fail)
//Storyboard Layer 2 (Pass)
//Storyboard Layer 3 (Foreground)
//Storyboard Sound Samples

[TimingPoints]
2550,315.789473684211,4,2,1,60,1,0
7602,333.333333333333,4,2,1,60,1,0
8268,-100,4,2,2,60,0,0
8352,-100,4,2,1,60,0,0
10272,352.941176470588,4,2,1,60,1,0
11683,340.909090909091,4,2,1,60,1,0
14070,300,4,2,1,70,1,0
14070,-133.333333333333,4,2,1,70,0,0
18421,-133.333333333333,4,2,1,90,0,0
18871,-133.333333333333,4,2,1,70,0,0
23071,-133.333333333333,4,1,1,60,0,0
23221,-133.333333333333,4,1,1,70,0,0
23371,-133.333333333333,4,2,1,70,0,0
23670,-100,4,1,1,60,0,1
26295,-100,4,1,1,40,0,1
26370,-100,4,1,1,60,0,1
28020,-100,4,2,1,70,0,1
28470,-100,4,1,1,60,0,1
31095,-100,4,1,1,40,0,1
31170,-100,4,1,1,60,0,1
32970,-100,4,2,1,70,0,1
33270,-100,4,2,1,70,0,0
46470,-100,4,2,2,70,0,0
46620,-100,4,2,1,70,0,0
46770,-100,4,2,2,70,0,0
46920,-100,4,2,1,70,0,0
47070,-100,4,2,2,70,0,0
47220,-100,4,2,1,70,0,0
47370,-100,4,2,2,70,0,0
47520,-100,4,2,1,70,0,0
49695,-100,4,2,1,40,0,0
49770,-100,4,2,1,70,0,0
49995,-100,4,2,1,40,0,0
50070,-100,4,2,1,70,0,0
51270,-100,4,2,1,60,0,0
51420,-100,4,2,1,55,0,0
51570,-100,4,2,1,50,0,0
51720,-100,4,2,1,45,0,0
51870,-100,4,1,1,30,0,0
52020,-100,4,1,1,40,0,0
52170,-100,4,1,1,50,0,0
52320,-100,4,1,1,60,0,0
52470,-100,4,2,1,70,0,0
53895,-100,4,2,1,40,0,0
53970,-100,4,2,1,70,0,0
56070,-100,4,2,2,70,0,0
56220,-100,4,2,1,70,0,0
56370,-100,4,2,2,70,0,0
56520,-100,4,2,1,70,0,0
56670,-100,4,2,2,70,0,0
56820,-100,4,2,1,70,0,0
56970,-100,4,2,2,70,0,0
57120,-100,4,2,1,70,0,0
60870,-100,4,1,1,60,0,0
61470,-100,4,1,1,75,0,0
62070,-90.9090909090909,4,1,1,60,0,1
64695,-90.9090909090909,4,1,1,40,0,1
64770,-90.9090909090909,4,1,1,60,0,1
66495,-90.9090909090909,4,2,1,40,0,1
66570,-90.9090909090909,4,2,1,70,0,1
66870,-90.9090909090909,4,1,1,60,0,1
69495,-90.9090909090909,4,1,1,40,0,1
69570,-90.9090909090909,4,1,1,60,0,1
71370,-90.9090909090909,4,2,1,70,0,1
71670,-250,4,2,1,70,0,0
72870,-250,4,2,2,70,0,0
73470,-250,4,2,1,70,0,0
75270,-250,4,2,2,70,0,0
75420,-250,4,2,1,70,0,0
77670,-250,4,2,2,70,0,0
80670,-250,4,2,1,70,0,0
82470,-250,4,2,2,70,0,0
83070,-250,4,2,1,70,0,0
84870,-250,4,2,2,70,0,0
85020,-250,4,2,1,70,0,0
86070,-250,4,1,1,30,0,0
87270,-250,4,1,1,40,0,0
88470,-250,4,1,1,50,0,0
89670,-250,4,2,1,70,0,0
90870,-90.9090909090909,4,2,1,70,0,0
98070,-90.9090909090909,4,1,1,60,0,0
99270,-90.9090909090909,4,2,0,50,0,0
99495,-90.9090909090909,4,2,0,55,0,0
99720,-90.9090909090909,4,2,0,60,0,0
99945,-90.9090909090909,4,2,0,65,0,0
100170,-90.9090909090909,4,2,0,70,0,0
100470,300,4,1,0,70,1,0
100470,-90.9090909090909,4,1,0,70,0,0
100770,300,4,1,1,60,1,1
100770,-83.3333333333333,4,1,1,60,0,1
103395,-83.3333333333333,4,1,1,40,0,1
103470,-83.3333333333333,4,1,1,60,0,1
105195,-83.3333333333333,4,2,1,40,0,1
105270,-83.3333333333333,4,2,1,80,0,1
105570,-83.3333333333333,4,1,1,60,0,1
108195,-83.3333333333333,4,1,1,40,0,1
108270,-83.3333333333333,4,1,1,60,0,1
109770,-83.3333333333333,4,2,1,80,0,1
110370,-83.3333333333333,4,1,1,60,0,1
112995,-83.3333333333333,4,1,1,40,0,1
113070,-83.3333333333333,4,1,1,60,0,1
114795,-83.3333333333333,4,2,1,40,0,1
114870,-83.3333333333333,4,2,1,80,0,1
115170,-83.3333333333333,4,1,1,60,0,1
117795,-83.3333333333333,4,1,1,40,0,1
117870,-83.3333333333333,4,1,1,60,0,1
119970,-83.3333333333333,4,2,1,50,0,1
121470,-83.3333333333333,4,2,1,50,0,0

[Colours]
Combo1 : 162,162,255
Combo2 : 213,68,68
Combo3 : 209,86,235
Combo4 : 255,155,106

[HitObjects]
77,64,14070,6,0,L|86:123,1,60.0000022888184,4|0,0:0|0:0,0:0:0:0:
86,123,14295,1,0,0:0:0:0:
86,123,14370,2,0,L|95:182,1,60.0000022888184,0|2,0:0|0:0,0:0:0:0:
3,175,14670,6,0,L|12:234,1,60.0000022888184,0|0,0:0|0:0,0:0:0:0:
12,234,14895,1,0,0:0:0:0:
12,234,14970,2,0,L|21:293,1,60.0000022888184,0|2,0:0|0:0,0:0:0:0:
118,344,15270,5,0,0:0:0:0:
118,344,15420,1,2,0:0:0:0:
180,278,15570,2,0,P|155:261|126:252,1,60.0000022888184,0|2,0:0|0:0,0:0:0:0:
268,299,15870,2,0,P|270:269|263:240,1,60.0000022888184,0|2,0:0|0:0,0:0:0:0:
341,351,16170,2,0,P|319:371|292:384,1,60.0000022888184,6|2,0:0|0:0,0:0:0:0:
350,267,16470,6,0,P|404:291|463:289,2,120.000004577637,4|0|4,0:0|0:0|0:0,0:0:0:0:
384,194,17220,1,0,0:0:0:0:
384,194,17295,1,0,0:0:0:0:
384,194,17370,2,0,L|390:134,1,60.0000022888184,0|0,0:0|0:0,0:0:0:0:
289,64,17670,6,0,L|295:123,1,60.0000022888184,4|0,0:0|0:0,0:0:0:0:
295,123,17894,1,0,0:0:0:0:
295,123,17970,1,0,0:0:0:0:
288,232,18120,1,0,0:0:0:0:
206,168,18270,1,4,0:0:0:0:
384,194,18570,1,14,0:0:0:0:
273,335,18870,6,0,L|214:320,1,60.0000022888184,4|0,0:0|0:0,0:0:0:0:
214,320,19095,1,0,0:0:0:0:
214,320,19170,2,0,L|155:305,1,60.0000022888184,0|2,0:0|0:0,0:0:0:0:
214,226,19470,6,0,L|155:211,1,60.0000022888184,0|0,0:0|0:0,0:0:0:0:
155,211,19695,1,0,0:0:0:0:
155,211,19770,2,0,L|96:196,1,60.0000022888184,0|2,0:0|0:0,0:0:0:0:
13,112,20070,5,4,0:0:0:0:
13,112,20220,1,2,0:0:0:0:
77,59,20370,2,0,L|87:0,1,60.0000022888184,0|2,0:0|0:0,0:0:0:0:
141,111,20670,2,0,L|151:171,1,60.0000022888184,2|2,0:0|0:0,0:0:0:0:
214,0,20970,2,0,L|205:59,1,60.0000022888184,4|2,0:0|0:0,0:0:0:0:
283,169,21270,6,0,B|324:169|324:169|355:152|355:152|398:152,2,120.000004577637,4|0|4,0:0|0:0|0:0,0:0:0:0:
221,241,22020,1,0,0:0:0:0:
221,241,22095,1,0,0:0:0:0:
221,241,22170,2,0,B|221:300,1,60.0000022888184,0|0,0:0|0:0,0:0:0:0:
284,357,22470,6,0,P|312:346|342:346,1,60.0000022888184,6|0,0:0|0:0,0:0:0:0:
176,369,22770,2,0,P|146:368|117:358,1,60.0000022888184,6|0,0:0|0:0,0:0:0:0:
61,281,23070,2,0,L|65:251,3,30.0000011444092,4|0|0|0,0:2|0:0|0:0|0:0,0:0:0:0:
74,220,23370,2,0,L|78:190,3,30.0000011444092,6|2|2|2,0:0|0:0|0:0|0:0,0:0:0:0:
88,159,23670,6,0,L|85:79,1,80
84,67,23895,1,0,0:0:0:0:
83,55,23970,1,8,0:0:0:0:
0,126,24120,1,0,0:0:0:0:
176,192,24270,6,0,L|173:112,1,80,0|0,0:0|0:0,0:0:0:0:
172,100,24495,1,0,0:0:0:0:
171,88,24570,1,8,0:0:0:0:
88,159,24720,1,0,0:0:0:0:
241,247,24870,6,0,P|277:232|317:231,1,80,0|0,0:0|0:0,0:0:0:0:
329,233,25095,1,0,0:0:0:0:
340,236,25170,2,0,P|375:253|401:283,1,80,8|0,0:0|0:0,0:0:0:0:
490,343,25470,6,0,P|505:307|506:267,1,80,0|0,0:0|0:0,0:0:0:0:
504,255,25695,1,0,0:0:0:0:
501,244,25770,1,8,0:0:0:0:
453,182,25920,1,8,0:0:0:0:
316,231,26070,6,0,P|257:235|205:208,1,120,0|0,0:0|0:0,0:0:0:0:
198,198,26370,2,0,L|207:118,1,80,8|8,0:0|0:0,0:0:0:0:
295,29,26670,2,0,L|304:108,1,80,0|8,0:0|0:0,0:0:0:0:
305,109,26895,1,0,0:0:0:0:
305,109,26970,1,8,0:0:0:0:
202,21,27120,1,8,0:0:0:0:
92,75,27270,6,0,P|76:111|76:151,1,80,0|8,0:0|0:0,0:0:0:0:
76,151,27495,1,8,0:0:0:0:
76,151,27570,1,0,0:0:0:0:
138,244,27720,1,8,0:0:0:0:
11,300,27870,2,0,B|52:287|86:313|86:313|121:338|162:326,1,160,0|10,0:0|0:0,0:0:0:0:
257,280,28320,1,10,0:0:0:0:
218,181,28470,6,0,L|223:101,1,80,0|0,0:0|0:0,0:0:0:0:
225,89,28695,1,0,0:0:0:0:
226,77,28770,1,8,0:0:0:0:
307,141,28920,1,0,0:0:0:0:
257,280,29070,6,0,L|262:359,1,80,0|0,0:0|0:0,0:0:0:0:
265,372,29295,1,0,0:0:0:0:
266,384,29370,1,8,0:0:0:0:
347,320,29520,1,0,0:0:0:0:
466,383,29670,6,0,P|457:345|460:305,1,80,0|0,0:0|0:0,0:0:0:0:
464,294,29895,1,0,0:0:0:0:
468,282,29970,2,0,P|482:244|507:214,1,80,8|0,0:0|0:0,0:0:0:0:
347,320,30270,6,0,P|356:281|353:241,1,80,0|0,0:0|0:0,0:0:0:0:
349,230,30495,1,0,0:0:0:0:
345,218,30570,1,8,0:0:0:0:
305,150,30720,1,8,0:0:0:0:
459,108,30870,6,0,P|465:166|433:215,1,120,0|0,0:0|0:0,0:0:0:0:
424,224,31170,2,0,L|344:217,1,80,8|8,0:0|0:0,0:0:0:0:
224,137,31470,2,0,L|144:143,1,80,0|8,0:0|0:0,0:0:0:0:
132,145,31695,1,0,0:0:0:0:
120,146,31770,1,8,0:0:0:0:
177,61,31920,1,8,0:0:0:0:
191,224,32070,6,0,B|201:263|201:263|187:300,1,80,0|0,0:0|0:0,0:0:0:0:
184,312,32295,2,0,B|145:302|145:302|107:315,1,80,0|0,0:0|0:0,0:0:0:0:
98,321,32520,1,0,0:0:0:0:
16,276,32670,1,0,0:0:0:0:
16,276,32820,1,0,0:0:0:0:
68,198,32970,2,0,L|64:158,4,40,2|2|2|2|4,0:0|0:0|0:0|0:0|0:0,0:0:0:0:
146,257,33420,5,8,0:0:0:0:
146,256,33570,2,0,P|181:239|221:240,2,80,8|0|8,0:0|0:0|0:0,0:0:0:0:
68,198,34020,1,2,0:0:0:0:
69,182,34095,1,2,0:0:0:0:
70,166,34170,1,2,0:0:0:0:
72,150,34245,1,2,0:0:0:0:
73,134,34320,1,2,0:0:0:0:
163,18,34470,6,0,L|168:97,1,80,8|0,0:0|0:0,0:0:0:0:
216,160,34770,2,0,L|221:239,1,80,0|8,0:0|0:0,0:0:0:0:
250,91,35070,6,0,L|244:11,1,80,2|2,0:0|0:0,0:0:0:0:
297,153,35370,2,0,L|303:233,1,80,2|8,0:0|0:0,0:0:0:0:
381,307,35670,5,2,0:0:0:0:
381,306,35745,2,0,P|413:284|452:277,1,80,2|2,0:0|0:0,0:0:0:0:
452,277,35970,2,0,P|456:317|445:355,1,80,2|8,0:0|0:0,0:0:0:0:
307,357,36270,5,2,0:0:0:0:
307,357,36345,2,0,L|228:343,1,80,2|2,0:0|0:0,0:0:0:0:
228,343,36570,2,0,L|219:264,1,80,2|0,0:0|0:0,0:0:0:0:
132,199,36870,5,8,0:0:0:0:
109,198,36945,1,0,0:0:0:0:
86,205,37020,1,2,0:0:0:0:
67,219,37095,1,2,0:0:0:0:
55,240,37170,2,0,L|57:280,3,40,8|0|0|0,0:0|0:0|0:0|0:0,0:0:0:0:
64,303,37470,2,0,L|61:342,3,40,2|2|2|2,0:0|0:0|0:0|0:0,0:0:0:0:
54,366,37770,1,2,0:0:0:0:
138,343,37920,1,2,0:0:0:0:
252,381,38070,6,0,L|331:372,1,80,8|2,0:0|0:0,0:0:0:0:
418,333,38370,1,2,0:0:0:0:
431,314,38445,1,2,0:0:0:0:
438,291,38520,1,0,0:0:0:0:
438,267,38595,1,2,0:0:0:0:
430,245,38670,2,0,P|426:225|426:205,3,40,8|2|0|2,0:0|0:0|0:0|0:0,0:0:0:0:
430,181,38970,1,2,0:0:0:0:
337,190,39120,1,8,0:0:0:0:
244,199,39270,6,0,L|164:206,1,80,8|2,0:0|0:0,0:0:0:0:
96,266,39570,1,2,0:0:0:0:
94,289,39645,1,0,0:0:0:0:
102,312,39720,1,2,0:0:0:0:
119,328,39795,1,2,0:0:0:0:
141,336,39870,2,0,L|181:331,3,40,8|2|2|0,0:0|0:0|0:0|0:0,0:0:0:0:
202,342,40170,2,0,L|241:337,3,40,2|2|0|2,0:0|0:0|0:0|0:0,0:0:0:0:
264,343,40470,5,8,0:0:0:0:
326,281,40620,2,0,L|320:241,2,40,0|0|10,0:0|0:0|0:0,0:0:0:0:
399,339,40920,1,0,0:0:0:0:
493,252,41070,2,0,L|499:212,3,40,10|0|2|0,0:0|0:0|0:0|0:0,0:0:0:0:
487,191,41370,2,0,L|481:151,3,40,10|0|2|2,0:0|0:0|0:0|0:0,0:0:0:0:
463,134,41670,5,10,0:0:0:0:
387,188,41820,1,2,0:0:0:0:
387,188,41895,1,2,0:0:0:0:
387,188,41970,1,2,0:0:0:0:
317,123,42120,1,8,0:0:0:0:
243,192,42270,2,0,L|252:271,1,80,0|8,0:0|0:0,0:0:0:0:
180,123,42570,1,2,0:0:0:0:
182,103,42645,1,0,0:0:0:0:
184,83,42720,1,2,0:0:0:0:
186,63,42795,1,0,0:0:0:0:
189,43,42870,6,0,P|227:33|266:42,1,80,4|8,0:0|0:0,0:0:0:0:
351,106,43170,1,0,0:0:0:0:
351,106,43245,1,0,0:0:0:0:
351,106,43320,1,8,0:0:0:0:
427,38,43470,1,8,0:0:0:0:
427,38,43545,1,0,0:0:0:0:
427,38,43620,1,8,0:0:0:0:
487,110,43770,2,0,L|480:189,1,80,0|8,0:0|0:0,0:0:0:0:
420,296,44070,6,0,P|346:265|267:266,1,160,0|0,0:0|0:0,0:0:0:0:
256,271,44445,1,0,0:0:0:0:
245,276,44520,1,8,0:0:0:0:
172,200,44670,2,0,P|186:163|187:123,1,80,8|0,0:0|0:0,0:0:0:0:
185,112,44895,1,0,0:0:0:0:
181,100,44970,1,8,0:0:0:0:
250,39,45120,5,8,0:0:0:0:
250,39,45195,1,0,0:0:0:0:
250,39,45270,2,0,P|329:42|402:12,1,160,0|0,0:0|0:0,0:0:0:0:
510,58,45720,1,8,0:0:0:0:
423,118,45870,2,0,L|383:110,2,40,8|0|0,0:0|0:0|0:0,0:0:0:0:
510,187,46170,1,0,0:0:0:0:
510,187,46245,1,0,0:0:0:0:
510,187,46320,1,8,0:0:0:0:
419,272,46470,6,0,P|413:311|423:349,1,80,4|8,0:0|0:0,0:0:0:70:normal-sliderslide.wav
331,241,46770,2,0,P|340:202|334:163,1,80,4|8,0:0|0:0,0:0:0:0:
268,294,47070,2,0,L|189:280,1,80,4|8,0:0|0:0,0:0:0:0:
169,298,47295,2,0,L|90:284,1,80,0|0,0:0|0:0,0:0:0:0:
63,295,47520,1,8,0:0:0:0:
0,191,47670,6,0,B|10:127|10:127|33:106|33:106|44:42,1,160,0|0,0:0|0:0,0:0:0:0:
118,111,48120,1,8,0:0:0:0:
195,39,48270,2,0,L|188:0,2,40,8|0|8,0:0|0:0|0:0,0:0:0:0:
267,124,48570,2,0,L|260:163,2,40,0|0|8,0:0|0:0|0:0,0:0:0:0:
349,45,48870,6,0,P|426:40|487:89,1,160,0|0,0:0|0:0,0:0:0:0:
393,143,49320,1,8,0:0:0:0:
462,226,49470,2,0,P|471:264|465:303,1,80,8|0,0:0|0:0,0:0:0:0:
334,308,49770,2,0,P|324:269|330:230,1,80,8|0,0:0|0:0,0:0:0:0:
393,143,50070,6,0,L|471:130,1,80,8|0,0:0|0:0,0:0:0:0:
428,32,50370,2,0,L|349:44,1,80,8|0,0:0|0:0,0:0:0:0:
303,143,50670,2,0,L|224:130,1,80,8|8,0:0|0:0,0:0:0:0:
270,32,50970,2,0,L|348:44,1,80,0|8,0:0|0:0,0:0:0:0:
471,130,51270,6,0,B|480:171|451:203|451:203|423:236|431:278,1,160,2|2,0:0|0:0,0:0:0:0:
511,259,51720,1,2,0:0:0:0:
448,364,51870,1,0,0:0:0:0:
448,364,52020,1,0,0:0:0:0:
348,275,52170,1,0,0:0:0:0:
327,266,52245,1,0,0:0:0:0:
303,262,52320,1,0,0:0:0:0:
279,266,52395,1,0,0:0:0:0:
258,277,52470,6,0,P|181:285|130:228,1,160,4|0,0:0|0:0,0:0:0:0:
138,126,52920,1,8,0:0:0:0:
56,174,53070,2,0,L|17:183,2,40,8|0|8,0:0|0:0|0:0,0:0:0:0:
149,121,53370,2,0,L|187:130,2,40,0|0|8,0:0|0:0|0:0,0:0:0:0:
54,77,53670,6,0,P|59:38|53:0,1,80,0|0,0:0|0:0,0:0:0:0:
165,115,53970,2,0,P|204:119|242:106,1,80,0|8,0:0|0:0,0:0:0:0:
337,25,54270,2,0,P|395:76|473:73,1,160,8|8,0:0|0:0,0:0:0:0:
395,164,54720,5,8,0:0:0:0:
395,164,54795,1,0,0:0:0:0:
395,164,54870,2,0,P|388:203|399:241,1,80,0|8,0:0|0:0,0:0:0:0:
465,322,55170,2,0,L|504:314,2,40,0|0|8,0:0|0:0|0:0,0:0:0:0:
380,381,55470,1,8,0:0:0:0:
360,377,55545,1,0,0:0:0:0:
340,373,55620,1,8,0:0:0:0:
280,291,55770,2,0,L|319:283,2,40,0|0|8,0:0|0:0|0:0,0:0:0:0:
198,355,56070,6,0,P|161:341|122:342,1,80,4|8,0:0|0:0,0:0:0:70:normal-sliderslide.wav
36,258,56370,2,0,P|75:259|112:245,1,80,4|8,0:0|0:0,0:0:0:0:
189,175,56670,2,0,L|185:95,1,80,4|0,0:0|0:0,0:0:0:0:
201,77,56895,2,0,L|280:73,1,80,0|0,0:0|0:0,0:0:0:0:
300,87,57120,1,8,0:0:0:0:
390,3,57270,6,0,P|463:26|482:100,1,160,0|0,0:0|0:0,0:0:0:0:
421,187,57720,1,8,0:0:0:0:
491,277,57870,2,0,L|486:316,2,40,0|0|8,0:0|0:0|0:0,0:0:0:0:
413,178,58170,2,0,L|408:138,2,40,0|0|8,0:0|0:0|0:0,0:0:0:0:
325,248,58470,6,0,B|284:260|250:234|250:234|215:209|174:221,1,160,0|0,0:0|0:0,0:0:0:0:
84,270,58920,2,0,P|140:218|129:142,1,160,8|8,0:0|0:0,0:0:0:0:
35,77,59370,2,0,L|42:156,1,80,0|8,0:0|0:0,0:0:0:0:
126,39,59670,6,0,P|202:23|272:59,1,160,0|0,0:0|0:0,0:0:0:0:
331,147,60120,1,8,0:0:0:0:
331,147,60195,1,0,0:0:0:0:
331,147,60270,2,0,P|335:186|328:225,1,80,8|8,0:0|0:0,0:0:0:0:
259,298,60570,1,0,0:0:0:0:
247,296,60645,1,0,0:0:0:0:
235,294,60720,1,8,0:0:0:0:
223,292,60795,1,0,0:0:0:0:
210,289,60870,6,0,P|152:295|109:336,2,120,4|0|4,0:0|0:0|0:0,0:0:0:0:
307,359,61470,2,0,L|303:239,2,120,4|0|4,0:0|0:0|0:0,0:0:0:0:
394,297,62070,6,0,P|436:290|469:262,1,88.000002685547,4|0,0:0|0:0,0:0:0:0:
477,251,62295,1,0,0:0:0:0:
483,239,62370,1,8,0:0:0:0:
502,141,62520,1,0,0:0:0:0:
398,205,62670,6,0,P|414:164|405:122,1,88.000002685547,0|0,0:0|0:0,0:0:0:0:
399,110,62895,1,0,0:0:0:0:
392,98,62970,1,8,0:0:0:0:
311,31,63120,1,0,0:0:0:0:
229,95,63270,6,0,L|142:81,1,88.000002685547,0|0,0:0|0:0,0:0:0:0:
126,89,63495,1,0,0:0:0:0:
110,97,63570,2,0,L|23:83,1,88.000002685547,8|0,0:0|0:0,0:0:0:0:
22,200,63870,6,0,L|108:186,1,88.000002685547,0|0,0:0|0:0,0:0:0:0:
125,194,64095,1,0,0:0:0:0:
141,202,64170,2,0,L|227:188,1,88.000002685547,8|8,0:0|0:0,0:0:0:0:
244,196,64395,1,0,0:0:0:0:
259,203,64470,6,0,P|270:244|260:287,1,88.000002685547
358,352,64770,2,0,P|347:309|359:267,1,88.000002685547,8|8,0:0|0:0,0:0:0:0:
434,197,65070,1,0,0:0:0:0:
434,197,65220,2,0,L|477:204,2,44.0000013427735,8|0|8,0:0|0:0|0:0,0:0:0:0:
346,136,65520,1,8,0:0:0:0:
425,72,65670,5,0,0:0:0:0:
425,72,65820,2,0,L|468:64,2,44.0000013427735,8|8|0,0:0|0:0|0:0,0:0:0:0:
346,136,66120,1,8,0:0:0:0:
260,65,66270,2,0,P|216:62|174:73,1,88.000002685547,0|0,0:0|0:0,0:0:0:0:
199,234,66570,2,0,P|242:236|284:225,1,88.000002685547,10|10,0:0|0:0,0:0:0:0:
132,163,66870,6,0,L|45:169,1,88.000002685547,0|0,0:0|0:0,0:0:0:0:
27,172,67095,1,0,0:0:0:0:
9,174,67170,1,8,0:0:0:0:
91,253,67320,1,0,0:0:0:0:
174,74,67470,6,0,L|86:80,1,88.000002685547,0|0,0:0|0:0,0:0:0:0:
68,82,67695,1,0,0:0:0:0:
50,84,67770,1,8,0:0:0:0:
132,163,67920,1,0,0:0:0:0:
274,34,68070,6,0,P|317:31|359:45,1,88.000002685547,0|0,0:0|0:0,0:0:0:0:
375,39,68295,1,0,0:0:0:0:
391,33,68370,2,0,P|432:19|476:21,1,88.000002685547,8|0,0:0|0:0,0:0:0:0:
448,120,68670,2,0,P|436:162|442:205,1,88.000002685547,0|0,0:0|0:0,0:0:0:0:
451,220,68895,1,0,0:0:0:0:
460,234,68970,2,0,P|465:277|454:319,1,88.000002685547,8|8,0:0|0:0,0:0:0:0:
361,384,69270,6,0,B|302:377|302:377|259:342|259:342|198:337,2,176.000005371094,0|8|0,0:0|0:0|0:0,0:0:0:0:
453,319,70020,1,8,0:0:0:0:
453,319,70095,1,0,0:0:0:0:
453,319,70170,2,0,L|449:231,1,88.000002685547,8|8,0:0|0:0,0:0:0:0:
473,130,70470,6,0,P|429:128|389:146,1,88.000002685547,0|0,0:0|0:0,0:0:0:0:
375,157,70695,2,0,P|333:143|302:112,1,88.000002685547,0|0,0:0|0:0,0:0:0:0:
292,98,70920,1,0,0:0:0:0:
203,147,71070,1,0,0:0:0:0:
203,147,71220,1,0,0:0:0:0:
142,53,71370,2,0,L|92:58,4,44.0000013427735,2|2|2|2|4,0:0|0:0|0:0|0:0|0:0,0:0:0:0:
142,53,81270,6,0,P|128:170|11:181,1,256,8|8,0:0|0:0,0:0:0:0:
16,206,83070,1,0,0:0:0:0:
21,230,83670,2,0,L|17:245,2,16,8|0|0,0:0|0:0|0:0,0:0:0:0:
21,229,84870,6,0,P|51:219|83:214,2,64,8|0|8,0:0|0:0|0:0,0:0:0:0:
1,301,85620,2,0,L|5:332,2,32,0|0|0,0:0|0:0|0:0,0:0:0:0:
21,228,86070,2,0,P|35:165|27:102,1,128,0|0,0:0|0:0,0:0:0:0:
27,103,87270,1,0,0:0:0:0:
35,111,88320,5,0,0:0:0:0:
35,111,88395,1,0,0:0:0:0:
35,110,88470,2,0,P|157:118|216:226,1,256,0|2,0:0|0:0,0:0:0:0:
285,303,89970,1,2,0:0:0:0:
361,234,90270,1,2,0:0:0:0:
292,158,90570,1,2,0:0:0:0:
216,227,90870,5,0,0:0:0:0:
188,239,90945,1,0,0:0:0:0:
157,236,91020,1,0,0:0:0:0:
133,217,91095,1,0,0:0:0:0:
121,189,91170,2,0,L|158:167,2,44.0000013427735,8|0|0,0:0|0:0|0:0,0:0:0:0:
42,245,91470,6,0,P|38:288|54:329,1,88.000002685547,0|0,0:0|0:0,0:0:0:0:
143,382,91770,1,8,0:0:0:0:
143,382,91845,1,0,0:0:0:0:
143,382,91920,1,0,0:0:0:0:
236,319,92070,5,0,0:0:0:0:
264,307,92145,1,0,0:0:0:0:
295,306,92220,1,0,0:0:0:0:
324,314,92295,1,0,0:0:0:0:
350,331,92370,2,0,L|360:373,2,44.0000013427735,8|0|0,0:0|0:0|0:0,0:0:0:0:
440,266,92670,6,0,L|482:275,2,44.0000013427735,2|2|2,0:0|0:0|0:0,0:0:0:0:
358,191,92970,2,0,L|315:200,2,44.0000013427735,2|2|2,0:0|0:0|0:0,0:0:0:0:
437,123,93270,5,0,0:0:0:0:
433,93,93345,1,0,0:0:0:0:
416,68,93420,1,0,0:0:0:0:
389,55,93495,1,0,0:0:0:0:
358,57,93570,2,0,L|315:66,2,44.0000013427735,8|0|0,0:0|0:0|0:0,0:0:0:0:
255,133,93870,6,0,L|169:112,1,88.000002685547,0|0,0:0|0:0,0:0:0:0:
98,46,94170,1,8,0:0:0:0:
98,46,94245,1,0,0:0:0:0:
98,46,94320,1,0,0:0:0:0:
21,128,94470,5,0,0:0:0:0:
23,158,94545,1,0,0:0:0:0:
25,189,94620,1,0,0:0:0:0:
27,220,94695,1,0,0:0:0:0:
30,250,94770,2,0,L|32:293,2,44.0000013427735,8|0|0,0:0|0:0|0:0,0:0:0:0:
136,182,95070,2,0,L|138:138,2,44.0000013427735,0|0|0,0:0|0:0|0:0,0:0:0:0:
206,254,95370,5,2,0:0:0:0:
241,250,95445,1,2,0:0:0:0:
276,246,95520,1,2,0:0:0:0:
311,242,95595,1,2,0:0:0:0:
346,238,95670,6,0,L|336:194,3,44.0000013427735,0|0|0|0,0:0|0:0|0:0|0:0,0:0:0:0:
327,170,95970,2,0,L|317:126,2,44.0000013427735,8|0|0,0:0|0:0|0:0,0:0:0:0:
378,72,96270,6,0,P|421:70|458:92,1,88.000002685547,0|0,0:0|0:0,0:0:0:0:
512,174,96570,1,8,0:0:0:0:
512,174,96645,1,0,0:0:0:0:
512,174,96720,1,0,0:0:0:0:
440,248,96870,5,0,0:0:0:0:
426,276,96945,1,0,0:0:0:0:
421,306,97020,1,0,0:0:0:0:
427,337,97095,1,0,0:0:0:0:
441,364,97170,2,0,L|484:371,2,44.0000013427735,8|0|0,0:0|0:0|0:0,0:0:0:0:
338,337,97470,6,0,P|295:335|256:353,1,88.000002685547,2|2,0:0|0:0,0:0:0:0:
183,292,97770,2,0,L|140:303,2,44.0000013427735,8|0|2,0:0|0:0|0:0,0:0:0:0:
255,213,98070,5,0,0:0:0:0:
255,213,98220,1,0,0:0:0:0:
343,253,98370,2,0,L|386:248,2,44.0000013427735,0|0|0,0:0|0:0|0:0,0:0:0:0:
238,129,98670,5,0,0:0:0:0:
238,129,98820,1,0,0:0:0:0:
326,169,98970,2,0,L|369:164,2,44.0000013427735,0|0|0,0:0|0:0|0:0,0:0:0:0:
220,45,99270,6,0,P|165:76|152:139,2,132.00000402832,2|2|2,0:0|0:0|0:0,0:0:0:0:
311,6,99870,2,0,P|357:52|422:59,2,132.00000402832,2|2|2,0:0|0:0|0:0,0:0:0:0:
284,102,100470,1,4,0:0:0:0:
154,28,100770,6,0,L|166:123,1,95.9999970703126,0|0,0:0|0:0,0:0:0:0:
169,142,100995,1,0,0:0:0:0:
172,160,101070,1,8,0:0:0:0:
284,102,101220,1,0,0:0:0:0:
366,194,101370,6,0,L|353:289,1,95.9999970703126,0|0,0:0|0:0,0:0:0:0:
351,308,101595,1,0,0:0:0:0:
348,326,101670,1,8,0:0:0:0:
236,268,101820,1,0,0:0:0:0:
133,346,101970,6,0,P|86:351|40:338,1,95.9999970703126,0|0,0:0|0:0,0:0:0:0:
49,204,102270,2,0,P|96:198|142:211,1,95.9999970703126,8|0,0:0|0:0,0:0:0:0:
235,267,102570,2,0,P|281:280|329:275,1,95.9999970703126,0|0,0:0|0:0,0:0:0:0:
337,139,102870,2,0,P|291:126|244:132,1,95.9999970703126,12|8,0:0|0:0,0:0:0:0:
392,211,103170,6,0,L|383:67,1,143.999995605469,0|0,0:0|0:0,0:0:0:0:
381,48,103470,2,0,P|421:72|469:77,1,95.9999970703126,8|8,0:0|0:0,0:0:0:0:
309,2,103770,1,0,0:0:0:0:
236,99,103920,1,8,0:0:0:0:
236,99,103995,1,0,0:0:0:0:
236,99,104070,2,0,L|241:194,1,95.9999970703126,8|8,0:0|0:0,0:0:0:0:
60,78,104370,5,0,0:0:0:0:
133,175,104520,1,8,0:0:0:0:
133,175,104595,1,8,0:0:0:0:
133,175,104670,2,0,L|127:270,1,95.9999970703126,0|8,0:0|0:0,0:0:0:0:
4,357,104970,2,0,P|25:315|25:267,1,95.9999970703126,0|0,0:0|0:0,0:0:0:0:
225,277,105270,2,0,P|219:325|236:370,1,95.9999970703126,10|10,0:0|0:0,0:0:0:0:
399,237,105570,6,0,L|304:223,1,95.9999970703126,0|0,0:0|0:0,0:0:0:0:
290,209,105795,1,0,0:0:0:0:
276,195,105870,1,8,0:0:0:0:
338,311,106020,1,0,0:0:0:0:
460,163,106170,6,0,L|365:149,1,95.9999970703126,0|0,0:0|0:0,0:0:0:0:
351,135,106395,1,0,0:0:0:0:
337,121,106470,1,8,0:0:0:0:
399,237,106620,1,0,0:0:0:0:
511,92,106770,6,0,P|522:45|510:0,1,95.9999970703126,0|0,0:0|0:0,0:0:0:0:
338,28,107070,2,0,P|326:74|336:120,1,95.9999970703126,8|0,0:0|0:0,0:0:0:0:
399,237,107370,2,0,L|494:223,1,95.9999970703126,0|0,0:0|0:0,0:0:0:0:
362,325,107670,2,0,L|266:311,1,95.9999970703126,8|8,0:0|0:0,0:0:0:0:
169,243,107970,6,0,B|132:234|103:261|103:261|73:286|35:279,1,143.999995605469,0|0,0:0|0:0,0:0:0:0:
16,271,108270,2,0,P|1:227|9:180,1,95.9999970703126,8|8,0:0|0:0,0:0:0:0:
156,318,108570,1,0,0:0:0:0:
249,216,108720,1,8,0:0:0:0:
249,216,108795,1,0,0:0:0:0:
249,216,108870,2,0,L|244:120,1,95.9999970703126,8|8,0:0|0:0,0:0:0:0:
337,37,109170,6,0,B|382:32|382:32|427:58|427:58|473:53,2,143.999995605469,4|4|4,0:0|0:0|0:0,0:0:0:0:
244,120,109770,1,10,0:0:0:0:
210,125,109845,1,2,0:0:0:0:
178,116,109920,1,10,0:0:0:0:
154,94,109995,1,2,0:0:0:0:
142,62,110070,2,0,L|94:68,3,47.9999985351563,8|0|8|0,0:0|0:0|0:0|0:0,0:0:0:0:
76,86,110370,6,0,L|88:181,1,95.9999970703126,0|0,0:0|0:0,0:0:0:0:
92,199,110595,1,0,0:0:0:0:
96,217,110670,1,8,0:0:0:0:
0,150,110820,1,0,0:0:0:0:
172,153,110970,6,0,L|184:248,1,95.9999970703126,0|0,0:0|0:0,0:0:0:0:
188,266,111195,1,0,0:0:0:0:
192,284,111270,1,8,0:0:0:0:
96,217,111420,1,0,0:0:0:0:
262,191,111570,6,0,P|309:195|350:219,1,95.9999970703126,0|0,0:0|0:0,0:0:0:0:
328,57,111870,2,0,P|287:81|239:84,1,95.9999970703126,8|0,0:0|0:0,0:0:0:0:
390,133,112170,2,0,L|485:120,1,95.9999970703126,0|0,0:0|0:0,0:0:0:0:
489,305,112470,2,0,L|393:292,1,95.9999970703126,8|8,0:0|0:0,0:0:0:0:
262,191,112770,6,0,P|313:237|309:307,1,143.999995605469,0|0,0:0|0:0,0:0:0:0:
297,322,113070,2,0,L|203:301,1,95.9999970703126,8|8,0:0|0:0,0:0:0:0:
103,209,113370,1,0,0:0:0:0:
33,285,113520,1,8,0:0:0:0:
33,285,113595,1,0,0:0:0:0:
33,285,113670,2,0,L|41:380,1,95.9999970703126,8|8,0:0|0:0,0:0:0:0:
203,301,113970,5,0,0:0:0:0:
133,225,114120,1,8,0:0:0:0:
133,225,114195,1,8,0:0:0:0:
133,225,114270,2,0,L|141:129,1,95.9999970703126,0|8,0:0|0:0,0:0:0:0:
228,53,114570,2,0,P|252:95|256:142,1,95.9999970703126,0|0,0:0|0:0,0:0:0:0:
25,122,114871,2,0,P|37:76|67:40,1,95.9999970703126,10|10,0:0|0:0,0:0:0:0:
217,221,115170,6,0,P|263:231|308:216,1,95.9999970703126,0|0,0:0|0:0,0:0:0:0:
323,204,115395,1,0,0:0:0:0:
336,190,115470,1,8,0:0:0:0:
256,142,115620,1,0,0:0:0:0:
385,264,115770,6,0,P|416:228|426:182,1,95.9999970703126,0|0,0:0|0:0,0:0:0:0:
423,163,115995,1,0,0:0:0:0:
417,145,116070,1,8,0:0:0:0:
336,190,116220,1,0,0:0:0:0:
369,364,116370,6,0,L|462:341,1,95.9999970703126,0|0,0:0|0:0,0:0:0:0:
291,286,116670,2,0,L|384:263,1,95.9999970703126,8|0,0:0|0:0,0:0:0:0:
213,364,116970,2,0,L|119:341,1,95.9999970703126,0|0,0:0|0:0,0:0:0:0:
291,286,117270,2,0,L|197:263,1,95.9999970703126,8|8,0:0|0:0,0:0:0:0:
62,143,117570,6,0,B|98:134|127:161|127:161|157:186|195:179,1,143.999995605469,0|0,0:0|0:0,0:0:0:0:
214,173,117870,2,0,P|260:164|305:180,1,95.9999970703126,8|8,0:0|0:0,0:0:0:0:
437,285,118170,1,0,0:0:0:0:
343,346,118320,1,8,0:0:0:0:
343,346,118395,1,0,0:0:0:0:
343,346,118470,2,0,L|355:250,1,95.9999970703126,8|8,0:0|0:0,0:0:0:0:
459,152,118770,6,0,B|412:183|412:183|326:164,2,143.999995605469,4|4|4,0:0|0:0|0:0,0:0:0:0:
501,247,119370,2,0,L|494:294,3,47.9999985351563,0|0|0|0,0:0|0:0|0:0|0:0,0:0:0:0:
473,319,119670,5,0,0:0:0:0:
435,346,119745,1,0,0:0:0:0:
388,357,119820,1,0,0:0:0:0:
341,348,119895,1,0,0:0:0:0:
302,321,119970,5,8,0:0:0:0:
256,222,120120,2,0,L|264:174,2,47.9999985351563,0|0|0,0:0|0:0|0:0,0:0:0:0:
206,335,120420,5,8,0:0:0:0:
159,235,120570,2,0,L|167:187,2,47.9999985351563,0|0|0,0:0|0:0|0:0,0:0:0:0:
109,348,120870,5,8,0:0:0:0:
109,348,120945,1,8,0:0:0:0:
108,348,121020,2,0,P|62:353|20:331,1,95.9999970703126,8|0,0:0|0:0,0:0:0:0:
256,192,121470,5,4,0:0:0:0:
256,192,121545,12,4,122670,0:0:0:0:
256,192,122745,12,0,125070,0:0:0:0:
