osu file format v14

[General]
AudioFilename: audio.mp3
AudioLeadIn: 0
PreviewTime: 100770
Countdown: 0
SampleSet: Soft
StackLeniency: 0.7
Mode: 0
LetterboxInBreaks: 0
WidescreenStoryboard: 1

[Editor]
Bookmarks: 71670
DistanceSpacing: 1
BeatDivisor: 2
GridSize: 8
TimelineZoom: 1.1

[Metadata]
Title:Garyou Tensei
TitleUnicode:Garyou Tensei
Artist:xi
ArtistUnicode:xi
Creator:Sulfur
Version:Easy
Source:
Tags:su1fu7 realazy rvmathew eiri- ayyri kiddly leader
BeatmapID:1932488
BeatmapSetID:884992

[Difficulty]
HPDrainRate:3
CircleSize:3
OverallDifficulty:4
ApproachRate:4
SliderMultiplier:0.849999999999999
SliderTickRate:1

[Events]
//Background and Video events
0,0,"bg.jpg",0,0
//Break Periods
2,72870,79950
2,81470,88350
//Storyboard Layer 0 (Background)
//Storyboard Layer 1 (Fail)
//Storyboard Layer 2 (Pass)
//Storyboard Layer 3 (Foreground)
//Storyboard Sound Samples

[TimingPoints]
2550,315.789473684211,4,2,1,60,1,0
2550,-100,4,2,1,60,0,0
7602,333.333333333333,4,2,1,60,1,0
10272,352.941176470588,4,2,1,60,1,0
11683,340.909090909091,4,2,1,60,1,0
14070,300,4,2,1,70,1,0
14070,-100,4,2,1,70,0,0
18421,-100,4,2,1,90,0,0
18871,-100,4,2,1,70,0,0
23071,-100,4,1,1,60,0,0
23371,-100,4,2,1,70,0,0
23662,-100,4,1,1,60,0,0
26295,-100,4,1,1,40,0,0
26370,-100,4,1,1,60,0,0
28020,-100,4,2,1,70,0,0
28470,-100,4,1,1,60,0,0
31095,-100,4,1,1,40,0,0
31170,-100,4,1,1,60,0,0
32970,-100,4,2,1,70,0,0
33570,-100,4,2,1,70,0,1
42870,-100,4,2,1,70,0,0
46470,-100,4,2,2,70,0,0
47370,-100,4,2,1,70,0,0
51420,-100,4,2,1,55,0,0
51570,-100,4,2,1,50,0,0
51870,-100,4,1,1,30,0,0
52470,-100,4,2,1,70,0,0
53895,-100,4,2,1,40,0,0
53970,-100,4,2,1,70,0,0
56070,-100,4,2,2,70,0,0
56220,-100,4,2,1,70,0,0
56370,-100,4,2,2,70,0,0
56520,-100,4,2,1,70,0,0
57120,-100,4,2,1,70,0,0
60870,-100,4,1,1,60,0,0
61470,-100,4,1,1,75,0,0
62070,-100,4,1,1,60,0,0
64695,-100,4,1,1,40,0,0
64770,-100,4,1,1,60,0,0
66495,-100,4,2,1,40,0,0
66570,-100,4,2,1,70,0,0
66870,-100,4,1,1,60,0,0
69495,-100,4,1,1,40,0,0
69570,-100,4,1,1,60,0,0
71370,-100,4,2,1,70,0,0
89670,-100,4,2,1,70,0,0
90270,-100,4,2,1,70,0,0
90870,-100,4,2,1,70,0,1
98070,-100,4,1,1,60,0,1
99270,-100,4,2,0,50,0,1
99495,-100,4,2,0,55,0,1
99720,-100,4,2,0,60,0,1
99945,-100,4,2,0,65,0,1
100170,-100,4,2,0,70,0,1
100470,300,4,1,0,70,1,1
100770,300,4,1,1,60,1,0
100770,-100,4,1,1,60,0,0
103395,-100,4,1,1,40,0,0
103470,-100,4,1,1,60,0,0
105195,-100,4,2,1,40,0,0
105270,-100,4,2,1,80,0,0
105570,-100,4,1,1,60,0,0
108195,-100,4,1,1,40,0,0
108270,-100,4,1,1,60,0,0
109770,-100,4,2,1,80,0,0
110370,-100,4,1,1,60,0,0
112995,-100,4,1,1,40,0,0
113070,-100,4,1,1,60,0,0
114795,-100,4,2,1,40,0,0
114870,-100,4,2,1,80,0,0
115170,-100,4,1,1,60,0,0
117795,-100,4,1,1,40,0,0
117870,-100,4,1,1,60,0,0
119970,-100,4,2,1,50,0,0

[Colours]
Combo1 : 162,162,255
Combo2 : 213,68,68
Combo3 : 209,86,235
Combo4 : 255,155,106

[HitObjects]
256,192,7602,12,10,11683,0:0:0:0:
408,96,14070,6,0,B|376:112|376:112|327:105,1,84.9999999999999,4|0,0:0|0:0,0:0:0:0:
256,56,14670,2,0,B|224:40|224:40|175:46,1,84.9999999999999,0|0,0:0|0:0,0:0:0:0:
112,104,15270,1,0,0:0:0:0:
70,274,15870,1,0,0:0:0:0:
87,357,16170,1,6,0:0:0:0:
170,340,16470,5,4,0:0:0:0:
342,340,17070,1,4,0:0:0:0:
256,192,17670,2,0,B|253:160|253:160|243:136|243:136|238:81,2,84.9999999999999,4|0|4,0:0|0:0|0:0,0:0:0:0:
256,280,18570,1,14,0:0:0:0:
342,340,18870,6,0,P|380:324|400:287,1,84.9999999999999,4|0,0:0|0:0,0:0:0:0:
388,203,19470,2,0,P|397:162|430:137,1,84.9999999999999,0|0,0:0|0:0,0:0:0:0:
511,162,20070,1,4,0:0:0:0:
499,0,20670,1,2,0:0:0:0:
430,50,20970,1,4,0:0:0:0:
344,48,21270,5,4,0:0:0:0:
172,48,21870,1,4,0:0:0:0:
256,192,22470,1,6,0:0:0:0:
256,280,22770,1,6,0:0:0:0:
207,349,23070,2,0,L|122:356,1,84.9999999999999,4|6,0:2|0:0,0:0:0:0:
63,294,23670,6,0,P|50:247|76:203,1,84.9999999999999,0|8,0:0|0:0,0:0:0:0:
143,185,24270,2,0,P|156:145|143:106,1,84.9999999999999,0|8,0:0|0:0,0:0:0:0:
72,58,24870,2,0,B|22:44|22:44|5:15,2,84.9999999999999,0|8|0,0:0|0:0|0:0,0:0:0:0:
147,21,25770,1,8,0:0:0:0:
217,68,26070,5,0,0:0:0:0:
336,192,26670,1,0,0:0:0:0:
217,316,27270,2,0,L|132:323,2,84.9999999999999,0|0|0,0:0|0:0|0:0,0:0:0:0:
300,334,28170,1,10,0:0:0:0:
378,367,28470,6,0,P|419:362|450:334,1,84.9999999999999,0|8,0:0|0:0,0:0:0:0:
450,249,29070,2,0,P|419:220|377:216,1,84.9999999999999,0|8,0:0|0:0,0:0:0:0:
299,249,29670,2,0,L|214:242,2,84.9999999999999,0|8|0,0:0|0:0|0:0,0:0:0:0:
377,216,30570,1,8,0:0:0:0:
344,138,30870,5,0,0:0:0:0:
478,33,31470,1,0,0:0:0:0:
311,60,32070,2,0,P|278:85|259:137,1,84.9999999999999
256,209,32670,2,0,B|166:214|206:283|103:297,1,170,0|4,0:0|0:0,0:0:0:0:
31,288,33570,6,0,P|5:255|0:200,2,84.9999999999999,8|8|2,0:0|0:0|0:0,0:0:0:0:
116,294,34470,1,8,0:0:0:0:
170,370,34770,1,0,0:0:0:0:
263,370,35070,1,2,0:0:0:0:
317,294,35370,2,0,B|353:270|390:274|420:302|420:302|415:333|424:358|453:369,1,170,2|2,0:0|0:0,0:0:0:0:
512,320,36270,5,2,0:0:0:0:
477,240,36570,1,2,0:0:0:0:
397,190,36870,2,0,P|356:186|312:197,1,84.9999999999999,8|8,0:0|0:0,0:0:0:0:
231,220,37470,2,0,P|222:179|198:141,1,84.9999999999999,2|2,0:0|0:0,0:0:0:0:
121,107,38070,5,8,0:0:0:0:
36,95,38370,2,0,L|24:-9,2,84.9999999999999,2|8|2,0:0|0:0|0:0,0:0:0:0:
24,180,39270,1,8,0:0:0:0:
36,265,39570,2,0,L|24:369,2,84.9999999999999,2|8|2,0:0|0:0|0:0,0:0:0:0:
24,180,40470,5,8,0:0:0:0:
108,190,40770,1,10,0:0:0:0:
170,132,41070,1,10,0:0:0:0:
254,122,41370,1,10,0:0:0:0:
327,165,41670,2,0,P|365:149|387:113,1,84.9999999999999,10|2,0:0|0:0,0:0:0:0:
359,37,42269,1,0,0:0:0:0:
279,38,42569,1,2,0:0:0:0:
254,122,42870,6,0,B|210:206|298:207|245:297,1,170,4|8,0:0|0:0,0:0:0:0:
399,367,44070,2,0,P|474:329|494:243,1,170,0|8,0:0|0:0,0:0:0:0:
354,157,45270,6,0,P|317:178|299:215,1,84.9999999999999
252,284,45870,1,0,0:0:0:0:
103,306,46470,1,4,0:0:0:0:
67,229,46770,1,4,0:0:0:0:
121,163,47070,2,0,L|112:67,1,84.9999999999999,4|4,0:0|0:0,0:0:0:0:
175,19,47670,6,0,B|302:7|302:7|345:36,1,170,0|8,0:0|0:0,0:0:0:0:
344,115,48570,1,0,0:0:0:0:
424,86,48870,2,0,P|464:77|503:92,2,84.9999999999999,0|0|8,0:0|0:0|0:0,0:0:0:0:
344,115,49770,1,8,0:0:0:0:
260,101,50070,6,0,P|218:104|185:131,1,84.9999999999999,8|8,0:0|0:0,0:0:0:0:
104,156,50670,2,0,P|86:193|92:235,1,84.9999999999999,8|0,0:0|0:0,0:0:0:0:
128,312,51270,2,0,L|212:318,1,84.9999999999999
299,318,51870,1,0,0:0:0:0:
376,352,52170,1,0,0:0:0:0:
433,289,52470,6,0,B|447:234|447:234|490:196|490:196|505:142,1,170
395,12,53670,2,0,P|398:90|322:110,1,170
161,56,54870,6,0,P|191:84|195:125,1,84.9999999999999
264,175,55470,1,0,0:0:0:0:
102,228,56070,1,0,0:0:0:0:
115,315,56370,1,0,0:0:0:0:
179,370,56670,2,0,L|263:377,1,84.9999999999999
348,370,57270,6,0,P|393:305|345:242,1,170
267,208,58170,1,0,0:0:0:0:
303,131,58470,2,0,B|325:45|325:45|295:4,2,127.5
267,208,59670,5,0,0:0:0:0:
187,173,59970,2,0,L|93:189,1,84.9999999999999
27,34,60870,1,0,0:0:0:0:
195,12,61470,1,0,0:0:0:0:
256,170,62070,6,0,B|303:155|303:155|351:173,1,84.9999999999999
389,234,62670,2,0,B|422:246|422:246|469:231,1,84.9999999999999
497,151,63270,2,0,L|513:65,2,84.9999999999999
469,231,64170,1,0,0:0:0:0:
484,314,64470,5,0,0:0:0:0:
317,281,65070,1,0,0:0:0:0:
149,309,65670,2,0,L|65:293,2,84.9999999999999
224,348,66570,1,0,0:0:0:0:
308,360,66870,6,0,P|325:321|316:280,1,84.9999999999999
365,211,67470,2,0,P|339:177|300:164,1,84.9999999999999
236,221,68070,2,0,B|240:244|240:244|231:279|231:279|238:310,2,84.9999999999999
163,175,68970,1,0,0:0:0:0:
182,93,69270,5,0,0:0:0:0:
26,23,69870,1,0,0:0:0:0:
44,194,70470,2,0,B|76:249|76:249|75:296|75:296|111:358,1,170
184,312,71370,1,0,0:0:0:0:
256,352,71670,5,0,0:0:0:0:
256,192,81270,5,0,0:0:0:0:
256,191,89670,6,0,P|216:205|175:197,1,84.9999999999999
122,129,90270,1,0,0:0:0:0:
43,160,90570,1,0,0:0:0:0:
48,245,90870,6,0,B|155:250|88:313|220:315,1,170
281,308,91770,1,0,0:0:0:0:
376,295,92070,2,0,L|469:336,2,84.9999999999999
359,188,92970,1,0,0:0:0:0:
295,244,93270,6,0,B|239:239|239:239|182:250|182:250|102:243,1,170
41,248,94170,1,0,0:0:0:0:
7,170,94470,2,0,L|-2:65,1,84.9999999999999
0,1,95070,1,0,0:0:0:0:
79,31,95370,1,0,0:0:0:0:
