osu file format v14

[General]
AudioFilename: audio.mp3
AudioLeadIn: 0
PreviewTime: 62071
Countdown: 0
SampleSet: Normal
StackLeniency: 0.4
Mode: 0
LetterboxInBreaks: 0
WidescreenStoryboard: 1

[Editor]
Bookmarks: 90870,100470,110368
DistanceSpacing: 1.6
BeatDivisor: 4
GridSize: 8
TimelineZoom: 2.999999

[Metadata]
Title:Garyou Tensei
TitleUnicode:画竜点睛
Artist:xi
ArtistUnicode:xi
Creator:Spicy Salsa
Version:Normal
Source:
Tags:Lazyboy007 Seikatu Cdhsausageboy
BeatmapID:980730
BeatmapSetID:456825

[Difficulty]
HPDrainRate:3
CircleSize:3
OverallDifficulty:3
ApproachRate:6
SliderMultiplier:0.800000005960464
SliderTickRate:1

[Events]
//Background and Video events
0,0,"sunset-wallpaper-hd-1366x768.jpg",0,0
//Break Periods
2,71871,85021
//Storyboard Layer 0 (Background)
//Storyboard Layer 1 (Fail)
//Storyboard Layer 2 (Pass)
//Storyboard Layer 3 (Foreground)
//Storyboard Sound Samples

[TimingPoints]
14071,300,4,2,0,30,1,0
14071,-100,4,1,0,40,0,0
23671,-79.9999999999999,4,1,0,60,0,1
33271,-100,4,1,0,40,0,0
42871,-79.9999999999999,4,1,0,40,0,0
62071,-79.9999999999999,4,1,0,60,0,1
71671,-100,4,1,0,75,0,0
89671,-79.9999999999999,4,1,0,40,0,0
90871,-79.9999999999999,4,1,0,60,0,0
100771,300,4,2,0,30,1,1
100771,-79.9999999999999,4,1,0,60,0,1
119971,-79.9999999999999,4,1,0,100,0,0
121546,-79.9999999999999,4,1,0,30,0,0
122671,-79.9999999999999,4,1,0,100,0,0
122746,-79.9999999999999,4,1,0,30,0,0
125071,-79.9999999999999,4,1,0,5,0,0

[HitObjects]
119,124,11671,6,0,P|206:243|205:136,1,360.000002682209
154,190,14071,6,0,L|248:209,1,80.0000005960464,4|0,0:0|0:0,0:0:0:0:
357,277,14671,2,0,L|263:296,1,80.0000005960464
137,323,15271,1,4,0:0:0:0:
44,212,15571,1,0,0:0:0:0:
44,212,15871,2,4,P|46:165|59:122,1,80.0000005960464
177,57,16471,6,0,B|256:72|256:72|338:57,1,160.000001192093,4|4,0:0|0:0,0:0:0:0:
475,26,17371,1,0,0:0:0:0:
475,26,17671,2,4,B|461:80|461:80|461:140|461:140|445:199,1,160.000001192093
301,209,18571,1,4,0:0:0:0:
178,136,18871,6,0,P|173:82|179:46,1,80.0000005960464,4|0,0:0|0:0,0:0:0:0:
299,129,19471,2,0,P|304:183|298:219,1,80.0000005960464
166,259,20071,2,0,L|72:246,2,80.0000005960464,4|0|4,0:0|0:0|0:0,0:0:0:0:
295,323,20971,1,4,0:0:0:0:
295,323,21271,6,0,L|389:336,1,80.0000005960464,4|0,0:0|0:0,0:0:0:0:
475,232,21871,2,0,L|381:245,1,80.0000005960464,4|0,0:0|0:0,0:0:0:0:
259,196,22471,2,2,B|249:158|256:130|259:121|262:110|272:76|252:27,2,160.000001192093,6|2|6,0:0|0:0|0:0,0:0:0:0:
146,82,23971,5,0,0:0:0:0:
103,236,24271,1,0,0:0:0:0:
259,196,24571,1,0,0:0:0:0:
259,196,24871,6,0,B|266:145|266:145|257:89,1,100.000000745058
349,229,25471,2,0,B|342:280|342:280|351:336,1,100.000000745058
481,237,26071,2,0,P|455:151|360:97,2,200.000001490116
349,327,27571,1,0,0:0:0:0:
204,257,27871,1,0,0:0:0:0:
50,300,28171,1,0,0:0:0:0:
6,146,28471,6,0,B|5:90|43:43,1,100.000000745058,4|0,0:0|0:0,0:0:0:0:
79,206,29071,2,0,B|80:262|42:309,1,100.000000745058
6,146,29671,1,0,0:0:0:0:
161,109,29971,1,0,0:0:0:0:
255,238,30271,1,0,0:0:0:0:
182,380,30571,1,0,0:0:0:0:
99,242,30871,6,0,P|87:191|92:128,1,100.000000745058
232,204,31471,2,0,B|253:253|239:308|239:308|190:341|179:390,2,200.000001490116
136,75,32971,1,0,0:0:0:0:
136,75,33271,6,8,P|197:90|303:69,1,160.000001192093,12|12,0:0|0:0,0:0:0:0:
403,11,34171,1,8,0:0:0:0:
403,11,34471,2,8,P|393:63|402:103,1,80.0000005960464
473,192,35071,2,8,P|483:244|474:284,1,80.0000005960464
380,352,35671,5,8,0:0:0:0:
323,236,35971,1,0,0:0:0:0:
233,327,36271,1,8,0:0:0:0:
173,213,36571,1,8,0:0:0:0:
96,315,36871,2,8,P|61:352|25:366,1,80.0000005960464
3,239,37471,2,8,P|38:202|74:188,1,80.0000005960464
182,221,38071,5,8,0:0:0:0:
182,221,38371,1,0,0:0:0:0:
182,221,38671,2,8,L|265:239,1,80.0000005960464
371,300,39271,2,8,L|288:318,1,80.0000005960464
166,321,39871,1,8,0:0:0:0:
64,242,40171,1,8,0:0:0:0:
83,115,40471,6,0,B|105:79|105:79|146:50,1,80.0000005960464,8|0,0:0|0:0,0:0:0:0:
261,85,41071,1,8,0:0:0:0:
261,85,41371,1,8,0:0:0:0:
261,85,41671,2,2,B|344:99|344:99|425:82,2,160.000001192093,2|2|6,0:0|0:0|0:0,0:0:0:0:
120,8,43171,5,0,0:0:0:0:
42,144,43471,2,0,L|64:246,1,100.000000745058
216,195,44071,2,0,L|194:292,1,100.000000745058,4|0,0:0|0:0,0:0:0:0:
350,256,44671,2,0,L|371:353,1,100.000000745058,4|0,0:0|0:0,0:0:0:0:
465,228,45271,6,0,P|379:154|288:156,2,200.000001490116,4|0|4,0:0|0:0|0:0,0:0:0:0:
328,311,46771,1,4,0:0:0:0:
297,154,47071,2,4,P|303:101|324:48,1,100.000000745058
475,128,47671,6,0,L|464:236,1,100.000000745058,4|0,0:0|0:0,0:0:0:0:
329,338,48271,1,0,0:0:0:0:
329,338,48571,1,0,0:0:0:0:
329,338,48871,2,0,L|318:238,1,100.000000745058,4|0,0:0|0:0,0:0:0:0:
239,99,49471,2,4,L|228:198,1,100.000000745058
103,297,50071,6,4,P|35:293|-6:272,1,100.000000745058
132,181,50671,2,4,P|181:180|228:197,1,100.000000745058
103,297,51271,1,4,0:0:0:0:
2,172,51571,1,4,0:0:0:0:
131,77,51871,1,4,0:0:0:0:
228,197,52171,1,4,0:0:0:0:
228,197,52471,6,0,B|235:252|235:252|227:303,2,100.000000745058,4|0|0,0:0|0:0|0:0,0:0:0:0:
99,293,53371,1,0,0:0:0:0:
99,293,53671,2,0,B|92:238|92:238|100:187,1,100.000000745058,4|0,0:0|0:0,0:0:0:0:
230,101,54271,2,0,L|344:111,1,100.000000745058,4|0,0:0|0:0,0:0:0:0:
437,228,54871,6,0,B|376:274|312:245|300:240|288:235|236:210|176:237|176:237|202:211,1,300.000002235174,4|0,0:0|0:0,0:0:0:0:
306,98,56071,1,4,0:0:0:0:
146,84,56371,1,4,0:0:0:0:
54,214,56671,1,4,0:0:0:0:
123,357,56971,1,4,0:0:0:0:
280,346,57271,6,0,B|297:283|286:229|286:229|299:180|299:180|276:131|297:75|297:75|309:106,1,300.000002235174,4|4,0:0|0:0,0:0:0:0:
378,239,58471,2,0,B|384:315|368:364|368:364|389:339,2,150.000001117587,4|4|4,0:0|0:0|0:0,0:0:0:0:
305,97,59671,1,4,0:0:0:0:
305,97,59971,1,0,0:0:0:0:
305,97,60271,2,0,P|259:79|197:77,1,100.000000745058
78,168,60871,6,2,B|128:185|128:185|181:184|181:184|240:205,1,150.000001117587
216,278,61471,2,2,B|166:261|166:261|113:262|113:262|54:241,1,150.000001117587
40,321,62071,5,4,0:0:0:0:
100,172,62371,1,0,0:0:0:0:
21,32,62671,1,0,0:0:0:0:
21,32,62971,1,0,0:0:0:0:
21,32,63271,2,0,P|65:48|136:52,1,100.000000745058
269,103,63871,2,0,P|219:107|172:124,1,100.000000745058
71,247,64471,5,0,0:0:0:0:
20,95,64771,1,0,0:0:0:0:
94,236,65071,2,0,P|170:258|213:254,1,100.000000745058
331,181,65671,2,0,P|407:159|450:163,2,100.000000745058
244,315,66571,1,0,0:0:0:0:
244,315,66871,6,0,L|217:207,1,100.000000745058,4|0,0:0|0:0,0:0:0:0:
190,60,67471,2,0,L|165:157,1,100.000000745058
122,311,68071,1,0,0:0:0:0:
13,193,68371,1,0,0:0:0:0:
165,157,68671,1,0,0:0:0:0:
111,307,68971,1,0,0:0:0:0:
12,181,69271,6,0,P|12:132|30:71,1,100.000000745058
166,8,69871,2,0,L|277:25,1,100.000000745058
370,144,70471,2,2,B|325:161|325:161|203:143,2,150.000001117587
487,92,71671,5,12,0:0:0:0:
256,192,86071,12,0,88471,0:0:0:0:
431,62,89671,6,0,P|452:125|455:172,1,100.000000745058
374,296,90271,2,0,P|353:233|350:186,1,100.000000745058
347,39,90871,6,0,B|253:74|253:74|152:73|152:73|56:104,1,300.000002235174
0,253,92071,2,0,P|16:312|41:348,1,100.000000745058
197,352,92671,2,0,P|181:293|156:257,1,100.000000745058,0|4,0:0|0:0,0:0:0:0:
8,261,93271,5,4,0:0:0:0:
8,261,93571,1,0,0:0:0:0:
8,261,93871,2,0,L|36:142,1,100.000000745058
108,23,94471,2,0,L|130:120,2,100.000000745058
30,163,95371,1,6,0:0:0:0:
30,163,95671,6,0,B|62:207|62:207|107:233,1,100.000000745058,6|0,0:0|0:0,0:0:0:0:
261,218,96271,2,0,B|229:174|229:174|184:148,1,100.000000745058
51,69,96871,2,0,L|162:57,1,100.000000745058
297,121,97471,2,0,L|396:110,1,100.000000745058,0|4,0:0|0:0,0:0:0:0:
266,16,98071,5,12,0:0:0:0:
189,151,98371,1,12,0:0:0:0:
320,242,98671,1,12,0:0:0:0:
163,276,98971,1,12,0:0:0:0:
311,335,99271,6,14,L|421:316,1,100.000000745058
372,161,99871,2,14,P|321:150|260:166,1,100.000000745058
163,276,100471,1,12,0:0:0:0:
163,276,100771,6,0,B|160:221|160:221|142:162,1,100.000000745058,4|0,0:0|0:0,0:0:0:0:
71,37,101371,2,0,B|120:61|120:61|180:75,1,100.000000745058
321,41,101971,1,0,0:0:0:0:
423,164,102271,1,0,0:0:0:0:
340,300,102571,1,0,0:0:0:0:
185,258,102871,1,0,0:0:0:0:
323,174,103171,6,0,L|439:162,1,100.000000745058
340,300,103771,2,0,P|278:288|229:261,1,100.000000745058
131,159,104371,2,0,B|85:126|39:124|39:124|5:77|18:11,2,200.000001490116,0|0|4,0:0|0:0|0:0,0:0:0:0:
101,316,105871,5,0,0:0:0:0:
101,316,106171,2,0,P|66:273|54:213,1,100.000000745058
117,83,106771,1,0,0:0:0:0:
266,26,107071,1,0,0:0:0:0:
415,83,107371,1,0,0:0:0:0:
483,227,107671,1,0,0:0:0:0:
483,227,107971,6,0,L|372:243,1,100.000000745058
246,323,108571,2,0,L|344:337,1,100.000000745058
232,223,109171,2,0,P|171:251|148:345,2,150.000001117587
384,241,110371,5,4,0:0:0:0:
478,112,110671,1,0,0:0:0:0:
318,100,110971,1,0,0:0:0:0:
384,241,111271,1,0,0:0:0:0:
478,112,111571,2,0,P|475:59|459:7,1,100.000000745058
368,143,112171,2,0,P|371:196|387:248,1,100.000000745058
476,371,112771,5,0,0:0:0:0:
326,314,113071,1,0,0:0:0:0:
174,365,113371,1,0,0:0:0:0:
22,314,113671,1,0,0:0:0:0:
22,314,113971,2,0,L|37:198,1,100.000000745058
164,120,114571,2,0,L|149:236,1,100.000000745058
39,103,115171,5,4,0:0:0:0:
182,31,115471,1,0,0:0:0:0:
328,94,115771,2,0,P|384:99|428:91,1,100.000000745058
287,12,116371,2,0,P|253:42|286:177,2,200.000001490116
426,91,117871,5,0,0:0:0:0:
438,250,118171,2,0,L|406:363,1,100.000000745058
254,313,118771,2,2,B|182:292|182:292|92:299,2,150.000001117587
187,166,119971,5,12,0:0:0:0:
417,98,120421,5,12,0:0:0:0:
179,61,120871,6,0,B|82:80|82:178|82:178|71:127,1,200.000001490116,12|12,0:0|0:0,0:0:0:0:
256,192,121546,12,0,122671,0:0:0:0:
256,192,122746,12,0,125071,0:0:0:0:
