osu file format v14

[General]
AudioFilename: audio.mp3
AudioLeadIn: 0
PreviewTime: 79397
Countdown: 0
SampleSet: None
StackLeniency: 0.7
Mode: 3
LetterboxInBreaks: 0
SpecialStyle: 0
WidescreenStoryboard: 1

[Editor]
Bookmarks: 12565,22617,30156,37696,47748,57800,67853,72879,80418,90471,100523,110575,120628,130680,135706,140732,150785,160837,163350,173403,183455,193507,203560,206073,211099,216439,226177,236230,246282,256334,266387,268900,273926,278952,289319
DistanceSpacing: 0.5
BeatDivisor: 4
GridSize: 4
TimelineZoom: 1.5

[Metadata]
Title:Freezing Ray
TitleUnicode:Freezing Ray
Artist:xi
ArtistUnicode:xi
Creator:FAMoss
Version:Lunatic
Source:東方紅魔郷 ~ the Embodiment of Scarlet Devil.
Tags:ZUN 東方Project Tomboyish Girl in Love Embodiment of Scarlet Devil おてんば恋娘 ─ 東方紅魔郷 Touhou tuhu EoSD Cirno LLieblings Tracks Exist twinkle EXTW-0001 コミックマーケット87 Comic Market 87 speedcore piano
BeatmapID:1860786
BeatmapSetID:890164

[Difficulty]
HPDrainRate:8.5
CircleSize:4
OverallDifficulty:8.5
ApproachRate:5
SliderMultiplier:1.4
SliderTickRate:1

[Events]
//Background and Video events
0,0,"Niy - twitter 1時間ドローイングまとめ その22 (55800785) 4ページ.jpg",0,0
//Break Periods
//Storyboard Layer 0 (Background)
//Storyboard Layer 1 (Fail)
//Storyboard Layer 2 (Pass)
//Storyboard Layer 3 (Foreground)
//Storyboard Sound Samples

[TimingPoints]
1256,314.13612565445,4,2,1,50,1,0
2276,-250,4,2,1,50,0,0
2434,-62.5,4,2,1,50,0,0
2512,-100,4,2,1,50,0,0
8481,-90.9090909090909,4,2,1,50,0,0
8638,-100,4,2,1,50,0,0
29685,-90.9090909090909,4,2,1,50,0,0
29842,-100,4,2,1,50,0,0
37381,-250,4,2,1,50,0,0
37617,-66.6666666666667,4,2,1,50,0,0
37695,-100,4,2,1,50,0,0
79161,-90.9090909090909,4,2,1,50,0,0
79475,-76.9230769230769,4,2,1,50,0,0
79711,-100,4,2,1,50,0,0
80418,-100,4,2,1,50,0,1
90471,-100,4,2,1,50,0,0
100523,-100,4,2,1,50,0,1
110575,-100,4,2,1,50,0,0
169318,-90.9090909090909,4,2,1,50,0,0
169475,-100,4,2,1,50,0,0
179371,-90.9090909090909,4,2,1,50,0,0
179528,-100,4,2,1,50,0,0
183454,-100,4,2,1,50,0,1
193350,-90.9090909090909,4,2,1,50,0,1
193507,-100,4,2,1,50,0,0
204816,-125,4,2,1,50,0,0
205130,-166.666666666667,4,2,1,50,0,0
205287,-200,4,2,1,50,0,0
205444,-250,4,2,1,50,0,0
205837,-333.333333333333,4,2,1,50,0,0
205915,-76.9230769230769,4,2,1,50,0,0
206072,-100,4,2,1,50,0,0
216125,-250,4,2,1,50,0,0
216360,-66.6666666666667,4,2,1,50,0,0
216439,-100,4,2,1,50,0,0
226177,-100,4,2,1,50,0,1
236072,-83.3333333333333,4,2,1,50,0,1
236229,-100,4,2,1,50,0,0
245968,-250,4,2,1,50,0,0
246203,-66.6666666666667,4,2,1,50,0,0
246282,-100,4,2,1,50,0,1
256177,-83.3333333333333,4,2,1,50,0,1
256334,-100,4,2,1,50,0,0
289004,-250,4,2,1,50,0,0
289161,-90.9090909090909,4,2,1,50,0,0
289318,-100,4,2,1,50,0,0

[HitObjects]
192,192,2276,128,0,2512:0:0:0:0:
320,192,2276,128,0,2512:0:0:0:0:
64,192,2512,1,2,0:0:0:0:
448,192,2512,1,4,0:0:0:0:
320,192,2591,1,0,0:0:0:0:
192,192,2669,1,2,0:0:0:0:
64,192,2748,1,0,0:0:0:0:
320,192,2826,1,8,0:0:0:0:
64,192,2905,1,2,0:0:0:0:
192,192,2905,1,0,0:0:0:0:
320,192,2983,1,2,0:0:0:0:
448,192,2983,1,0,0:0:0:0:
192,192,3062,1,0,0:0:0:0:
320,192,3140,1,2,0:0:0:0:
448,192,3140,1,0,0:0:0:0:
64,192,3219,1,2,0:0:0:0:
192,192,3219,1,0,0:0:0:0:
320,192,3297,1,2,0:0:0:0:
448,192,3297,1,0,0:0:0:0:
192,192,3376,1,0,0:0:0:0:
64,192,3454,1,8,0:0:0:0:
448,192,3454,1,0,0:0:0:0:
320,192,3533,1,0,0:0:0:0:
64,192,3612,1,2,0:0:0:0:
192,192,3612,1,0,0:0:0:0:
320,192,3690,1,0,0:0:0:0:
192,192,3769,1,0,0:0:0:0:
448,192,3847,1,0,0:0:0:0:
64,192,3926,1,2,0:0:0:0:
192,192,3926,1,0,0:0:0:0:
320,192,4004,1,0,0:0:0:0:
64,192,4083,1,8,0:0:0:0:
448,192,4083,1,0,0:0:0:0:
192,192,4161,1,2,0:0:0:0:
320,192,4240,1,2,0:0:0:0:
448,192,4318,1,0,0:0:0:0:
64,192,4397,1,2,0:0:0:0:
192,192,4397,1,0,0:0:0:0:
448,192,4475,1,2,0:0:0:0:
64,192,4554,1,2,0:0:0:0:
192,192,4554,1,0,0:0:0:0:
320,192,4632,1,0,0:0:0:0:
64,192,4711,1,8,0:0:0:0:
448,192,4711,1,0,0:0:0:0:
192,192,4790,1,0,0:0:0:0:
320,192,4868,1,2,0:0:0:0:
448,192,4868,1,0,0:0:0:0:
64,192,4947,1,0,0:0:0:0:
320,192,5025,1,2,0:0:0:0:
448,192,5025,1,0,0:0:0:0:
192,192,5104,1,0,0:0:0:0:
320,192,5182,1,2,0:0:0:0:
448,192,5182,1,0,0:0:0:0:
192,192,5261,1,0,0:0:0:0:
64,192,5339,1,8,0:0:0:0:
448,192,5339,1,0,0:0:0:0:
320,192,5418,1,2,0:0:0:0:
64,192,5496,1,2,0:0:0:0:
192,192,5496,1,0,0:0:0:0:
320,192,5575,1,0,0:0:0:0:
64,192,5653,1,2,0:0:0:0:
192,192,5653,1,0,0:0:0:0:
320,192,5732,1,2,0:0:0:0:
448,192,5732,1,0,0:0:0:0:
64,192,5810,1,2,0:0:0:0:
192,192,5810,1,0,0:0:0:0:
448,192,5889,1,0,0:0:0:0:
192,192,5968,1,8,0:0:0:0:
448,192,6046,1,0,0:0:0:0:
64,192,6125,1,2,0:0:0:0:
192,192,6125,1,0,0:0:0:0:
448,192,6203,1,0,0:0:0:0:
64,192,6282,1,0,0:0:0:0:
320,192,6360,1,0,0:0:0:0:
192,192,6439,1,2,0:0:0:0:
448,192,6517,1,2,0:0:0:0:
64,192,6596,1,2,0:0:0:0:
320,192,6674,1,0,0:0:0:0:
64,192,6753,1,2,0:0:0:0:
448,192,6831,1,0,0:0:0:0:
192,192,6910,1,2,0:0:0:0:
448,192,6988,1,2,0:0:0:0:
64,192,7067,1,2,0:0:0:0:
192,192,7067,1,0,0:0:0:0:
64,192,7224,1,8,0:0:0:0:
448,192,7224,1,0,0:0:0:0:
320,192,7263,1,8,0:0:0:0:
192,192,7303,1,8,0:0:0:0:
64,192,7342,1,8,0:0:0:0:
448,192,7381,1,8,0:0:0:0:
192,192,7460,1,0,0:0:0:0:
320,192,7538,1,2,0:0:0:0:
448,192,7538,1,0,0:0:0:0:
192,192,7617,1,0,0:0:0:0:
320,192,7695,1,2,0:0:0:0:
448,192,7695,1,0,0:0:0:0:
192,192,7774,1,0,0:0:0:0:
64,192,7852,1,8,0:0:0:0:
448,192,7852,1,0,0:0:0:0:
320,192,7931,1,2,0:0:0:0:
64,192,8009,1,2,0:0:0:0:
192,192,8009,1,0,0:0:0:0:
320,192,8088,1,0,0:0:0:0:
64,192,8166,1,2,0:0:0:0:
192,192,8166,1,0,0:0:0:0:
320,192,8245,1,2,0:0:0:0:
448,192,8245,1,0,0:0:0:0:
64,192,8324,1,2,0:0:0:0:
192,192,8324,1,0,0:0:0:0:
448,192,8402,1,0,0:0:0:0:
64,192,8481,128,0,8638:0:0:0:0:
192,192,8559,1,0,0:0:0:0:
320,192,8638,1,2,0:0:0:0:
448,192,8638,1,0,0:0:0:0:
64,192,8716,1,0,0:0:0:0:
192,192,8795,1,0,0:0:0:0:
448,192,8873,1,0,0:0:0:0:
192,192,8952,1,2,0:0:0:0:
320,192,9030,1,0,0:0:0:0:
64,192,9109,1,8,0:0:0:0:
448,192,9109,1,0,0:0:0:0:
320,192,9187,1,2,0:0:0:0:
64,192,9266,1,2,0:0:0:0:
192,192,9345,1,0,0:0:0:0:
320,192,9423,1,2,0:0:0:0:
448,192,9423,1,0,0:0:0:0:
64,192,9502,1,2,0:0:0:0:
192,192,9502,1,0,0:0:0:0:
448,192,9580,1,2,0:0:0:0:
192,192,9659,1,0,0:0:0:0:
320,192,9737,1,8,0:0:0:0:
448,192,9737,1,0,0:0:0:0:
64,192,9816,1,8,0:0:0:0:
192,192,9816,1,0,0:0:0:0:
320,192,9894,1,2,0:0:0:0:
448,192,9894,1,0,0:0:0:0:
64,192,10051,1,2,0:0:0:0:
192,192,10051,1,4,0:0:0:0:
320,192,10051,1,0,0:0:0:0:
448,192,10051,1,0,0:0:0:0:
192,192,10208,1,2,0:0:0:0:
448,192,10287,1,0,0:0:0:0:
320,192,10365,1,8,0:0:0:0:
64,192,10444,1,2,0:0:0:0:
192,192,10444,1,0,0:0:0:0:
320,192,10523,1,2,0:0:0:0:
448,192,10523,1,0,0:0:0:0:
64,192,10680,1,2,0:0:0:0:
320,192,10680,1,4,0:0:0:0:
448,192,10680,1,0,0:0:0:0:
192,192,10758,1,2,0:0:0:0:
320,192,10837,1,2,0:0:0:0:
448,192,10837,1,0,0:0:0:0:
192,192,10915,1,0,0:0:0:0:
64,192,10994,1,8,0:0:0:0:
448,192,10994,1,0,0:0:0:0:
320,192,11072,1,0,0:0:0:0:
64,192,11151,1,2,0:0:0:0:
192,192,11151,1,0,0:0:0:0:
320,192,11229,1,0,0:0:0:0:
64,192,11308,1,4,0:0:0:0:
448,192,11308,1,0,0:0:0:0:
192,192,11386,1,0,0:0:0:0:
320,192,11465,1,2,0:0:0:0:
192,192,11543,1,0,0:0:0:0:
64,192,11622,1,8,0:0:0:0:
448,192,11622,1,4,0:0:0:0:
320,192,11701,1,0,0:0:0:0:
64,192,11779,1,2,0:0:0:0:
192,192,11779,1,0,0:0:0:0:
448,192,11858,1,2,0:0:0:0:
64,192,11936,1,8,0:0:0:0:
192,192,11936,1,4,0:0:0:0:
448,192,12015,1,0,0:0:0:0:
64,192,12093,1,2,0:0:0:0:
192,192,12132,1,2,0:0:0:0:
448,192,12172,1,2,0:0:0:0:
320,192,12211,1,2,0:0:0:0:
64,192,12250,1,2,0:0:0:0:
192,192,12250,1,4,0:0:0:0:
320,192,12329,1,2,0:0:0:0:
448,192,12329,1,0,0:0:0:0:
64,192,12407,1,2,0:0:0:0:
192,192,12407,1,0,0:0:0:0:
320,192,12486,1,2,0:0:0:0:
448,192,12486,1,0,0:0:0:0:
64,192,12564,1,8,0:0:0:0:
192,192,12564,1,4,0:0:0:0:
448,192,12564,1,0,0:0:0:0:
320,192,12643,1,0,0:0:0:0:
192,192,12721,1,2,0:0:0:0:
320,192,12800,1,0,0:0:0:0:
64,192,12879,1,8,0:0:0:0:
448,192,12879,1,0,0:0:0:0:
192,192,12957,1,2,0:0:0:0:
320,192,13036,1,2,0:0:0:0:
448,192,13036,1,0,0:0:0:0:
192,192,13114,1,0,0:0:0:0:
320,192,13193,1,2,0:0:0:0:
448,192,13271,1,2,0:0:0:0:
64,192,13350,1,2,0:0:0:0:
192,192,13350,1,0,0:0:0:0:
320,192,13428,1,0,0:0:0:0:
64,192,13507,1,8,0:0:0:0:
448,192,13507,1,0,0:0:0:0:
192,192,13585,1,0,0:0:0:0:
320,192,13664,1,2,0:0:0:0:
448,192,13664,1,0,0:0:0:0:
192,192,13742,1,0,0:0:0:0:
64,192,13821,1,0,0:0:0:0:
448,192,13899,1,0,0:0:0:0:
64,192,13978,1,2,0:0:0:0:
320,192,14057,1,0,0:0:0:0:
64,192,14135,1,8,0:0:0:0:
448,192,14135,1,0,0:0:0:0:
192,192,14214,1,2,0:0:0:0:
448,192,14292,1,2,0:0:0:0:
320,192,14371,1,0,0:0:0:0:
64,192,14449,1,2,0:0:0:0:
192,192,14449,1,0,0:0:0:0:
448,192,14528,1,2,0:0:0:0:
64,192,14606,1,2,0:0:0:0:
192,192,14606,1,0,0:0:0:0:
320,192,14685,1,0,0:0:0:0:
64,192,14763,1,8,0:0:0:0:
448,192,14763,1,0,0:0:0:0:
192,192,14842,1,0,0:0:0:0:
320,192,14920,1,2,0:0:0:0:
448,192,14920,1,0,0:0:0:0:
64,192,14999,1,0,0:0:0:0:
320,192,15077,1,2,0:0:0:0:
448,192,15077,1,0,0:0:0:0:
192,192,15156,1,0,0:0:0:0:
320,192,15235,1,2,0:0:0:0:
192,192,15313,1,0,0:0:0:0:
320,192,15392,1,8,0:0:0:0:
448,192,15392,1,0,0:0:0:0:
64,192,15470,1,2,0:0:0:0:
192,192,15470,1,0,0:0:0:0:
320,192,15549,1,2,0:0:0:0:
448,192,15549,1,0,0:0:0:0:
64,192,15627,1,0,0:0:0:0:
320,192,15706,1,2,0:0:0:0:
448,192,15706,1,0,0:0:0:0:
192,192,15784,1,2,0:0:0:0:
320,192,15863,1,2,0:0:0:0:
448,192,15863,1,0,0:0:0:0:
192,192,15941,1,0,0:0:0:0:
64,192,16020,1,8,0:0:0:0:
448,192,16020,1,0,0:0:0:0:
320,192,16098,1,0,0:0:0:0:
64,192,16177,1,2,0:0:0:0:
192,192,16177,1,0,0:0:0:0:
320,192,16255,1,0,0:0:0:0:
64,192,16334,1,0,0:0:0:0:
448,192,16334,1,0,0:0:0:0:
192,192,16373,1,0,0:0:0:0:
320,192,16413,1,0,0:0:0:0:
448,192,16452,1,0,0:0:0:0:
64,192,16491,1,2,0:0:0:0:
192,192,16570,1,2,0:0:0:0:
320,192,16648,1,8,0:0:0:0:
448,192,16648,1,0,0:0:0:0:
64,192,16727,1,0,0:0:0:0:
192,192,16727,1,0,0:0:0:0:
320,192,16805,1,2,0:0:0:0:
192,192,16884,1,0,0:0:0:0:
320,192,16962,1,2,0:0:0:0:
448,192,16962,1,0,0:0:0:0:
64,192,17041,1,2,0:0:0:0:
192,192,17041,1,0,0:0:0:0:
320,192,17119,1,2,0:0:0:0:
448,192,17119,1,0,0:0:0:0:
192,192,17198,1,0,0:0:0:0:
448,192,17276,1,8,0:0:0:0:
320,192,17316,1,8,0:0:0:0:
192,192,17355,1,8,0:0:0:0:
64,192,17394,1,8,0:0:0:0:
448,192,17434,1,8,0:0:0:0:
320,192,17512,1,0,0:0:0:0:
64,192,17591,1,2,0:0:0:0:
192,192,17591,1,4,0:0:0:0:
448,192,17591,1,0,0:0:0:0:
320,192,17669,1,0,0:0:0:0:
192,192,17748,1,0,0:0:0:0:
320,192,17826,1,0,0:0:0:0:
64,192,17905,1,8,0:0:0:0:
448,192,17905,1,0,0:0:0:0:
192,192,17983,1,2,0:0:0:0:
320,192,18062,1,2,0:0:0:0:
448,192,18062,1,0,0:0:0:0:
192,192,18140,1,0,0:0:0:0:
320,192,18219,1,2,0:0:0:0:
448,192,18219,1,0,0:0:0:0:
64,192,18297,1,2,0:0:0:0:
192,192,18297,1,0,0:0:0:0:
320,192,18376,1,2,0:0:0:0:
448,192,18376,1,0,0:0:0:0:
192,192,18454,1,0,0:0:0:0:
64,192,18533,1,0,0:0:0:0:
448,192,18533,1,0,0:0:0:0:
320,192,18612,1,0,0:0:0:0:
64,192,18690,1,2,0:0:0:0:
192,192,18690,1,0,0:0:0:0:
320,192,18769,1,0,0:0:0:0:
448,192,18847,1,0,0:0:0:0:
192,192,18926,1,0,0:0:0:0:
448,192,19004,1,2,0:0:0:0:
64,192,19083,1,0,0:0:0:0:
320,192,19161,1,8,0:0:0:0:
448,192,19161,1,0,0:0:0:0:
192,192,19240,1,2,0:0:0:0:
448,192,19318,1,2,0:0:0:0:
320,192,19397,1,0,0:0:0:0:
64,192,19475,1,2,0:0:0:0:
192,192,19475,1,0,0:0:0:0:
320,192,19554,1,2,0:0:0:0:
448,192,19554,1,0,0:0:0:0:
192,192,19632,1,2,0:0:0:0:
64,192,19711,1,0,0:0:0:0:
320,192,19790,1,8,0:0:0:0:
448,192,19790,1,0,0:0:0:0:
64,192,19868,1,8,0:0:0:0:
192,192,19868,1,0,0:0:0:0:
320,192,19947,1,2,0:0:0:0:
448,192,19947,1,0,0:0:0:0:
192,192,20025,1,0,0:0:0:0:
64,192,20104,1,4,0:0:0:0:
320,192,20104,1,2,0:0:0:0:
448,192,20104,1,0,0:0:0:0:
192,192,20182,1,0,0:0:0:0:
320,192,20261,1,2,0:0:0:0:
448,192,20339,1,0,0:0:0:0:
64,192,20418,1,8,0:0:0:0:
192,192,20496,1,2,0:0:0:0:
320,192,20496,1,0,0:0:0:0:
64,192,20575,1,2,0:0:0:0:
448,192,20575,1,0,0:0:0:0:
192,192,20653,1,0,0:0:0:0:
320,192,20732,1,4,0:0:0:0:
448,192,20732,1,2,0:0:0:0:
64,192,20810,1,2,0:0:0:0:
192,192,20810,1,0,0:0:0:0:
320,192,20889,1,2,0:0:0:0:
448,192,20889,1,0,0:0:0:0:
192,192,20968,1,0,0:0:0:0:
320,192,21046,1,8,0:0:0:0:
64,192,21125,1,0,0:0:0:0:
192,192,21125,1,0,0:0:0:0:
320,192,21203,1,2,0:0:0:0:
448,192,21203,1,0,0:0:0:0:
64,192,21282,1,0,0:0:0:0:
448,192,21360,1,4,0:0:0:0:
320,192,21439,1,0,0:0:0:0:
64,192,21517,1,2,0:0:0:0:
192,192,21517,1,0,0:0:0:0:
320,192,21596,1,0,0:0:0:0:
64,192,21674,1,8,0:0:0:0:
192,192,21674,1,4,0:0:0:0:
448,192,21753,1,0,0:0:0:0:
64,192,21831,1,2,0:0:0:0:
192,192,21831,1,0,0:0:0:0:
320,192,21910,1,2,0:0:0:0:
448,192,21910,1,0,0:0:0:0:
64,192,21988,1,4,0:0:0:0:
192,192,21988,1,8,0:0:0:0:
320,192,22067,1,0,0:0:0:0:
64,192,22146,1,2,0:0:0:0:
192,192,22146,1,0,0:0:0:0:
448,192,22224,1,2,0:0:0:0:
64,192,22303,1,4,0:0:0:0:
192,192,22342,1,0,0:0:0:0:
448,192,22381,1,2,0:0:0:0:
320,192,22420,1,0,0:0:0:0:
64,192,22460,1,2,0:0:0:0:
192,192,22460,1,0,0:0:0:0:
320,192,22538,1,2,0:0:0:0:
64,192,22617,1,8,0:0:0:0:
192,192,22617,1,4,0:0:0:0:
448,192,22617,1,0,0:0:0:0:
320,192,22695,1,0,0:0:0:0:
192,192,22774,1,0,0:0:0:0:
320,192,22852,1,0,0:0:0:0:
64,192,22931,1,8,0:0:0:0:
448,192,22931,1,0,0:0:0:0:
192,192,23009,1,0,0:0:0:0:
320,192,23088,1,0,0:0:0:0:
64,192,23166,1,0,0:0:0:0:
320,192,23245,1,2,0:0:0:0:
448,192,23245,1,0,0:0:0:0:
192,192,23324,1,0,0:0:0:0:
320,192,23402,1,0,0:0:0:0:
192,192,23481,1,0,0:0:0:0:
64,192,23559,1,8,0:0:0:0:
448,192,23559,1,0,0:0:0:0:
320,192,23638,1,0,0:0:0:0:
192,192,23716,1,0,0:0:0:0:
320,192,23795,1,0,0:0:0:0:
64,192,23873,1,2,0:0:0:0:
192,192,23873,1,0,0:0:0:0:
320,192,23952,1,0,0:0:0:0:
448,192,23952,1,0,0:0:0:0:
64,192,24030,1,2,0:0:0:0:
192,192,24030,1,0,0:0:0:0:
320,192,24109,1,0,0:0:0:0:
64,192,24187,1,8,0:0:0:0:
448,192,24187,1,0,0:0:0:0:
192,192,24266,1,0,0:0:0:0:
320,192,24345,1,0,0:0:0:0:
64,192,24423,1,0,0:0:0:0:
320,192,24502,1,2,0:0:0:0:
448,192,24502,1,0,0:0:0:0:
192,192,24580,1,0,0:0:0:0:
320,192,24659,1,0,0:0:0:0:
448,192,24659,1,0,0:0:0:0:
192,192,24737,1,0,0:0:0:0:
64,192,24816,1,8,0:0:0:0:
448,192,24816,1,0,0:0:0:0:
320,192,24894,1,0,0:0:0:0:
64,192,24973,1,2,0:0:0:0:
192,192,24973,1,0,0:0:0:0:
320,192,25051,1,0,0:0:0:0:
64,192,25130,1,2,0:0:0:0:
192,192,25130,1,4,0:0:0:0:
448,192,25130,1,0,0:0:0:0:
320,192,25208,1,0,0:0:0:0:
192,192,25287,1,0,0:0:0:0:
320,192,25365,1,0,0:0:0:0:
64,192,25444,1,8,0:0:0:0:
448,192,25444,1,0,0:0:0:0:
192,192,25523,1,0,0:0:0:0:
320,192,25601,1,0,0:0:0:0:
64,192,25680,1,0,0:0:0:0:
320,192,25758,1,2,0:0:0:0:
448,192,25758,1,0,0:0:0:0:
64,192,25837,1,0,0:0:0:0:
192,192,25837,1,0,0:0:0:0:
320,192,25915,1,2,0:0:0:0:
448,192,25915,1,0,0:0:0:0:
192,192,25994,1,0,0:0:0:0:
64,192,26072,1,8,0:0:0:0:
448,192,26072,1,0,0:0:0:0:
192,192,26151,1,0,0:0:0:0:
320,192,26151,1,0,0:0:0:0:
64,192,26229,1,2,0:0:0:0:
448,192,26229,1,0,0:0:0:0:
320,192,26308,1,0,0:0:0:0:
64,192,26386,1,2,0:0:0:0:
192,192,26386,1,4,0:0:0:0:
448,192,26386,1,0,0:0:0:0:
320,192,26465,1,0,0:0:0:0:
192,192,26543,1,0,0:0:0:0:
320,192,26622,1,0,0:0:0:0:
64,192,26701,1,8,0:0:0:0:
448,192,26701,1,0,0:0:0:0:
192,192,26779,1,0,0:0:0:0:
320,192,26779,1,0,0:0:0:0:
64,192,26858,1,2,0:0:0:0:
448,192,26858,1,0,0:0:0:0:
192,192,26936,1,0,0:0:0:0:
64,192,27015,1,2,0:0:0:0:
320,192,27015,1,4,0:0:0:0:
448,192,27015,1,0,0:0:0:0:
64,192,27172,1,2,0:0:0:0:
192,192,27172,1,0,0:0:0:0:
448,192,27211,1,2,0:0:0:0:
320,192,27250,1,2,0:0:0:0:
192,192,27290,1,2,0:0:0:0:
64,192,27329,1,8,0:0:0:0:
448,192,27329,1,0,0:0:0:0:
192,192,27407,1,8,0:0:0:0:
320,192,27407,1,0,0:0:0:0:
64,192,27486,1,2,0:0:0:0:
448,192,27486,1,0,0:0:0:0:
192,192,27525,1,2,0:0:0:0:
320,192,27564,1,2,0:0:0:0:
448,192,27604,1,2,0:0:0:0:
64,192,27643,1,2,0:0:0:0:
192,192,27643,1,4,0:0:0:0:
320,192,27721,1,0,0:0:0:0:
448,192,27800,1,0,0:0:0:0:
192,192,27879,1,0,0:0:0:0:
64,192,27957,1,8,0:0:0:0:
448,192,27957,1,0,0:0:0:0:
320,192,28036,1,0,0:0:0:0:
192,192,28114,1,0,0:0:0:0:
448,192,28193,1,0,0:0:0:0:
320,192,28271,1,0,0:0:0:0:
64,192,28350,1,0,0:0:0:0:
192,192,28428,1,0,0:0:0:0:
320,192,28507,1,0,0:0:0:0:
64,192,28585,1,8,0:0:0:0:
192,192,28585,1,0,0:0:0:0:
320,192,28664,1,0,0:0:0:0:
448,192,28664,1,0,0:0:0:0:
64,192,28742,1,0,0:0:0:0:
192,192,28742,1,0,0:0:0:0:
320,192,28821,1,0,0:0:0:0:
64,192,28899,1,4,0:0:0:0:
448,192,28899,1,0,0:0:0:0:
192,192,28978,1,0,0:0:0:0:
320,192,29057,1,0,0:0:0:0:
192,192,29135,1,0,0:0:0:0:
320,192,29214,1,8,0:0:0:0:
448,192,29214,1,0,0:0:0:0:
64,192,29292,1,0,0:0:0:0:
192,192,29292,1,0,0:0:0:0:
320,192,29371,1,0,0:0:0:0:
448,192,29371,1,0,0:0:0:0:
64,192,29449,1,0,0:0:0:0:
320,192,29528,1,0,0:0:0:0:
448,192,29528,1,0,0:0:0:0:
64,192,29606,1,0,0:0:0:0:
448,192,29685,128,0,29842:0:0:0:0:
320,192,29763,1,0,0:0:0:0:
64,192,29842,1,8,0:0:0:0:
192,192,29842,1,0,0:0:0:0:
320,192,29920,1,0,0:0:0:0:
64,192,29999,1,2,0:0:0:0:
448,192,29999,1,0,0:0:0:0:
192,192,30077,1,0,0:0:0:0:
64,192,30156,1,2,0:0:0:0:
320,192,30156,1,4,0:0:0:0:
448,192,30156,1,0,0:0:0:0:
192,192,30313,1,2,0:0:0:0:
320,192,30313,1,0,0:0:0:0:
64,192,30470,1,8,0:0:0:0:
192,192,30470,1,4,0:0:0:0:
448,192,30470,1,0,0:0:0:0:
64,192,30627,1,2,0:0:0:0:
320,192,30627,1,0,0:0:0:0:
192,192,30784,1,2,0:0:0:0:
320,192,30784,1,4,0:0:0:0:
448,192,30784,1,0,0:0:0:0:
64,192,30941,1,2,0:0:0:0:
448,192,30941,1,0,0:0:0:0:
64,192,31098,1,8,0:0:0:0:
192,192,31098,1,4,0:0:0:0:
320,192,31098,1,0,0:0:0:0:
320,192,31255,1,2,0:0:0:0:
448,192,31255,1,0,0:0:0:0:
64,192,31413,1,2,0:0:0:0:
192,192,31413,1,4,0:0:0:0:
448,192,31413,1,0,0:0:0:0:
64,192,31491,1,2,0:0:0:0:
192,192,31491,1,0,0:0:0:0:
320,192,31570,1,8,0:0:0:0:
448,192,31570,1,0,0:0:0:0:
64,192,31648,1,2,0:0:0:0:
192,192,31648,1,0,0:0:0:0:
64,192,31727,1,2,0:0:0:0:
192,192,31727,1,0,0:0:0:0:
448,192,31727,1,0,0:0:0:0:
320,192,31805,1,2,0:0:0:0:
64,192,31884,1,8,0:0:0:0:
192,192,31884,1,0,0:0:0:0:
320,192,31962,1,2,0:0:0:0:
448,192,31962,1,0,0:0:0:0:
320,192,32041,1,2,0:0:0:0:
448,192,32041,1,0,0:0:0:0:
192,192,32119,1,2,0:0:0:0:
320,192,32198,1,8,0:0:0:0:
448,192,32198,1,0,0:0:0:0:
64,192,32276,1,2,0:0:0:0:
192,192,32276,1,0,0:0:0:0:
64,192,32355,1,2,0:0:0:0:
192,192,32355,1,0,0:0:0:0:
320,192,32434,1,2,0:0:0:0:
448,192,32434,1,0,0:0:0:0:
64,192,32512,1,8,0:0:0:0:
192,192,32512,1,0,0:0:0:0:
320,192,32591,1,8,0:0:0:0:
448,192,32591,1,0,0:0:0:0:
64,192,32669,1,2,0:0:0:0:
192,192,32669,1,4,0:0:0:0:
320,192,32669,1,0,0:0:0:0:
448,192,32669,1,0,0:0:0:0:
192,192,32748,1,0,0:0:0:0:
320,192,32826,1,0,0:0:0:0:
448,192,32905,1,0,0:0:0:0:
64,192,32983,1,0,0:0:0:0:
192,192,33062,1,0,0:0:0:0:
320,192,33140,1,0,0:0:0:0:
448,192,33219,1,0,0:0:0:0:
64,192,33297,1,0,0:0:0:0:
192,192,33376,1,0,0:0:0:0:
320,192,33454,1,0,0:0:0:0:
448,192,33533,1,0,0:0:0:0:
64,192,33612,1,0,0:0:0:0:
192,192,33690,1,0,0:0:0:0:
320,192,33769,1,0,0:0:0:0:
64,192,33847,1,0,0:0:0:0:
448,192,33926,1,0,0:0:0:0:
320,192,34004,1,0,0:0:0:0:
192,192,34083,1,0,0:0:0:0:
64,192,34161,1,0,0:0:0:0:
448,192,34240,1,0,0:0:0:0:
320,192,34318,1,0,0:0:0:0:
192,192,34397,1,0,0:0:0:0:
64,192,34475,1,0,0:0:0:0:
448,192,34554,1,0,0:0:0:0:
320,192,34632,1,0,0:0:0:0:
192,192,34711,1,0,0:0:0:0:
64,192,34790,1,0,0:0:0:0:
448,192,34868,1,0,0:0:0:0:
320,192,34947,1,0,0:0:0:0:
192,192,35025,1,0,0:0:0:0:
64,192,35104,1,0,0:0:0:0:
448,192,35182,1,0,0:0:0:0:
320,192,35287,1,0,0:0:0:0:
192,192,35392,1,0,0:0:0:0:
64,192,35496,1,0,0:0:0:0:
448,192,35601,1,0,0:0:0:0:
320,192,35706,1,0,0:0:0:0:
192,192,35810,1,0,0:0:0:0:
64,192,35915,1,0,0:0:0:0:
448,192,36020,1,0,0:0:0:0:
320,192,36125,1,0,0:0:0:0:
192,192,36282,1,0,0:0:0:0:
64,192,36517,1,0,0:0:0:0:
448,192,36674,128,0,37381:0:0:0:0:
192,192,37381,128,0,37695:0:0:0:0:
64,192,37695,128,4,38009:0:0:0:0:
320,192,37695,1,2,0:0:0:0:
448,192,37695,1,0,0:0:0:50:BassKickReverbXD.wav
448,192,38009,128,0,38166:0:0:0:0:
192,192,38166,128,0,38324:0:0:0:0:
320,192,38324,128,0,38795:0:0:0:0:
64,192,38952,128,0,39109:0:0:0:0:
320,192,39109,128,0,39266:0:0:0:0:
64,192,39266,128,0,39423:0:0:0:0:
448,192,39423,128,0,39737:0:0:0:0:
192,192,39737,128,0,39894:0:0:0:0:
320,192,39894,128,0,40051:0:0:0:0:
64,192,40051,128,0,40208:0:0:0:0:
448,192,40208,128,0,40365:0:0:0:0:
64,192,40365,128,0,40523:0:0:0:0:
448,192,40523,128,0,40680:0:0:0:0:
320,192,40680,128,0,41308:0:0:0:0:
64,192,41465,128,2,41622:0:0:0:0:
192,192,41465,1,4,0:0:0:0:
320,192,41465,1,0,0:0:0:0:
448,192,41465,1,0,0:0:0:0:
320,192,41622,128,0,41779:0:0:0:0:
64,192,41779,128,0,41936:0:0:0:0:
448,192,41936,128,0,42015:0:0:0:0:
64,192,42093,1,2,0:0:0:0:
192,192,42093,1,4,0:0:0:0:
448,192,42093,128,0,42172:0:0:0:0:
448,192,42250,128,0,42407:0:0:0:0:
320,192,42407,128,0,42564:0:0:0:0:
192,192,42564,128,0,42721:0:0:0:0:
64,192,42721,1,4,0:0:0:0:
320,192,42721,1,2,0:0:0:0:
448,192,42721,128,0,42879:0:0:0:0:
64,192,42879,128,0,43036:0:0:0:0:
448,192,43036,128,0,43193:0:0:0:0:
192,192,43193,128,0,43350:0:0:0:0:
320,192,43350,128,0,43821:0:0:0:0:
64,192,43978,128,0,44135:0:0:0:0:
320,192,44135,128,0,44292:0:0:0:0:
64,192,44292,128,0,44449:0:0:0:0:
448,192,44449,128,0,44763:0:0:0:0:
192,192,44763,128,0,44920:0:0:0:0:
320,192,44920,128,0,45077:0:0:0:0:
64,192,45077,128,0,45235:0:0:0:0:
192,192,45235,1,4,0:0:0:0:
320,192,45235,1,2,0:0:0:0:
448,192,45235,128,0,45392:0:0:0:0:
64,192,45392,128,0,45549:0:0:0:0:
448,192,45549,128,0,45706:0:0:0:0:
320,192,45706,128,0,46334:0:0:0:0:
64,192,46491,128,2,46648:0:0:0:0:
192,192,46491,1,4,0:0:0:0:
320,192,46491,1,0,0:0:0:0:
448,192,46491,1,0,0:0:0:0:
320,192,46648,128,0,46805:0:0:0:0:
64,192,46805,128,0,46962:0:0:0:0:
448,192,46962,128,0,47041:0:0:0:0:
448,192,47119,128,0,47198:0:0:0:0:
448,192,47276,128,0,47434:0:0:0:0:
320,192,47434,128,0,47591:0:0:0:0:
192,192,47591,128,0,47748:0:0:0:0:
64,192,47748,1,4,0:0:0:0:
320,192,47748,1,2,0:0:0:0:
448,192,47748,128,0,48062:0:0:0:50:BassKickReverbXD.wav
64,192,48062,128,8,48219:0:0:0:0:
192,192,48062,1,0,0:0:0:0:
320,192,48219,128,0,48376:0:0:0:0:
192,192,48376,128,0,48847:0:0:0:0:
64,192,48690,1,8,0:0:0:0:
448,192,48690,1,0,0:0:0:0:
448,192,49004,128,0,49161:0:0:0:0:
192,192,49161,128,0,49318:0:0:0:0:
320,192,49318,1,8,0:0:0:0:
448,192,49318,128,0,49475:0:0:0:0:
64,192,49475,128,0,49790:0:0:0:0:
320,192,49790,128,0,49947:0:0:0:0:
64,192,49947,1,8,0:0:0:0:
192,192,49947,128,0,50104:0:0:0:0:
448,192,50104,128,0,50261:0:0:0:0:
64,192,50261,128,0,50418:0:0:0:0:
448,192,50418,128,0,50575:0:0:0:0:
64,192,50575,128,8,50732:0:0:0:0:
320,192,50575,1,0,0:0:0:0:
192,192,50732,128,0,51360:0:0:0:0:
64,192,51203,1,8,0:0:0:0:
448,192,51203,1,0,0:0:0:0:
64,192,51517,1,2,0:0:0:0:
192,192,51517,1,4,0:0:0:0:
320,192,51517,1,0,0:0:0:0:
448,192,51517,128,0,51674:0:0:0:0:
192,192,51674,128,0,51831:0:0:0:0:
448,192,51831,128,8,51988:0:0:0:0:
64,192,51988,128,0,52067:0:0:0:0:
64,192,52146,128,2,52303:0:0:0:0:
192,192,52146,1,4,0:0:0:0:
320,192,52146,1,0,0:0:0:0:
448,192,52146,1,0,0:0:0:0:
320,192,52303,1,8,0:0:0:0:
448,192,52303,128,0,52460:0:0:0:0:
64,192,52460,1,8,0:0:0:0:
192,192,52460,1,0,0:0:0:0:
320,192,52538,1,8,0:0:0:0:
448,192,52538,1,0,0:0:0:0:
64,192,52617,1,8,0:0:0:0:
192,192,52617,128,0,52774:0:0:0:0:
64,192,52774,128,4,52931:0:0:0:0:
320,192,52774,1,2,0:0:0:0:
448,192,52774,1,0,0:0:0:0:
448,192,52931,128,0,53088:0:0:0:0:
64,192,53088,128,8,53245:0:0:0:0:
192,192,53088,1,0,0:0:0:0:
320,192,53245,128,0,53402:0:0:0:0:
192,192,53402,128,0,53873:0:0:0:0:
64,192,53716,1,8,0:0:0:0:
448,192,53716,1,0,0:0:0:0:
448,192,54030,128,0,54187:0:0:0:0:
192,192,54187,128,0,54345:0:0:0:0:
320,192,54345,1,8,0:0:0:0:
448,192,54345,128,0,54502:0:0:0:0:
64,192,54502,128,0,54816:0:0:0:0:
320,192,54816,128,0,54973:0:0:0:0:
64,192,54973,1,8,0:0:0:0:
192,192,54973,128,0,55130:0:0:0:0:
64,192,55130,1,2,0:0:0:0:
320,192,55130,1,0,0:0:0:0:
448,192,55130,128,0,55287:0:0:0:0:
64,192,55287,128,4,55444:0:0:0:0:
192,192,55287,1,2,0:0:0:0:
320,192,55287,1,0,0:0:0:0:
448,192,55444,128,0,55601:0:0:0:0:
64,192,55601,128,8,55758:0:0:0:0:
320,192,55601,1,0,0:0:0:0:
192,192,55758,128,0,56386:0:0:0:0:
64,192,56229,1,8,0:0:0:0:
448,192,56229,1,0,0:0:0:0:
64,192,56386,1,2,0:0:0:0:
320,192,56386,1,0,0:0:0:0:
448,192,56386,1,0,0:0:0:0:
64,192,56543,1,2,0:0:0:0:
192,192,56543,1,4,0:0:0:0:
320,192,56543,1,0,0:0:0:0:
448,192,56543,128,0,56701:0:0:0:0:
192,192,56701,128,0,56858:0:0:0:0:
320,192,56858,1,8,0:0:0:0:
448,192,56858,128,0,57015:0:0:0:0:
64,192,57015,128,0,57093:0:0:0:0:
64,192,57172,128,8,57329:0:0:0:0:
192,192,57172,1,0,0:0:0:0:
320,192,57329,1,0,0:0:0:0:
448,192,57329,128,0,57486:0:0:0:0:
64,192,57486,1,8,0:0:0:0:
192,192,57486,1,0,0:0:0:0:
320,192,57564,1,8,0:0:0:0:
448,192,57564,1,0,0:0:0:0:
64,192,57643,1,8,0:0:0:0:
192,192,57643,1,0,0:0:0:0:
320,192,57721,1,8,0:0:0:0:
448,192,57721,1,0,0:0:0:0:
64,192,57800,1,4,0:0:0:0:
192,192,57800,1,2,0:0:0:0:
448,192,57800,1,0,0:0:0:50:BassKickReverbXD.wav
320,192,57879,1,0,0:0:0:0:
192,192,57957,1,2,0:0:0:0:
448,192,57957,1,0,0:0:0:0:
64,192,58036,1,2,0:0:0:0:
320,192,58114,1,8,0:0:0:0:
448,192,58114,1,0,0:0:0:0:
64,192,58193,1,0,0:0:0:0:
192,192,58193,1,0,0:0:0:0:
320,192,58271,1,2,0:0:0:0:
448,192,58271,1,0,0:0:0:0:
192,192,58350,1,0,0:0:0:0:
64,192,58428,1,2,0:0:0:0:
320,192,58428,1,0,0:0:0:0:
448,192,58507,1,2,0:0:0:0:
64,192,58585,1,2,0:0:0:0:
192,192,58585,1,0,0:0:0:0:
320,192,58664,1,0,0:0:0:0:
64,192,58742,1,8,0:0:0:0:
192,192,58742,1,0,0:0:0:0:
320,192,58821,1,0,0:0:0:0:
448,192,58821,1,0,0:0:0:0:
64,192,58899,1,2,0:0:0:0:
192,192,58899,1,0,0:0:0:0:
320,192,58978,1,0,0:0:0:0:
64,192,59057,1,2,0:0:0:0:
448,192,59057,1,0,0:0:0:0:
192,192,59135,1,0,0:0:0:0:
320,192,59135,1,0,0:0:0:0:
64,192,59214,1,2,0:0:0:0:
448,192,59214,1,0,0:0:0:0:
192,192,59292,1,2,0:0:0:0:
64,192,59371,1,8,0:0:0:0:
448,192,59371,1,0,0:0:0:0:
192,192,59449,1,0,0:0:0:0:
320,192,59449,1,0,0:0:0:0:
64,192,59528,1,2,0:0:0:0:
448,192,59528,1,0,0:0:0:0:
320,192,59606,1,2,0:0:0:0:
64,192,59685,1,2,0:0:0:0:
192,192,59685,1,0,0:0:0:0:
320,192,59763,1,2,0:0:0:0:
448,192,59763,1,0,0:0:0:0:
64,192,59842,1,2,0:0:0:0:
192,192,59842,1,0,0:0:0:0:
320,192,59920,1,0,0:0:0:0:
64,192,59999,1,8,0:0:0:0:
448,192,59999,1,0,0:0:0:0:
320,192,60077,1,0,0:0:0:0:
64,192,60156,1,8,0:0:0:0:
192,192,60156,1,0,0:0:0:0:
320,192,60235,1,0,0:0:0:0:
64,192,60313,1,2,0:0:0:0:
448,192,60313,1,0,0:0:0:0:
192,192,60392,1,0,0:0:0:0:
64,192,60470,1,2,0:0:0:0:
320,192,60470,1,0,0:0:0:0:
448,192,60549,1,2,0:0:0:0:
64,192,60627,1,8,0:0:0:0:
192,192,60627,1,0,0:0:0:0:
320,192,60706,1,2,0:0:0:0:
448,192,60706,1,0,0:0:0:0:
64,192,60784,1,2,0:0:0:0:
192,192,60784,1,0,0:0:0:0:
320,192,60863,1,0,0:0:0:0:
192,192,60941,1,2,0:0:0:0:
448,192,60941,1,0,0:0:0:0:
64,192,61020,1,2,0:0:0:0:
320,192,61098,1,2,0:0:0:0:
448,192,61098,1,0,0:0:0:0:
192,192,61177,1,0,0:0:0:0:
320,192,61255,1,8,0:0:0:0:
448,192,61255,1,0,0:0:0:0:
64,192,61334,1,0,0:0:0:0:
192,192,61334,1,0,0:0:0:0:
320,192,61413,1,8,0:0:0:0:
448,192,61413,1,0,0:0:0:0:
192,192,61491,1,0,0:0:0:0:
64,192,61570,1,2,0:0:0:0:
448,192,61570,1,4,0:0:0:0:
192,192,61648,1,0,0:0:0:0:
320,192,61648,1,0,0:0:0:0:
64,192,61727,1,2,0:0:0:0:
448,192,61727,1,0,0:0:0:0:
320,192,61805,1,2,0:0:0:0:
64,192,61884,1,8,0:0:0:0:
448,192,61884,1,0,0:0:0:0:
192,192,61962,1,0,0:0:0:0:
320,192,61962,1,0,0:0:0:0:
64,192,62041,1,2,0:0:0:0:
448,192,62041,1,0,0:0:0:0:
192,192,62119,1,0,0:0:0:0:
320,192,62198,1,2,0:0:0:0:
448,192,62198,1,4,0:0:0:0:
64,192,62276,1,2,0:0:0:0:
192,192,62276,1,0,0:0:0:0:
320,192,62355,1,2,0:0:0:0:
448,192,62355,1,0,0:0:0:0:
192,192,62434,1,0,0:0:0:0:
64,192,62512,1,8,0:0:0:0:
448,192,62512,1,0,0:0:0:0:
192,192,62591,1,0,0:0:0:0:
320,192,62591,1,0,0:0:0:0:
64,192,62669,1,8,0:0:0:0:
448,192,62669,1,0,0:0:0:0:
192,192,62748,1,2,0:0:0:0:
320,192,62748,1,0,0:0:0:0:
64,192,62826,1,4,0:0:0:0:
448,192,62826,1,2,0:0:0:0:
320,192,62905,1,0,0:0:0:0:
192,192,62983,1,2,0:0:0:0:
448,192,62983,1,0,0:0:0:0:
64,192,63062,1,2,0:0:0:0:
320,192,63140,1,8,0:0:0:0:
448,192,63140,1,0,0:0:0:0:
64,192,63219,1,2,0:0:0:0:
192,192,63219,1,0,0:0:0:0:
320,192,63297,1,2,0:0:0:0:
448,192,63297,1,0,0:0:0:0:
192,192,63376,1,0,0:0:0:0:
64,192,63454,1,2,0:0:0:0:
320,192,63454,1,0,0:0:0:0:
448,192,63533,1,2,0:0:0:0:
64,192,63612,1,2,0:0:0:0:
192,192,63612,1,0,0:0:0:0:
320,192,63690,1,0,0:0:0:0:
64,192,63769,1,2,0:0:0:0:
192,192,63769,1,0,0:0:0:0:
448,192,63847,1,0,0:0:0:0:
64,192,63926,1,2,0:0:0:0:
192,192,63926,1,0,0:0:0:0:
320,192,64004,1,0,0:0:0:0:
64,192,64083,1,2,0:0:0:0:
448,192,64083,1,0,0:0:0:0:
192,192,64161,1,0,0:0:0:0:
320,192,64161,1,0,0:0:0:0:
64,192,64240,1,2,0:0:0:0:
448,192,64240,1,0,0:0:0:0:
192,192,64318,1,2,0:0:0:0:
320,192,64397,1,8,0:0:0:0:
448,192,64397,1,0,0:0:0:0:
64,192,64475,1,0,0:0:0:0:
192,192,64475,1,0,0:0:0:0:
320,192,64554,1,2,0:0:0:0:
448,192,64554,1,0,0:0:0:0:
192,192,64632,1,2,0:0:0:0:
320,192,64711,1,2,0:0:0:0:
448,192,64711,1,0,0:0:0:0:
64,192,64790,1,2,0:0:0:0:
192,192,64790,1,0,0:0:0:0:
320,192,64868,1,2,0:0:0:0:
448,192,64868,1,0,0:0:0:0:
192,192,64947,1,0,0:0:0:0:
64,192,65025,1,8,0:0:0:0:
448,192,65025,1,0,0:0:0:0:
320,192,65104,1,0,0:0:0:0:
64,192,65182,1,8,0:0:0:0:
192,192,65182,1,0,0:0:0:0:
320,192,65261,1,0,0:0:0:0:
64,192,65339,1,2,0:0:0:0:
448,192,65339,1,4,0:0:0:0:
192,192,65418,1,0,0:0:0:0:
64,192,65496,1,2,0:0:0:0:
320,192,65496,1,0,0:0:0:0:
448,192,65575,1,2,0:0:0:0:
64,192,65653,1,8,0:0:0:0:
192,192,65653,1,0,0:0:0:0:
320,192,65732,1,2,0:0:0:0:
448,192,65732,1,0,0:0:0:0:
64,192,65810,1,2,0:0:0:0:
192,192,65810,1,0,0:0:0:0:
320,192,65889,1,0,0:0:0:0:
192,192,65968,1,2,0:0:0:0:
448,192,65968,1,0,0:0:0:0:
64,192,66046,1,2,0:0:0:0:
320,192,66125,1,2,0:0:0:0:
448,192,66125,1,0,0:0:0:0:
192,192,66203,1,0,0:0:0:0:
320,192,66282,1,8,0:0:0:0:
448,192,66282,1,0,0:0:0:0:
64,192,66360,1,0,0:0:0:0:
320,192,66439,1,8,0:0:0:0:
448,192,66439,1,0,0:0:0:0:
192,192,66517,1,0,0:0:0:0:
64,192,66596,1,2,0:0:0:0:
448,192,66596,1,4,0:0:0:0:
192,192,66674,1,0,0:0:0:0:
320,192,66674,1,0,0:0:0:0:
64,192,66753,1,2,0:0:0:0:
448,192,66753,1,0,0:0:0:0:
320,192,66831,1,2,0:0:0:0:
64,192,66910,1,8,0:0:0:0:
192,192,66910,1,0,0:0:0:0:
320,192,66988,1,0,0:0:0:0:
448,192,66988,1,0,0:0:0:0:
64,192,67067,1,2,0:0:0:0:
192,192,67067,1,0,0:0:0:0:
320,192,67146,1,2,0:0:0:0:
64,192,67224,1,2,0:0:0:0:
192,192,67224,1,4,0:0:0:0:
320,192,67303,1,2,0:0:0:0:
448,192,67303,1,0,0:0:0:0:
64,192,67381,1,2,0:0:0:0:
192,192,67420,1,2,0:0:0:0:
448,192,67460,1,2,0:0:0:0:
320,192,67499,1,2,0:0:0:0:
64,192,67538,1,8,0:0:0:0:
192,192,67538,1,0,0:0:0:0:
320,192,67617,1,2,0:0:0:0:
448,192,67617,1,0,0:0:0:0:
64,192,67695,1,8,0:0:0:0:
192,192,67695,1,0,0:0:0:0:
320,192,67774,1,2,0:0:0:0:
448,192,67774,1,0,0:0:0:0:
64,192,67852,1,4,0:0:0:0:
192,192,67852,1,2,0:0:0:0:
448,192,67852,1,0,0:0:0:0:
320,192,67931,1,0,0:0:0:0:
192,192,68009,1,0,0:0:0:0:
320,192,68088,1,0,0:0:0:0:
64,192,68166,1,8,0:0:0:0:
448,192,68166,1,0,0:0:0:0:
192,192,68245,1,0,0:0:0:0:
320,192,68324,1,0,0:0:0:0:
192,192,68402,1,0,0:0:0:0:
64,192,68481,1,2,0:0:0:0:
448,192,68481,1,0,0:0:0:0:
320,192,68559,1,0,0:0:0:0:
64,192,68638,1,0,0:0:0:0:
192,192,68638,1,0,0:0:0:0:
320,192,68716,1,0,0:0:0:0:
448,192,68716,1,0,0:0:0:0:
64,192,68795,1,8,0:0:0:0:
192,192,68795,1,0,0:0:0:0:
448,192,68873,1,0,0:0:0:0:
64,192,68952,1,0,0:0:0:0:
192,192,68952,1,0,0:0:0:0:
320,192,69030,1,0,0:0:0:0:
64,192,69109,1,2,0:0:0:0:
448,192,69109,1,0,0:0:0:0:
192,192,69187,1,0,0:0:0:0:
320,192,69266,1,2,0:0:0:0:
448,192,69266,1,0,0:0:0:0:
192,192,69345,1,0,0:0:0:0:
64,192,69423,1,8,0:0:0:0:
448,192,69423,1,0,0:0:0:0:
320,192,69502,1,0,0:0:0:0:
64,192,69580,1,0,0:0:0:0:
192,192,69580,1,0,0:0:0:0:
320,192,69659,1,0,0:0:0:0:
64,192,69737,1,2,0:0:0:0:
448,192,69737,1,0,0:0:0:0:
192,192,69816,1,0,0:0:0:0:
64,192,69894,1,0,0:0:0:0:
448,192,69894,1,0,0:0:0:0:
192,192,69973,1,0,0:0:0:0:
320,192,69973,1,0,0:0:0:0:
64,192,70051,1,8,0:0:0:0:
448,192,70051,1,0,0:0:0:0:
192,192,70130,1,0,0:0:0:0:
64,192,70208,1,8,0:0:0:0:
448,192,70208,1,0,0:0:0:0:
320,192,70287,1,0,0:0:0:0:
64,192,70365,1,2,0:0:0:0:
448,192,70365,1,4,0:0:0:0:
192,192,70444,1,0,0:0:0:0:
320,192,70523,1,2,0:0:0:0:
192,192,70601,1,0,0:0:0:0:
64,192,70680,1,8,0:0:0:0:
448,192,70680,1,0,0:0:0:0:
320,192,70758,1,0,0:0:0:0:
192,192,70837,1,0,0:0:0:0:
320,192,70915,1,0,0:0:0:0:
64,192,70994,1,2,0:0:0:0:
448,192,70994,1,0,0:0:0:0:
192,192,71072,1,0,0:0:0:0:
320,192,71151,1,2,0:0:0:0:
448,192,71151,1,0,0:0:0:0:
64,192,71229,1,0,0:0:0:0:
192,192,71229,1,0,0:0:0:0:
320,192,71308,1,8,0:0:0:0:
448,192,71308,1,0,0:0:0:0:
64,192,71386,1,0,0:0:0:0:
320,192,71465,1,2,0:0:0:0:
448,192,71465,1,0,0:0:0:0:
192,192,71543,1,0,0:0:0:0:
64,192,71622,1,2,0:0:0:0:
448,192,71622,1,4,0:0:0:0:
320,192,71701,1,0,0:0:0:0:
64,192,71779,1,2,0:0:0:0:
192,192,71779,1,0,0:0:0:0:
320,192,71858,1,0,0:0:0:0:
64,192,71936,1,8,0:0:0:0:
448,192,71936,1,0,0:0:0:0:
192,192,72015,1,0,0:0:0:0:
320,192,72093,1,2,0:0:0:0:
448,192,72093,1,0,0:0:0:0:
192,192,72172,1,0,0:0:0:0:
64,192,72250,1,2,0:0:0:0:
448,192,72250,1,4,0:0:0:0:
192,192,72329,1,0,0:0:0:0:
320,192,72329,1,0,0:0:0:0:
64,192,72407,1,2,0:0:0:0:
448,192,72407,1,0,0:0:0:0:
320,192,72486,1,0,0:0:0:0:
64,192,72564,1,8,0:0:0:0:
192,192,72564,1,4,0:0:0:0:
320,192,72643,1,2,0:0:0:0:
448,192,72643,1,0,0:0:0:0:
64,192,72721,1,8,0:0:0:0:
192,192,72721,1,0,0:0:0:0:
320,192,72800,1,2,0:0:0:0:
448,192,72800,1,0,0:0:0:0:
64,192,72879,1,2,0:0:0:0:
192,192,72879,1,4,0:0:0:0:
448,192,72879,1,0,0:0:0:0:
320,192,72957,1,0,0:0:0:0:
64,192,73036,1,2,0:0:0:0:
192,192,73036,1,0,0:0:0:0:
320,192,73114,1,2,0:0:0:0:
64,192,73193,1,8,0:0:0:0:
448,192,73193,1,0,0:0:0:0:
192,192,73271,1,0,0:0:0:0:
320,192,73350,1,2,0:0:0:0:
448,192,73350,1,0,0:0:0:0:
192,192,73428,1,2,0:0:0:0:
320,192,73507,1,2,0:0:0:0:
448,192,73507,1,0,0:0:0:0:
64,192,73585,1,0,0:0:0:0:
192,192,73585,1,0,0:0:0:0:
320,192,73664,1,2,0:0:0:0:
448,192,73664,1,0,0:0:0:0:
64,192,73742,1,2,0:0:0:0:
192,192,73742,1,0,0:0:0:0:
320,192,73821,1,8,0:0:0:0:
448,192,73821,1,0,0:0:0:0:
64,192,73899,1,0,0:0:0:0:
192,192,73899,1,0,0:0:0:0:
320,192,73978,1,2,0:0:0:0:
448,192,73978,1,0,0:0:0:0:
192,192,74057,1,0,0:0:0:0:
64,192,74135,1,4,0:0:0:0:
320,192,74135,1,2,0:0:0:0:
448,192,74135,1,0,0:0:0:0:
192,192,74214,1,0,0:0:0:0:
320,192,74292,1,2,0:0:0:0:
448,192,74292,1,0,0:0:0:0:
192,192,74371,1,2,0:0:0:0:
64,192,74449,1,8,0:0:0:0:
448,192,74449,1,0,0:0:0:0:
320,192,74528,1,0,0:0:0:0:
64,192,74606,1,2,0:0:0:0:
192,192,74606,1,0,0:0:0:0:
320,192,74685,1,2,0:0:0:0:
64,192,74763,1,2,0:0:0:0:
192,192,74763,1,0,0:0:0:0:
320,192,74842,1,0,0:0:0:0:
448,192,74842,1,0,0:0:0:0:
64,192,74920,1,2,0:0:0:0:
192,192,74920,1,0,0:0:0:0:
320,192,74999,1,2,0:0:0:0:
448,192,74999,1,0,0:0:0:0:
64,192,75077,1,8,0:0:0:0:
192,192,75077,1,0,0:0:0:0:
320,192,75156,1,0,0:0:0:0:
448,192,75156,1,0,0:0:0:0:
320,192,75235,1,8,0:0:0:0:
448,192,75235,1,0,0:0:0:0:
64,192,75313,1,0,0:0:0:0:
192,192,75313,1,0,0:0:0:0:
64,192,75392,1,2,0:0:0:0:
320,192,75392,1,4,0:0:0:0:
448,192,75392,1,0,0:0:0:0:
192,192,75470,1,0,0:0:0:0:
64,192,75549,1,2,0:0:0:0:
448,192,75549,1,0,0:0:0:0:
320,192,75627,1,2,0:0:0:0:
64,192,75706,1,8,0:0:0:0:
192,192,75706,1,0,0:0:0:0:
320,192,75784,1,2,0:0:0:0:
64,192,75863,1,2,0:0:0:0:
448,192,75863,1,0,0:0:0:0:
192,192,75941,1,2,0:0:0:0:
320,192,76020,1,8,0:0:0:0:
448,192,76020,1,4,0:0:0:0:
64,192,76098,1,0,0:0:0:0:
192,192,76098,1,0,0:0:0:0:
320,192,76177,1,2,0:0:0:0:
448,192,76177,1,0,0:0:0:0:
64,192,76255,1,2,0:0:0:0:
192,192,76255,1,0,0:0:0:0:
320,192,76334,1,8,0:0:0:0:
448,192,76334,1,0,0:0:0:0:
64,192,76413,1,0,0:0:0:0:
192,192,76413,1,0,0:0:0:0:
320,192,76491,1,2,0:0:0:0:
448,192,76491,1,0,0:0:0:0:
192,192,76570,1,2,0:0:0:0:
64,192,76648,1,8,0:0:0:0:
448,192,76648,1,4,0:0:0:0:
192,192,76727,1,0,0:0:0:0:
320,192,76727,1,0,0:0:0:0:
64,192,76805,1,2,0:0:0:0:
448,192,76805,1,0,0:0:0:0:
320,192,76884,1,8,0:0:0:0:
64,192,76962,1,8,0:0:0:0:
192,192,76962,1,4,0:0:0:0:
320,192,77041,1,0,0:0:0:0:
448,192,77041,1,0,0:0:0:0:
64,192,77119,1,2,0:0:0:0:
192,192,77119,1,0,0:0:0:0:
64,192,77198,1,2,0:0:0:0:
192,192,77198,1,0,0:0:0:0:
320,192,77276,1,8,0:0:0:0:
448,192,77276,1,4,0:0:0:0:
64,192,77355,1,0,0:0:0:0:
192,192,77355,1,0,0:0:0:0:
320,192,77434,1,2,0:0:0:0:
448,192,77434,1,0,0:0:0:0:
192,192,77473,1,2,0:0:0:0:
320,192,77512,1,2,0:0:0:0:
448,192,77551,1,2,0:0:0:0:
64,192,77591,1,8,0:0:0:0:
192,192,77591,1,4,0:0:0:0:
320,192,77669,1,2,0:0:0:0:
448,192,77669,1,0,0:0:0:0:
64,192,77748,1,2,0:0:0:0:
192,192,77748,1,0,0:0:0:0:
320,192,77826,1,2,0:0:0:0:
448,192,77826,1,0,0:0:0:0:
64,192,77905,1,2,0:0:0:0:
192,192,77905,1,4,0:0:0:0:
448,192,77905,1,0,0:0:0:0:
320,192,77983,1,0,0:0:0:0:
64,192,78062,1,2,0:0:0:0:
192,192,78062,1,0,0:0:0:0:
320,192,78140,1,2,0:0:0:0:
448,192,78140,1,0,0:0:0:0:
64,192,78219,1,8,0:0:0:0:
192,192,78219,1,0,0:0:0:0:
320,192,78297,1,0,0:0:0:0:
64,192,78376,1,2,0:0:0:0:
448,192,78376,1,4,0:0:0:0:
192,192,78415,1,2,0:0:0:0:
320,192,78454,1,2,0:0:0:0:
448,192,78494,1,2,0:0:0:0:
64,192,78533,1,2,0:0:0:0:
192,192,78533,1,0,0:0:0:0:
320,192,78612,1,2,0:0:0:0:
448,192,78612,1,0,0:0:0:0:
64,192,78690,1,2,0:0:0:0:
192,192,78690,1,4,0:0:0:0:
320,192,78729,1,2,0:0:0:0:
192,192,78769,1,2,0:0:0:0:
64,192,78808,1,2,0:0:0:0:
320,192,78847,1,2,0:0:0:0:
448,192,78847,1,0,0:0:0:0:
64,192,78926,1,2,0:0:0:0:
192,192,78926,1,0,0:0:0:0:
320,192,79004,1,2,0:0:0:0:
448,192,79004,1,4,0:0:0:0:
64,192,79083,1,2,0:0:0:0:
192,192,79083,1,0,0:0:0:0:
64,192,79161,1,2,0:0:0:0:
320,192,79161,1,4,0:0:0:0:
448,192,79161,1,0,0:0:0:0:
64,192,79475,128,2,79711:0:0:0:0:
192,192,79475,128,4,79711:0:0:0:0:
320,192,79475,128,0,79711:0:0:0:0:
448,192,79475,128,0,79711:0:0:0:0:
64,192,79790,1,8,0:0:0:0:
192,192,79790,1,4,0:0:0:0:
320,192,79790,1,0,0:0:0:0:
448,192,79790,1,0,0:0:0:0:
64,192,79947,1,2,0:0:0:0:
192,192,79947,1,0,0:0:0:0:
320,192,80025,1,2,0:0:0:0:
448,192,80025,1,0,0:0:0:0:
64,192,80104,1,2,0:0:0:0:
192,192,80104,1,4,0:0:0:0:
320,192,80182,1,2,0:0:0:0:
448,192,80182,1,0,0:0:0:0:
64,192,80261,1,2,0:0:0:0:
192,192,80261,1,0,0:0:0:0:
320,192,80339,1,2,0:0:0:0:
448,192,80339,1,0,0:0:0:0:
64,192,80418,1,4,0:0:0:0:
192,192,80418,1,2,0:0:0:0:
320,192,80418,1,0,0:0:0:0:
448,192,80418,1,0,0:0:0:0:
192,192,80575,1,0,0:0:0:0:
320,192,80653,1,0,0:0:0:0:
448,192,80653,1,0,0:0:0:0:
64,192,80732,1,8,0:0:0:0:
192,192,80732,1,0,0:0:0:0:
64,192,80889,1,2,0:0:0:0:
320,192,80889,1,0,0:0:0:0:
448,192,80889,1,0,0:0:0:0:
192,192,81046,1,0,0:0:0:0:
320,192,81046,1,0,0:0:0:0:
64,192,81203,1,8,0:0:0:0:
192,192,81203,1,0,0:0:0:0:
448,192,81203,1,0,0:0:0:0:
320,192,81282,1,0,0:0:0:0:
192,192,81360,1,0,0:0:0:0:
320,192,81413,1,0,0:0:0:0:
448,192,81465,1,0,0:0:0:0:
64,192,81517,1,8,0:0:0:0:
192,192,81517,1,0,0:0:0:0:
320,192,81596,1,2,0:0:0:0:
448,192,81596,1,0,0:0:0:0:
64,192,81674,1,2,0:0:0:0:
192,192,81674,1,4,0:0:0:0:
320,192,81831,1,0,0:0:0:0:
192,192,81910,1,0,0:0:0:0:
64,192,81988,1,8,0:0:0:0:
448,192,81988,1,0,0:0:0:0:
192,192,82146,1,0,0:0:0:0:
320,192,82146,1,0,0:0:0:0:
64,192,82303,1,2,0:0:0:0:
192,192,82303,1,4,0:0:0:0:
448,192,82303,1,0,0:0:0:0:
64,192,82460,1,0,0:0:0:0:
192,192,82460,1,0,0:0:0:0:
64,192,82617,1,8,0:0:0:0:
448,192,82617,1,0,0:0:0:0:
320,192,82774,1,0,0:0:0:0:
192,192,82852,1,0,0:0:0:0:
64,192,82931,1,2,0:0:0:0:
320,192,82931,1,4,0:0:0:0:
448,192,82931,1,0,0:0:0:0:
192,192,83088,1,0,0:0:0:0:
320,192,83166,1,0,0:0:0:0:
64,192,83245,1,8,0:0:0:0:
448,192,83245,1,0,0:0:0:0:
320,192,83402,1,2,0:0:0:0:
448,192,83402,1,4,0:0:0:0:
64,192,83559,1,0,0:0:0:0:
192,192,83559,1,0,0:0:0:0:
448,192,83559,1,0,0:0:0:0:
192,192,83716,1,2,0:0:0:0:
320,192,83716,1,4,0:0:0:0:
320,192,83873,1,8,0:0:0:0:
448,192,83873,1,0,0:0:0:0:
192,192,83926,1,0,0:0:0:0:
64,192,83978,1,0,0:0:0:0:
320,192,84030,1,2,0:0:0:0:
64,192,84109,1,2,0:0:0:0:
192,192,84109,1,0,0:0:0:0:
320,192,84187,1,2,0:0:0:0:
448,192,84187,1,4,0:0:0:0:
192,192,84345,1,0,0:0:0:0:
320,192,84423,1,0,0:0:0:0:
64,192,84502,1,8,0:0:0:0:
192,192,84502,1,0,0:0:0:0:
448,192,84502,1,0,0:0:0:0:
320,192,84659,1,0,0:0:0:0:
192,192,84737,1,0,0:0:0:0:
64,192,84816,1,2,0:0:0:0:
320,192,84816,1,4,0:0:0:0:
448,192,84816,1,0,0:0:0:0:
192,192,84973,1,2,0:0:0:0:
320,192,85051,1,2,0:0:0:0:
64,192,85130,1,8,0:0:0:0:
192,192,85130,1,0,0:0:0:0:
448,192,85130,1,0,0:0:0:0:
192,192,85287,1,2,0:0:0:0:
320,192,85287,1,4,0:0:0:0:
64,192,85444,1,2,0:0:0:0:
192,192,85444,1,4,0:0:0:0:
320,192,85444,1,0,0:0:0:0:
448,192,85444,1,0,0:0:0:0:
64,192,85601,1,0,0:0:0:0:
192,192,85680,1,0,0:0:0:0:
320,192,85758,1,8,0:0:0:0:
448,192,85758,1,0,0:0:0:0:
192,192,85915,1,0,0:0:0:0:
320,192,85915,1,0,0:0:0:0:
64,192,86072,1,2,0:0:0:0:
192,192,86072,1,0,0:0:0:0:
448,192,86072,1,0,0:0:0:0:
192,192,86229,1,0,0:0:0:0:
320,192,86229,1,0,0:0:0:0:
64,192,86386,1,8,0:0:0:0:
320,192,86386,1,0,0:0:0:0:
448,192,86386,1,0,0:0:0:0:
64,192,86543,1,0,0:0:0:0:
448,192,86543,1,0,0:0:0:0:
192,192,86701,1,2,0:0:0:0:
320,192,86701,1,0,0:0:0:0:
64,192,86858,1,0,0:0:0:0:
448,192,86858,1,0,0:0:0:0:
64,192,87015,1,8,0:0:0:0:
192,192,87015,1,0,0:0:0:0:
448,192,87015,1,0,0:0:0:0:
192,192,87172,1,0,0:0:0:0:
320,192,87172,1,0,0:0:0:0:
192,192,87329,1,2,0:0:0:0:
320,192,87329,1,0,0:0:0:0:
64,192,87486,1,0,0:0:0:0:
448,192,87486,1,0,0:0:0:0:
64,192,87643,1,8,0:0:0:0:
320,192,87643,1,0,0:0:0:0:
448,192,87643,1,0,0:0:0:0:
64,192,87800,1,2,0:0:0:0:
192,192,87800,1,0,0:0:0:0:
320,192,87879,1,0,0:0:0:0:
448,192,87879,1,0,0:0:0:0:
64,192,87957,1,2,0:0:0:0:
192,192,87957,1,4,0:0:0:0:
448,192,87957,1,0,0:0:0:0:
320,192,88114,1,0,0:0:0:0:
448,192,88114,1,0,0:0:0:0:
320,192,88271,1,8,0:0:0:0:
448,192,88271,1,0,0:0:0:0:
192,192,88428,1,0,0:0:0:0:
320,192,88428,1,0,0:0:0:0:
64,192,88585,1,2,0:0:0:0:
320,192,88585,1,4,0:0:0:0:
448,192,88585,1,0,0:0:0:0:
64,192,88742,1,0,0:0:0:0:
192,192,88742,1,0,0:0:0:0:
64,192,88899,1,8,0:0:0:0:
192,192,88899,1,0,0:0:0:0:
320,192,89057,1,0,0:0:0:0:
448,192,89057,1,0,0:0:0:0:
64,192,89135,1,0,0:0:0:0:
320,192,89214,1,2,0:0:0:0:
448,192,89214,1,4,0:0:0:0:
192,192,89371,1,0,0:0:0:0:
320,192,89449,1,0,0:0:0:0:
64,192,89528,1,8,0:0:0:0:
448,192,89528,1,0,0:0:0:0:
64,192,89685,1,0,0:0:0:0:
192,192,89685,1,0,0:0:0:0:
320,192,89763,1,0,0:0:0:0:
448,192,89763,1,0,0:0:0:0:
64,192,89842,1,4,0:0:0:0:
192,192,89842,1,2,0:0:0:0:
320,192,89999,1,0,0:0:0:0:
448,192,89999,1,0,0:0:0:0:
64,192,90156,1,0,0:0:0:0:
192,192,90156,1,0,0:0:0:0:
320,192,90195,1,0,0:0:0:0:
448,192,90235,1,0,0:0:0:0:
64,192,90274,1,0,0:0:0:0:
192,192,90313,1,0,0:0:0:0:
448,192,90352,1,0,0:0:0:0:
320,192,90392,1,0,0:0:0:0:
192,192,90431,1,0,0:0:0:0:
64,192,90470,1,4,0:0:0:0:
448,192,90470,1,2,0:0:0:0:
320,192,90627,1,0,0:0:0:0:
192,192,90706,1,0,0:0:0:0:
64,192,90784,1,8,0:0:0:0:
320,192,90784,1,0,0:0:0:0:
448,192,90784,1,0,0:0:0:0:
64,192,90941,1,2,0:0:0:0:
192,192,90941,1,0,0:0:0:0:
448,192,90941,1,0,0:0:0:0:
192,192,91098,1,0,0:0:0:0:
320,192,91098,1,0,0:0:0:0:
64,192,91255,1,8,0:0:0:0:
320,192,91255,1,0,0:0:0:0:
448,192,91255,1,0,0:0:0:0:
192,192,91334,1,0,0:0:0:0:
320,192,91413,1,0,0:0:0:0:
192,192,91465,1,0,0:0:0:0:
64,192,91517,1,0,0:0:0:0:
320,192,91570,1,8,0:0:0:0:
448,192,91570,1,0,0:0:0:0:
64,192,91648,1,2,0:0:0:0:
192,192,91648,1,0,0:0:0:0:
320,192,91727,1,2,0:0:0:0:
448,192,91727,1,4,0:0:0:0:
192,192,91884,1,0,0:0:0:0:
320,192,91962,1,0,0:0:0:0:
64,192,92041,1,8,0:0:0:0:
448,192,92041,1,0,0:0:0:0:
192,192,92198,1,0,0:0:0:0:
320,192,92198,1,0,0:0:0:0:
64,192,92355,1,2,0:0:0:0:
320,192,92355,1,4,0:0:0:0:
448,192,92355,1,0,0:0:0:0:
320,192,92512,1,0,0:0:0:0:
448,192,92512,1,0,0:0:0:0:
64,192,92669,1,8,0:0:0:0:
192,192,92669,1,0,0:0:0:0:
448,192,92669,1,0,0:0:0:0:
192,192,92826,1,0,0:0:0:0:
320,192,92905,1,0,0:0:0:0:
64,192,92983,1,2,0:0:0:0:
192,192,92983,1,4,0:0:0:0:
448,192,92983,1,0,0:0:0:0:
320,192,93140,1,0,0:0:0:0:
192,192,93219,1,0,0:0:0:0:
64,192,93297,1,8,0:0:0:0:
320,192,93297,1,0,0:0:0:0:
448,192,93297,1,0,0:0:0:0:
64,192,93454,1,2,0:0:0:0:
192,192,93454,1,4,0:0:0:0:
448,192,93454,1,0,0:0:0:0:
64,192,93612,1,0,0:0:0:0:
448,192,93612,1,0,0:0:0:0:
64,192,93769,1,2,0:0:0:0:
320,192,93769,1,4,0:0:0:0:
448,192,93769,1,0,0:0:0:0:
64,192,93926,1,8,0:0:0:0:
192,192,93926,1,0,0:0:0:0:
320,192,93978,1,0,0:0:0:0:
448,192,94030,1,0,0:0:0:0:
64,192,94083,1,2,0:0:0:0:
192,192,94083,1,0,0:0:0:0:
320,192,94161,1,2,0:0:0:0:
448,192,94161,1,0,0:0:0:0:
64,192,94240,1,2,0:0:0:0:
192,192,94240,1,4,0:0:0:0:
448,192,94240,1,0,0:0:0:0:
320,192,94397,1,0,0:0:0:0:
192,192,94475,1,0,0:0:0:0:
64,192,94554,1,8,0:0:0:0:
320,192,94554,1,0,0:0:0:0:
448,192,94554,1,0,0:0:0:0:
192,192,94711,1,8,0:0:0:0:
320,192,94790,1,0,0:0:0:0:
448,192,94790,1,0,0:0:0:0:
64,192,94868,1,2,0:0:0:0:
192,192,94868,1,4,0:0:0:0:
320,192,95025,1,2,0:0:0:0:
64,192,95104,1,2,0:0:0:0:
192,192,95104,1,0,0:0:0:0:
320,192,95182,1,8,0:0:0:0:
448,192,95182,1,0,0:0:0:0:
192,192,95339,1,2,0:0:0:0:
320,192,95339,1,4,0:0:0:0:
64,192,95496,1,2,0:0:0:0:
192,192,95496,1,4,0:0:0:0:
320,192,95496,1,0,0:0:0:0:
448,192,95496,1,0,0:0:0:0:
192,192,95653,1,2,0:0:0:0:
320,192,95732,1,2,0:0:0:0:
448,192,95732,1,0,0:0:0:0:
64,192,95810,1,8,0:0:0:0:
192,192,95810,1,0,0:0:0:0:
192,192,95968,1,0,0:0:0:0:
320,192,95968,1,0,0:0:0:0:
64,192,96125,1,2,0:0:0:0:
320,192,96125,1,0,0:0:0:0:
448,192,96125,1,0,0:0:0:0:
192,192,96282,1,0,0:0:0:0:
320,192,96282,1,0,0:0:0:0:
64,192,96439,1,8,0:0:0:0:
192,192,96439,1,0,0:0:0:0:
448,192,96439,1,0,0:0:0:0:
64,192,96596,1,0,0:0:0:0:
448,192,96596,1,0,0:0:0:0:
192,192,96753,1,2,0:0:0:0:
320,192,96753,1,0,0:0:0:0:
64,192,96910,1,0,0:0:0:0:
448,192,96910,1,0,0:0:0:0:
64,192,97067,1,8,0:0:0:0:
320,192,97067,1,0,0:0:0:0:
448,192,97067,1,0,0:0:0:0:
192,192,97224,1,0,0:0:0:0:
320,192,97224,1,0,0:0:0:0:
192,192,97381,1,2,0:0:0:0:
320,192,97381,1,0,0:0:0:0:
64,192,97538,1,0,0:0:0:0:
448,192,97538,1,0,0:0:0:0:
64,192,97695,1,8,0:0:0:0:
192,192,97695,1,0,0:0:0:0:
448,192,97695,1,0,0:0:0:0:
320,192,97852,1,8,0:0:0:0:
448,192,97852,1,0,0:0:0:0:
64,192,97931,1,0,0:0:0:0:
192,192,97931,1,0,0:0:0:0:
64,192,98009,1,2,0:0:0:0:
320,192,98009,1,4,0:0:0:0:
448,192,98009,1,0,0:0:0:0:
64,192,98166,1,0,0:0:0:0:
192,192,98166,1,0,0:0:0:0:
64,192,98324,1,8,0:0:0:0:
192,192,98324,1,0,0:0:0:0:
448,192,98324,1,0,0:0:0:0:
192,192,98481,1,0,0:0:0:0:
320,192,98481,1,0,0:0:0:0:
64,192,98638,1,2,0:0:0:0:
192,192,98638,1,4,0:0:0:0:
448,192,98638,1,0,0:0:0:0:
320,192,98795,1,0,0:0:0:0:
448,192,98795,1,0,0:0:0:0:
64,192,98952,1,8,0:0:0:0:
320,192,98952,1,4,0:0:0:0:
448,192,98952,1,0,0:0:0:0:
64,192,99109,1,2,0:0:0:0:
192,192,99109,1,0,0:0:0:0:
448,192,99109,1,0,0:0:0:0:
320,192,99187,1,0,0:0:0:0:
64,192,99266,1,2,0:0:0:0:
192,192,99266,1,4,0:0:0:0:
448,192,99266,1,0,0:0:0:0:
192,192,99423,1,2,0:0:0:0:
64,192,99462,1,2,0:0:0:0:
448,192,99502,1,2,0:0:0:0:
320,192,99541,1,2,0:0:0:0:
64,192,99580,1,2,0:0:0:0:
192,192,99580,1,4,0:0:0:0:
64,192,99737,1,2,0:0:0:0:
320,192,99737,1,0,0:0:0:0:
448,192,99737,1,0,0:0:0:0:
192,192,99816,1,0,0:0:0:0:
64,192,99894,1,2,0:0:0:0:
320,192,99894,1,4,0:0:0:0:
448,192,99894,1,0,0:0:0:0:
64,192,100051,1,2,0:0:0:0:
192,192,100051,1,0,0:0:0:0:
320,192,100130,1,2,0:0:0:0:
448,192,100130,1,0,0:0:0:0:
64,192,100208,1,2,0:0:0:0:
192,192,100208,1,0,0:0:0:0:
320,192,100287,1,2,0:0:0:0:
448,192,100287,1,0,0:0:0:0:
64,192,100365,1,2,0:0:0:0:
192,192,100365,1,0,0:0:0:0:
320,192,100444,1,2,0:0:0:0:
448,192,100444,1,0,0:0:0:0:
64,192,100523,1,4,0:0:0:0:
192,192,100523,1,2,0:0:0:0:
320,192,100523,1,0,0:0:0:0:
448,192,100523,1,0,0:0:0:0:
192,192,100680,1,0,0:0:0:0:
320,192,100758,1,0,0:0:0:0:
64,192,100837,1,8,0:0:0:0:
192,192,100837,1,0,0:0:0:0:
448,192,100837,1,0,0:0:0:0:
64,192,100994,1,2,0:0:0:0:
320,192,100994,1,0,0:0:0:0:
448,192,100994,1,0,0:0:0:0:
192,192,101151,1,4,0:0:0:0:
320,192,101151,1,0,0:0:0:0:
64,192,101308,1,8,0:0:0:0:
192,192,101308,1,0,0:0:0:0:
448,192,101308,1,0,0:0:0:0:
320,192,101386,1,0,0:0:0:0:
192,192,101465,1,0,0:0:0:0:
320,192,101517,1,0,0:0:0:0:
448,192,101570,1,0,0:0:0:0:
64,192,101622,1,8,0:0:0:0:
192,192,101622,1,0,0:0:0:0:
320,192,101701,1,2,0:0:0:0:
448,192,101701,1,0,0:0:0:0:
64,192,101779,1,2,0:0:0:0:
192,192,101779,1,4,0:0:0:0:
320,192,101779,1,0,0:0:0:0:
448,192,101779,1,0,0:0:0:0:
320,192,101936,1,0,0:0:0:0:
192,192,102015,1,0,0:0:0:0:
64,192,102093,1,8,0:0:0:0:
320,192,102093,1,0,0:0:0:0:
448,192,102093,1,0,0:0:0:0:
192,192,102250,1,0,0:0:0:0:
320,192,102250,1,0,0:0:0:0:
64,192,102407,1,2,0:0:0:0:
192,192,102407,1,4,0:0:0:0:
448,192,102407,1,0,0:0:0:0:
64,192,102564,1,0,0:0:0:0:
192,192,102564,1,0,0:0:0:0:
64,192,102721,1,8,0:0:0:0:
320,192,102721,1,0,0:0:0:0:
448,192,102721,1,0,0:0:0:0:
320,192,102879,1,0,0:0:0:0:
192,192,102957,1,0,0:0:0:0:
64,192,103036,1,2,0:0:0:0:
320,192,103036,1,4,0:0:0:0:
448,192,103036,1,0,0:0:0:0:
192,192,103193,1,2,0:0:0:0:
320,192,103271,1,0,0:0:0:0:
64,192,103350,1,8,0:0:0:0:
192,192,103350,1,0,0:0:0:0:
448,192,103350,1,0,0:0:0:0:
64,192,103507,1,2,0:0:0:0:
320,192,103507,1,4,0:0:0:0:
448,192,103507,1,0,0:0:0:0:
192,192,103664,1,0,0:0:0:0:
320,192,103664,1,0,0:0:0:0:
64,192,103821,1,2,0:0:0:0:
192,192,103821,1,4,0:0:0:0:
448,192,103821,1,0,0:0:0:0:
320,192,103978,1,8,0:0:0:0:
448,192,103978,1,0,0:0:0:0:
192,192,104030,1,0,0:0:0:0:
64,192,104083,1,0,0:0:0:0:
320,192,104135,1,2,0:0:0:0:
448,192,104135,1,0,0:0:0:0:
64,192,104214,1,2,0:0:0:0:
192,192,104214,1,0,0:0:0:0:
64,192,104292,1,2,0:0:0:0:
192,192,104292,1,4,0:0:0:0:
320,192,104292,1,0,0:0:0:0:
448,192,104292,1,0,0:0:0:0:
192,192,104449,1,0,0:0:0:0:
320,192,104528,1,0,0:0:0:0:
448,192,104528,1,0,0:0:0:0:
64,192,104606,1,8,0:0:0:0:
192,192,104606,1,0,0:0:0:0:
320,192,104763,1,2,0:0:0:0:
192,192,104842,1,2,0:0:0:0:
64,192,104920,1,2,0:0:0:0:
320,192,104920,1,4,0:0:0:0:
448,192,104920,1,0,0:0:0:0:
192,192,105077,1,2,0:0:0:0:
320,192,105156,1,2,0:0:0:0:
64,192,105235,1,8,0:0:0:0:
192,192,105235,1,0,0:0:0:0:
448,192,105235,1,0,0:0:0:0:
64,192,105392,1,2,0:0:0:0:
320,192,105392,1,4,0:0:0:0:
448,192,105392,1,0,0:0:0:0:
64,192,105549,1,2,0:0:0:0:
192,192,105549,1,4,0:0:0:0:
320,192,105549,1,0,0:0:0:0:
448,192,105549,1,0,0:0:0:0:
64,192,105706,1,2,0:0:0:0:
192,192,105784,1,2,0:0:0:0:
64,192,105863,1,8,0:0:0:0:
320,192,105863,1,0,0:0:0:0:
448,192,105863,1,0,0:0:0:0:
192,192,106020,1,0,0:0:0:0:
320,192,106020,1,0,0:0:0:0:
64,192,106177,1,2,0:0:0:0:
192,192,106177,1,0,0:0:0:0:
448,192,106177,1,0,0:0:0:0:
64,192,106334,1,0,0:0:0:0:
448,192,106334,1,0,0:0:0:0:
320,192,106373,1,0,0:0:0:0:
192,192,106413,1,0,0:0:0:0:
64,192,106491,1,8,0:0:0:0:
320,192,106491,1,0,0:0:0:0:
448,192,106491,1,0,0:0:0:0:
64,192,106648,1,0,0:0:0:0:
448,192,106648,1,0,0:0:0:0:
192,192,106687,1,0,0:0:0:0:
320,192,106727,1,0,0:0:0:0:
64,192,106805,1,2,0:0:0:0:
192,192,106805,1,0,0:0:0:0:
64,192,106962,1,0,0:0:0:0:
448,192,106962,1,0,0:0:0:0:
192,192,107002,1,0,0:0:0:0:
320,192,107041,1,0,0:0:0:0:
64,192,107119,1,8,0:0:0:0:
192,192,107119,1,0,0:0:0:0:
448,192,107119,1,0,0:0:0:0:
64,192,107276,1,0,0:0:0:0:
448,192,107276,1,0,0:0:0:0:
320,192,107316,1,0,0:0:0:0:
192,192,107355,1,0,0:0:0:0:
64,192,107434,1,2,0:0:0:0:
320,192,107434,1,0,0:0:0:0:
448,192,107434,1,0,0:0:0:0:
64,192,107591,1,2,0:0:0:0:
448,192,107591,1,0,0:0:0:0:
320,192,107630,1,0,0:0:0:0:
192,192,107669,1,0,0:0:0:0:
64,192,107748,1,8,0:0:0:0:
320,192,107748,1,0,0:0:0:0:
448,192,107748,1,0,0:0:0:0:
64,192,107905,1,2,0:0:0:0:
192,192,107905,1,0,0:0:0:0:
320,192,107983,1,0,0:0:0:0:
448,192,107983,1,0,0:0:0:0:
64,192,108062,1,2,0:0:0:0:
192,192,108062,1,4,0:0:0:0:
320,192,108062,1,0,0:0:0:0:
448,192,108062,1,0,0:0:0:0:
320,192,108219,1,0,0:0:0:0:
448,192,108219,1,0,0:0:0:0:
64,192,108258,1,0,0:0:0:0:
192,192,108297,1,0,0:0:0:0:
64,192,108376,1,8,0:0:0:0:
320,192,108376,1,0,0:0:0:0:
448,192,108376,1,0,0:0:0:0:
64,192,108533,1,0,0:0:0:0:
192,192,108533,1,0,0:0:0:0:
448,192,108572,1,0,0:0:0:0:
320,192,108612,1,0,0:0:0:0:
64,192,108690,1,2,0:0:0:0:
192,192,108690,1,4,0:0:0:0:
320,192,108690,1,0,0:0:0:0:
448,192,108690,1,0,0:0:0:0:
64,192,108847,1,0,0:0:0:0:
192,192,108847,1,0,0:0:0:0:
448,192,108886,1,0,0:0:0:0:
320,192,108926,1,0,0:0:0:0:
64,192,109004,1,8,0:0:0:0:
192,192,109004,1,0,0:0:0:0:
448,192,109004,1,0,0:0:0:0:
64,192,109161,1,2,0:0:0:0:
448,192,109161,1,0,0:0:0:0:
320,192,109201,1,0,0:0:0:0:
192,192,109240,1,0,0:0:0:0:
64,192,109318,1,2,0:0:0:0:
320,192,109318,1,4,0:0:0:0:
448,192,109318,1,0,0:0:0:0:
192,192,109475,1,0,0:0:0:0:
320,192,109554,1,0,0:0:0:0:
64,192,109632,1,8,0:0:0:0:
192,192,109632,1,0,0:0:0:0:
448,192,109632,1,0,0:0:0:0:
64,192,109790,1,2,0:0:0:0:
192,192,109790,1,0,0:0:0:0:
320,192,109868,1,0,0:0:0:0:
448,192,109868,1,0,0:0:0:0:
64,192,109947,1,4,0:0:0:0:
192,192,109947,1,2,0:0:0:0:
320,192,110104,1,0,0:0:0:0:
448,192,110104,1,0,0:0:0:0:
192,192,110182,1,0,0:0:0:0:
64,192,110261,1,2,0:0:0:0:
448,192,110261,1,4,0:0:0:0:
320,192,110339,1,0,0:0:0:0:
64,192,110418,1,2,0:0:0:0:
192,192,110418,1,0,0:0:0:0:
320,192,110496,1,0,0:0:0:0:
448,192,110496,1,0,0:0:0:0:
64,192,110575,1,4,0:0:0:0:
192,192,110575,1,2,0:0:0:0:
320,192,110575,1,0,0:0:0:0:
448,192,110575,1,0,0:0:0:0:
320,192,110732,1,0,0:0:0:0:
192,192,110810,1,0,0:0:0:0:
64,192,110889,1,8,0:0:0:0:
320,192,110889,1,0,0:0:0:0:
448,192,110889,1,0,0:0:0:0:
64,192,111046,1,2,0:0:0:0:
192,192,111046,1,0,0:0:0:0:
448,192,111046,1,0,0:0:0:0:
192,192,111203,1,4,0:0:0:0:
320,192,111203,1,0,0:0:0:0:
64,192,111360,1,8,0:0:0:0:
320,192,111360,1,0,0:0:0:0:
448,192,111360,1,0,0:0:0:0:
192,192,111439,1,0,0:0:0:0:
320,192,111517,1,2,0:0:0:0:
192,192,111570,1,0,0:0:0:0:
64,192,111622,1,0,0:0:0:0:
320,192,111674,1,8,0:0:0:0:
448,192,111674,1,0,0:0:0:0:
64,192,111753,1,2,0:0:0:0:
192,192,111753,1,0,0:0:0:0:
64,192,111831,1,2,0:0:0:0:
192,192,111831,1,4,0:0:0:0:
320,192,111831,1,0,0:0:0:0:
448,192,111831,1,0,0:0:0:0:
192,192,111988,1,0,0:0:0:0:
320,192,112067,1,0,0:0:0:0:
64,192,112146,1,8,0:0:0:0:
192,192,112146,1,0,0:0:0:0:
448,192,112146,1,0,0:0:0:0:
192,192,112303,1,0,0:0:0:0:
320,192,112303,1,0,0:0:0:0:
64,192,112460,1,2,0:0:0:0:
320,192,112460,1,4,0:0:0:0:
448,192,112460,1,0,0:0:0:0:
320,192,112617,1,0,0:0:0:0:
448,192,112617,1,0,0:0:0:0:
64,192,112774,1,8,0:0:0:0:
192,192,112774,1,0,0:0:0:0:
448,192,112774,1,0,0:0:0:0:
192,192,112931,1,0,0:0:0:0:
320,192,113009,1,0,0:0:0:0:
64,192,113088,1,2,0:0:0:0:
192,192,113088,1,4,0:0:0:0:
448,192,113088,1,0,0:0:0:0:
320,192,113245,1,2,0:0:0:0:
192,192,113324,1,0,0:0:0:0:
64,192,113402,1,8,0:0:0:0:
320,192,113402,1,0,0:0:0:0:
448,192,113402,1,0,0:0:0:0:
64,192,113559,1,2,0:0:0:0:
192,192,113559,1,4,0:0:0:0:
448,192,113559,1,0,0:0:0:0:
192,192,113716,1,0,0:0:0:0:
320,192,113716,1,0,0:0:0:0:
64,192,113873,1,2,0:0:0:0:
320,192,113873,1,4,0:0:0:0:
448,192,113873,1,0,0:0:0:0:
64,192,114030,1,8,0:0:0:0:
192,192,114030,1,0,0:0:0:0:
320,192,114083,1,0,0:0:0:0:
448,192,114135,1,0,0:0:0:0:
64,192,114187,1,2,0:0:0:0:
192,192,114187,1,0,0:0:0:0:
320,192,114266,1,2,0:0:0:0:
448,192,114266,1,0,0:0:0:0:
64,192,114345,1,2,0:0:0:0:
192,192,114345,1,4,0:0:0:0:
320,192,114345,1,0,0:0:0:0:
448,192,114345,1,0,0:0:0:0:
320,192,114502,1,0,0:0:0:0:
64,192,114580,1,0,0:0:0:0:
192,192,114580,1,0,0:0:0:0:
320,192,114659,1,8,0:0:0:0:
448,192,114659,1,0,0:0:0:0:
192,192,114816,1,8,0:0:0:0:
320,192,114894,1,2,0:0:0:0:
64,192,114973,1,2,0:0:0:0:
192,192,114973,1,4,0:0:0:0:
448,192,114973,1,0,0:0:0:0:
320,192,115130,1,2,0:0:0:0:
192,192,115208,1,2,0:0:0:0:
64,192,115287,1,8,0:0:0:0:
320,192,115287,1,0,0:0:0:0:
448,192,115287,1,0,0:0:0:0:
64,192,115444,1,2,0:0:0:0:
192,192,115444,1,4,0:0:0:0:
448,192,115444,1,0,0:0:0:0:
64,192,115601,1,2,0:0:0:0:
192,192,115601,1,4,0:0:0:0:
320,192,115601,1,0,0:0:0:0:
448,192,115601,1,0,0:0:0:0:
448,192,115758,1,2,0:0:0:0:
320,192,115837,1,2,0:0:0:0:
64,192,115915,1,8,0:0:0:0:
192,192,115915,1,0,0:0:0:0:
448,192,115915,1,0,0:0:0:0:
192,192,116072,1,0,0:0:0:0:
320,192,116072,1,0,0:0:0:0:
64,192,116229,1,2,0:0:0:0:
320,192,116229,1,0,0:0:0:0:
448,192,116229,1,0,0:0:0:0:
64,192,116386,1,0,0:0:0:0:
448,192,116386,1,0,0:0:0:0:
192,192,116426,1,0,0:0:0:0:
320,192,116465,1,0,0:0:0:0:
64,192,116543,1,8,0:0:0:0:
192,192,116543,1,0,0:0:0:0:
448,192,116543,1,0,0:0:0:0:
64,192,116701,1,0,0:0:0:0:
448,192,116701,1,0,0:0:0:0:
320,192,116740,1,0,0:0:0:0:
192,192,116779,1,0,0:0:0:0:
320,192,116858,1,2,0:0:0:0:
448,192,116858,1,0,0:0:0:0:
64,192,117015,1,0,0:0:0:0:
448,192,117015,1,0,0:0:0:0:
320,192,117054,1,0,0:0:0:0:
192,192,117093,1,0,0:0:0:0:
64,192,117172,1,8,0:0:0:0:
320,192,117172,1,0,0:0:0:0:
448,192,117172,1,0,0:0:0:0:
64,192,117329,1,0,0:0:0:0:
448,192,117329,1,0,0:0:0:0:
192,192,117368,1,0,0:0:0:0:
320,192,117407,1,0,0:0:0:0:
64,192,117486,1,2,0:0:0:0:
192,192,117486,1,0,0:0:0:0:
448,192,117486,1,0,0:0:0:0:
64,192,117643,1,2,0:0:0:0:
448,192,117643,1,0,0:0:0:0:
192,192,117682,1,0,0:0:0:0:
320,192,117721,1,0,0:0:0:0:
64,192,117800,1,8,0:0:0:0:
192,192,117800,1,0,0:0:0:0:
448,192,117800,1,0,0:0:0:0:
320,192,117957,1,8,0:0:0:0:
448,192,117957,1,0,0:0:0:0:
64,192,118036,1,0,0:0:0:0:
192,192,118036,1,0,0:0:0:0:
64,192,118114,1,2,0:0:0:0:
192,192,118114,1,4,0:0:0:0:
320,192,118114,1,0,0:0:0:0:
448,192,118114,1,0,0:0:0:0:
64,192,118271,1,0,0:0:0:0:
192,192,118271,1,0,0:0:0:0:
448,192,118310,1,0,0:0:0:0:
320,192,118350,1,0,0:0:0:0:
64,192,118428,1,8,0:0:0:0:
192,192,118428,1,0,0:0:0:0:
448,192,118428,1,0,0:0:0:0:
320,192,118585,1,0,0:0:0:0:
448,192,118585,1,0,0:0:0:0:
64,192,118625,1,0,0:0:0:0:
192,192,118664,1,0,0:0:0:0:
64,192,118742,1,2,0:0:0:0:
192,192,118742,1,4,0:0:0:0:
320,192,118742,1,0,0:0:0:0:
448,192,118742,1,0,0:0:0:0:
320,192,118899,1,0,0:0:0:0:
448,192,118899,1,0,0:0:0:0:
64,192,118939,1,0,0:0:0:0:
192,192,118978,1,0,0:0:0:0:
64,192,119057,1,8,0:0:0:0:
320,192,119057,1,4,0:0:0:0:
448,192,119057,1,0,0:0:0:0:
64,192,119214,1,2,0:0:0:0:
448,192,119214,1,0,0:0:0:0:
192,192,119253,1,0,0:0:0:0:
320,192,119292,1,0,0:0:0:0:
64,192,119371,1,2,0:0:0:0:
192,192,119371,1,4,0:0:0:0:
448,192,119371,1,0,0:0:0:0:
64,192,119528,1,2,0:0:0:0:
448,192,119567,1,2,0:0:0:0:
320,192,119606,1,2,0:0:0:0:
192,192,119646,1,2,0:0:0:0:
64,192,119685,1,2,0:0:0:0:
448,192,119685,1,4,0:0:0:0:
64,192,119842,1,2,0:0:0:0:
192,192,119842,1,0,0:0:0:0:
448,192,119842,1,0,0:0:0:0:
320,192,119920,1,0,0:0:0:0:
64,192,119999,1,2,0:0:0:0:
192,192,119999,1,4,0:0:0:0:
448,192,119999,1,0,0:0:0:0:
320,192,120077,1,0,0:0:0:0:
64,192,120156,1,2,0:0:0:0:
192,192,120156,1,0,0:0:0:0:
320,192,120235,1,2,0:0:0:0:
64,192,120313,1,2,0:0:0:0:
448,192,120313,1,0,0:0:0:0:
320,192,120392,1,2,0:0:0:0:
64,192,120470,1,2,0:0:0:0:
192,192,120470,1,0,0:0:0:0:
320,192,120549,1,2,0:0:0:0:
448,192,120549,1,0,0:0:0:0:
64,192,120627,1,2,0:0:0:0:
192,192,120627,1,4,0:0:0:0:
320,192,120627,1,0,0:0:0:0:
448,192,120627,1,0,0:0:0:0:
192,192,120706,1,0,0:0:0:0:
320,192,120784,1,0,0:0:0:0:
192,192,120863,1,0,0:0:0:0:
64,192,120941,1,8,0:0:0:0:
448,192,120941,1,0,0:0:0:0:
320,192,121020,1,0,0:0:0:0:
192,192,121098,1,0,0:0:0:0:
64,192,121177,1,0,0:0:0:0:
448,192,121255,1,0,0:0:0:0:
320,192,121334,1,0,0:0:0:0:
192,192,121413,1,0,0:0:0:0:
320,192,121491,1,0,0:0:0:0:
64,192,121570,1,8,0:0:0:0:
448,192,121570,1,0,0:0:0:0:
192,192,121648,1,0,0:0:0:0:
448,192,121727,1,0,0:0:0:0:
320,192,121805,1,0,0:0:0:0:
192,192,121884,1,0,0:0:0:0:
64,192,121962,1,0,0:0:0:0:
192,192,122041,1,0,0:0:0:0:
320,192,122119,1,0,0:0:0:0:
64,192,122198,1,8,0:0:0:0:
448,192,122198,1,0,0:0:0:0:
192,192,122276,1,0,0:0:0:0:
320,192,122355,1,0,0:0:0:0:
192,192,122434,1,0,0:0:0:0:
64,192,122512,1,0,0:0:0:0:
448,192,122591,1,0,0:0:0:0:
320,192,122669,1,0,0:0:0:0:
192,192,122748,1,0,0:0:0:0:
64,192,122826,1,8,0:0:0:0:
448,192,122826,1,0,0:0:0:0:
320,192,122905,1,0,0:0:0:0:
192,192,122983,1,0,0:0:0:0:
64,192,123062,1,0,0:0:0:0:
320,192,123140,1,2,0:0:0:0:
448,192,123140,1,0,0:0:0:0:
192,192,123219,1,0,0:0:0:0:
320,192,123297,1,0,0:0:0:0:
192,192,123376,1,0,0:0:0:0:
64,192,123454,1,8,0:0:0:0:
448,192,123454,1,0,0:0:0:0:
320,192,123533,1,0,0:0:0:0:
192,192,123612,1,0,0:0:0:0:
64,192,123690,1,0,0:0:0:0:
448,192,123769,1,0,0:0:0:0:
192,192,123847,1,0,0:0:0:0:
320,192,123926,1,0,0:0:0:0:
192,192,124004,1,0,0:0:0:0:
64,192,124083,1,8,0:0:0:0:
448,192,124083,1,0,0:0:0:0:
320,192,124161,1,0,0:0:0:0:
64,192,124240,1,2,0:0:0:0:
192,192,124240,1,0,0:0:0:0:
448,192,124318,1,0,0:0:0:0:
64,192,124397,1,2,0:0:0:0:
192,192,124397,1,0,0:0:0:0:
320,192,124475,1,0,0:0:0:0:
192,192,124554,1,0,0:0:0:0:
320,192,124632,1,0,0:0:0:0:
64,192,124711,1,8,0:0:0:0:
448,192,124711,1,0,0:0:0:0:
192,192,124790,1,0,0:0:0:0:
320,192,124868,1,0,0:0:0:0:
448,192,124947,1,0,0:0:0:0:
64,192,125025,1,0,0:0:0:0:
192,192,125064,1,0,0:0:0:0:
448,192,125104,1,0,0:0:0:0:
320,192,125182,1,0,0:0:0:0:
448,192,125261,1,0,0:0:0:0:
64,192,125339,1,8,0:0:0:0:
192,192,125339,1,0,0:0:0:0:
320,192,125418,1,2,0:0:0:0:
448,192,125418,1,0,0:0:0:0:
64,192,125496,1,2,0:0:0:0:
192,192,125496,1,0,0:0:0:0:
320,192,125575,1,0,0:0:0:0:
64,192,125653,1,2,0:0:0:0:
192,192,125653,1,4,0:0:0:0:
448,192,125653,1,0,0:0:0:0:
320,192,125732,1,0,0:0:0:0:
192,192,125810,1,0,0:0:0:0:
320,192,125889,1,0,0:0:0:0:
64,192,125968,1,8,0:0:0:0:
448,192,125968,1,0,0:0:0:0:
192,192,126046,1,0,0:0:0:0:
448,192,126125,1,0,0:0:0:0:
320,192,126203,1,0,0:0:0:0:
64,192,126282,1,0,0:0:0:0:
192,192,126360,1,0,0:0:0:0:
320,192,126439,1,0,0:0:0:0:
448,192,126517,1,0,0:0:0:0:
64,192,126596,128,8,126753:0:0:0:0:
192,192,126674,1,0,0:0:0:0:
320,192,126753,1,2,0:0:0:0:
448,192,126753,1,0,0:0:0:0:
64,192,126831,1,0,0:0:0:0:
320,192,126910,1,2,0:0:0:0:
448,192,126910,1,0,0:0:0:0:
192,192,126988,1,0,0:0:0:0:
320,192,127067,1,0,0:0:0:0:
192,192,127146,1,0,0:0:0:0:
64,192,127224,1,8,0:0:0:0:
448,192,127224,1,0,0:0:0:0:
320,192,127263,1,0,0:0:0:0:
192,192,127303,1,0,0:0:0:0:
448,192,127381,1,0,0:0:0:0:
320,192,127460,1,0,0:0:0:0:
64,192,127538,1,0,0:0:0:0:
192,192,127577,1,0,0:0:0:0:
320,192,127617,1,0,0:0:0:0:
448,192,127695,1,0,0:0:0:0:
64,192,127774,1,0,0:0:0:0:
320,192,127852,1,8,0:0:0:0:
448,192,127852,1,0,0:0:0:0:
192,192,127931,1,0,0:0:0:0:
320,192,128009,1,2,0:0:0:0:
448,192,128009,1,0,0:0:0:0:
64,192,128088,1,2,0:0:0:0:
192,192,128088,1,0,0:0:0:0:
320,192,128166,1,2,0:0:0:0:
448,192,128166,1,0,0:0:0:0:
192,192,128245,1,0,0:0:0:0:
320,192,128324,1,0,0:0:0:0:
64,192,128402,1,2,0:0:0:0:
192,192,128402,1,0,0:0:0:0:
320,192,128481,1,8,0:0:0:0:
448,192,128481,1,0,0:0:0:0:
192,192,128559,1,0,0:0:0:0:
320,192,128638,1,0,0:0:0:0:
64,192,128716,1,0,0:0:0:0:
320,192,128795,1,2,0:0:0:0:
448,192,128795,1,0,0:0:0:0:
192,192,128873,1,0,0:0:0:0:
64,192,128952,1,0,0:0:0:0:
320,192,129030,1,2,0:0:0:0:
448,192,129030,1,0,0:0:0:0:
64,192,129109,1,8,0:0:0:0:
192,192,129109,1,0,0:0:0:0:
320,192,129187,1,0,0:0:0:0:
192,192,129266,1,0,0:0:0:0:
320,192,129345,1,0,0:0:0:0:
64,192,129423,1,2,0:0:0:0:
192,192,129423,1,0,0:0:0:0:
448,192,129502,1,0,0:0:0:0:
64,192,129580,1,0,0:0:0:0:
192,192,129580,1,0,0:0:0:0:
320,192,129659,1,0,0:0:0:0:
64,192,129737,1,8,0:0:0:0:
448,192,129737,1,0,0:0:0:0:
192,192,129816,1,0,0:0:0:0:
320,192,129894,1,2,0:0:0:0:
448,192,129894,1,0,0:0:0:0:
64,192,129973,1,2,0:0:0:0:
192,192,129973,1,0,0:0:0:0:
320,192,130051,1,8,0:0:0:0:
448,192,130051,1,0,0:0:0:0:
320,192,130208,1,2,0:0:0:0:
448,192,130208,1,0,0:0:0:0:
192,192,130248,1,0,0:0:0:0:
320,192,130287,1,0,0:0:0:0:
448,192,130326,1,0,0:0:0:0:
64,192,130365,1,8,0:0:0:0:
192,192,130365,1,0,0:0:0:0:
320,192,130444,1,2,0:0:0:0:
448,192,130444,1,0,0:0:0:0:
64,192,130523,1,2,0:0:0:0:
192,192,130523,1,0,0:0:0:0:
320,192,130601,1,2,0:0:0:0:
448,192,130601,1,0,0:0:0:0:
64,192,130680,1,2,0:0:0:0:
192,192,130680,1,4,0:0:0:0:
320,192,130680,1,0,0:0:0:0:
448,192,130680,1,0,0:0:0:0:
192,192,130758,1,0,0:0:0:0:
320,192,130837,1,0,0:0:0:0:
192,192,130915,1,0,0:0:0:0:
64,192,130994,1,8,0:0:0:0:
448,192,130994,1,0,0:0:0:0:
320,192,131033,1,0,0:0:0:0:
192,192,131072,1,0,0:0:0:0:
320,192,131151,1,0,0:0:0:0:
64,192,131229,1,0,0:0:0:0:
448,192,131308,1,0,0:0:0:0:
192,192,131347,1,0,0:0:0:0:
64,192,131386,1,0,0:0:0:0:
320,192,131465,1,0,0:0:0:0:
192,192,131543,1,0,0:0:0:0:
64,192,131622,1,8,0:0:0:0:
448,192,131622,1,0,0:0:0:0:
320,192,131661,1,0,0:0:0:0:
192,192,131701,1,0,0:0:0:0:
448,192,131779,1,0,0:0:0:0:
320,192,131858,1,0,0:0:0:0:
64,192,131936,1,0,0:0:0:0:
448,192,132015,1,0,0:0:0:0:
320,192,132093,1,0,0:0:0:0:
192,192,132172,1,0,0:0:0:0:
64,192,132250,1,8,0:0:0:0:
448,192,132250,1,0,0:0:0:0:
192,192,132290,1,0,0:0:0:0:
320,192,132329,1,0,0:0:0:0:
448,192,132407,1,0,0:0:0:0:
192,192,132486,1,0,0:0:0:0:
64,192,132564,1,0,0:0:0:0:
320,192,132604,1,0,0:0:0:0:
448,192,132643,1,0,0:0:0:0:
192,192,132721,1,0,0:0:0:0:
64,192,132800,1,0,0:0:0:0:
320,192,132879,1,8,0:0:0:0:
448,192,132879,1,0,0:0:0:0:
192,192,132918,1,0,0:0:0:0:
64,192,133036,1,2,0:0:0:0:
192,192,133036,1,0,0:0:0:0:
320,192,133114,1,0,0:0:0:0:
448,192,133114,1,0,0:0:0:0:
64,192,133193,1,2,0:0:0:0:
192,192,133193,1,0,0:0:0:0:
320,192,133271,1,0,0:0:0:0:
192,192,133350,1,0,0:0:0:0:
320,192,133428,1,0,0:0:0:0:
64,192,133507,1,8,0:0:0:0:
448,192,133507,1,0,0:0:0:0:
192,192,133585,1,0,0:0:0:0:
320,192,133664,1,0,0:0:0:0:
448,192,133742,1,0,0:0:0:0:
64,192,133821,1,0,0:0:0:0:
192,192,133899,1,0,0:0:0:0:
320,192,133978,1,0,0:0:0:0:
192,192,134057,1,0,0:0:0:0:
64,192,134135,1,8,0:0:0:0:
448,192,134135,1,0,0:0:0:0:
320,192,134214,1,0,0:0:0:0:
64,192,134292,1,2,0:0:0:0:
192,192,134292,1,0,0:0:0:0:
448,192,134371,1,0,0:0:0:0:
320,192,134410,1,0,0:0:0:0:
64,192,134449,1,2,0:0:0:0:
192,192,134449,1,0,0:0:0:0:
320,192,134528,1,0,0:0:0:0:
192,192,134606,1,0,0:0:0:0:
320,192,134685,1,0,0:0:0:0:
64,192,134763,1,8,0:0:0:0:
448,192,134763,1,0,0:0:0:0:
192,192,134842,1,0,0:0:0:0:
320,192,134920,1,0,0:0:0:0:
64,192,134999,1,0,0:0:0:0:
448,192,135077,1,0,0:0:0:0:
192,192,135156,1,0,0:0:0:0:
320,192,135235,1,0,0:0:0:0:
64,192,135313,1,0,0:0:0:0:
320,192,135392,1,8,0:0:0:0:
448,192,135392,1,0,0:0:0:0:
64,192,135470,1,2,0:0:0:0:
192,192,135470,1,0,0:0:0:0:
320,192,135549,1,2,0:0:0:0:
448,192,135549,1,0,0:0:0:0:
64,192,135627,1,2,0:0:0:0:
192,192,135627,1,0,0:0:0:0:
64,192,135706,1,8,0:0:0:0:
192,192,135706,1,4,0:0:0:0:
320,192,135706,1,0,0:0:0:0:
448,192,135706,1,0,0:0:0:0:
448,192,135784,1,0,0:0:0:0:
64,192,135863,1,2,0:0:0:0:
192,192,135863,1,0,0:0:0:0:
320,192,135941,1,2,0:0:0:0:
448,192,135941,1,0,0:0:0:0:
192,192,136020,1,8,0:0:0:0:
320,192,136098,1,0,0:0:0:0:
64,192,136177,1,2,0:0:0:0:
320,192,136255,1,2,0:0:0:0:
448,192,136255,1,0,0:0:0:0:
64,192,136334,1,8,0:0:0:0:
192,192,136334,1,0,0:0:0:0:
448,192,136413,1,0,0:0:0:0:
64,192,136491,1,2,0:0:0:0:
192,192,136491,1,0,0:0:0:0:
320,192,136570,1,2,0:0:0:0:
448,192,136570,1,0,0:0:0:0:
192,192,136648,1,8,0:0:0:0:
320,192,136727,1,0,0:0:0:0:
448,192,136727,1,0,0:0:0:0:
64,192,136805,1,2,0:0:0:0:
192,192,136805,1,0,0:0:0:0:
320,192,136884,1,2,0:0:0:0:
448,192,136884,1,0,0:0:0:0:
64,192,136962,1,8,0:0:0:0:
192,192,136962,1,4,0:0:0:0:
448,192,136962,1,0,0:0:0:0:
320,192,137041,1,0,0:0:0:0:
192,192,137119,1,2,0:0:0:0:
320,192,137198,1,2,0:0:0:0:
448,192,137198,1,0,0:0:0:0:
64,192,137276,1,8,0:0:0:0:
192,192,137276,1,0,0:0:0:0:
320,192,137355,1,0,0:0:0:0:
64,192,137434,1,2,0:0:0:0:
192,192,137434,1,0,0:0:0:0:
320,192,137512,1,2,0:0:0:0:
448,192,137512,1,0,0:0:0:0:
64,192,137591,1,8,0:0:0:0:
192,192,137591,1,0,0:0:0:0:
320,192,137669,1,0,0:0:0:0:
448,192,137669,1,0,0:0:0:0:
64,192,137748,1,2,0:0:0:0:
192,192,137748,1,0,0:0:0:0:
320,192,137826,1,2,0:0:0:0:
448,192,137826,1,0,0:0:0:0:
64,192,137905,1,8,0:0:0:0:
192,192,137905,1,0,0:0:0:0:
448,192,137905,1,0,0:0:0:0:
320,192,137983,1,0,0:0:0:0:
64,192,138062,1,2,0:0:0:0:
192,192,138062,1,0,0:0:0:0:
320,192,138140,1,2,0:0:0:0:
448,192,138140,1,0,0:0:0:0:
64,192,138219,1,8,0:0:0:0:
320,192,138219,1,4,0:0:0:0:
448,192,138219,1,0,0:0:0:0:
192,192,138297,1,2,0:0:0:0:
320,192,138376,1,2,0:0:0:0:
448,192,138376,1,0,0:0:0:0:
64,192,138454,1,2,0:0:0:0:
192,192,138454,1,0,0:0:0:0:
320,192,138533,1,8,0:0:0:0:
192,192,138612,1,2,0:0:0:0:
320,192,138690,1,2,0:0:0:0:
448,192,138690,1,0,0:0:0:0:
64,192,138769,1,2,0:0:0:0:
192,192,138769,1,0,0:0:0:0:
320,192,138847,1,8,0:0:0:0:
448,192,138847,1,4,0:0:0:0:
64,192,138926,1,2,0:0:0:0:
448,192,139004,1,2,0:0:0:0:
64,192,139083,1,2,0:0:0:0:
192,192,139083,1,0,0:0:0:0:
320,192,139161,1,8,0:0:0:0:
448,192,139161,1,0,0:0:0:0:
192,192,139240,1,2,0:0:0:0:
320,192,139318,1,2,0:0:0:0:
64,192,139397,1,2,0:0:0:0:
192,192,139397,1,0,0:0:0:0:
320,192,139475,1,4,0:0:0:0:
448,192,139475,1,8,0:0:0:0:
64,192,139554,1,2,0:0:0:0:
448,192,139632,1,2,0:0:0:0:
64,192,139711,1,2,0:0:0:0:
192,192,139711,1,0,0:0:0:0:
320,192,139790,1,8,0:0:0:0:
448,192,139790,1,4,0:0:0:0:
192,192,139868,1,2,0:0:0:0:
320,192,139947,1,2,0:0:0:0:
64,192,140025,1,2,0:0:0:0:
192,192,140025,1,0,0:0:0:0:
320,192,140104,1,8,0:0:0:0:
448,192,140104,1,4,0:0:0:0:
64,192,140182,1,2,0:0:0:0:
448,192,140261,1,2,0:0:0:0:
64,192,140339,1,2,0:0:0:0:
192,192,140339,1,0,0:0:0:0:
320,192,140418,1,8,0:0:0:0:
448,192,140418,1,4,0:0:0:0:
64,192,140496,1,2,0:0:0:0:
192,192,140496,1,0,0:0:0:0:
320,192,140575,1,2,0:0:0:0:
448,192,140575,1,0,0:0:0:0:
64,192,140653,1,2,0:0:0:0:
192,192,140653,1,0,0:0:0:0:
64,192,140732,1,2,0:0:0:0:
320,192,140732,1,4,0:0:0:0:
448,192,140732,1,0,0:0:0:0:
192,192,140810,1,0,0:0:0:0:
320,192,140889,1,0,0:0:0:0:
192,192,140968,1,0,0:0:0:0:
64,192,141046,1,8,0:0:0:0:
448,192,141046,1,0,0:0:0:0:
320,192,141125,1,0,0:0:0:0:
192,192,141203,1,0,0:0:0:0:
448,192,141282,1,0,0:0:0:0:
64,192,141360,1,2,0:0:0:0:
192,192,141360,1,0,0:0:0:0:
320,192,141439,1,0,0:0:0:0:
192,192,141517,1,0,0:0:0:0:
320,192,141596,1,0,0:0:0:0:
64,192,141674,1,8,0:0:0:0:
448,192,141674,1,0,0:0:0:0:
192,192,141753,1,0,0:0:0:0:
320,192,141831,1,0,0:0:0:0:
64,192,141910,1,0,0:0:0:0:
192,192,141910,1,0,0:0:0:0:
320,192,141988,1,2,0:0:0:0:
448,192,141988,1,0,0:0:0:0:
64,192,142067,1,0,0:0:0:0:
192,192,142146,1,8,0:0:0:0:
320,192,142224,1,0,0:0:0:0:
64,192,142303,1,8,0:0:0:0:
448,192,142303,1,0,0:0:0:0:
192,192,142381,1,0,0:0:0:0:
320,192,142460,1,0,0:0:0:0:
448,192,142538,1,0,0:0:0:0:
64,192,142617,1,2,0:0:0:0:
192,192,142617,1,0,0:0:0:0:
320,192,142695,1,0,0:0:0:0:
192,192,142774,1,0,0:0:0:0:
320,192,142852,1,0,0:0:0:0:
64,192,142931,1,8,0:0:0:0:
448,192,142931,1,0,0:0:0:0:
192,192,143009,1,0,0:0:0:0:
320,192,143088,1,8,0:0:0:0:
64,192,143166,1,0,0:0:0:0:
320,192,143245,1,2,0:0:0:0:
448,192,143245,1,0,0:0:0:0:
192,192,143324,1,0,0:0:0:0:
320,192,143402,1,0,0:0:0:0:
192,192,143481,1,0,0:0:0:0:
64,192,143559,1,8,0:0:0:0:
448,192,143559,1,0,0:0:0:0:
320,192,143638,1,0,0:0:0:0:
192,192,143716,1,0,0:0:0:0:
448,192,143795,1,0,0:0:0:0:
64,192,143873,1,2,0:0:0:0:
192,192,143873,1,0,0:0:0:0:
320,192,143952,1,0,0:0:0:0:
192,192,144030,1,2,0:0:0:0:
320,192,144109,1,0,0:0:0:0:
64,192,144187,1,8,0:0:0:0:
448,192,144187,1,0,0:0:0:0:
192,192,144266,1,0,0:0:0:0:
320,192,144345,1,2,0:0:0:0:
448,192,144345,1,0,0:0:0:0:
64,192,144423,1,0,0:0:0:0:
320,192,144502,1,2,0:0:0:0:
448,192,144502,1,0,0:0:0:0:
192,192,144580,1,0,0:0:0:0:
320,192,144659,1,8,0:0:0:0:
448,192,144659,1,0,0:0:0:0:
192,192,144737,1,0,0:0:0:0:
64,192,144816,1,2,0:0:0:0:
448,192,144816,1,0,0:0:0:0:
320,192,144894,1,8,0:0:0:0:
64,192,144973,1,8,0:0:0:0:
192,192,144973,1,0,0:0:0:0:
320,192,145051,1,8,0:0:0:0:
448,192,145051,1,0,0:0:0:0:
64,192,145130,1,2,0:0:0:0:
192,192,145130,1,0,0:0:0:0:
320,192,145169,1,0,0:0:0:0:
448,192,145208,1,0,0:0:0:0:
192,192,145287,1,8,0:0:0:0:
64,192,145365,1,8,0:0:0:0:
320,192,145444,1,8,0:0:0:0:
448,192,145444,1,0,0:0:0:0:
64,192,145523,1,0,0:0:0:0:
192,192,145523,1,0,0:0:0:0:
320,192,145601,1,8,0:0:0:0:
448,192,145601,1,0,0:0:0:0:
192,192,145680,1,0,0:0:0:0:
64,192,145758,1,4,0:0:0:0:
320,192,145758,1,2,0:0:0:0:
448,192,145758,1,0,0:0:0:0:
192,192,145837,1,0,0:0:0:0:
320,192,145915,1,0,0:0:0:0:
192,192,145994,1,0,0:0:0:0:
64,192,146072,1,8,0:0:0:0:
448,192,146072,1,0,0:0:0:0:
320,192,146112,1,0,0:0:0:0:
192,192,146151,1,0,0:0:0:0:
448,192,146229,1,0,0:0:0:0:
320,192,146308,1,0,0:0:0:0:
64,192,146386,1,2,0:0:0:0:
192,192,146386,1,0,0:0:0:0:
448,192,146426,1,0,0:0:0:0:
320,192,146465,1,0,0:0:0:0:
64,192,146543,1,0,0:0:0:0:
192,192,146622,1,0,0:0:0:0:
64,192,146701,1,8,0:0:0:0:
448,192,146701,1,0,0:0:0:0:
320,192,146740,1,0,0:0:0:0:
192,192,146779,1,0,0:0:0:0:
448,192,146858,1,2,0:0:0:0:
320,192,146936,1,0,0:0:0:0:
64,192,147015,1,0,0:0:0:0:
192,192,147015,1,0,0:0:0:0:
320,192,147093,1,0,0:0:0:0:
192,192,147172,1,0,0:0:0:0:
320,192,147250,1,0,0:0:0:0:
64,192,147329,1,8,0:0:0:0:
448,192,147329,1,0,0:0:0:0:
192,192,147368,1,0,0:0:0:0:
320,192,147407,1,0,0:0:0:0:
64,192,147486,1,0,0:0:0:0:
192,192,147564,1,0,0:0:0:0:
320,192,147643,1,2,0:0:0:0:
448,192,147643,1,0,0:0:0:0:
192,192,147721,1,0,0:0:0:0:
320,192,147800,1,0,0:0:0:0:
448,192,147879,1,0,0:0:0:0:
64,192,147957,1,8,0:0:0:0:
192,192,147957,1,0,0:0:0:0:
320,192,147996,1,0,0:0:0:0:
448,192,148036,1,0,0:0:0:0:
64,192,148114,1,0,0:0:0:0:
192,192,148114,1,0,0:0:0:0:
448,192,148193,1,0,0:0:0:0:
320,192,148232,1,0,0:0:0:0:
64,192,148271,1,2,0:0:0:0:
192,192,148271,1,0,0:0:0:0:
320,192,148350,1,0,0:0:0:0:
192,192,148428,1,0,0:0:0:0:
320,192,148507,1,0,0:0:0:0:
448,192,148507,1,0,0:0:0:0:
64,192,148585,1,8,0:0:0:0:
192,192,148585,1,0,0:0:0:0:
320,192,148664,1,0,0:0:0:0:
192,192,148742,1,0,0:0:0:0:
448,192,148821,1,0,0:0:0:0:
64,192,148899,1,2,0:0:0:0:
192,192,148899,1,0,0:0:0:0:
320,192,148978,1,0,0:0:0:0:
448,192,149057,1,0,0:0:0:0:
64,192,149135,1,0,0:0:0:0:
192,192,149135,1,0,0:0:0:0:
320,192,149214,1,8,0:0:0:0:
448,192,149214,1,0,0:0:0:0:
192,192,149292,1,0,0:0:0:0:
320,192,149371,1,0,0:0:0:0:
192,192,149449,1,0,0:0:0:0:
320,192,149528,1,2,0:0:0:0:
448,192,149528,1,0,0:0:0:0:
64,192,149606,1,0,0:0:0:0:
320,192,149685,1,8,0:0:0:0:
448,192,149685,1,0,0:0:0:0:
192,192,149763,1,0,0:0:0:0:
64,192,149842,1,2,0:0:0:0:
448,192,149842,1,0,0:0:0:0:
320,192,149920,1,8,0:0:0:0:
64,192,149999,1,8,0:0:0:0:
192,192,149999,1,0,0:0:0:0:
320,192,150077,1,8,0:0:0:0:
448,192,150077,1,0,0:0:0:0:
64,192,150156,1,2,0:0:0:0:
192,192,150156,1,0,0:0:0:0:
64,192,150313,1,2,0:0:0:0:
192,192,150313,1,0,0:0:0:0:
320,192,150392,1,2,0:0:0:0:
448,192,150392,1,0,0:0:0:0:
64,192,150470,1,8,0:0:0:0:
192,192,150509,1,0,0:0:0:0:
320,192,150549,1,0,0:0:0:0:
448,192,150588,1,0,0:0:0:0:
64,192,150627,1,0,0:0:0:0:
192,192,150627,1,0,0:0:0:0:
320,192,150706,1,0,0:0:0:0:
448,192,150706,1,0,0:0:0:0:
64,192,150784,1,2,0:0:0:0:
192,192,150784,1,4,0:0:0:0:
320,192,150784,1,0,0:0:0:0:
448,192,150784,1,0,0:0:0:0:
64,192,150863,1,0,0:0:0:0:
192,192,150941,1,0,0:0:0:0:
320,192,151020,1,0,0:0:0:0:
64,192,151098,1,8,0:0:0:0:
448,192,151098,1,0,0:0:0:0:
192,192,151138,1,0,0:0:0:0:
320,192,151177,1,0,0:0:0:0:
192,192,151255,1,0,0:0:0:0:
448,192,151334,1,0,0:0:0:0:
64,192,151413,1,2,0:0:0:0:
192,192,151413,1,0,0:0:0:0:
320,192,151452,1,0,0:0:0:0:
448,192,151491,1,0,0:0:0:0:
192,192,151570,1,0,0:0:0:0:
320,192,151648,1,0,0:0:0:0:
64,192,151727,1,8,0:0:0:0:
448,192,151727,1,0,0:0:0:0:
192,192,151766,1,0,0:0:0:0:
320,192,151805,1,0,0:0:0:0:
64,192,151884,1,0,0:0:0:0:
192,192,151962,1,0,0:0:0:0:
320,192,152041,1,2,0:0:0:0:
448,192,152041,1,0,0:0:0:0:
64,192,152119,1,0,0:0:0:0:
192,192,152198,1,8,0:0:0:0:
320,192,152276,1,0,0:0:0:0:
64,192,152355,1,8,0:0:0:0:
448,192,152355,1,0,0:0:0:0:
320,192,152394,1,0,0:0:0:0:
192,192,152434,1,0,0:0:0:0:
320,192,152512,1,0,0:0:0:0:
192,192,152591,1,0,0:0:0:0:
320,192,152669,1,2,0:0:0:0:
448,192,152669,1,0,0:0:0:0:
192,192,152708,1,0,0:0:0:0:
64,192,152748,1,0,0:0:0:0:
320,192,152826,1,0,0:0:0:0:
448,192,152905,1,0,0:0:0:0:
64,192,152983,1,8,0:0:0:0:
192,192,152983,1,0,0:0:0:0:
320,192,153023,1,0,0:0:0:0:
320,192,153140,1,8,0:0:0:0:
448,192,153140,1,0,0:0:0:0:
64,192,153219,1,0,0:0:0:0:
192,192,153219,1,0,0:0:0:0:
64,192,153297,1,2,0:0:0:0:
320,192,153297,1,4,0:0:0:0:
448,192,153297,1,0,0:0:0:0:
192,192,153376,1,0,0:0:0:0:
320,192,153454,1,0,0:0:0:0:
192,192,153533,1,0,0:0:0:0:
64,192,153612,1,8,0:0:0:0:
448,192,153612,1,0,0:0:0:0:
320,192,153690,1,0,0:0:0:0:
192,192,153769,1,0,0:0:0:0:
64,192,153847,1,0,0:0:0:0:
320,192,153926,1,2,0:0:0:0:
448,192,153926,1,0,0:0:0:0:
192,192,154004,1,0,0:0:0:0:
320,192,154083,1,2,0:0:0:0:
192,192,154161,1,0,0:0:0:0:
64,192,154240,1,8,0:0:0:0:
448,192,154240,1,0,0:0:0:0:
192,192,154318,1,0,0:0:0:0:
320,192,154397,1,2,0:0:0:0:
448,192,154397,1,0,0:0:0:0:
64,192,154475,1,0,0:0:0:0:
192,192,154515,1,0,0:0:0:0:
320,192,154554,1,2,0:0:0:0:
448,192,154554,1,0,0:0:0:0:
192,192,154632,1,0,0:0:0:0:
320,192,154711,1,8,0:0:0:0:
448,192,154711,1,0,0:0:0:0:
192,192,154790,1,0,0:0:0:0:
64,192,154868,1,2,0:0:0:0:
448,192,154868,1,0,0:0:0:0:
320,192,154947,1,8,0:0:0:0:
64,192,155025,1,2,0:0:0:0:
192,192,155025,1,0,0:0:0:0:
320,192,155104,1,8,0:0:0:0:
448,192,155104,1,0,0:0:0:0:
64,192,155182,1,2,0:0:0:0:
192,192,155221,1,0,0:0:0:0:
320,192,155261,1,0,0:0:0:0:
64,192,155339,1,2,0:0:0:0:
192,192,155379,1,2,0:0:0:0:
320,192,155418,1,2,0:0:0:0:
448,192,155457,1,2,0:0:0:0:
64,192,155496,1,8,0:0:0:0:
192,192,155496,1,0,0:0:0:0:
320,192,155575,1,0,0:0:0:0:
448,192,155575,1,0,0:0:0:0:
64,192,155653,1,2,0:0:0:0:
192,192,155653,1,0,0:0:0:0:
320,192,155732,1,2,0:0:0:0:
448,192,155732,1,0,0:0:0:0:
64,192,155810,1,4,0:0:0:0:
192,192,155810,1,8,0:0:0:0:
320,192,155810,1,0,0:0:0:0:
448,192,155810,1,0,0:0:0:0:
64,192,155889,1,0,0:0:0:0:
320,192,155968,1,2,0:0:0:0:
448,192,155968,1,0,0:0:0:0:
64,192,156046,1,2,0:0:0:0:
192,192,156046,1,0,0:0:0:0:
320,192,156125,1,8,0:0:0:0:
192,192,156203,1,0,0:0:0:0:
448,192,156282,1,2,0:0:0:0:
64,192,156360,1,2,0:0:0:0:
192,192,156360,1,0,0:0:0:0:
320,192,156439,1,8,0:0:0:0:
448,192,156439,1,0,0:0:0:0:
64,192,156517,1,0,0:0:0:0:
320,192,156596,1,2,0:0:0:0:
448,192,156596,1,0,0:0:0:0:
192,192,156674,1,2,0:0:0:0:
320,192,156753,1,8,0:0:0:0:
64,192,156831,1,0,0:0:0:0:
192,192,156831,1,0,0:0:0:0:
320,192,156910,1,2,0:0:0:0:
448,192,156910,1,0,0:0:0:0:
64,192,156988,1,2,0:0:0:0:
192,192,156988,1,0,0:0:0:0:
64,192,157067,1,8,0:0:0:0:
320,192,157067,1,4,0:0:0:0:
448,192,157067,1,0,0:0:0:0:
192,192,157146,1,0,0:0:0:0:
320,192,157224,1,2,0:0:0:0:
64,192,157303,1,2,0:0:0:0:
192,192,157303,1,0,0:0:0:0:
320,192,157381,1,8,0:0:0:0:
192,192,157460,1,0,0:0:0:0:
320,192,157538,1,2,0:0:0:0:
448,192,157538,1,0,0:0:0:0:
192,192,157617,1,2,0:0:0:0:
64,192,157695,1,8,0:0:0:0:
320,192,157695,1,0,0:0:0:0:
448,192,157695,1,0,0:0:0:0:
192,192,157774,1,0,0:0:0:0:
320,192,157852,1,2,0:0:0:0:
64,192,157931,1,2,0:0:0:0:
192,192,157931,1,0,0:0:0:0:
64,192,158009,1,8,0:0:0:0:
320,192,158009,1,0,0:0:0:0:
448,192,158009,1,0,0:0:0:0:
192,192,158088,1,0,0:0:0:0:
320,192,158166,1,2,0:0:0:0:
448,192,158166,1,0,0:0:0:0:
64,192,158245,1,2,0:0:0:0:
192,192,158245,1,0,0:0:0:0:
64,192,158324,1,8,0:0:0:0:
192,192,158324,1,4,0:0:0:0:
448,192,158324,1,0,0:0:0:0:
320,192,158402,1,2,0:0:0:0:
64,192,158481,1,2,0:0:0:0:
192,192,158481,1,0,0:0:0:0:
320,192,158559,1,2,0:0:0:0:
64,192,158638,1,8,0:0:0:0:
192,192,158638,1,0,0:0:0:0:
320,192,158716,1,2,0:0:0:0:
64,192,158795,1,2,0:0:0:0:
192,192,158795,1,0,0:0:0:0:
320,192,158873,1,2,0:0:0:0:
64,192,158952,1,8,0:0:0:0:
192,192,158952,1,4,0:0:0:0:
320,192,159030,1,2,0:0:0:0:
64,192,159109,1,2,0:0:0:0:
192,192,159109,1,0,0:0:0:0:
320,192,159187,1,2,0:0:0:0:
64,192,159266,1,8,0:0:0:0:
192,192,159266,1,0,0:0:0:0:
320,192,159345,1,2,0:0:0:0:
64,192,159423,1,2,0:0:0:0:
192,192,159423,1,0,0:0:0:0:
320,192,159502,1,2,0:0:0:0:
64,192,159580,1,4,0:0:0:0:
192,192,159580,1,8,0:0:0:0:
320,192,159659,1,2,0:0:0:0:
448,192,159659,1,0,0:0:0:0:
64,192,159737,1,2,0:0:0:0:
192,192,159737,1,0,0:0:0:0:
320,192,159816,1,2,0:0:0:0:
448,192,159816,1,0,0:0:0:0:
64,192,159894,1,8,0:0:0:0:
192,192,159894,1,4,0:0:0:0:
320,192,159973,1,2,0:0:0:0:
448,192,159973,1,0,0:0:0:0:
64,192,160051,1,2,0:0:0:0:
192,192,160051,1,0,0:0:0:0:
320,192,160130,1,2,0:0:0:0:
448,192,160130,1,0,0:0:0:0:
64,192,160208,1,8,0:0:0:0:
192,192,160208,1,4,0:0:0:0:
320,192,160248,1,2,0:0:0:0:
448,192,160287,1,2,0:0:0:0:
64,192,160326,1,2,0:0:0:0:
192,192,160365,1,2,0:0:0:0:
448,192,160405,1,2,0:0:0:0:
320,192,160444,1,2,0:0:0:0:
64,192,160483,1,2,0:0:0:0:
192,192,160523,1,8,0:0:0:0:
448,192,160562,1,2,0:0:0:0:
320,192,160601,1,2,0:0:0:0:
192,192,160640,1,2,0:0:0:0:
64,192,160680,1,2,0:0:0:0:
448,192,160719,1,2,0:0:0:0:
320,192,160758,1,2,0:0:0:0:
192,192,160797,1,2,0:0:0:0:
64,192,160837,1,2,0:0:0:0:
320,192,160837,1,4,0:0:0:0:
448,192,160837,1,0,0:0:0:0:
192,192,160915,1,0,0:0:0:0:
320,192,160994,1,0,0:0:0:0:
448,192,161072,1,0,0:0:0:0:
64,192,161151,1,0,0:0:0:0:
192,192,161229,1,0,0:0:0:0:
448,192,161308,1,0,0:0:0:0:
192,192,161386,1,0,0:0:0:0:
320,192,161465,1,0,0:0:0:0:
64,192,161517,1,0,0:0:0:0:
448,192,161570,1,0,0:0:0:0:
192,192,161622,1,0,0:0:0:0:
320,192,161701,1,0,0:0:0:0:
192,192,161779,1,0,0:0:0:0:
64,192,161858,1,0,0:0:0:0:
448,192,161936,1,0,0:0:0:0:
320,192,162015,1,0,0:0:0:0:
64,192,162093,1,0,0:0:0:0:
448,192,162172,1,0,0:0:0:0:
192,192,162250,1,0,0:0:0:0:
320,192,162329,1,0,0:0:0:0:
64,192,162407,1,8,0:0:0:0:
448,192,162407,1,0,0:0:0:0:
192,192,162486,1,0,0:0:0:0:
320,192,162564,1,0,0:0:0:0:
192,192,162643,1,0,0:0:0:0:
64,192,162721,1,8,0:0:0:0:
448,192,162721,1,0,0:0:0:0:
320,192,162800,1,0,0:0:0:0:
192,192,162879,1,0,0:0:0:0:
448,192,162957,1,0,0:0:0:0:
64,192,163036,1,0,0:0:0:0:
192,192,163036,1,0,0:0:0:0:
320,192,163114,1,0,0:0:0:0:
448,192,163193,1,0,0:0:0:0:
192,192,163245,1,0,0:0:0:0:
320,192,163297,1,0,0:0:0:0:
64,192,163350,1,4,0:0:0:0:
192,192,163350,1,2,0:0:0:0:
448,192,163350,1,0,0:0:0:50:BassKickReverbXD.wav
320,192,163428,1,2,0:0:0:0:
64,192,163507,1,2,0:0:0:0:
192,192,163507,1,0,0:0:0:0:
320,192,163585,1,0,0:0:0:0:
448,192,163585,1,0,0:0:0:0:
64,192,163664,1,8,0:0:0:0:
192,192,163664,1,0,0:0:0:0:
448,192,163742,1,2,0:0:0:0:
320,192,163821,1,2,0:0:0:0:
64,192,163899,1,0,0:0:0:0:
320,192,163978,1,2,0:0:0:0:
448,192,163978,1,0,0:0:0:0:
64,192,164057,1,2,0:0:0:0:
192,192,164057,1,0,0:0:0:0:
320,192,164135,1,2,0:0:0:0:
448,192,164135,1,0,0:0:0:0:
192,192,164214,1,0,0:0:0:0:
64,192,164292,1,8,0:0:0:0:
448,192,164292,1,0,0:0:0:0:
320,192,164371,1,0,0:0:0:0:
192,192,164449,1,2,0:0:0:0:
320,192,164528,1,0,0:0:0:0:
64,192,164606,1,0,0:0:0:0:
192,192,164606,1,0,0:0:0:0:
320,192,164685,1,0,0:0:0:0:
448,192,164685,1,0,0:0:0:0:
64,192,164763,1,8,0:0:0:0:
192,192,164763,1,0,0:0:0:0:
320,192,164842,1,0,0:0:0:0:
64,192,164920,1,8,0:0:0:0:
448,192,164920,1,0,0:0:0:0:
192,192,164999,1,2,0:0:0:0:
320,192,165077,1,2,0:0:0:0:
64,192,165156,1,0,0:0:0:0:
320,192,165235,1,2,0:0:0:0:
448,192,165235,1,0,0:0:0:0:
64,192,165313,1,2,0:0:0:0:
192,192,165313,1,0,0:0:0:0:
320,192,165392,1,2,0:0:0:0:
448,192,165392,1,0,0:0:0:0:
192,192,165470,1,0,0:0:0:0:
64,192,165549,1,8,0:0:0:0:
448,192,165549,1,0,0:0:0:0:
320,192,165627,1,0,0:0:0:0:
64,192,165706,1,2,0:0:0:0:
192,192,165706,1,0,0:0:0:0:
320,192,165784,1,0,0:0:0:0:
64,192,165863,1,2,0:0:0:0:
448,192,165863,1,0,0:0:0:0:
192,192,165941,1,0,0:0:0:0:
320,192,166020,1,2,0:0:0:0:
448,192,166020,1,0,0:0:0:0:
64,192,166098,1,0,0:0:0:0:
192,192,166098,1,0,0:0:0:0:
320,192,166177,1,8,0:0:0:0:
448,192,166177,1,0,0:0:0:0:
64,192,166255,1,2,0:0:0:0:
192,192,166334,1,2,0:0:0:0:
448,192,166413,1,0,0:0:0:0:
64,192,166491,1,2,0:0:0:0:
192,192,166491,1,0,0:0:0:0:
320,192,166570,1,2,0:0:0:0:
448,192,166570,1,0,0:0:0:0:
64,192,166648,1,2,0:0:0:0:
192,192,166648,1,0,0:0:0:0:
320,192,166727,1,0,0:0:0:0:
64,192,166805,1,8,0:0:0:0:
448,192,166805,1,0,0:0:0:0:
192,192,166884,1,0,0:0:0:0:
320,192,166884,1,0,0:0:0:0:
64,192,166962,1,2,0:0:0:0:
448,192,166962,1,0,0:0:0:0:
192,192,167041,1,0,0:0:0:0:
448,192,167119,1,0,0:0:0:0:
320,192,167198,1,0,0:0:0:0:
64,192,167276,1,2,0:0:0:0:
192,192,167276,1,0,0:0:0:0:
320,192,167355,1,2,0:0:0:0:
64,192,167434,1,8,0:0:0:0:
448,192,167434,1,0,0:0:0:0:
192,192,167512,1,0,0:0:0:0:
320,192,167512,1,0,0:0:0:0:
64,192,167591,1,2,0:0:0:0:
448,192,167591,1,0,0:0:0:0:
192,192,167669,1,0,0:0:0:0:
320,192,167748,1,2,0:0:0:0:
448,192,167748,1,0,0:0:0:0:
192,192,167826,1,2,0:0:0:0:
320,192,167905,1,2,0:0:0:0:
448,192,167905,1,0,0:0:0:0:
64,192,167983,1,0,0:0:0:0:
192,192,167983,1,0,0:0:0:0:
320,192,168062,1,8,0:0:0:0:
448,192,168062,1,0,0:0:0:0:
64,192,168140,1,2,0:0:0:0:
320,192,168219,1,2,0:0:0:0:
448,192,168219,1,0,0:0:0:0:
64,192,168297,1,2,0:0:0:0:
192,192,168297,1,0,0:0:0:0:
320,192,168376,1,4,0:0:0:0:
448,192,168376,1,2,0:0:0:0:
64,192,168454,1,0,0:0:0:0:
192,192,168454,1,0,0:0:0:0:
320,192,168533,1,2,0:0:0:0:
448,192,168533,1,0,0:0:0:0:
192,192,168612,1,0,0:0:0:0:
64,192,168690,1,8,0:0:0:0:
448,192,168690,1,0,0:0:0:0:
320,192,168769,1,2,0:0:0:0:
192,192,168847,1,2,0:0:0:0:
448,192,168926,1,0,0:0:0:0:
192,192,169004,1,2,0:0:0:0:
320,192,169004,1,0,0:0:0:0:
64,192,169083,1,2,0:0:0:0:
448,192,169083,1,0,0:0:0:0:
192,192,169161,1,2,0:0:0:0:
320,192,169161,1,0,0:0:0:0:
64,192,169240,1,0,0:0:0:0:
448,192,169318,128,0,169475:0:0:0:0:
320,192,169397,1,0,0:0:0:0:
64,192,169475,1,2,0:0:0:0:
192,192,169475,1,0,0:0:0:0:
320,192,169554,1,0,0:0:0:0:
64,192,169632,1,0,0:0:0:0:
448,192,169632,1,0,0:0:0:0:
192,192,169711,1,0,0:0:0:0:
320,192,169790,1,8,0:0:0:0:
448,192,169790,1,0,0:0:0:0:
64,192,169868,1,0,0:0:0:0:
192,192,169868,1,0,0:0:0:0:
320,192,169947,1,8,0:0:0:0:
448,192,169947,1,0,0:0:0:0:
192,192,170025,1,2,0:0:0:0:
320,192,170104,1,2,0:0:0:0:
448,192,170104,1,0,0:0:0:0:
64,192,170182,1,0,0:0:0:0:
192,192,170182,1,0,0:0:0:0:
320,192,170261,1,2,0:0:0:0:
448,192,170261,1,0,0:0:0:0:
64,192,170339,1,2,0:0:0:0:
320,192,170418,1,2,0:0:0:0:
448,192,170418,1,0,0:0:0:0:
192,192,170496,1,0,0:0:0:0:
64,192,170575,1,8,0:0:0:0:
448,192,170575,1,0,0:0:0:0:
320,192,170653,1,0,0:0:0:0:
64,192,170732,1,8,0:0:0:0:
448,192,170732,1,0,0:0:0:0:
192,192,170810,1,0,0:0:0:0:
320,192,170889,1,2,0:0:0:0:
448,192,170889,1,0,0:0:0:0:
64,192,170968,1,0,0:0:0:0:
192,192,170968,1,0,0:0:0:0:
320,192,171046,1,2,0:0:0:0:
448,192,171046,1,0,0:0:0:0:
192,192,171125,1,0,0:0:0:0:
64,192,171203,1,8,0:0:0:0:
448,192,171203,1,0,0:0:0:0:
320,192,171282,1,2,0:0:0:0:
192,192,171360,1,2,0:0:0:0:
320,192,171439,1,0,0:0:0:0:
64,192,171517,1,2,0:0:0:0:
192,192,171517,1,0,0:0:0:0:
448,192,171596,1,2,0:0:0:0:
64,192,171674,1,2,0:0:0:0:
192,192,171674,1,0,0:0:0:0:
320,192,171753,1,0,0:0:0:0:
64,192,171831,1,8,0:0:0:0:
448,192,171831,1,0,0:0:0:0:
192,192,171910,1,0,0:0:0:0:
320,192,171988,1,2,0:0:0:0:
448,192,171988,1,0,0:0:0:0:
64,192,172067,1,0,0:0:0:0:
192,192,172067,1,0,0:0:0:0:
320,192,172146,1,2,0:0:0:0:
448,192,172146,1,0,0:0:0:0:
64,192,172224,1,0,0:0:0:0:
192,192,172224,1,0,0:0:0:0:
320,192,172303,1,2,0:0:0:0:
448,192,172303,1,0,0:0:0:0:
192,192,172342,1,2,0:0:0:0:
64,192,172381,1,2,0:0:0:0:
448,192,172420,1,2,0:0:0:0:
64,192,172460,1,8,0:0:0:0:
192,192,172460,1,4,0:0:0:0:
320,192,172538,1,0,0:0:0:0:
448,192,172538,1,0,0:0:0:0:
64,192,172617,1,2,0:0:0:0:
192,192,172617,1,0,0:0:0:0:
320,192,172695,1,2,0:0:0:0:
448,192,172695,1,0,0:0:0:0:
64,192,172774,1,8,0:0:0:0:
192,192,172774,1,4,0:0:0:0:
448,192,172774,1,0,0:0:0:0:
64,192,172931,1,2,0:0:0:0:
320,192,172931,1,0,0:0:0:0:
448,192,172931,1,0,0:0:0:0:
320,192,173088,1,4,0:0:0:0:
448,192,173088,1,8,0:0:0:0:
64,192,173166,1,0,0:0:0:0:
192,192,173166,1,0,0:0:0:0:
320,192,173245,1,8,0:0:0:0:
448,192,173245,1,0,0:0:0:0:
64,192,173324,1,8,0:0:0:0:
192,192,173324,1,0,0:0:0:0:
64,192,173402,1,2,0:0:0:0:
320,192,173402,1,4,0:0:0:0:
448,192,173402,1,0,0:0:0:0:
192,192,173481,1,0,0:0:0:0:
320,192,173559,1,2,0:0:0:0:
448,192,173559,1,0,0:0:0:0:
64,192,173638,1,0,0:0:0:0:
192,192,173638,1,0,0:0:0:0:
320,192,173716,1,8,0:0:0:0:
448,192,173716,1,0,0:0:0:0:
64,192,173795,1,2,0:0:0:0:
192,192,173873,1,2,0:0:0:0:
448,192,173952,1,0,0:0:0:0:
64,192,174030,1,2,0:0:0:0:
192,192,174030,1,0,0:0:0:0:
320,192,174109,1,2,0:0:0:0:
448,192,174109,1,0,0:0:0:0:
64,192,174187,1,2,0:0:0:0:
192,192,174187,1,0,0:0:0:0:
320,192,174266,1,0,0:0:0:0:
64,192,174345,1,8,0:0:0:0:
448,192,174345,1,0,0:0:0:0:
192,192,174423,1,0,0:0:0:0:
320,192,174502,1,2,0:0:0:0:
192,192,174580,1,0,0:0:0:0:
320,192,174659,1,0,0:0:0:0:
448,192,174659,1,0,0:0:0:0:
64,192,174737,1,0,0:0:0:0:
192,192,174737,1,0,0:0:0:0:
320,192,174816,1,8,0:0:0:0:
448,192,174816,1,0,0:0:0:0:
192,192,174894,1,0,0:0:0:0:
64,192,174973,1,8,0:0:0:0:
448,192,174973,1,0,0:0:0:0:
320,192,175051,1,2,0:0:0:0:
192,192,175130,1,2,0:0:0:0:
448,192,175208,1,0,0:0:0:0:
64,192,175287,1,2,0:0:0:0:
192,192,175287,1,0,0:0:0:0:
320,192,175365,1,2,0:0:0:0:
448,192,175365,1,0,0:0:0:0:
64,192,175444,1,2,0:0:0:0:
192,192,175444,1,0,0:0:0:0:
320,192,175523,1,0,0:0:0:0:
64,192,175601,1,8,0:0:0:0:
448,192,175601,1,0,0:0:0:0:
192,192,175680,1,0,0:0:0:0:
320,192,175758,1,2,0:0:0:0:
448,192,175758,1,0,0:0:0:0:
192,192,175837,1,0,0:0:0:0:
64,192,175915,1,2,0:0:0:0:
448,192,175915,1,0,0:0:0:0:
320,192,175994,1,0,0:0:0:0:
64,192,176072,1,2,0:0:0:0:
192,192,176072,1,0,0:0:0:0:
320,192,176151,1,0,0:0:0:0:
448,192,176151,1,0,0:0:0:0:
64,192,176229,1,8,0:0:0:0:
192,192,176229,1,0,0:0:0:0:
448,192,176308,1,2,0:0:0:0:
192,192,176386,1,2,0:0:0:0:
320,192,176386,1,0,0:0:0:0:
64,192,176465,1,0,0:0:0:0:
320,192,176543,1,2,0:0:0:0:
448,192,176543,1,0,0:0:0:0:
64,192,176622,1,2,0:0:0:0:
192,192,176622,1,0,0:0:0:0:
320,192,176701,1,2,0:0:0:0:
448,192,176701,1,0,0:0:0:0:
192,192,176779,1,0,0:0:0:0:
64,192,176858,1,8,0:0:0:0:
448,192,176858,1,0,0:0:0:0:
192,192,176936,1,0,0:0:0:0:
320,192,176936,1,0,0:0:0:0:
64,192,177015,1,2,0:0:0:0:
448,192,177015,1,0,0:0:0:0:
320,192,177093,1,0,0:0:0:0:
64,192,177172,1,0,0:0:0:0:
192,192,177250,1,0,0:0:0:0:
320,192,177329,1,8,0:0:0:0:
448,192,177329,1,0,0:0:0:0:
192,192,177407,1,2,0:0:0:0:
64,192,177486,1,8,0:0:0:0:
448,192,177486,1,0,0:0:0:0:
192,192,177564,1,0,0:0:0:0:
320,192,177564,1,0,0:0:0:0:
64,192,177643,1,2,0:0:0:0:
448,192,177643,1,0,0:0:0:0:
320,192,177721,1,0,0:0:0:0:
64,192,177800,1,2,0:0:0:0:
192,192,177800,1,0,0:0:0:0:
320,192,177879,1,2,0:0:0:0:
64,192,177957,1,2,0:0:0:0:
192,192,177957,1,0,0:0:0:0:
448,192,177996,1,2,0:0:0:0:
320,192,178036,1,2,0:0:0:0:
192,192,178075,1,2,0:0:0:0:
64,192,178114,1,8,0:0:0:0:
448,192,178114,1,0,0:0:0:0:
320,192,178193,1,2,0:0:0:0:
64,192,178271,1,2,0:0:0:0:
192,192,178271,1,0,0:0:0:0:
320,192,178350,1,2,0:0:0:0:
448,192,178350,1,0,0:0:0:0:
64,192,178428,1,2,0:0:0:0:
192,192,178428,1,4,0:0:0:0:
320,192,178507,1,0,0:0:0:0:
448,192,178507,1,0,0:0:0:0:
64,192,178585,1,2,0:0:0:0:
192,192,178585,1,0,0:0:0:0:
320,192,178664,1,0,0:0:0:0:
64,192,178742,1,8,0:0:0:0:
448,192,178742,1,0,0:0:0:0:
192,192,178821,1,2,0:0:0:0:
320,192,178899,1,2,0:0:0:0:
64,192,178978,1,0,0:0:0:0:
192,192,179057,1,2,0:0:0:0:
320,192,179057,1,0,0:0:0:0:
64,192,179135,1,2,0:0:0:0:
448,192,179135,1,0,0:0:0:0:
192,192,179214,1,2,0:0:0:0:
320,192,179214,1,0,0:0:0:0:
448,192,179292,1,0,0:0:0:0:
64,192,179371,128,0,179528:0:0:0:0:
192,192,179449,1,0,0:0:0:0:
320,192,179528,1,2,0:0:0:0:
448,192,179528,1,4,0:0:0:0:
192,192,179606,1,0,0:0:0:0:
64,192,179685,1,2,0:0:0:0:
448,192,179685,1,4,0:0:0:0:
320,192,179763,1,0,0:0:0:0:
64,192,179842,1,2,0:0:0:0:
192,192,179842,1,0,0:0:0:0:
320,192,179920,1,0,0:0:0:0:
448,192,179920,1,0,0:0:0:0:
192,192,179999,1,8,0:0:0:0:
320,192,180077,1,2,0:0:0:0:
64,192,180156,1,2,0:0:0:0:
192,192,180156,1,0,0:0:0:0:
320,192,180235,1,0,0:0:0:0:
448,192,180235,1,0,0:0:0:0:
64,192,180313,1,2,0:0:0:0:
192,192,180313,1,0,0:0:0:0:
448,192,180392,1,2,0:0:0:0:
64,192,180470,1,2,0:0:0:0:
192,192,180470,1,0,0:0:0:0:
320,192,180549,1,0,0:0:0:0:
64,192,180627,1,8,0:0:0:0:
448,192,180627,1,4,0:0:0:0:
192,192,180706,1,8,0:0:0:0:
64,192,180784,1,2,0:0:0:0:
448,192,180784,1,0,0:0:0:0:
320,192,180863,1,8,0:0:0:0:
64,192,180941,1,2,0:0:0:0:
192,192,180941,1,4,0:0:0:0:
320,192,181020,1,0,0:0:0:0:
448,192,181020,1,0,0:0:0:0:
64,192,181098,1,2,0:0:0:0:
192,192,181098,1,0,0:0:0:0:
320,192,181177,1,0,0:0:0:0:
64,192,181255,1,8,0:0:0:0:
448,192,181255,1,0,0:0:0:0:
192,192,181334,1,2,0:0:0:0:
320,192,181413,1,2,0:0:0:0:
192,192,181491,1,0,0:0:0:0:
320,192,181570,1,4,0:0:0:0:
448,192,181570,1,2,0:0:0:0:
64,192,181648,1,2,0:0:0:0:
320,192,181727,1,2,0:0:0:0:
448,192,181727,1,0,0:0:0:0:
192,192,181805,1,0,0:0:0:0:
64,192,181884,1,8,0:0:0:0:
448,192,181884,1,0,0:0:0:0:
320,192,181962,1,0,0:0:0:0:
64,192,182041,1,2,0:0:0:0:
192,192,182041,1,0,0:0:0:0:
320,192,182119,1,2,0:0:0:0:
448,192,182119,1,0,0:0:0:0:
64,192,182198,1,4,0:0:0:0:
192,192,182198,1,0,0:0:0:0:
320,192,182276,1,0,0:0:0:0:
64,192,182355,1,2,0:0:0:0:
448,192,182355,1,0,0:0:0:0:
192,192,182394,1,2,0:0:0:0:
320,192,182434,1,2,0:0:0:0:
448,192,182473,1,2,0:0:0:0:
64,192,182512,1,8,0:0:0:0:
192,192,182512,1,4,0:0:0:0:
320,192,182591,1,2,0:0:0:0:
448,192,182591,1,0,0:0:0:0:
64,192,182669,1,2,0:0:0:0:
192,192,182669,1,0,0:0:0:0:
320,192,182748,1,2,0:0:0:0:
448,192,182748,1,0,0:0:0:0:
64,192,182826,1,4,0:0:0:0:
192,192,182826,1,8,0:0:0:0:
448,192,182865,1,2,0:0:0:0:
320,192,182905,1,2,0:0:0:0:
192,192,182944,1,0,0:0:0:0:
64,192,182983,1,2,0:0:0:0:
448,192,182983,1,0,0:0:0:0:
192,192,183062,1,2,0:0:0:0:
320,192,183062,1,0,0:0:0:0:
64,192,183140,1,4,0:0:0:0:
448,192,183140,1,8,0:0:0:0:
192,192,183219,1,0,0:0:0:0:
192,192,183297,1,0,0:0:0:0:
320,192,183376,1,2,0:0:0:0:
448,192,183376,1,0,0:0:0:0:
64,192,183454,1,2,0:0:0:0:
192,192,183454,1,4,0:0:0:0:
448,192,183454,1,0,0:0:0:0:
320,192,183533,1,0,0:0:0:0:
64,192,183612,1,0,0:0:0:0:
192,192,183612,1,0,0:0:0:0:
320,192,183690,1,0,0:0:0:0:
448,192,183690,1,0,0:0:0:0:
64,192,183769,1,8,0:0:0:0:
192,192,183769,1,0,0:0:0:0:
448,192,183847,1,0,0:0:0:0:
192,192,183926,1,0,0:0:0:0:
320,192,183926,1,0,0:0:0:0:
64,192,184004,1,0,0:0:0:0:
320,192,184083,1,2,0:0:0:0:
448,192,184083,1,0,0:0:0:0:
64,192,184161,1,0,0:0:0:0:
192,192,184161,1,0,0:0:0:0:
320,192,184240,1,0,0:0:0:0:
448,192,184240,1,0,0:0:0:0:
192,192,184318,1,0,0:0:0:0:
64,192,184397,1,8,0:0:0:0:
448,192,184397,1,0,0:0:0:0:
320,192,184475,1,0,0:0:0:0:
64,192,184554,1,0,0:0:0:0:
192,192,184554,1,0,0:0:0:0:
320,192,184632,1,0,0:0:0:0:
64,192,184711,1,2,0:0:0:0:
192,192,184711,1,0,0:0:0:0:
320,192,184790,1,0,0:0:0:0:
448,192,184790,1,0,0:0:0:0:
64,192,184868,1,8,0:0:0:0:
192,192,184868,1,0,0:0:0:0:
320,192,184947,1,0,0:0:0:0:
64,192,185025,1,8,0:0:0:0:
448,192,185025,1,0,0:0:0:0:
192,192,185104,1,0,0:0:0:0:
320,192,185182,1,0,0:0:0:0:
448,192,185182,1,0,0:0:0:0:
64,192,185261,1,0,0:0:0:0:
320,192,185339,1,2,0:0:0:0:
448,192,185339,1,0,0:0:0:0:
64,192,185418,1,0,0:0:0:0:
192,192,185418,1,0,0:0:0:0:
320,192,185496,1,0,0:0:0:0:
448,192,185496,1,0,0:0:0:0:
192,192,185575,1,0,0:0:0:0:
64,192,185653,1,8,0:0:0:0:
448,192,185653,1,0,0:0:0:0:
320,192,185732,1,0,0:0:0:0:
64,192,185810,1,8,0:0:0:0:
192,192,185810,1,0,0:0:0:0:
320,192,185889,1,0,0:0:0:0:
64,192,185968,1,2,0:0:0:0:
448,192,185968,1,0,0:0:0:0:
192,192,186046,1,0,0:0:0:0:
320,192,186125,1,0,0:0:0:0:
448,192,186125,1,0,0:0:0:0:
64,192,186203,1,0,0:0:0:0:
192,192,186203,1,0,0:0:0:0:
320,192,186282,1,8,0:0:0:0:
448,192,186282,1,0,0:0:0:0:
64,192,186360,1,0,0:0:0:0:
192,192,186439,1,0,0:0:0:0:
320,192,186439,1,0,0:0:0:0:
448,192,186517,1,0,0:0:0:0:
64,192,186596,1,2,0:0:0:0:
192,192,186596,1,0,0:0:0:0:
320,192,186674,1,0,0:0:0:0:
448,192,186674,1,0,0:0:0:0:
64,192,186753,1,2,0:0:0:0:
192,192,186753,1,0,0:0:0:0:
320,192,186831,1,0,0:0:0:0:
64,192,186910,1,8,0:0:0:0:
448,192,186910,1,0,0:0:0:0:
192,192,186988,1,0,0:0:0:0:
320,192,186988,1,0,0:0:0:0:
64,192,187067,1,2,0:0:0:0:
448,192,187067,1,0,0:0:0:0:
192,192,187146,1,0,0:0:0:0:
320,192,187224,1,2,0:0:0:0:
448,192,187224,1,0,0:0:0:0:
64,192,187303,1,0,0:0:0:0:
192,192,187303,1,0,0:0:0:0:
320,192,187381,1,0,0:0:0:0:
448,192,187381,1,0,0:0:0:0:
64,192,187460,1,0,0:0:0:0:
192,192,187460,1,0,0:0:0:0:
320,192,187538,1,8,0:0:0:0:
448,192,187538,1,0,0:0:0:0:
64,192,187617,1,0,0:0:0:0:
192,192,187617,1,0,0:0:0:0:
320,192,187695,1,2,0:0:0:0:
448,192,187695,1,0,0:0:0:0:
192,192,187774,1,0,0:0:0:0:
64,192,187852,1,2,0:0:0:0:
448,192,187852,1,4,0:0:0:0:
320,192,187931,1,0,0:0:0:0:
64,192,188009,1,2,0:0:0:0:
192,192,188009,1,0,0:0:0:0:
320,192,188088,1,0,0:0:0:0:
448,192,188088,1,0,0:0:0:0:
64,192,188166,1,8,0:0:0:0:
192,192,188166,1,0,0:0:0:0:
320,192,188245,1,0,0:0:0:0:
64,192,188324,1,8,0:0:0:0:
192,192,188324,1,0,0:0:0:0:
320,192,188402,1,0,0:0:0:0:
448,192,188402,1,0,0:0:0:0:
64,192,188481,1,2,0:0:0:0:
192,192,188481,1,4,0:0:0:0:
448,192,188481,1,0,0:0:0:0:
320,192,188559,1,0,0:0:0:0:
64,192,188638,1,0,0:0:0:0:
192,192,188638,1,0,0:0:0:0:
320,192,188716,1,0,0:0:0:0:
64,192,188795,1,8,0:0:0:0:
448,192,188795,1,0,0:0:0:0:
192,192,188873,1,0,0:0:0:0:
320,192,188952,1,0,0:0:0:0:
448,192,188952,1,0,0:0:0:0:
64,192,189030,1,0,0:0:0:0:
192,192,189109,1,2,0:0:0:0:
320,192,189109,1,0,0:0:0:0:
64,192,189187,1,0,0:0:0:0:
448,192,189187,1,0,0:0:0:0:
192,192,189266,1,0,0:0:0:0:
320,192,189266,1,0,0:0:0:0:
448,192,189345,1,0,0:0:0:0:
64,192,189423,1,8,0:0:0:0:
192,192,189423,1,0,0:0:0:0:
320,192,189502,1,0,0:0:0:0:
64,192,189580,1,0,0:0:0:0:
448,192,189580,1,0,0:0:0:0:
192,192,189659,1,0,0:0:0:0:
320,192,189659,1,0,0:0:0:0:
64,192,189737,1,2,0:0:0:0:
448,192,189737,1,0,0:0:0:0:
320,192,189816,1,0,0:0:0:0:
64,192,189894,1,8,0:0:0:0:
192,192,189894,1,0,0:0:0:0:
320,192,189973,1,0,0:0:0:0:
448,192,189973,1,0,0:0:0:0:
64,192,190051,1,8,0:0:0:0:
192,192,190051,1,0,0:0:0:0:
320,192,190130,1,0,0:0:0:0:
64,192,190208,1,0,0:0:0:0:
192,192,190208,1,0,0:0:0:0:
320,192,190287,1,0,0:0:0:0:
448,192,190287,1,0,0:0:0:0:
64,192,190365,1,2,0:0:0:0:
192,192,190365,1,0,0:0:0:0:
448,192,190444,1,0,0:0:0:0:
64,192,190523,1,0,0:0:0:0:
192,192,190523,1,0,0:0:0:0:
320,192,190601,1,0,0:0:0:0:
64,192,190680,1,8,0:0:0:0:
448,192,190680,1,0,0:0:0:0:
192,192,190758,1,0,0:0:0:0:
320,192,190758,1,0,0:0:0:0:
64,192,190837,1,8,0:0:0:0:
448,192,190837,1,0,0:0:0:0:
320,192,190915,1,0,0:0:0:0:
64,192,190994,1,2,0:0:0:0:
192,192,190994,1,4,0:0:0:0:
320,192,191072,1,0,0:0:0:0:
448,192,191072,1,0,0:0:0:0:
64,192,191151,1,0,0:0:0:0:
192,192,191151,1,0,0:0:0:0:
320,192,191229,1,0,0:0:0:0:
64,192,191308,1,8,0:0:0:0:
448,192,191308,1,0,0:0:0:0:
192,192,191386,1,0,0:0:0:0:
320,192,191465,1,0,0:0:0:0:
448,192,191465,1,0,0:0:0:0:
192,192,191543,1,0,0:0:0:0:
64,192,191622,1,2,0:0:0:0:
320,192,191622,1,4,0:0:0:0:
448,192,191622,1,0,0:0:0:0:
192,192,191701,1,0,0:0:0:0:
320,192,191779,1,2,0:0:0:0:
448,192,191779,1,0,0:0:0:0:
192,192,191858,1,0,0:0:0:0:
64,192,191936,1,8,0:0:0:0:
448,192,191936,1,4,0:0:0:0:
320,192,192015,1,0,0:0:0:0:
64,192,192093,1,2,0:0:0:0:
192,192,192093,1,0,0:0:0:0:
320,192,192172,1,0,0:0:0:0:
448,192,192172,1,0,0:0:0:0:
64,192,192250,1,2,0:0:0:0:
192,192,192250,1,4,0:0:0:0:
320,192,192329,1,0,0:0:0:0:
64,192,192407,1,2,0:0:0:0:
192,192,192447,1,2,0:0:0:0:
320,192,192486,1,2,0:0:0:0:
448,192,192525,1,2,0:0:0:0:
64,192,192564,1,8,0:0:0:0:
192,192,192564,1,4,0:0:0:0:
320,192,192643,1,2,0:0:0:0:
448,192,192643,1,0,0:0:0:0:
64,192,192721,1,2,0:0:0:0:
192,192,192721,1,0,0:0:0:0:
320,192,192800,1,2,0:0:0:0:
448,192,192800,1,0,0:0:0:0:
64,192,192879,1,2,0:0:0:0:
192,192,192879,1,4,0:0:0:0:
448,192,192879,1,0,0:0:0:0:
320,192,192957,1,2,0:0:0:0:
64,192,193036,1,2,0:0:0:0:
192,192,193036,1,0,0:0:0:0:
448,192,193036,1,0,0:0:0:0:
320,192,193114,1,2,0:0:0:0:
64,192,193193,1,8,0:0:0:0:
192,192,193193,1,4,0:0:0:0:
320,192,193271,1,0,0:0:0:0:
64,192,193350,128,0,193507:0:0:0:0:
192,192,193428,1,0,0:0:0:0:
320,192,193507,1,2,0:0:0:0:
448,192,193507,1,4,0:0:0:0:
192,192,193585,1,0,0:0:0:0:
320,192,193664,1,0,0:0:0:0:
448,192,193664,1,0,0:0:0:0:
64,192,193742,1,0,0:0:0:0:
192,192,193742,1,0,0:0:0:0:
320,192,193821,1,8,0:0:0:0:
448,192,193821,1,0,0:0:0:0:
64,192,193899,1,0,0:0:0:0:
192,192,193978,1,0,0:0:0:0:
320,192,193978,1,0,0:0:0:0:
448,192,194057,1,0,0:0:0:0:
64,192,194135,1,2,0:0:0:0:
192,192,194135,1,0,0:0:0:0:
320,192,194214,1,0,0:0:0:0:
448,192,194214,1,0,0:0:0:0:
64,192,194292,1,0,0:0:0:0:
192,192,194292,1,0,0:0:0:0:
320,192,194371,1,0,0:0:0:0:
64,192,194449,1,8,0:0:0:0:
448,192,194449,1,0,0:0:0:0:
192,192,194528,1,0,0:0:0:0:
320,192,194606,1,0,0:0:0:0:
448,192,194606,1,0,0:0:0:0:
192,192,194685,1,0,0:0:0:0:
320,192,194763,1,2,0:0:0:0:
448,192,194763,1,0,0:0:0:0:
64,192,194842,1,0,0:0:0:0:
192,192,194842,1,0,0:0:0:0:
320,192,194920,1,8,0:0:0:0:
448,192,194920,1,0,0:0:0:0:
192,192,194999,1,0,0:0:0:0:
64,192,195077,1,8,0:0:0:0:
448,192,195077,1,0,0:0:0:0:
320,192,195156,1,0,0:0:0:0:
64,192,195235,1,0,0:0:0:0:
192,192,195235,1,0,0:0:0:0:
448,192,195313,1,0,0:0:0:0:
64,192,195392,1,2,0:0:0:0:
192,192,195392,1,0,0:0:0:0:
320,192,195470,1,0,0:0:0:0:
448,192,195470,1,0,0:0:0:0:
64,192,195549,1,0,0:0:0:0:
192,192,195549,1,0,0:0:0:0:
320,192,195627,1,0,0:0:0:0:
64,192,195706,1,8,0:0:0:0:
448,192,195706,1,0,0:0:0:0:
192,192,195784,1,0,0:0:0:0:
320,192,195863,1,8,0:0:0:0:
448,192,195863,1,0,0:0:0:0:
192,192,195941,1,0,0:0:0:0:
64,192,196020,1,2,0:0:0:0:
448,192,196020,1,0,0:0:0:0:
320,192,196098,1,0,0:0:0:0:
64,192,196177,1,0,0:0:0:0:
192,192,196177,1,0,0:0:0:0:
320,192,196255,1,0,0:0:0:0:
448,192,196255,1,0,0:0:0:0:
64,192,196334,1,8,0:0:0:0:
192,192,196334,1,0,0:0:0:0:
448,192,196413,1,0,0:0:0:0:
192,192,196491,1,0,0:0:0:0:
320,192,196491,1,0,0:0:0:0:
64,192,196570,1,0,0:0:0:0:
320,192,196648,1,2,0:0:0:0:
448,192,196648,1,0,0:0:0:0:
64,192,196727,1,0,0:0:0:0:
192,192,196727,1,0,0:0:0:0:
320,192,196805,1,2,0:0:0:0:
448,192,196805,1,0,0:0:0:0:
192,192,196884,1,0,0:0:0:0:
64,192,196962,1,8,0:0:0:0:
448,192,196962,1,0,0:0:0:0:
192,192,197041,1,0,0:0:0:0:
320,192,197041,1,0,0:0:0:0:
64,192,197119,1,2,0:0:0:0:
448,192,197119,1,0,0:0:0:0:
320,192,197198,1,0,0:0:0:0:
64,192,197276,1,2,0:0:0:0:
192,192,197276,1,0,0:0:0:0:
320,192,197355,1,0,0:0:0:0:
448,192,197355,1,0,0:0:0:0:
64,192,197434,1,0,0:0:0:0:
192,192,197434,1,0,0:0:0:0:
320,192,197512,1,0,0:0:0:0:
448,192,197512,1,0,0:0:0:0:
64,192,197591,1,8,0:0:0:0:
192,192,197591,1,0,0:0:0:0:
320,192,197669,1,0,0:0:0:0:
448,192,197669,1,0,0:0:0:0:
64,192,197748,1,2,0:0:0:0:
192,192,197748,1,0,0:0:0:0:
320,192,197826,1,0,0:0:0:0:
64,192,197905,1,2,0:0:0:0:
448,192,197905,1,4,0:0:0:0:
192,192,197983,1,0,0:0:0:0:
320,192,198062,1,2,0:0:0:0:
448,192,198062,1,0,0:0:0:0:
64,192,198101,1,2,0:0:0:0:
192,192,198140,1,2,0:0:0:0:
320,192,198180,1,2,0:0:0:0:
64,192,198219,1,8,0:0:0:0:
448,192,198219,1,0,0:0:0:0:
192,192,198297,1,2,0:0:0:0:
320,192,198297,1,0,0:0:0:0:
64,192,198376,1,8,0:0:0:0:
448,192,198376,1,0,0:0:0:0:
192,192,198454,1,2,0:0:0:0:
320,192,198454,1,0,0:0:0:0:
64,192,198533,1,2,0:0:0:0:
320,192,198533,1,4,0:0:0:0:
448,192,198533,1,0,0:0:0:0:
192,192,198612,1,0,0:0:0:0:
320,192,198690,1,0,0:0:0:0:
448,192,198690,1,0,0:0:0:0:
192,192,198769,1,0,0:0:0:0:
64,192,198847,1,8,0:0:0:0:
448,192,198847,1,0,0:0:0:0:
320,192,198926,1,0,0:0:0:0:
64,192,199004,1,8,0:0:0:0:
192,192,199004,1,0,0:0:0:0:
448,192,199083,1,0,0:0:0:0:
192,192,199161,1,8,0:0:0:0:
320,192,199161,1,0,0:0:0:0:
64,192,199240,1,0,0:0:0:0:
448,192,199240,1,0,0:0:0:0:
192,192,199318,1,0,0:0:0:0:
320,192,199318,1,0,0:0:0:0:
64,192,199397,1,0,0:0:0:0:
320,192,199475,1,8,0:0:0:0:
448,192,199475,1,0,0:0:0:0:
192,192,199554,1,0,0:0:0:0:
64,192,199632,1,2,0:0:0:0:
448,192,199632,1,0,0:0:0:0:
192,192,199711,1,0,0:0:0:0:
320,192,199711,1,0,0:0:0:0:
64,192,199790,1,8,0:0:0:0:
320,192,199790,1,0,0:0:0:0:
448,192,199790,1,0,0:0:0:0:
192,192,199868,1,0,0:0:0:0:
320,192,199947,1,0,0:0:0:0:
448,192,199947,1,0,0:0:0:0:
64,192,200025,1,0,0:0:0:0:
192,192,200025,1,0,0:0:0:0:
320,192,200104,1,8,0:0:0:0:
448,192,200104,1,0,0:0:0:0:
192,192,200182,1,0,0:0:0:0:
320,192,200261,1,8,0:0:0:0:
448,192,200261,1,0,0:0:0:0:
64,192,200339,1,0,0:0:0:0:
192,192,200339,1,0,0:0:0:0:
320,192,200418,1,8,0:0:0:0:
448,192,200418,1,0,0:0:0:0:
64,192,200496,1,0,0:0:0:0:
320,192,200575,1,0,0:0:0:0:
448,192,200575,1,0,0:0:0:0:
192,192,200653,1,0,0:0:0:0:
64,192,200732,1,8,0:0:0:0:
448,192,200732,1,0,0:0:0:0:
192,192,200810,1,2,0:0:0:0:
320,192,200810,1,0,0:0:0:0:
64,192,200889,1,2,0:0:0:0:
448,192,200889,1,0,0:0:0:0:
192,192,200968,1,2,0:0:0:0:
64,192,201046,1,2,0:0:0:0:
320,192,201046,1,4,0:0:0:0:
448,192,201046,1,0,0:0:0:0:
64,192,201125,1,0,0:0:0:0:
192,192,201125,1,0,0:0:0:0:
320,192,201203,1,2,0:0:0:0:
448,192,201203,1,0,0:0:0:0:
192,192,201282,1,2,0:0:0:0:
64,192,201360,1,8,0:0:0:0:
448,192,201360,1,0,0:0:0:0:
320,192,201439,1,2,0:0:0:0:
64,192,201517,1,2,0:0:0:0:
192,192,201517,1,0,0:0:0:0:
320,192,201596,1,2,0:0:0:0:
64,192,201674,1,8,0:0:0:0:
192,192,201674,1,4,0:0:0:0:
448,192,201674,1,0,0:0:0:0:
320,192,201753,1,0,0:0:0:0:
64,192,201831,1,2,0:0:0:0:
192,192,201831,1,0,0:0:0:0:
320,192,201910,1,2,0:0:0:0:
64,192,201988,1,8,0:0:0:0:
448,192,201988,1,0,0:0:0:0:
192,192,202067,1,0,0:0:0:0:
320,192,202146,1,2,0:0:0:0:
448,192,202146,1,0,0:0:0:0:
64,192,202224,1,2,0:0:0:0:
192,192,202224,1,0,0:0:0:0:
320,192,202303,1,8,0:0:0:0:
448,192,202303,1,4,0:0:0:0:
192,192,202381,1,0,0:0:0:0:
448,192,202460,1,2,0:0:0:0:
320,192,202499,1,0,0:0:0:0:
192,192,202538,1,2,0:0:0:0:
64,192,202577,1,0,0:0:0:0:
320,192,202617,1,8,0:0:0:0:
448,192,202617,1,4,0:0:0:0:
64,192,202695,1,2,0:0:0:0:
192,192,202695,1,0,0:0:0:0:
320,192,202774,1,2,0:0:0:0:
448,192,202774,1,0,0:0:0:0:
64,192,202852,1,8,0:0:0:0:
192,192,202852,1,0,0:0:0:0:
320,192,202931,1,8,0:0:0:0:
448,192,202931,1,4,0:0:0:0:
64,192,202970,1,2,0:0:0:0:
192,192,203009,1,2,0:0:0:0:
320,192,203049,1,2,0:0:0:0:
64,192,203088,1,2,0:0:0:0:
448,192,203088,1,0,0:0:0:0:
192,192,203166,1,2,0:0:0:0:
320,192,203166,1,0,0:0:0:0:
448,192,203206,1,0,0:0:0:0:
64,192,203245,1,4,0:0:0:0:
320,192,203324,1,2,0:0:0:0:
448,192,203324,1,0,0:0:0:0:
64,192,203402,1,2,0:0:0:0:
192,192,203402,128,0,203559:0:0:0:0:
64,192,203559,128,2,205758:0:0:0:0:
320,192,203559,128,4,205444:0:0:0:0:
448,192,203559,128,0,205130:0:0:0:0:
320,192,205758,128,0,206072:0:0:0:0:
64,192,206072,128,2,206386:0:0:0:0:
448,192,206072,1,0,0:0:0:50:BassKickReverbXD.wav
192,192,206072,1,4,0:0:0:0:
448,192,206386,128,0,206543:0:0:0:0:
192,192,206543,128,0,206701:0:0:0:0:
320,192,206701,128,0,207172:0:0:0:0:
64,192,207329,128,0,207486:0:0:0:0:
320,192,207486,128,0,207643:0:0:0:0:
64,192,207643,128,0,207800:0:0:0:0:
448,192,207800,128,0,208114:0:0:0:0:
192,192,208114,128,0,208271:0:0:0:0:
320,192,208271,128,0,208428:0:0:0:0:
64,192,208428,128,0,208585:0:0:0:0:
448,192,208585,128,0,208742:0:0:0:0:
64,192,208742,128,0,208899:0:0:0:0:
448,192,208899,128,0,209057:0:0:0:0:
320,192,209057,128,0,209685:0:0:0:0:
64,192,209842,128,4,209999:0:0:0:0:
192,192,209842,1,2,0:0:0:0:
320,192,209842,1,0,0:0:0:0:
448,192,209842,1,0,0:0:0:0:
320,192,209999,128,0,210156:0:0:0:0:
64,192,210156,128,0,210313:0:0:0:0:
448,192,210313,128,0,210392:0:0:0:0:
64,192,210470,1,4,0:0:0:0:
192,192,210470,1,2,0:0:0:0:
320,192,210470,1,0,0:0:0:0:
448,192,210470,128,0,210549:0:0:0:0:
448,192,210627,128,0,210784:0:0:0:0:
320,192,210784,128,0,210941:0:0:0:0:
192,192,210941,128,0,211098:0:0:0:0:
64,192,211098,1,2,0:0:0:0:
320,192,211098,1,4,0:0:0:0:
448,192,211098,128,0,211255:0:0:0:0:
64,192,211255,128,8,211413:0:0:0:0:
320,192,211255,1,0,0:0:0:0:
192,192,211334,1,8,0:0:0:0:
320,192,211413,1,8,0:0:0:0:
448,192,211413,128,0,211570:0:0:0:0:
64,192,211570,1,8,0:0:0:0:
192,192,211570,128,0,211727:0:0:0:0:
448,192,211648,1,8,0:0:0:0:
64,192,211727,1,8,0:0:0:0:
320,192,211727,128,0,212198:0:0:0:0:
448,192,211884,1,8,0:0:0:0:
192,192,211962,1,8,0:0:0:0:
64,192,212041,1,8,0:0:0:0:
448,192,212041,1,0,0:0:0:0:
192,192,212198,1,8,0:0:0:0:
64,192,212355,128,2,212512:0:0:0:0:
192,192,212355,1,4,0:0:0:0:
320,192,212355,1,0,0:0:0:0:
448,192,212355,1,0,0:0:0:0:
192,192,212512,1,8,0:0:0:0:
320,192,212512,128,0,212669:0:0:0:0:
448,192,212591,1,8,0:0:0:0:
64,192,212669,128,8,212826:0:0:0:0:
192,192,212669,1,0,0:0:0:0:
320,192,212826,1,4,0:0:0:0:
448,192,212826,128,0,213140:0:0:0:0:
64,192,212905,1,4,0:0:0:0:
192,192,212905,1,0,0:0:0:0:
320,192,212983,1,4,0:0:0:0:
192,192,213140,128,8,213297:0:0:0:0:
320,192,213140,1,0,0:0:0:0:
64,192,213219,1,0,0:0:0:0:
320,192,213297,128,8,213454:0:0:0:0:
448,192,213297,1,0,0:0:0:0:
64,192,213454,128,0,213612:0:0:0:0:
192,192,213454,1,0,0:0:0:0:
320,192,213533,1,0,0:0:0:0:
192,192,213612,1,4,0:0:0:0:
448,192,213612,128,2,213769:0:0:0:0:
64,192,213769,128,0,213926:0:0:0:0:
192,192,213769,1,0,0:0:0:0:
320,192,213847,1,0,0:0:0:0:
192,192,213926,1,8,0:0:0:0:
448,192,213926,128,0,214083:0:0:0:0:
64,192,214083,1,4,0:0:0:0:
192,192,214083,1,2,0:0:0:0:
320,192,214083,128,0,214711:0:0:0:0:
64,192,214240,1,0,0:0:0:0:
448,192,214240,1,0,0:0:0:0:
192,192,214318,1,0,0:0:0:0:
64,192,214397,1,8,0:0:0:0:
448,192,214397,1,0,0:0:0:0:
64,192,214554,1,2,0:0:0:0:
192,192,214554,1,4,0:0:0:0:
448,192,214554,1,0,0:0:0:0:
192,192,214711,1,8,0:0:0:0:
320,192,214790,1,0,0:0:0:0:
64,192,214868,128,4,215025:0:0:0:0:
448,192,214868,1,0,0:0:0:0:
192,192,215025,1,8,0:0:0:0:
320,192,215025,128,4,215182:0:0:0:0:
448,192,215025,1,0,0:0:0:0:
64,192,215182,128,8,215339:0:0:0:0:
192,192,215182,1,4,0:0:0:0:
448,192,215182,1,0,0:0:0:0:
320,192,215339,1,8,0:0:0:0:
448,192,215339,1,0,0:0:0:0:
64,192,215418,1,8,0:0:0:0:
192,192,215418,1,0,0:0:0:0:
320,192,215496,1,8,0:0:0:0:
448,192,215496,1,4,0:0:0:0:
64,192,215575,1,8,0:0:0:0:
192,192,215575,1,0,0:0:0:0:
320,192,215653,1,8,0:0:0:0:
448,192,215653,1,0,0:0:0:0:
64,192,215732,1,8,0:0:0:0:
192,192,215732,1,0,0:0:0:0:
320,192,215810,1,8,0:0:0:0:
448,192,215810,1,4,0:0:0:0:
64,192,215889,1,8,0:0:0:0:
192,192,215889,1,0,0:0:0:0:
320,192,215968,1,8,0:0:0:0:
448,192,215968,1,0,0:0:0:0:
64,192,216046,1,8,0:0:0:0:
192,192,216046,1,0,0:0:0:0:
320,192,216125,128,0,216282:0:0:0:0:
448,192,216125,128,0,216282:0:0:0:0:
64,192,216439,1,4,0:0:0:0:
192,192,216439,1,8,0:0:0:0:
320,192,216439,1,0,0:0:0:50:BassKickReverbXD.wav
448,192,216439,1,0,0:0:0:0:
448,192,216517,1,0,0:0:0:0:
320,192,216596,1,0,0:0:0:0:
64,192,216674,1,0,0:0:0:0:
192,192,216674,1,0,0:0:0:0:
320,192,216753,1,2,0:0:0:0:
448,192,216753,1,0,0:0:0:0:
192,192,216831,1,0,0:0:0:0:
64,192,216910,1,0,0:0:0:0:
320,192,216988,1,0,0:0:0:0:
448,192,216988,1,0,0:0:0:0:
64,192,217067,1,8,0:0:0:0:
192,192,217067,1,0,0:0:0:0:
320,192,217146,1,0,0:0:0:0:
448,192,217146,1,0,0:0:0:0:
192,192,217224,1,0,0:0:0:0:
320,192,217303,1,0,0:0:0:0:
64,192,217381,1,2,0:0:0:0:
448,192,217381,1,0,0:0:0:0:
192,192,217460,1,0,0:0:0:0:
320,192,217460,1,0,0:0:0:0:
64,192,217538,1,8,0:0:0:0:
448,192,217538,1,0,0:0:0:0:
192,192,217617,1,0,0:0:0:0:
320,192,217695,1,8,0:0:0:0:
448,192,217695,1,0,0:0:0:0:
64,192,217774,1,0,0:0:0:0:
192,192,217774,1,0,0:0:0:0:
320,192,217852,1,0,0:0:0:0:
448,192,217852,1,0,0:0:0:0:
192,192,217931,1,0,0:0:0:0:
320,192,218009,1,2,0:0:0:0:
448,192,218088,1,0,0:0:0:0:
64,192,218166,1,0,0:0:0:0:
192,192,218166,1,0,0:0:0:0:
320,192,218245,1,0,0:0:0:0:
448,192,218245,1,0,0:0:0:0:
64,192,218324,1,8,0:0:0:0:
192,192,218324,1,0,0:0:0:0:
320,192,218402,1,0,0:0:0:0:
64,192,218481,1,8,0:0:0:0:
448,192,218481,1,0,0:0:0:0:
192,192,218559,1,0,0:0:0:0:
320,192,218559,1,0,0:0:0:0:
64,192,218638,1,2,0:0:0:0:
448,192,218638,1,0,0:0:0:0:
192,192,218716,1,0,0:0:0:0:
320,192,218795,1,2,0:0:0:0:
448,192,218795,1,0,0:0:0:0:
64,192,218873,1,0,0:0:0:0:
192,192,218873,1,0,0:0:0:0:
320,192,218952,1,8,0:0:0:0:
448,192,218952,1,0,0:0:0:0:
192,192,219030,1,0,0:0:0:0:
64,192,219109,1,0,0:0:0:0:
448,192,219109,1,0,0:0:0:0:
320,192,219187,1,0,0:0:0:0:
64,192,219266,1,2,0:0:0:0:
192,192,219266,1,0,0:0:0:0:
320,192,219345,1,0,0:0:0:0:
448,192,219423,1,2,0:0:0:0:
64,192,219502,1,0,0:0:0:0:
192,192,219502,1,0,0:0:0:0:
320,192,219580,1,8,0:0:0:0:
448,192,219580,1,0,0:0:0:0:
192,192,219659,1,0,0:0:0:0:
64,192,219737,1,2,0:0:0:0:
320,192,219816,1,0,0:0:0:0:
64,192,219894,1,2,0:0:0:0:
192,192,219894,1,4,0:0:0:0:
320,192,219973,1,0,0:0:0:0:
448,192,219973,1,0,0:0:0:0:
192,192,220051,1,2,0:0:0:0:
320,192,220130,1,0,0:0:0:0:
448,192,220130,1,0,0:0:0:0:
64,192,220208,1,8,0:0:0:0:
192,192,220208,1,0,0:0:0:0:
320,192,220287,1,0,0:0:0:0:
64,192,220365,1,2,0:0:0:0:
448,192,220365,1,0,0:0:0:0:
192,192,220444,1,0,0:0:0:0:
320,192,220444,1,0,0:0:0:0:
64,192,220523,1,2,0:0:0:0:
448,192,220523,1,4,0:0:0:0:
192,192,220601,1,0,0:0:0:0:
320,192,220680,1,2,0:0:0:0:
448,192,220680,1,0,0:0:0:0:
64,192,220719,1,2,0:0:0:0:
192,192,220758,1,2,0:0:0:0:
320,192,220797,1,2,0:0:0:0:
64,192,220837,1,8,0:0:0:0:
192,192,220837,1,4,0:0:0:0:
320,192,220915,1,2,0:0:0:0:
448,192,220915,1,0,0:0:0:0:
64,192,220994,1,8,0:0:0:0:
192,192,220994,1,0,0:0:0:0:
320,192,221072,1,2,0:0:0:0:
64,192,221151,1,2,0:0:0:0:
192,192,221151,1,4,0:0:0:0:
448,192,221151,1,0,0:0:0:0:
320,192,221229,1,0,0:0:0:0:
192,192,221308,1,0,0:0:0:0:
320,192,221386,1,0,0:0:0:0:
448,192,221386,1,0,0:0:0:0:
64,192,221465,1,8,0:0:0:0:
192,192,221465,1,0,0:0:0:0:
320,192,221543,1,0,0:0:0:0:
448,192,221622,1,0,0:0:0:0:
64,192,221701,1,0,0:0:0:0:
192,192,221701,1,0,0:0:0:0:
320,192,221779,1,0,0:0:0:0:
448,192,221779,1,0,0:0:0:0:
64,192,221858,1,0,0:0:0:0:
192,192,221858,1,0,0:0:0:0:
320,192,221936,1,0,0:0:0:0:
192,192,222015,1,0,0:0:0:0:
64,192,222093,1,8,0:0:0:0:
448,192,222093,1,0,0:0:0:0:
192,192,222172,1,0,0:0:0:0:
320,192,222172,1,0,0:0:0:0:
64,192,222250,1,2,0:0:0:0:
448,192,222250,1,0,0:0:0:0:
320,192,222329,1,0,0:0:0:0:
64,192,222407,1,4,0:0:0:0:
192,192,222407,1,2,0:0:0:0:
448,192,222407,1,0,0:0:0:0:
320,192,222486,1,0,0:0:0:0:
64,192,222564,1,0,0:0:0:0:
192,192,222564,1,0,0:0:0:0:
320,192,222643,1,0,0:0:0:0:
192,192,222721,1,8,0:0:0:0:
64,192,222800,1,0,0:0:0:0:
320,192,222879,1,0,0:0:0:0:
448,192,222879,1,0,0:0:0:0:
64,192,222957,1,0,0:0:0:0:
192,192,222957,1,0,0:0:0:0:
320,192,223036,1,0,0:0:0:0:
448,192,223036,1,0,0:0:0:0:
192,192,223114,1,0,0:0:0:0:
64,192,223193,1,0,0:0:0:0:
448,192,223193,1,0,0:0:0:0:
192,192,223271,1,0,0:0:0:0:
320,192,223271,1,0,0:0:0:0:
64,192,223350,1,8,0:0:0:0:
448,192,223350,1,0,0:0:0:0:
320,192,223428,1,2,0:0:0:0:
64,192,223507,1,8,0:0:0:0:
192,192,223507,1,0,0:0:0:0:
320,192,223585,1,2,0:0:0:0:
448,192,223585,1,0,0:0:0:0:
64,192,223664,1,2,0:0:0:0:
192,192,223664,1,4,0:0:0:0:
320,192,223742,1,0,0:0:0:0:
64,192,223821,1,0,0:0:0:0:
448,192,223821,1,0,0:0:0:0:
192,192,223899,1,0,0:0:0:0:
320,192,223978,1,8,0:0:0:0:
448,192,223978,1,0,0:0:0:0:
192,192,224057,1,0,0:0:0:0:
64,192,224135,1,0,0:0:0:0:
320,192,224214,1,0,0:0:0:0:
448,192,224214,1,0,0:0:0:0:
64,192,224292,1,8,0:0:0:0:
192,192,224292,1,4,0:0:0:0:
320,192,224371,1,0,0:0:0:0:
448,192,224449,1,0,0:0:0:0:
192,192,224528,1,0,0:0:0:0:
320,192,224606,1,8,0:0:0:0:
448,192,224606,1,0,0:0:0:0:
64,192,224685,1,0,0:0:0:0:
192,192,224685,1,0,0:0:0:0:
320,192,224763,1,2,0:0:0:0:
64,192,224842,1,2,0:0:0:0:
192,192,224842,1,0,0:0:0:0:
320,192,224920,1,8,0:0:0:0:
448,192,224920,1,4,0:0:0:0:
192,192,224999,1,0,0:0:0:0:
64,192,225077,1,2,0:0:0:0:
448,192,225077,1,0,0:0:0:0:
320,192,225117,1,0,0:0:0:0:
192,192,225156,1,2,0:0:0:0:
64,192,225195,1,0,0:0:0:0:
320,192,225235,1,8,0:0:0:0:
448,192,225235,1,4,0:0:0:0:
64,192,225313,1,0,0:0:0:0:
192,192,225313,1,0,0:0:0:0:
320,192,225392,1,2,0:0:0:0:
448,192,225392,1,0,0:0:0:0:
64,192,225470,1,2,0:0:0:0:
192,192,225470,1,0,0:0:0:0:
320,192,225549,1,8,0:0:0:0:
448,192,225549,1,4,0:0:0:0:
64,192,225627,1,0,0:0:0:0:
192,192,225627,1,0,0:0:0:0:
320,192,225706,1,2,0:0:0:0:
448,192,225706,1,0,0:0:0:0:
64,192,225745,1,2,0:0:0:0:
192,192,225784,1,2,0:0:0:0:
320,192,225824,1,2,0:0:0:0:
64,192,225863,1,8,0:0:0:0:
192,192,225863,1,4,0:0:0:0:
320,192,225941,1,2,0:0:0:0:
448,192,225941,1,0,0:0:0:0:
64,192,226020,1,8,0:0:0:0:
192,192,226020,1,0,0:0:0:0:
320,192,226098,1,2,0:0:0:0:
448,192,226098,1,0,0:0:0:0:
64,192,226177,1,2,0:0:0:0:
192,192,226177,1,4,0:0:0:0:
448,192,226177,1,0,0:0:0:0:
320,192,226255,1,0,0:0:0:0:
192,192,226334,1,0,0:0:0:0:
448,192,226334,1,0,0:0:0:0:
64,192,226413,1,0,0:0:0:0:
320,192,226491,1,8,0:0:0:0:
448,192,226491,1,0,0:0:0:0:
64,192,226570,1,0,0:0:0:0:
192,192,226570,1,0,0:0:0:0:
320,192,226648,1,0,0:0:0:0:
448,192,226648,1,0,0:0:0:0:
192,192,226727,1,0,0:0:0:0:
64,192,226805,1,2,0:0:0:0:
320,192,226805,1,0,0:0:0:0:
448,192,226884,1,0,0:0:0:0:
64,192,226962,1,0,0:0:0:0:
192,192,226962,1,0,0:0:0:0:
320,192,227041,1,0,0:0:0:0:
64,192,227119,1,8,0:0:0:0:
192,192,227119,1,0,0:0:0:0:
320,192,227198,1,0,0:0:0:0:
448,192,227198,1,0,0:0:0:0:
64,192,227276,1,0,0:0:0:0:
192,192,227276,1,0,0:0:0:0:
320,192,227355,1,0,0:0:0:0:
64,192,227434,1,2,0:0:0:0:
448,192,227434,1,0,0:0:0:0:
192,192,227512,1,0,0:0:0:0:
320,192,227512,1,0,0:0:0:0:
64,192,227591,1,8,0:0:0:0:
448,192,227591,1,0,0:0:0:0:
192,192,227669,1,0,0:0:0:0:
64,192,227748,1,8,0:0:0:0:
448,192,227748,1,0,0:0:0:0:
192,192,227826,1,0,0:0:0:0:
320,192,227826,1,0,0:0:0:0:
64,192,227905,1,0,0:0:0:0:
448,192,227905,1,0,0:0:0:0:
320,192,227983,1,0,0:0:0:0:
64,192,228062,1,2,0:0:0:0:
192,192,228062,1,0,0:0:0:0:
320,192,228140,1,0,0:0:0:0:
448,192,228140,1,0,0:0:0:0:
64,192,228219,1,0,0:0:0:0:
192,192,228219,1,0,0:0:0:0:
320,192,228297,1,0,0:0:0:0:
64,192,228376,1,8,0:0:0:0:
448,192,228376,1,0,0:0:0:0:
320,192,228454,1,0,0:0:0:0:
64,192,228533,1,8,0:0:0:0:
192,192,228533,1,0,0:0:0:0:
320,192,228612,1,0,0:0:0:0:
64,192,228690,1,2,0:0:0:0:
448,192,228690,1,0,0:0:0:0:
192,192,228769,1,0,0:0:0:0:
64,192,228847,1,2,0:0:0:0:
320,192,228847,1,0,0:0:0:0:
448,192,228926,1,0,0:0:0:0:
64,192,229004,1,8,0:0:0:0:
192,192,229004,1,0,0:0:0:0:
320,192,229083,1,0,0:0:0:0:
448,192,229083,1,0,0:0:0:0:
64,192,229161,1,0,0:0:0:0:
192,192,229161,1,0,0:0:0:0:
320,192,229240,1,0,0:0:0:0:
192,192,229318,1,2,0:0:0:0:
448,192,229318,1,0,0:0:0:0:
64,192,229397,1,0,0:0:0:0:
320,192,229475,1,2,0:0:0:0:
448,192,229475,1,0,0:0:0:0:
192,192,229554,1,0,0:0:0:0:
320,192,229632,1,8,0:0:0:0:
448,192,229632,1,0,0:0:0:0:
64,192,229711,1,0,0:0:0:0:
192,192,229711,1,0,0:0:0:0:
320,192,229790,1,2,0:0:0:0:
448,192,229790,1,0,0:0:0:0:
192,192,229868,1,0,0:0:0:0:
64,192,229947,1,2,0:0:0:0:
448,192,229947,1,4,0:0:0:0:
192,192,230025,1,0,0:0:0:0:
320,192,230025,1,0,0:0:0:0:
64,192,230104,1,2,0:0:0:0:
448,192,230104,1,0,0:0:0:0:
320,192,230182,1,0,0:0:0:0:
64,192,230261,1,8,0:0:0:0:
448,192,230261,1,0,0:0:0:0:
192,192,230339,1,0,0:0:0:0:
320,192,230339,1,0,0:0:0:0:
64,192,230418,1,2,0:0:0:0:
448,192,230418,1,0,0:0:0:0:
192,192,230496,1,0,0:0:0:0:
320,192,230575,1,2,0:0:0:0:
448,192,230575,1,4,0:0:0:0:
64,192,230653,1,0,0:0:0:0:
192,192,230653,1,0,0:0:0:0:
320,192,230732,1,2,0:0:0:0:
448,192,230732,1,0,0:0:0:0:
192,192,230810,1,0,0:0:0:0:
64,192,230889,1,8,0:0:0:0:
448,192,230889,1,0,0:0:0:0:
192,192,230968,1,2,0:0:0:0:
320,192,230968,1,0,0:0:0:0:
64,192,231046,1,8,0:0:0:0:
448,192,231046,1,0,0:0:0:0:
192,192,231125,1,2,0:0:0:0:
320,192,231125,1,0,0:0:0:0:
64,192,231203,1,2,0:0:0:0:
192,192,231203,1,4,0:0:0:0:
448,192,231203,1,0,0:0:0:0:
320,192,231282,1,0,0:0:0:0:
192,192,231360,1,0,0:0:0:0:
448,192,231360,1,0,0:0:0:0:
64,192,231439,1,0,0:0:0:0:
320,192,231517,1,8,0:0:0:0:
448,192,231517,1,0,0:0:0:0:
64,192,231596,1,0,0:0:0:0:
192,192,231596,1,0,0:0:0:0:
320,192,231674,1,0,0:0:0:0:
448,192,231674,1,0,0:0:0:0:
192,192,231753,1,0,0:0:0:0:
64,192,231831,1,2,0:0:0:0:
320,192,231831,1,0,0:0:0:0:
448,192,231910,1,0,0:0:0:0:
64,192,231988,1,0,0:0:0:0:
192,192,231988,1,0,0:0:0:0:
320,192,232067,1,0,0:0:0:0:
64,192,232146,1,8,0:0:0:0:
192,192,232146,1,0,0:0:0:0:
448,192,232224,1,0,0:0:0:0:
64,192,232303,1,0,0:0:0:0:
192,192,232303,1,0,0:0:0:0:
320,192,232381,1,0,0:0:0:0:
64,192,232460,1,2,0:0:0:0:
448,192,232460,1,0,0:0:0:0:
192,192,232538,1,0,0:0:0:0:
320,192,232538,1,0,0:0:0:0:
64,192,232617,1,8,0:0:0:0:
448,192,232617,1,0,0:0:0:0:
192,192,232695,1,0,0:0:0:0:
320,192,232774,1,8,0:0:0:0:
448,192,232774,1,0,0:0:0:0:
64,192,232852,1,0,0:0:0:0:
192,192,232852,1,0,0:0:0:0:
320,192,232931,1,0,0:0:0:0:
448,192,232931,1,0,0:0:0:0:
192,192,233009,1,0,0:0:0:0:
320,192,233088,1,2,0:0:0:0:
448,192,233088,1,0,0:0:0:0:
64,192,233166,1,0,0:0:0:0:
192,192,233166,1,0,0:0:0:0:
320,192,233245,1,0,0:0:0:0:
448,192,233245,1,0,0:0:0:0:
192,192,233324,1,0,0:0:0:0:
64,192,233402,1,8,0:0:0:0:
448,192,233402,1,0,0:0:0:0:
320,192,233481,1,0,0:0:0:0:
64,192,233559,1,8,0:0:0:0:
192,192,233559,1,0,0:0:0:0:
320,192,233638,1,0,0:0:0:0:
64,192,233716,1,2,0:0:0:0:
192,192,233716,1,4,0:0:0:0:
448,192,233716,1,0,0:0:0:0:
320,192,233795,1,0,0:0:0:0:
64,192,233873,1,2,0:0:0:0:
192,192,233873,1,0,0:0:0:0:
448,192,233952,1,0,0:0:0:0:
64,192,234030,1,8,0:0:0:0:
192,192,234030,1,0,0:0:0:0:
320,192,234109,1,0,0:0:0:0:
448,192,234109,1,0,0:0:0:0:
64,192,234187,1,0,0:0:0:0:
192,192,234187,1,0,0:0:0:0:
320,192,234266,1,0,0:0:0:0:
64,192,234345,1,2,0:0:0:0:
192,192,234345,1,4,0:0:0:0:
448,192,234345,1,0,0:0:0:0:
320,192,234423,1,0,0:0:0:0:
64,192,234502,1,2,0:0:0:0:
448,192,234502,1,0,0:0:0:0:
192,192,234580,1,0,0:0:0:0:
320,192,234659,1,8,0:0:0:0:
448,192,234659,1,0,0:0:0:0:
64,192,234737,1,0,0:0:0:0:
320,192,234816,1,2,0:0:0:0:
448,192,234816,1,0,0:0:0:0:
192,192,234894,1,0,0:0:0:0:
64,192,234973,1,4,0:0:0:0:
448,192,234973,1,2,0:0:0:0:
192,192,235051,1,0,0:0:0:0:
320,192,235051,1,0,0:0:0:0:
64,192,235130,1,2,0:0:0:0:
448,192,235130,1,0,0:0:0:0:
192,192,235169,1,0,0:0:0:0:
320,192,235208,1,0,0:0:0:0:
448,192,235248,1,0,0:0:0:0:
64,192,235287,1,8,0:0:0:0:
192,192,235287,1,0,0:0:0:0:
320,192,235365,1,0,0:0:0:0:
448,192,235365,1,0,0:0:0:0:
64,192,235444,1,2,0:0:0:0:
192,192,235444,1,0,0:0:0:0:
320,192,235523,1,0,0:0:0:0:
448,192,235523,1,0,0:0:0:0:
64,192,235601,1,4,0:0:0:0:
192,192,235601,1,2,0:0:0:0:
320,192,235680,1,0,0:0:0:0:
64,192,235758,1,2,0:0:0:0:
192,192,235758,1,0,0:0:0:0:
320,192,235837,1,2,0:0:0:0:
64,192,235915,1,8,0:0:0:0:
448,192,235915,1,0,0:0:0:0:
320,192,235994,1,8,0:0:0:0:
64,192,236072,128,0,236229:0:0:0:0:
192,192,236151,1,0,0:0:0:0:
320,192,236229,1,4,0:0:0:0:
448,192,236229,1,2,0:0:0:0:
192,192,236308,1,0,0:0:0:0:
64,192,236386,1,0,0:0:0:0:
320,192,236386,1,0,0:0:0:0:
448,192,236465,1,0,0:0:0:0:
64,192,236543,1,8,0:0:0:0:
192,192,236543,1,0,0:0:0:0:
320,192,236622,1,0,0:0:0:0:
448,192,236622,1,0,0:0:0:0:
64,192,236701,1,0,0:0:0:0:
192,192,236701,1,0,0:0:0:0:
320,192,236779,1,0,0:0:0:0:
192,192,236858,1,2,0:0:0:0:
448,192,236858,1,0,0:0:0:0:
64,192,236936,1,0,0:0:0:0:
320,192,237015,1,0,0:0:0:0:
448,192,237015,1,0,0:0:0:0:
192,192,237093,1,0,0:0:0:0:
320,192,237172,1,8,0:0:0:0:
448,192,237172,1,0,0:0:0:0:
64,192,237250,1,0,0:0:0:0:
192,192,237250,1,0,0:0:0:0:
320,192,237329,1,0,0:0:0:0:
448,192,237329,1,0,0:0:0:0:
192,192,237407,1,0,0:0:0:0:
64,192,237486,1,2,0:0:0:0:
448,192,237486,1,0,0:0:0:0:
192,192,237564,1,0,0:0:0:0:
320,192,237564,1,0,0:0:0:0:
64,192,237643,1,8,0:0:0:0:
448,192,237643,1,0,0:0:0:0:
320,192,237721,1,0,0:0:0:0:
64,192,237800,1,8,0:0:0:0:
448,192,237800,1,0,0:0:0:0:
192,192,237879,1,0,0:0:0:0:
320,192,237879,1,0,0:0:0:0:
64,192,237957,1,0,0:0:0:0:
448,192,237957,1,0,0:0:0:0:
192,192,238036,1,0,0:0:0:0:
320,192,238114,1,2,0:0:0:0:
448,192,238114,1,0,0:0:0:0:
64,192,238193,1,0,0:0:0:0:
192,192,238193,1,0,0:0:0:0:
320,192,238271,1,0,0:0:0:0:
448,192,238271,1,0,0:0:0:0:
192,192,238350,1,0,0:0:0:0:
64,192,238428,1,8,0:0:0:0:
448,192,238428,1,0,0:0:0:0:
192,192,238507,1,0,0:0:0:0:
320,192,238585,1,8,0:0:0:0:
448,192,238585,1,0,0:0:0:0:
192,192,238664,1,0,0:0:0:0:
64,192,238742,1,2,0:0:0:0:
448,192,238742,1,4,0:0:0:0:
320,192,238821,1,0,0:0:0:0:
192,192,238899,1,2,0:0:0:0:
448,192,238899,1,0,0:0:0:0:
64,192,238978,1,0,0:0:0:0:
320,192,239057,1,8,0:0:0:0:
448,192,239057,1,0,0:0:0:0:
64,192,239135,1,0,0:0:0:0:
192,192,239135,1,0,0:0:0:0:
320,192,239214,1,0,0:0:0:0:
448,192,239214,1,0,0:0:0:0:
192,192,239292,1,0,0:0:0:0:
64,192,239371,1,2,0:0:0:0:
320,192,239371,1,0,0:0:0:0:
448,192,239449,1,0,0:0:0:0:
64,192,239528,1,2,0:0:0:0:
192,192,239528,1,0,0:0:0:0:
320,192,239606,1,0,0:0:0:0:
64,192,239685,1,8,0:0:0:0:
192,192,239685,1,0,0:0:0:0:
320,192,239763,1,0,0:0:0:0:
448,192,239763,1,0,0:0:0:0:
64,192,239842,1,2,0:0:0:0:
192,192,239842,1,0,0:0:0:0:
320,192,239920,1,0,0:0:0:0:
64,192,239999,1,2,0:0:0:0:
448,192,239999,1,4,0:0:0:0:
192,192,240077,1,0,0:0:0:0:
320,192,240077,1,0,0:0:0:0:
64,192,240156,1,2,0:0:0:0:
448,192,240156,1,0,0:0:0:0:
192,192,240235,1,0,0:0:0:0:
64,192,240313,1,8,0:0:0:0:
448,192,240313,1,0,0:0:0:0:
192,192,240392,1,0,0:0:0:0:
320,192,240392,1,0,0:0:0:0:
64,192,240470,1,2,0:0:0:0:
448,192,240470,1,0,0:0:0:0:
320,192,240549,1,0,0:0:0:0:
64,192,240627,1,2,0:0:0:0:
192,192,240627,1,4,0:0:0:0:
320,192,240706,1,0,0:0:0:0:
448,192,240706,1,0,0:0:0:0:
64,192,240784,1,2,0:0:0:0:
192,192,240784,1,0,0:0:0:0:
448,192,240824,1,2,0:0:0:0:
320,192,240863,1,2,0:0:0:0:
192,192,240902,1,2,0:0:0:0:
320,192,240941,1,8,0:0:0:0:
448,192,240941,1,4,0:0:0:0:
64,192,241020,1,2,0:0:0:0:
192,192,241020,1,0,0:0:0:0:
320,192,241098,1,8,0:0:0:0:
448,192,241098,1,0,0:0:0:0:
64,192,241177,1,2,0:0:0:0:
192,192,241177,1,0,0:0:0:0:
64,192,241255,1,2,0:0:0:0:
320,192,241255,1,4,0:0:0:0:
448,192,241255,1,0,0:0:0:0:
192,192,241334,1,0,0:0:0:0:
64,192,241413,1,2,0:0:0:0:
320,192,241413,1,0,0:0:0:0:
448,192,241491,1,2,0:0:0:0:
64,192,241570,1,8,0:0:0:0:
192,192,241570,1,0,0:0:0:0:
320,192,241648,1,2,0:0:0:0:
448,192,241648,1,0,0:0:0:0:
64,192,241727,1,2,0:0:0:0:
192,192,241727,1,0,0:0:0:0:
320,192,241805,1,0,0:0:0:0:
192,192,241884,1,2,0:0:0:0:
448,192,241884,1,0,0:0:0:0:
64,192,241962,1,2,0:0:0:0:
320,192,242041,1,2,0:0:0:0:
448,192,242041,1,0,0:0:0:0:
192,192,242119,1,0,0:0:0:0:
320,192,242198,1,2,0:0:0:0:
448,192,242198,1,0,0:0:0:0:
64,192,242276,1,0,0:0:0:0:
320,192,242355,1,2,0:0:0:0:
448,192,242355,1,0,0:0:0:0:
192,192,242434,1,0,0:0:0:0:
64,192,242512,1,2,0:0:0:0:
320,192,242512,1,4,0:0:0:0:
448,192,242512,1,0,0:0:0:0:
192,192,242591,1,0,0:0:0:0:
64,192,242669,1,2,0:0:0:0:
448,192,242669,1,0,0:0:0:0:
320,192,242748,1,2,0:0:0:0:
64,192,242826,1,8,0:0:0:0:
192,192,242826,1,0,0:0:0:0:
320,192,242905,1,0,0:0:0:0:
448,192,242905,1,0,0:0:0:0:
64,192,242983,1,2,0:0:0:0:
192,192,242983,1,0,0:0:0:0:
320,192,243062,1,2,0:0:0:0:
64,192,243140,1,2,0:0:0:0:
192,192,243140,1,0,0:0:0:0:
320,192,243219,1,2,0:0:0:0:
448,192,243219,1,0,0:0:0:0:
64,192,243297,1,2,0:0:0:0:
192,192,243297,1,0,0:0:0:0:
320,192,243376,1,0,0:0:0:0:
64,192,243454,1,8,0:0:0:0:
192,192,243454,1,0,0:0:0:0:
448,192,243454,1,0,0:0:0:0:
320,192,243533,1,0,0:0:0:0:
64,192,243612,1,8,0:0:0:0:
448,192,243612,1,0,0:0:0:0:
192,192,243690,1,0,0:0:0:0:
64,192,243769,1,2,0:0:0:0:
320,192,243769,1,4,0:0:0:0:
448,192,243769,1,0,0:0:0:0:
192,192,243847,1,0,0:0:0:0:
320,192,243926,1,2,0:0:0:0:
448,192,243926,1,0,0:0:0:0:
64,192,244004,1,2,0:0:0:0:
320,192,244083,1,8,0:0:0:0:
448,192,244083,1,0,0:0:0:0:
64,192,244161,1,2,0:0:0:0:
192,192,244161,1,0,0:0:0:0:
320,192,244240,1,2,0:0:0:0:
448,192,244240,1,4,0:0:0:0:
192,192,244318,1,0,0:0:0:0:
64,192,244397,1,2,0:0:0:0:
320,192,244397,1,0,0:0:0:0:
448,192,244397,1,0,0:0:0:0:
192,192,244475,1,2,0:0:0:0:
64,192,244554,1,2,0:0:0:0:
448,192,244554,1,0,0:0:0:0:
320,192,244632,1,0,0:0:0:0:
64,192,244711,1,8,0:0:0:0:
192,192,244711,1,0,0:0:0:0:
448,192,244790,1,2,0:0:0:0:
64,192,244868,1,8,0:0:0:0:
192,192,244868,1,0,0:0:0:0:
320,192,244947,1,0,0:0:0:0:
64,192,245025,1,2,0:0:0:0:
448,192,245025,1,4,0:0:0:0:
192,192,245104,1,0,0:0:0:0:
320,192,245104,1,0,0:0:0:0:
64,192,245182,1,2,0:0:0:0:
448,192,245182,1,0,0:0:0:0:
320,192,245221,1,2,0:0:0:0:
192,192,245261,1,2,0:0:0:0:
64,192,245300,1,2,0:0:0:0:
320,192,245339,1,2,0:0:0:0:
448,192,245339,1,4,0:0:0:0:
64,192,245418,1,2,0:0:0:0:
192,192,245418,1,0,0:0:0:0:
320,192,245496,1,2,0:0:0:0:
448,192,245496,1,0,0:0:0:0:
64,192,245575,1,2,0:0:0:0:
192,192,245575,1,0,0:0:0:0:
320,192,245653,1,2,0:0:0:0:
448,192,245653,1,4,0:0:0:0:
64,192,245732,1,2,0:0:0:0:
192,192,245732,1,0,0:0:0:0:
320,192,245810,1,2,0:0:0:0:
448,192,245810,1,0,0:0:0:0:
192,192,245850,1,2,0:0:0:0:
320,192,245889,1,2,0:0:0:0:
448,192,245928,1,2,0:0:0:0:
64,192,245968,128,8,246125:0:0:0:0:
192,192,245968,128,4,246125:0:0:0:0:
64,192,246282,1,4,0:0:0:0:
192,192,246282,1,2,0:0:0:0:
320,192,246282,1,0,0:0:0:0:
448,192,246282,1,0,0:0:0:0:
320,192,246360,1,0,0:0:0:0:
192,192,246439,1,0,0:0:0:0:
448,192,246439,1,0,0:0:0:0:
64,192,246517,1,0,0:0:0:0:
320,192,246596,1,8,0:0:0:0:
448,192,246596,1,0,0:0:0:0:
64,192,246674,1,0,0:0:0:0:
192,192,246674,1,0,0:0:0:0:
320,192,246753,1,0,0:0:0:0:
448,192,246753,1,0,0:0:0:0:
192,192,246831,1,0,0:0:0:0:
64,192,246910,1,2,0:0:0:0:
320,192,246910,1,0,0:0:0:0:
448,192,246988,1,0,0:0:0:0:
64,192,247067,1,0,0:0:0:0:
192,192,247067,1,0,0:0:0:0:
320,192,247146,1,0,0:0:0:0:
64,192,247224,1,8,0:0:0:0:
192,192,247224,1,0,0:0:0:0:
320,192,247303,1,0,0:0:0:0:
448,192,247303,1,0,0:0:0:0:
64,192,247381,1,0,0:0:0:0:
192,192,247381,1,0,0:0:0:0:
320,192,247460,1,0,0:0:0:0:
64,192,247538,1,2,0:0:0:0:
448,192,247538,1,0,0:0:0:0:
192,192,247617,1,0,0:0:0:0:
320,192,247617,1,0,0:0:0:0:
64,192,247695,1,8,0:0:0:0:
448,192,247695,1,0,0:0:0:0:
192,192,247774,1,0,0:0:0:0:
64,192,247852,1,8,0:0:0:0:
448,192,247852,1,0,0:0:0:0:
192,192,247931,1,0,0:0:0:0:
320,192,247931,1,0,0:0:0:0:
64,192,248009,1,0,0:0:0:0:
448,192,248009,1,0,0:0:0:0:
320,192,248088,1,0,0:0:0:0:
64,192,248166,1,2,0:0:0:0:
192,192,248166,1,0,0:0:0:0:
320,192,248245,1,0,0:0:0:0:
448,192,248245,1,0,0:0:0:0:
64,192,248324,1,0,0:0:0:0:
192,192,248324,1,0,0:0:0:0:
320,192,248402,1,0,0:0:0:0:
64,192,248481,1,8,0:0:0:0:
448,192,248481,1,0,0:0:0:0:
320,192,248559,1,0,0:0:0:0:
64,192,248638,1,8,0:0:0:0:
192,192,248638,1,0,0:0:0:0:
320,192,248716,1,0,0:0:0:0:
64,192,248795,1,2,0:0:0:0:
448,192,248795,1,0,0:0:0:0:
192,192,248873,1,0,0:0:0:0:
64,192,248952,1,2,0:0:0:0:
320,192,248952,1,0,0:0:0:0:
448,192,249030,1,0,0:0:0:0:
64,192,249109,1,8,0:0:0:0:
192,192,249109,1,0,0:0:0:0:
320,192,249187,1,0,0:0:0:0:
448,192,249187,1,0,0:0:0:0:
64,192,249266,1,0,0:0:0:0:
192,192,249266,1,0,0:0:0:0:
320,192,249345,1,0,0:0:0:0:
192,192,249423,1,2,0:0:0:0:
448,192,249423,1,0,0:0:0:0:
64,192,249502,1,0,0:0:0:0:
320,192,249580,1,2,0:0:0:0:
448,192,249580,1,0,0:0:0:0:
192,192,249659,1,0,0:0:0:0:
320,192,249737,1,8,0:0:0:0:
448,192,249737,1,0,0:0:0:0:
64,192,249816,1,0,0:0:0:0:
192,192,249816,1,0,0:0:0:0:
320,192,249894,1,2,0:0:0:0:
448,192,249894,1,0,0:0:0:0:
192,192,249973,1,0,0:0:0:0:
64,192,250051,1,2,0:0:0:0:
320,192,250051,1,4,0:0:0:0:
448,192,250051,1,0,0:0:0:0:
192,192,250130,1,0,0:0:0:0:
64,192,250208,1,2,0:0:0:0:
448,192,250208,1,0,0:0:0:0:
320,192,250287,1,0,0:0:0:0:
64,192,250365,1,8,0:0:0:0:
448,192,250365,1,0,0:0:0:0:
192,192,250444,1,0,0:0:0:0:
320,192,250444,1,0,0:0:0:0:
64,192,250523,1,2,0:0:0:0:
448,192,250523,1,0,0:0:0:0:
192,192,250601,1,0,0:0:0:0:
320,192,250680,1,2,0:0:0:0:
448,192,250680,1,4,0:0:0:0:
64,192,250758,1,0,0:0:0:0:
192,192,250758,1,0,0:0:0:0:
320,192,250837,1,2,0:0:0:0:
448,192,250837,1,0,0:0:0:0:
192,192,250915,1,0,0:0:0:0:
64,192,250994,1,8,0:0:0:0:
448,192,250994,1,0,0:0:0:0:
192,192,251072,1,2,0:0:0:0:
320,192,251072,1,0,0:0:0:0:
64,192,251151,1,8,0:0:0:0:
448,192,251151,1,0,0:0:0:0:
320,192,251229,1,2,0:0:0:0:
64,192,251308,1,2,0:0:0:0:
192,192,251308,1,4,0:0:0:0:
448,192,251308,1,0,0:0:0:0:
320,192,251386,1,0,0:0:0:0:
192,192,251465,1,0,0:0:0:0:
448,192,251465,1,0,0:0:0:0:
64,192,251543,1,0,0:0:0:0:
320,192,251622,1,8,0:0:0:0:
448,192,251622,1,0,0:0:0:0:
64,192,251701,1,0,0:0:0:0:
192,192,251701,1,0,0:0:0:0:
320,192,251779,1,0,0:0:0:0:
448,192,251779,1,0,0:0:0:0:
192,192,251858,1,0,0:0:0:0:
64,192,251936,1,2,0:0:0:0:
320,192,251936,1,0,0:0:0:0:
448,192,252015,1,0,0:0:0:0:
64,192,252093,1,0,0:0:0:0:
192,192,252093,1,0,0:0:0:0:
320,192,252172,1,0,0:0:0:0:
64,192,252250,1,8,0:0:0:0:
192,192,252250,1,0,0:0:0:0:
448,192,252329,1,0,0:0:0:0:
64,192,252407,1,0,0:0:0:0:
192,192,252407,1,0,0:0:0:0:
320,192,252486,1,0,0:0:0:0:
64,192,252564,1,2,0:0:0:0:
448,192,252564,1,0,0:0:0:0:
192,192,252643,1,0,0:0:0:0:
320,192,252643,1,0,0:0:0:0:
64,192,252721,1,8,0:0:0:0:
448,192,252721,1,0,0:0:0:0:
192,192,252800,1,0,0:0:0:0:
320,192,252879,1,8,0:0:0:0:
448,192,252879,1,0,0:0:0:0:
64,192,252957,1,0,0:0:0:0:
192,192,252957,1,0,0:0:0:0:
320,192,253036,1,0,0:0:0:0:
448,192,253036,1,0,0:0:0:0:
192,192,253114,1,0,0:0:0:0:
320,192,253193,1,2,0:0:0:0:
448,192,253193,1,0,0:0:0:0:
64,192,253271,1,0,0:0:0:0:
192,192,253271,1,0,0:0:0:0:
320,192,253350,1,0,0:0:0:0:
448,192,253350,1,0,0:0:0:0:
192,192,253428,1,0,0:0:0:0:
64,192,253507,1,8,0:0:0:0:
448,192,253507,1,0,0:0:0:0:
320,192,253585,1,0,0:0:0:0:
64,192,253664,1,8,0:0:0:0:
192,192,253664,1,0,0:0:0:0:
320,192,253742,1,0,0:0:0:0:
64,192,253821,1,2,0:0:0:0:
192,192,253821,1,4,0:0:0:0:
448,192,253821,1,0,0:0:0:0:
320,192,253899,1,0,0:0:0:0:
64,192,253978,1,2,0:0:0:0:
192,192,253978,1,0,0:0:0:0:
448,192,254057,1,0,0:0:0:0:
64,192,254135,1,8,0:0:0:0:
192,192,254135,1,0,0:0:0:0:
320,192,254214,1,0,0:0:0:0:
448,192,254214,1,0,0:0:0:0:
64,192,254292,1,0,0:0:0:0:
192,192,254292,1,0,0:0:0:0:
320,192,254371,1,0,0:0:0:0:
64,192,254449,1,2,0:0:0:0:
192,192,254449,1,4,0:0:0:0:
448,192,254449,1,0,0:0:0:0:
320,192,254528,1,0,0:0:0:0:
64,192,254606,1,2,0:0:0:0:
448,192,254606,1,0,0:0:0:0:
192,192,254685,1,0,0:0:0:0:
320,192,254763,1,8,0:0:0:0:
448,192,254763,1,0,0:0:0:0:
64,192,254842,1,0,0:0:0:0:
320,192,254920,1,2,0:0:0:0:
448,192,254920,1,0,0:0:0:0:
192,192,254999,1,0,0:0:0:0:
64,192,255077,1,4,0:0:0:0:
448,192,255077,1,2,0:0:0:0:
192,192,255156,1,0,0:0:0:0:
320,192,255156,1,0,0:0:0:0:
64,192,255235,1,2,0:0:0:0:
448,192,255235,1,0,0:0:0:0:
192,192,255274,1,2,0:0:0:0:
320,192,255313,1,2,0:0:0:0:
448,192,255352,1,2,0:0:0:0:
64,192,255392,1,8,0:0:0:0:
192,192,255392,1,0,0:0:0:0:
320,192,255470,1,2,0:0:0:0:
448,192,255470,1,0,0:0:0:0:
64,192,255549,1,2,0:0:0:0:
192,192,255549,1,0,0:0:0:0:
320,192,255627,1,2,0:0:0:0:
448,192,255627,1,0,0:0:0:0:
64,192,255706,1,4,0:0:0:0:
192,192,255706,1,2,0:0:0:0:
320,192,255784,1,0,0:0:0:0:
448,192,255784,1,0,0:0:0:0:
64,192,255863,1,2,0:0:0:0:
192,192,255863,1,0,0:0:0:0:
320,192,255941,1,0,0:0:0:0:
64,192,256020,1,8,0:0:0:0:
448,192,256020,1,0,0:0:0:0:
320,192,256098,1,8,0:0:0:0:
64,192,256177,128,0,256334:0:0:0:0:
448,192,256177,1,0,0:0:0:0:
192,192,256255,1,0,0:0:0:0:
320,192,256334,1,4,0:0:0:0:
448,192,256334,1,2,0:0:0:0:
192,192,256413,1,0,0:0:0:0:
64,192,256491,1,0,0:0:0:0:
320,192,256491,1,0,0:0:0:0:
448,192,256570,1,0,0:0:0:0:
64,192,256648,1,8,0:0:0:0:
192,192,256648,1,0,0:0:0:0:
320,192,256727,1,0,0:0:0:0:
448,192,256727,1,0,0:0:0:0:
64,192,256805,1,0,0:0:0:0:
192,192,256805,1,0,0:0:0:0:
320,192,256884,1,0,0:0:0:0:
192,192,256962,1,0,0:0:0:0:
448,192,256962,1,0,0:0:0:0:
64,192,257041,1,0,0:0:0:0:
320,192,257119,1,0,0:0:0:0:
448,192,257119,1,0,0:0:0:0:
192,192,257198,1,0,0:0:0:0:
320,192,257276,1,8,0:0:0:0:
448,192,257276,1,0,0:0:0:0:
64,192,257355,1,0,0:0:0:0:
192,192,257355,1,0,0:0:0:0:
320,192,257434,1,0,0:0:0:0:
448,192,257434,1,0,0:0:0:0:
192,192,257512,1,0,0:0:0:0:
64,192,257591,1,0,0:0:0:0:
448,192,257591,1,0,0:0:0:0:
192,192,257669,1,0,0:0:0:0:
320,192,257669,1,0,0:0:0:0:
64,192,257748,1,8,0:0:0:0:
448,192,257748,1,0,0:0:0:0:
320,192,257826,1,0,0:0:0:0:
64,192,257905,1,8,0:0:0:0:
448,192,257905,1,0,0:0:0:0:
192,192,257983,1,0,0:0:0:0:
320,192,257983,1,0,0:0:0:0:
64,192,258062,1,0,0:0:0:0:
448,192,258062,1,0,0:0:0:0:
192,192,258140,1,0,0:0:0:0:
320,192,258219,1,0,0:0:0:0:
448,192,258219,1,0,0:0:0:0:
64,192,258297,1,0,0:0:0:0:
192,192,258297,1,0,0:0:0:0:
320,192,258376,1,0,0:0:0:0:
448,192,258376,1,0,0:0:0:0:
192,192,258454,1,0,0:0:0:0:
64,192,258533,1,8,0:0:0:0:
448,192,258533,1,0,0:0:0:0:
192,192,258612,1,0,0:0:0:0:
320,192,258690,1,8,0:0:0:0:
448,192,258690,1,0,0:0:0:0:
64,192,258769,1,2,0:0:0:0:
192,192,258769,1,0,0:0:0:0:
64,192,258847,1,2,0:0:0:0:
320,192,258847,1,4,0:0:0:0:
448,192,258847,1,0,0:0:0:0:
192,192,258926,1,0,0:0:0:0:
320,192,259004,1,0,0:0:0:0:
448,192,259004,1,0,0:0:0:0:
64,192,259083,1,0,0:0:0:0:
320,192,259161,1,8,0:0:0:0:
448,192,259161,1,0,0:0:0:0:
64,192,259240,1,0,0:0:0:0:
192,192,259240,1,0,0:0:0:0:
320,192,259318,1,0,0:0:0:0:
448,192,259318,1,0,0:0:0:0:
192,192,259397,1,0,0:0:0:0:
64,192,259475,1,0,0:0:0:0:
320,192,259475,1,0,0:0:0:0:
448,192,259554,1,0,0:0:0:0:
192,192,259632,1,0,0:0:0:0:
320,192,259711,1,0,0:0:0:0:
64,192,259790,1,8,0:0:0:0:
192,192,259790,1,0,0:0:0:0:
320,192,259868,1,0,0:0:0:0:
448,192,259868,1,0,0:0:0:0:
64,192,259947,1,8,0:0:0:0:
192,192,259947,1,0,0:0:0:0:
320,192,260025,1,2,0:0:0:0:
64,192,260104,1,2,0:0:0:0:
448,192,260104,1,4,0:0:0:0:
192,192,260182,1,0,0:0:0:0:
320,192,260182,1,0,0:0:0:0:
64,192,260261,1,0,0:0:0:0:
448,192,260261,1,0,0:0:0:0:
192,192,260339,1,0,0:0:0:0:
64,192,260418,1,8,0:0:0:0:
448,192,260418,1,0,0:0:0:0:
192,192,260496,1,0,0:0:0:0:
320,192,260496,1,0,0:0:0:0:
64,192,260575,1,2,0:0:0:0:
448,192,260575,1,0,0:0:0:0:
320,192,260653,1,0,0:0:0:0:
64,192,260732,1,4,0:0:0:0:
192,192,260732,1,2,0:0:0:0:
320,192,260810,1,0,0:0:0:0:
448,192,260810,1,0,0:0:0:0:
64,192,260889,1,0,0:0:0:0:
192,192,260889,1,0,0:0:0:0:
320,192,260968,1,0,0:0:0:0:
64,192,261046,1,8,0:0:0:0:
192,192,261046,1,0,0:0:0:0:
320,192,261125,1,8,0:0:0:0:
448,192,261125,1,0,0:0:0:0:
64,192,261203,1,8,0:0:0:0:
192,192,261203,1,0,0:0:0:0:
320,192,261282,1,8,0:0:0:0:
448,192,261282,1,0,0:0:0:0:
64,192,261360,1,2,0:0:0:0:
192,192,261360,1,4,0:0:0:0:
448,192,261360,1,0,0:0:0:0:
320,192,261439,1,0,0:0:0:0:
192,192,261517,1,2,0:0:0:0:
448,192,261517,1,0,0:0:0:0:
64,192,261596,1,2,0:0:0:0:
320,192,261674,1,8,0:0:0:0:
448,192,261674,1,0,0:0:0:0:
64,192,261753,1,0,0:0:0:0:
192,192,261753,1,0,0:0:0:0:
320,192,261831,1,2,0:0:0:0:
448,192,261831,1,0,0:0:0:0:
192,192,261910,1,2,0:0:0:0:
64,192,261988,1,2,0:0:0:0:
320,192,261988,1,0,0:0:0:0:
448,192,262067,1,0,0:0:0:0:
64,192,262146,1,2,0:0:0:0:
192,192,262146,1,0,0:0:0:0:
320,192,262224,1,2,0:0:0:0:
64,192,262303,1,8,0:0:0:0:
192,192,262303,1,0,0:0:0:0:
448,192,262381,1,0,0:0:0:0:
64,192,262460,1,2,0:0:0:0:
192,192,262460,1,0,0:0:0:0:
320,192,262538,1,2,0:0:0:0:
448,192,262538,1,0,0:0:0:0:
64,192,262617,1,4,0:0:0:0:
192,192,262617,1,2,0:0:0:0:
448,192,262617,1,0,0:0:0:0:
320,192,262695,1,0,0:0:0:0:
64,192,262774,1,2,0:0:0:0:
448,192,262774,1,0,0:0:0:0:
192,192,262852,1,2,0:0:0:0:
320,192,262931,1,8,0:0:0:0:
448,192,262931,1,0,0:0:0:0:
64,192,263009,1,0,0:0:0:0:
192,192,263009,1,0,0:0:0:0:
320,192,263088,1,2,0:0:0:0:
448,192,263088,1,0,0:0:0:0:
192,192,263166,1,2,0:0:0:0:
448,192,263245,1,2,0:0:0:0:
64,192,263324,1,0,0:0:0:0:
192,192,263324,1,0,0:0:0:0:
320,192,263402,1,2,0:0:0:0:
448,192,263402,1,0,0:0:0:0:
64,192,263481,1,2,0:0:0:0:
320,192,263559,1,8,0:0:0:0:
448,192,263559,1,4,0:0:0:0:
64,192,263638,1,0,0:0:0:0:
192,192,263638,1,0,0:0:0:0:
320,192,263716,1,8,0:0:0:0:
448,192,263716,1,4,0:0:0:0:
64,192,263795,1,0,0:0:0:0:
192,192,263795,1,0,0:0:0:0:
64,192,263873,1,2,0:0:0:0:
320,192,263873,1,4,0:0:0:0:
448,192,263873,1,0,0:0:0:0:
192,192,263952,1,0,0:0:0:0:
320,192,264030,1,2,0:0:0:0:
448,192,264030,1,0,0:0:0:0:
64,192,264109,1,2,0:0:0:0:
192,192,264109,1,0,0:0:0:0:
320,192,264187,1,8,0:0:0:0:
448,192,264187,1,0,0:0:0:0:
64,192,264266,1,2,0:0:0:0:
192,192,264266,1,0,0:0:0:0:
64,192,264345,1,2,0:0:0:0:
320,192,264345,1,4,0:0:0:0:
448,192,264345,1,0,0:0:0:0:
192,192,264423,1,2,0:0:0:0:
320,192,264502,1,8,0:0:0:0:
448,192,264502,1,0,0:0:0:0:
192,192,264580,1,0,0:0:0:0:
64,192,264659,1,2,0:0:0:0:
448,192,264659,1,0,0:0:0:0:
320,192,264737,1,2,0:0:0:0:
64,192,264816,1,8,0:0:0:0:
192,192,264816,1,4,0:0:0:0:
448,192,264816,1,0,0:0:0:0:
320,192,264894,1,0,0:0:0:0:
64,192,264973,1,2,0:0:0:0:
192,192,264973,1,0,0:0:0:0:
320,192,265051,1,2,0:0:0:0:
64,192,265130,1,8,0:0:0:0:
192,192,265130,1,4,0:0:0:0:
448,192,265130,1,0,0:0:0:0:
320,192,265208,1,0,0:0:0:0:
64,192,265287,1,2,0:0:0:0:
448,192,265287,1,0,0:0:0:0:
320,192,265326,1,0,0:0:0:0:
192,192,265365,1,8,0:0:0:0:
64,192,265405,1,0,0:0:0:0:
320,192,265444,1,8,0:0:0:0:
448,192,265444,1,4,0:0:0:0:
64,192,265523,1,2,0:0:0:0:
192,192,265523,1,0,0:0:0:0:
320,192,265601,1,2,0:0:0:0:
448,192,265601,1,0,0:0:0:0:
64,192,265680,1,2,0:0:0:0:
192,192,265680,1,0,0:0:0:0:
320,192,265758,1,8,0:0:0:0:
448,192,265758,1,4,0:0:0:0:
64,192,265837,1,2,0:0:0:0:
192,192,265837,1,0,0:0:0:0:
320,192,265915,1,2,0:0:0:0:
448,192,265915,1,0,0:0:0:0:
192,192,265954,1,2,0:0:0:0:
320,192,265994,1,2,0:0:0:0:
448,192,266033,1,2,0:0:0:0:
64,192,266072,1,8,0:0:0:0:
192,192,266072,1,4,0:0:0:0:
320,192,266151,1,0,0:0:0:0:
64,192,266229,1,0,0:0:0:0:
192,192,266229,1,0,0:0:0:0:
320,192,266308,1,0,0:0:0:0:
448,192,266308,1,0,0:0:0:0:
64,192,266386,1,2,0:0:0:0:
192,192,266386,1,4,0:0:0:0:
448,192,266386,1,0,0:0:0:0:
320,192,266465,1,0,0:0:0:0:
64,192,266543,1,0,0:0:0:0:
320,192,266622,1,0,0:0:0:0:
64,192,266701,1,0,0:0:0:0:
320,192,266779,1,0,0:0:0:0:
64,192,266858,1,0,0:0:0:0:
320,192,266936,1,0,0:0:0:0:
64,192,267015,1,2,0:0:0:0:
192,192,267015,1,4,0:0:0:0:
448,192,267093,1,0,0:0:0:0:
64,192,267172,1,0,0:0:0:0:
448,192,267250,1,0,0:0:0:0:
64,192,267329,1,0,0:0:0:0:
448,192,267407,1,0,0:0:0:0:
64,192,267486,1,0,0:0:0:0:
320,192,267564,1,0,0:0:0:0:
64,192,267643,1,4,0:0:0:0:
192,192,267643,1,2,0:0:0:0:
448,192,267643,1,0,0:0:0:0:
320,192,267721,1,0,0:0:0:0:
64,192,267800,1,0,0:0:0:0:
192,192,267800,1,0,0:0:0:0:
320,192,267879,1,0,0:0:0:0:
64,192,267957,1,2,0:0:0:0:
192,192,267957,1,4,0:0:0:0:
448,192,267957,1,0,0:0:0:0:
320,192,268036,1,0,0:0:0:0:
64,192,268114,1,0,0:0:0:0:
192,192,268114,1,0,0:0:0:0:
320,192,268193,1,0,0:0:0:0:
64,192,268271,1,4,0:0:0:0:
448,192,268271,1,2,0:0:0:0:
192,192,268310,1,0,0:0:0:0:
320,192,268350,1,0,0:0:0:0:
448,192,268389,1,0,0:0:0:0:
64,192,268428,1,8,0:0:0:0:
192,192,268468,1,0,0:0:0:0:
320,192,268507,1,8,0:0:0:0:
448,192,268546,1,0,0:0:0:0:
64,192,268585,1,8,0:0:0:0:
192,192,268585,1,0,0:0:0:0:
320,192,268664,1,8,0:0:0:0:
448,192,268664,1,0,0:0:0:0:
64,192,268742,1,8,0:0:0:0:
192,192,268742,1,0,0:0:0:0:
320,192,268821,1,8,0:0:0:0:
448,192,268821,1,0,0:0:0:0:
64,192,268899,1,4,0:0:0:0:
192,192,268899,1,2,0:0:0:0:
320,192,268899,1,0,0:0:0:50:BassKickReverbXD.wav
448,192,268899,1,0,0:0:0:0:
192,192,269057,1,2,0:0:0:0:
320,192,269057,1,0,0:0:0:0:
64,192,269214,1,8,0:0:0:0:
192,192,269214,1,0,0:0:0:0:
448,192,269214,1,0,0:0:0:0:
64,192,269371,1,2,0:0:0:0:
192,192,269371,1,4,0:0:0:0:
320,192,269371,1,0,0:0:0:0:
448,192,269371,1,0,0:0:0:0:
192,192,269528,1,2,0:0:0:0:
320,192,269528,1,0,0:0:0:0:
64,192,269685,1,2,0:0:0:0:
192,192,269685,1,0,0:0:0:0:
448,192,269685,1,0,0:0:0:0:
320,192,269763,1,2,0:0:0:0:
64,192,269842,1,8,0:0:0:0:
192,192,269842,1,4,0:0:0:0:
448,192,269842,1,0,0:0:0:0:
64,192,269999,1,2,0:0:0:0:
192,192,269999,1,0,0:0:0:0:
64,192,270156,1,2,0:0:0:0:
448,192,270156,1,0,0:0:0:0:
64,192,270313,1,2,0:0:0:0:
192,192,270313,1,0,0:0:0:0:
448,192,270313,1,0,0:0:0:0:
64,192,270470,1,8,0:0:0:0:
320,192,270470,1,0,0:0:0:0:
448,192,270470,1,0,0:0:0:0:
192,192,270627,1,2,0:0:0:0:
320,192,270627,1,0,0:0:0:0:
64,192,270784,1,8,0:0:0:0:
192,192,270784,1,4,0:0:0:0:
320,192,270784,1,0,0:0:0:0:
448,192,270784,1,0,0:0:0:0:
320,192,270941,1,2,0:0:0:0:
448,192,270941,1,0,0:0:0:0:
64,192,271020,1,0,0:0:0:0:
192,192,271020,1,0,0:0:0:0:
320,192,271098,1,8,0:0:0:0:
448,192,271098,1,4,0:0:0:0:
192,192,271177,1,8,0:0:0:0:
320,192,271255,1,8,0:0:0:0:
448,192,271255,1,0,0:0:0:0:
64,192,271334,1,8,0:0:0:0:
192,192,271334,1,0,0:0:0:0:
64,192,271413,1,2,0:0:0:0:
320,192,271413,1,4,0:0:0:0:
448,192,271413,1,0,0:0:0:0:
192,192,271570,1,2,0:0:0:0:
320,192,271570,1,0,0:0:0:0:
64,192,271727,1,8,0:0:0:0:
320,192,271727,1,0,0:0:0:0:
448,192,271727,1,0,0:0:0:0:
64,192,271884,1,4,0:0:0:0:
192,192,271884,1,2,0:0:0:0:
320,192,271884,1,0,0:0:0:0:
448,192,271884,1,0,0:0:0:0:
192,192,272041,1,2,0:0:0:0:
320,192,272041,1,0,0:0:0:0:
320,192,272198,1,2,0:0:0:0:
448,192,272198,1,0,0:0:0:0:
64,192,272198,1,0,0:0:0:0:
192,192,272276,1,2,0:0:0:0:
64,192,272355,1,4,0:0:0:0:
320,192,272355,1,8,0:0:0:0:
448,192,272355,1,0,0:0:0:0:
320,192,272512,1,2,0:0:0:0:
448,192,272512,1,0,0:0:0:0:
64,192,272669,1,2,0:0:0:0:
448,192,272669,1,0,0:0:0:0:
64,192,272826,1,2,0:0:0:0:
448,192,272826,1,0,0:0:0:0:
192,192,272865,1,2,0:0:0:0:
320,192,272905,1,2,0:0:0:0:
448,192,272944,1,2,0:0:0:0:
64,192,272983,1,8,0:0:0:0:
192,192,272983,1,0,0:0:0:0:
320,192,273062,1,0,0:0:0:0:
64,192,273140,1,2,0:0:0:0:
192,192,273140,1,0,0:0:0:0:
320,192,273219,1,0,0:0:0:0:
64,192,273297,1,4,0:0:0:0:
192,192,273297,1,8,0:0:0:0:
448,192,273297,1,0,0:0:0:0:
320,192,273454,1,2,0:0:0:0:
448,192,273454,1,0,0:0:0:0:
64,192,273533,1,0,0:0:0:0:
192,192,273533,1,0,0:0:0:0:
320,192,273612,1,4,0:0:0:0:
448,192,273612,1,8,0:0:0:0:
192,192,273690,1,8,0:0:0:0:
320,192,273769,1,8,0:0:0:0:
448,192,273769,1,0,0:0:0:0:
64,192,273847,1,8,0:0:0:0:
192,192,273847,1,0,0:0:0:0:
64,192,273926,1,2,0:0:0:0:
192,192,273926,1,4,0:0:0:0:
320,192,273926,1,0,0:0:0:0:
448,192,273926,1,0,0:0:0:0:
192,192,274083,1,2,0:0:0:0:
320,192,274083,1,0,0:0:0:0:
64,192,274240,1,8,0:0:0:0:
192,192,274240,1,0,0:0:0:0:
448,192,274240,1,0,0:0:0:0:
64,192,274397,1,2,0:0:0:0:
192,192,274397,1,4,0:0:0:0:
320,192,274397,1,0,0:0:0:0:
448,192,274397,1,0,0:0:0:0:
192,192,274554,1,2,0:0:0:0:
320,192,274554,1,0,0:0:0:0:
64,192,274711,1,2,0:0:0:0:
192,192,274711,1,0,0:0:0:0:
448,192,274711,1,0,0:0:0:0:
320,192,274790,1,2,0:0:0:0:
64,192,274868,1,8,0:0:0:0:
192,192,274868,1,4,0:0:0:0:
448,192,274868,1,0,0:0:0:0:
64,192,275025,1,2,0:0:0:0:
192,192,275025,1,0,0:0:0:0:
64,192,275182,1,2,0:0:0:0:
448,192,275182,1,0,0:0:0:0:
64,192,275339,1,2,0:0:0:0:
192,192,275339,1,0,0:0:0:0:
448,192,275339,1,0,0:0:0:0:
64,192,275496,1,8,0:0:0:0:
320,192,275496,1,0,0:0:0:0:
448,192,275496,1,0,0:0:0:0:
192,192,275653,1,2,0:0:0:0:
320,192,275653,1,0,0:0:0:0:
64,192,275810,1,8,0:0:0:0:
192,192,275810,1,4,0:0:0:0:
320,192,275810,1,0,0:0:0:0:
448,192,275810,1,0,0:0:0:0:
320,192,275968,1,2,0:0:0:0:
448,192,275968,1,0,0:0:0:0:
64,192,276046,1,0,0:0:0:0:
192,192,276046,1,0,0:0:0:0:
320,192,276125,1,8,0:0:0:0:
448,192,276125,1,4,0:0:0:0:
192,192,276203,1,8,0:0:0:0:
320,192,276282,1,8,0:0:0:0:
448,192,276282,1,0,0:0:0:0:
64,192,276360,1,8,0:0:0:0:
192,192,276360,1,0,0:0:0:0:
320,192,276439,1,4,0:0:0:0:
448,192,276439,1,2,0:0:0:0:
192,192,276596,1,2,0:0:0:0:
320,192,276596,1,0,0:0:0:0:
64,192,276753,1,8,0:0:0:0:
320,192,276753,1,0,0:0:0:0:
448,192,276753,1,0,0:0:0:0:
64,192,276910,1,2,0:0:0:0:
192,192,276910,1,4,0:0:0:0:
320,192,276910,1,0,0:0:0:0:
448,192,276910,1,0,0:0:0:0:
192,192,277067,1,2,0:0:0:0:
320,192,277067,1,0,0:0:0:0:
320,192,277224,1,2,0:0:0:0:
448,192,277224,1,0,0:0:0:0:
64,192,277224,1,0,0:0:0:0:
192,192,277303,1,2,0:0:0:0:
64,192,277381,1,8,0:0:0:0:
320,192,277381,1,4,0:0:0:0:
448,192,277381,1,0,0:0:0:0:
320,192,277538,1,2,0:0:0:0:
448,192,277538,1,0,0:0:0:0:
64,192,277695,1,2,0:0:0:0:
448,192,277695,1,0,0:0:0:0:
64,192,277852,1,2,0:0:0:0:
448,192,277852,1,0,0:0:0:0:
320,192,277892,1,0,0:0:0:0:
192,192,277931,1,2,0:0:0:0:
64,192,277970,1,0,0:0:0:0:
320,192,278009,1,8,0:0:0:0:
448,192,278009,1,0,0:0:0:0:
192,192,278088,1,0,0:0:0:0:
320,192,278166,1,2,0:0:0:0:
448,192,278166,1,0,0:0:0:0:
64,192,278206,1,2,0:0:0:0:
192,192,278245,1,2,0:0:0:0:
320,192,278284,1,2,0:0:0:0:
64,192,278324,1,8,0:0:0:0:
448,192,278324,1,4,0:0:0:0:
320,192,278402,1,0,0:0:0:0:
64,192,278481,1,2,0:0:0:0:
192,192,278481,1,0,0:0:0:0:
448,192,278520,1,2,0:0:0:0:
320,192,278559,1,2,0:0:0:0:
192,192,278598,1,2,0:0:0:0:
64,192,278638,1,8,0:0:0:0:
448,192,278638,1,4,0:0:0:0:
192,192,278716,1,8,0:0:0:0:
320,192,278716,1,0,0:0:0:0:
64,192,278795,1,8,0:0:0:0:
448,192,278795,1,0,0:0:0:0:
192,192,278873,1,8,0:0:0:0:
320,192,278873,1,0,0:0:0:0:
64,192,278952,1,4,0:0:0:0:
320,192,278952,1,0,0:0:0:0:
192,192,278952,1,0,0:0:0:0:
448,192,278952,1,2,0:0:0:0:
192,192,279109,1,2,0:0:0:0:
320,192,279109,1,0,0:0:0:0:
64,192,279266,1,8,0:0:0:0:
192,192,279266,1,0,0:0:0:0:
448,192,279345,1,0,0:0:0:0:
320,192,279345,1,0,0:0:0:0:
64,192,279423,1,2,0:0:0:0:
192,192,279423,1,4,0:0:0:0:
448,192,279423,1,0,0:0:0:0:
192,192,279580,1,2,0:0:0:0:
320,192,279580,1,0,0:0:0:0:
64,192,279737,1,2,0:0:0:0:
192,192,279737,1,0,0:0:0:0:
320,192,279816,1,2,0:0:0:0:
448,192,279816,1,0,0:0:0:0:
64,192,279894,1,8,0:0:0:0:
192,192,279894,1,4,0:0:0:0:
448,192,279894,1,0,0:0:0:0:
64,192,280051,1,2,0:0:0:0:
192,192,280051,1,0,0:0:0:0:
64,192,280208,1,2,0:0:0:0:
448,192,280208,1,0,0:0:0:0:
64,192,280365,1,2,0:0:0:0:
192,192,280365,1,0,0:0:0:0:
448,192,280444,1,0,0:0:0:0:
320,192,280444,1,2,0:0:0:0:
64,192,280523,1,8,0:0:0:0:
192,192,280523,1,0,0:0:0:0:
192,192,280680,1,2,0:0:0:0:
320,192,280680,1,0,0:0:0:0:
64,192,280837,1,8,0:0:0:0:
192,192,280837,1,4,0:0:0:0:
320,192,280837,1,0,0:0:0:0:
448,192,280837,1,0,0:0:0:0:
320,192,280994,1,2,0:0:0:0:
448,192,280994,1,0,0:0:0:0:
64,192,281072,1,0,0:0:0:0:
192,192,281072,1,0,0:0:0:0:
320,192,281151,1,8,0:0:0:0:
448,192,281151,1,4,0:0:0:0:
64,192,281229,1,8,0:0:0:0:
192,192,281229,1,0,0:0:0:0:
320,192,281308,1,8,0:0:0:0:
448,192,281308,1,0,0:0:0:0:
64,192,281386,1,8,0:0:0:0:
192,192,281386,1,0,0:0:0:0:
64,192,281465,1,2,0:0:0:0:
320,192,281465,1,4,0:0:0:0:
448,192,281465,1,0,0:0:0:0:
192,192,281622,1,2,0:0:0:0:
320,192,281622,1,0,0:0:0:0:
64,192,281779,1,8,0:0:0:0:
192,192,281779,1,0,0:0:0:0:
320,192,281779,1,0,0:0:0:0:
448,192,281779,1,0,0:0:0:0:
64,192,281936,1,4,0:0:0:0:
192,192,281936,1,2,0:0:0:0:
320,192,281936,1,0,0:0:0:0:
448,192,281936,1,0,0:0:0:0:
192,192,282093,1,2,0:0:0:0:
320,192,282093,1,0,0:0:0:0:
320,192,282250,1,2,0:0:0:0:
448,192,282250,1,0,0:0:0:0:
192,192,282329,1,0,0:0:0:0:
64,192,282329,1,2,0:0:0:0:
64,192,282407,1,4,0:0:0:0:
320,192,282407,1,8,0:0:0:0:
448,192,282407,1,0,0:0:0:0:
320,192,282564,1,2,0:0:0:0:
448,192,282564,1,0,0:0:0:0:
64,192,282721,1,2,0:0:0:0:
448,192,282721,1,0,0:0:0:0:
64,192,282879,1,2,0:0:0:0:
448,192,282879,1,0,0:0:0:0:
192,192,282918,1,2,0:0:0:0:
320,192,282957,1,2,0:0:0:0:
448,192,282996,1,2,0:0:0:0:
64,192,283036,1,8,0:0:0:0:
192,192,283036,1,0,0:0:0:0:
320,192,283114,1,0,0:0:0:0:
64,192,283193,1,2,0:0:0:0:
192,192,283193,1,0,0:0:0:0:
320,192,283271,1,0,0:0:0:0:
64,192,283350,1,4,0:0:0:0:
192,192,283350,1,8,0:0:0:0:
448,192,283350,1,0,0:0:0:0:
320,192,283507,1,2,0:0:0:0:
448,192,283507,1,0,0:0:0:0:
64,192,283585,1,0,0:0:0:0:
192,192,283585,1,0,0:0:0:0:
320,192,283664,1,4,0:0:0:0:
448,192,283664,1,8,0:0:0:0:
192,192,283742,1,8,0:0:0:0:
320,192,283821,1,8,0:0:0:0:
448,192,283821,1,0,0:0:0:0:
64,192,283899,1,8,0:0:0:0:
192,192,283899,1,0,0:0:0:0:
64,192,283978,1,2,0:0:0:0:
192,192,283978,1,4,0:0:0:0:
320,192,283978,1,0,0:0:0:0:
448,192,283978,1,0,0:0:0:0:
192,192,284135,1,2,0:0:0:0:
320,192,284135,1,0,0:0:0:0:
64,192,284292,1,8,0:0:0:0:
192,192,284292,1,0,0:0:0:0:
448,192,284292,1,0,0:0:0:0:
64,192,284449,1,2,0:0:0:0:
192,192,284449,1,4,0:0:0:0:
320,192,284449,1,0,0:0:0:0:
448,192,284449,1,0,0:0:0:0:
192,192,284606,1,2,0:0:0:0:
320,192,284606,1,0,0:0:0:0:
64,192,284763,1,2,0:0:0:0:
192,192,284763,1,0,0:0:0:0:
320,192,284842,1,2,0:0:0:0:
448,192,284842,1,0,0:0:0:0:
64,192,284920,1,8,0:0:0:0:
192,192,284920,1,4,0:0:0:0:
448,192,284920,1,0,0:0:0:0:
64,192,285077,1,2,0:0:0:0:
192,192,285077,1,0,0:0:0:0:
64,192,285235,1,2,0:0:0:0:
448,192,285235,1,0,0:0:0:0:
64,192,285392,1,2,0:0:0:0:
192,192,285392,1,0,0:0:0:0:
448,192,285392,1,0,0:0:0:0:
64,192,285549,1,8,0:0:0:0:
320,192,285549,1,0,0:0:0:0:
448,192,285549,1,0,0:0:0:0:
192,192,285706,1,2,0:0:0:0:
320,192,285706,1,0,0:0:0:0:
64,192,285863,1,8,0:0:0:0:
192,192,285863,1,4,0:0:0:0:
320,192,285863,1,0,0:0:0:0:
448,192,285863,1,0,0:0:0:0:
320,192,286020,1,2,0:0:0:0:
448,192,286020,1,0,0:0:0:0:
64,192,286098,1,0,0:0:0:0:
192,192,286098,1,0,0:0:0:0:
320,192,286177,1,8,0:0:0:0:
448,192,286177,1,4,0:0:0:0:
64,192,286177,1,0,0:0:0:0:
192,192,286255,1,8,0:0:0:0:
320,192,286334,1,8,0:0:0:0:
448,192,286334,1,0,0:0:0:0:
64,192,286413,1,8,0:0:0:0:
192,192,286413,1,0,0:0:0:0:
64,192,286491,1,4,0:0:0:0:
320,192,286491,1,2,0:0:0:0:
448,192,286491,1,0,0:0:0:0:
192,192,286648,1,2,0:0:0:0:
320,192,286648,1,0,0:0:0:0:
64,192,286805,1,8,0:0:0:0:
320,192,286805,1,0,0:0:0:0:
448,192,286805,1,0,0:0:0:0:
64,192,286962,1,2,0:0:0:0:
192,192,286962,1,4,0:0:0:0:
320,192,286962,1,0,0:0:0:0:
448,192,286962,1,0,0:0:0:0:
192,192,287119,1,2,0:0:0:0:
320,192,287119,1,0,0:0:0:0:
320,192,287276,1,2,0:0:0:0:
448,192,287276,1,0,0:0:0:0:
64,192,287355,1,2,0:0:0:0:
192,192,287355,1,0,0:0:0:0:
64,192,287434,1,8,0:0:0:0:
320,192,287434,1,4,0:0:0:0:
448,192,287434,1,0,0:0:0:0:
320,192,287591,1,2,0:0:0:0:
448,192,287591,1,0,0:0:0:0:
64,192,287748,1,2,0:0:0:0:
448,192,287748,1,0,0:0:0:0:
64,192,287905,1,2,0:0:0:0:
448,192,287905,1,0,0:0:0:0:
320,192,287944,1,0,0:0:0:0:
192,192,287983,1,2,0:0:0:0:
64,192,288023,1,0,0:0:0:0:
320,192,288062,1,8,0:0:0:0:
448,192,288062,1,0,0:0:0:0:
192,192,288140,1,0,0:0:0:0:
320,192,288219,1,2,0:0:0:0:
448,192,288219,1,0,0:0:0:0:
64,192,288258,1,2,0:0:0:0:
192,192,288297,1,2,0:0:0:0:
320,192,288337,1,2,0:0:0:0:
64,192,288376,1,8,0:0:0:0:
448,192,288376,1,4,0:0:0:0:
320,192,288454,1,0,0:0:0:0:
64,192,288533,1,2,0:0:0:0:
192,192,288533,1,0,0:0:0:0:
448,192,288572,1,2,0:0:0:0:
320,192,288612,1,2,0:0:0:0:
192,192,288651,1,2,0:0:0:0:
64,192,288690,1,8,0:0:0:0:
448,192,288690,1,4,0:0:0:0:
192,192,288769,1,8,0:0:0:0:
320,192,288769,1,0,0:0:0:0:
64,192,288847,1,8,0:0:0:0:
448,192,288847,1,0,0:0:0:0:
192,192,288926,1,8,0:0:0:0:
320,192,288926,1,0,0:0:0:0:
64,192,289004,1,2,0:0:0:0:
448,192,289004,1,0,0:0:0:0:
64,192,289318,128,2,294894:0:0:0:0:
192,192,289318,128,0,294973:0:0:0:0:
320,192,289318,128,0,295051:0:0:0:50:BassKickReverbXD.wav
448,192,289318,128,4,295130:0:0:0:0:
