osu file format v14

[General]
AudioFilename: audio.mp3
AudioLeadIn: 0
PreviewTime: 93303
Countdown: 0
SampleSet: Normal
StackLeniency: 0.7
Mode: 1
LetterboxInBreaks: 0
WidescreenStoryboard: 0

[Editor]
DistanceSpacing: 1.4
BeatDivisor: 4
GridSize: 32
TimelineZoom: 2.3

[Metadata]
Title:Freedom Dive (tpz Overcute Remix)
TitleUnicode:Freedom Dive↓ (tpz Overcute Remix)
Artist:xi
ArtistUnicode:xi
Creator:davidminh0111
Version:Oni
Source:maimai MiLK PLUS
Tags:cytus VOEZ Muse Dash SOUND VOLTEX IV HEAVENLY HAVEN SDVX BEMANI Rayark chapter x 10 parousia happy hardcore instrumental video game BMS Don’t waste me! E.P. t+pazolite coryn cut version ver.
BeatmapID:2253550
BeatmapSetID:1076933

[Difficulty]
HPDrainRate:5.5
CircleSize:2
OverallDifficulty:5.5
ApproachRate:10
SliderMultiplier:1.4
SliderTickRate:1

[Events]
//Background and Video events
0,0,"bg.jpg",0,0
//Break Periods
//Storyboard Layer 0 (Background)
//Storyboard Layer 1 (Fail)
//Storyboard Layer 2 (Pass)
//Storyboard Layer 3 (Foreground)
//Storyboard Layer 4 (Overlay)
//Storyboard Sound Samples

[TimingPoints]
1216,255.798090040928,4,1,0,80,1,0
9401,-100,4,1,0,85,0,0
17587,-111.111111111111,4,1,0,70,0,0
25772,-105.263157894737,4,1,0,75,0,0
36004,-100,4,1,0,80,0,0
52375,-100,4,1,0,85,0,1
68746,-100,4,1,0,80,0,0
76932,-125,4,1,0,70,0,0
84094,-105.263157894737,4,1,0,75,0,0
93303,-100,4,1,0,85,0,1
125022,-100,4,1,0,85,0,0
126045,-95.2380952380952,4,1,0,90,0,1
130138,-95.2380952380952,4,1,0,90,0,0
131161,-100,4,1,0,80,0,0
132184,-100,4,1,0,70,0,0
133207,-100,4,1,0,60,0,0
134231,-100,4,1,0,50,0,0
135254,-100,4,1,0,40,0,0
136277,-100,4,1,0,30,0,0
137300,-100,4,1,0,20,0,0

[HitObjects]
256,192,1216,5,4,0:0:0:0:
256,192,1471,1,8,0:0:0:0:
256,192,1599,1,0,0:0:0:0:
256,192,1663,1,0,0:0:0:0:
256,192,1727,1,0,0:0:0:0:
256,192,1855,1,0,0:0:0:0:
256,192,1983,1,8,0:0:0:0:
256,192,2239,1,0,0:0:0:0:
256,192,2494,1,0,0:0:0:0:
256,192,2622,1,0,0:0:0:0:
256,192,2750,1,8,0:0:0:0:
256,192,3006,1,0,0:0:0:0:
256,192,3262,1,4,0:0:0:0:
256,192,3518,1,8,0:0:0:0:
256,192,3646,1,0,0:0:0:0:
256,192,3710,1,0,0:0:0:0:
256,192,3773,1,0,0:0:0:0:
256,192,3901,1,0,0:0:0:0:
256,192,4029,1,8,0:0:0:0:
256,192,4285,1,0,0:0:0:0:
256,192,4541,1,0,0:0:0:0:
256,192,4669,1,0,0:0:0:0:
256,192,4797,1,8,0:0:0:0:
256,192,5052,1,8,0:0:0:0:
256,192,5308,1,4,0:0:0:0:
256,192,5564,1,8,0:0:0:0:
256,192,5692,1,0,0:0:0:0:
256,192,5756,1,0,0:0:0:0:
256,192,5820,1,0,0:0:0:0:
256,192,5948,1,0,0:0:0:0:
256,192,6076,1,8,0:0:0:0:
256,192,6331,1,4,0:0:0:0:
256,192,6587,1,8,0:0:0:0:
256,192,6715,1,0,0:0:0:0:
256,192,6779,1,0,0:0:0:0:
256,192,6843,1,0,0:0:0:0:
256,192,6971,1,0,0:0:0:0:
256,192,7099,1,8,0:0:0:0:
256,192,7355,1,4,0:0:0:0:
256,192,7610,1,8,0:0:0:0:
256,192,7738,1,0,0:0:0:0:
256,192,7802,1,0,0:0:0:0:
256,192,7866,1,0,0:0:0:0:
256,192,7994,1,0,0:0:0:0:
256,192,8122,1,8,0:0:0:0:
256,192,8250,1,0,0:0:0:0:
256,192,8314,1,0,0:0:0:0:
256,192,8378,1,0,0:0:0:0:
256,192,8506,1,0,0:0:0:0:
256,192,8634,1,8,0:0:0:0:
256,192,8762,1,8,0:0:0:0:
256,192,8889,1,4,0:0:0:0:
256,192,9145,1,12,0:0:0:0:
256,192,9401,1,4,0:0:0:0:
256,192,9657,1,8,0:0:0:0:
256,192,9785,1,0,0:0:0:0:
256,192,9849,1,0,0:0:0:0:
256,192,9913,1,0,0:0:0:0:
256,192,10041,1,8,0:0:0:0:
256,192,10168,1,0,0:0:0:0:
256,192,10424,1,8,0:0:0:0:
256,192,10552,1,0,0:0:0:0:
256,192,10680,1,8,0:0:0:0:
256,192,10808,1,0,0:0:0:0:
256,192,10872,1,0,0:0:0:0:
256,192,10936,1,0,0:0:0:0:
256,192,11064,1,0,0:0:0:0:
256,192,11192,1,8,0:0:0:0:
256,192,11447,1,0,0:0:0:0:
256,192,11703,1,8,0:0:0:0:
256,192,11831,1,0,0:0:0:0:
256,192,11895,1,0,0:0:0:0:
256,192,11959,1,0,0:0:0:0:
256,192,12087,1,8,0:0:0:0:
256,192,12215,1,0,0:0:0:0:
256,192,12471,1,8,0:0:0:0:
256,192,12599,1,0,0:0:0:0:
256,192,12726,1,8,0:0:0:0:
256,192,12854,1,0,0:0:0:0:
256,192,12918,1,0,0:0:0:0:
256,192,12982,1,0,0:0:0:0:
256,192,13110,1,0,0:0:0:0:
256,192,13238,1,8,0:0:0:0:
256,192,13366,1,8,0:0:0:0:
256,192,13494,1,0,0:0:0:0:
256,192,13750,1,8,0:0:0:0:
256,192,13878,1,0,0:0:0:0:
256,192,13941,1,0,0:0:0:0:
256,192,14005,1,0,0:0:0:0:
256,192,14133,1,8,0:0:0:0:
256,192,14261,1,0,0:0:0:0:
256,192,14389,1,0,0:0:0:0:
256,192,14517,1,8,0:0:0:0:
256,192,14645,1,0,0:0:0:0:
256,192,14773,1,8,0:0:0:0:
256,192,14901,1,0,0:0:0:0:
256,192,14965,1,0,0:0:0:0:
256,192,15029,1,0,0:0:0:0:
256,192,15156,1,0,0:0:0:0:
256,192,15284,1,8,0:0:0:0:
256,192,15540,1,4,0:0:0:0:
256,192,15796,1,4,0:0:0:0:
256,192,16052,1,4,0:0:0:0:
256,192,16308,1,4,0:0:0:0:
256,192,16563,1,12,0:0:0:0:
256,192,16819,1,12,0:0:0:0:
256,192,17075,1,12,0:0:0:0:
256,192,17331,1,12,0:0:0:0:
256,192,17587,1,8,0:0:0:0:
256,192,18098,1,8,0:0:0:0:
256,192,18610,1,8,0:0:0:0:
256,192,19121,1,8,0:0:0:0:
256,192,19633,1,0,0:0:0:0:
256,192,20145,1,0,0:0:0:0:
256,192,20656,1,0,0:0:0:0:
256,192,21168,1,0,0:0:0:0:
256,192,21296,1,0,0:0:0:0:
256,192,21424,1,0,0:0:0:0:
256,192,21551,1,0,0:0:0:0:
256,192,21679,1,8,0:0:0:0:
256,192,22191,1,0,0:0:0:0:
256,192,22447,1,0,0:0:0:0:
256,192,22703,1,8,0:0:0:0:
256,192,22958,1,8,0:0:0:0:
256,192,23214,1,0,0:0:0:0:
256,192,23470,1,0,0:0:0:0:
256,192,23726,1,8,0:0:0:0:
256,192,23982,1,8,0:0:0:0:
256,192,24237,1,0,0:0:0:0:
256,192,24493,1,8,0:0:0:0:
256,192,24749,1,0,0:0:0:0:
256,192,25772,1,4,0:0:0:0:
256,192,26028,1,8,0:0:0:0:
256,192,26156,1,0,0:0:0:0:
256,192,26284,1,8,0:0:0:0:
256,192,26540,1,8,0:0:0:0:
256,192,26795,1,4,0:0:0:0:
256,192,27051,1,8,0:0:0:0:
256,192,27179,1,0,0:0:0:0:
256,192,27307,1,8,0:0:0:0:
256,192,27563,1,8,0:0:0:0:
256,192,27819,1,4,0:0:0:0:
256,192,28074,1,8,0:0:0:0:
256,192,28202,1,0,0:0:0:0:
256,192,28330,1,8,0:0:0:0:
256,192,28586,1,8,0:0:0:0:
256,192,28842,1,4,0:0:0:0:
256,192,29097,1,0,0:0:0:0:
256,192,29225,1,8,0:0:0:0:
256,192,29353,1,0,0:0:0:0:
256,192,29609,1,0,0:0:0:0:
256,192,29865,1,4,0:0:0:0:
256,192,30376,1,4,0:0:0:0:
256,192,30760,1,8,0:0:0:0:
256,192,30888,1,4,0:0:0:0:
256,192,31400,1,4,0:0:0:0:
256,192,31592,1,8,0:0:0:0:
256,192,31783,1,8,0:0:0:0:
256,192,31911,1,4,0:0:0:0:
256,192,32295,1,8,0:0:0:0:
256,192,32423,1,4,0:0:0:0:
256,192,32679,1,8,0:0:0:0:
256,192,32807,1,0,0:0:0:0:
256,192,32934,1,12,0:0:0:0:
256,192,33190,1,12,0:0:0:0:
256,192,33446,1,4,0:0:0:0:
256,192,33702,1,4,0:0:0:0:
256,192,33958,1,4,0:0:0:0:
256,192,34213,1,4,0:0:0:0:
256,192,34469,1,4,0:0:0:0:
256,192,34725,1,4,0:0:0:0:
256,192,34981,1,12,0:0:0:0:
256,192,35237,1,12,0:0:0:0:
256,192,35492,1,8,0:0:0:0:
256,192,35556,1,8,0:0:0:0:
256,192,35620,1,0,0:0:0:0:
256,192,35748,1,12,0:0:0:0:
256,192,36004,1,4,0:0:0:0:
256,192,36260,1,0,0:0:0:0:
256,192,36388,1,8,0:0:0:0:
256,192,36452,1,8,0:0:0:0:
256,192,36516,1,0,0:0:0:0:
256,192,36644,1,8,0:0:0:0:
256,192,36771,1,0,0:0:0:0:
256,192,36899,1,8,0:0:0:0:
256,192,37027,1,0,0:0:0:0:
256,192,37155,1,8,0:0:0:0:
256,192,37283,1,0,0:0:0:0:
256,192,37539,1,0,0:0:0:0:
256,192,37795,1,8,0:0:0:0:
256,192,38050,1,4,0:0:0:0:
256,192,38306,1,0,0:0:0:0:
256,192,38434,1,0,0:0:0:0:
256,192,38562,1,8,0:0:0:0:
256,192,38690,1,0,0:0:0:0:
256,192,38754,1,0,0:0:0:0:
256,192,38818,1,0,0:0:0:0:
256,192,38946,1,0,0:0:0:0:
256,192,39074,1,8,0:0:0:0:
256,192,39202,1,8,0:0:0:0:
256,192,39329,1,0,0:0:0:0:
256,192,39585,1,12,0:0:0:0:
256,192,39841,1,12,0:0:0:0:
256,192,40097,1,4,0:0:0:0:
256,192,40353,1,8,0:0:0:0:
256,192,40481,1,0,0:0:0:0:
256,192,40608,1,8,0:0:0:0:
256,192,40736,1,8,0:0:0:0:
256,192,40800,1,8,0:0:0:0:
256,192,40864,1,8,0:0:0:0:
256,192,40992,1,8,0:0:0:0:
256,192,41120,1,0,0:0:0:0:
256,192,41248,1,0,0:0:0:0:
256,192,41376,1,8,0:0:0:0:
256,192,41504,1,8,0:0:0:0:
256,192,41632,1,0,0:0:0:0:
256,192,41887,1,8,0:0:0:0:
256,192,42143,1,4,0:0:0:0:
256,192,42399,1,8,0:0:0:0:
256,192,42527,1,0,0:0:0:0:
256,192,42655,1,8,0:0:0:0:
256,192,42783,1,0,0:0:0:0:
256,192,42847,1,0,0:0:0:0:
256,192,42911,1,8,0:0:0:0:
256,192,43038,1,0,0:0:0:0:
256,192,43166,1,8,0:0:0:0:
256,192,43294,1,0,0:0:0:0:
256,192,43422,1,8,0:0:0:0:
256,192,43550,1,8,0:0:0:0:
256,192,43678,1,0,0:0:0:0:
256,192,43934,1,12,0:0:0:0:
256,192,44190,1,4,0:0:0:0:
256,192,44445,1,0,0:0:0:0:
256,192,44701,1,8,0:0:0:0:
256,192,44957,1,8,0:0:0:0:
256,192,45213,1,0,0:0:0:0:
256,192,45469,1,0,0:0:0:0:
256,192,45724,1,0,0:0:0:0:
256,192,45980,1,8,0:0:0:0:
256,192,46236,1,0,0:0:0:0:
256,192,46492,1,0,0:0:0:0:
256,192,46748,1,8,0:0:0:0:
256,192,47003,1,8,0:0:0:0:
256,192,47259,1,8,0:0:0:0:
256,192,47515,1,8,0:0:0:0:
256,192,47771,1,0,0:0:0:0:
256,192,48027,1,0,0:0:0:0:
256,192,48282,1,0,0:0:0:0:
256,192,48538,1,0,0:0:0:0:
256,192,48666,1,0,0:0:0:0:
256,192,48794,1,8,0:0:0:0:
256,192,48922,1,8,0:0:0:0:
256,192,49050,1,0,0:0:0:0:
256,192,49178,1,8,0:0:0:0:
256,192,49306,1,0,0:0:0:0:
256,192,49433,1,0,0:0:0:0:
256,192,49561,1,8,0:0:0:0:
256,192,49689,1,8,0:0:0:0:
256,192,49817,1,0,0:0:0:0:
256,192,49945,1,8,0:0:0:0:
256,192,50073,1,0,0:0:0:0:
256,192,50329,1,0,0:0:0:0:
256,192,50457,1,8,0:0:0:0:
256,192,50585,1,8,0:0:0:0:
256,192,50712,1,8,0:0:0:0:
256,192,50840,1,0,0:0:0:0:
256,192,50968,1,8,0:0:0:0:
256,192,51096,1,8,0:0:0:0:
256,192,51224,1,8,0:0:0:0:
256,192,51352,1,0,0:0:0:0:
256,192,51608,1,8,0:0:0:0:
256,192,51736,1,8,0:0:0:0:
256,192,51864,1,0,0:0:0:0:
256,192,51991,1,8,0:0:0:0:
256,192,52119,1,0,0:0:0:0:
256,192,52375,1,4,0:0:0:0:
256,192,52631,1,8,0:0:0:0:
256,192,52759,1,8,0:0:0:0:
256,192,52887,1,0,0:0:0:0:
256,192,52951,1,0,0:0:0:0:
256,192,53015,1,0,0:0:0:0:
256,192,53143,1,8,0:0:0:0:
256,192,53270,1,8,0:0:0:0:
256,192,53398,1,0,0:0:0:0:
256,192,53654,1,0,0:0:0:0:
256,192,53782,1,8,0:0:0:0:
256,192,53910,1,0,0:0:0:0:
256,192,53974,1,0,0:0:0:0:
256,192,54038,1,0,0:0:0:0:
256,192,54166,1,0,0:0:0:0:
256,192,54294,1,0,0:0:0:0:
256,192,54422,1,8,0:0:0:0:
256,192,54677,1,8,0:0:0:0:
256,192,54805,1,8,0:0:0:0:
256,192,54933,1,0,0:0:0:0:
256,192,55061,1,0,0:0:0:0:
256,192,55189,1,8,0:0:0:0:
256,192,55445,1,0,0:0:0:0:
256,192,55700,1,0,0:0:0:0:
256,192,55956,1,0,0:0:0:0:
256,192,56084,1,0,0:0:0:0:
256,192,56212,1,0,0:0:0:0:
256,192,56340,1,0,0:0:0:0:
256,192,56468,1,8,0:0:0:0:
256,192,56724,1,0,0:0:0:0:
256,192,56852,1,0,0:0:0:0:
256,192,56979,1,8,0:0:0:0:
256,192,57043,1,8,0:0:0:0:
256,192,57107,1,8,0:0:0:0:
256,192,57235,1,0,0:0:0:0:
256,192,57491,1,8,0:0:0:0:
256,192,57619,1,8,0:0:0:0:
256,192,57747,1,0,0:0:0:0:
256,192,57875,1,0,0:0:0:0:
256,192,58003,1,8,0:0:0:0:
256,192,58131,1,8,0:0:0:0:
256,192,58258,1,0,0:0:0:0:
256,192,58386,1,0,0:0:0:0:
256,192,58514,1,8,0:0:0:0:
256,192,58770,1,8,0:0:0:0:
256,192,59026,1,0,0:0:0:0:
256,192,59154,1,0,0:0:0:0:
256,192,59282,1,8,0:0:0:0:
256,192,59537,1,0,0:0:0:0:
256,192,59601,1,0,0:0:0:0:
256,192,59665,1,0,0:0:0:0:
256,192,59793,1,12,0:0:0:0:
256,192,60049,1,12,0:0:0:0:
256,192,60305,1,12,0:0:0:0:
256,192,60561,1,4,0:0:0:0:
256,192,60816,1,8,0:0:0:0:
256,192,60944,1,8,0:0:0:0:
256,192,61072,1,0,0:0:0:0:
256,192,61200,1,0,0:0:0:0:
256,192,61328,1,8,0:0:0:0:
256,192,61456,1,0,0:0:0:0:
256,192,61584,1,8,0:0:0:0:
256,192,61669,1,8,0:0:0:0:
256,192,61754,1,8,0:0:0:0:
256,192,61840,1,8,0:0:0:0:
256,192,61968,1,8,0:0:0:0:
256,192,62095,1,0,0:0:0:0:
256,192,62351,1,0,0:0:0:0:
256,192,62479,1,8,0:0:0:0:
256,192,62607,1,0,0:0:0:0:
256,192,62863,1,8,0:0:0:0:
256,192,62991,1,8,0:0:0:0:
256,192,63119,1,0,0:0:0:0:
256,192,63247,1,8,0:0:0:0:
256,192,63374,1,8,0:0:0:0:
256,192,63502,1,0,0:0:0:0:
256,192,63630,1,8,0:0:0:0:
256,192,63758,1,8,0:0:0:0:
256,192,63886,1,0,0:0:0:0:
256,192,64014,1,0,0:0:0:0:
256,192,64142,1,8,0:0:0:0:
256,192,64270,1,8,0:0:0:0:
256,192,64398,1,0,0:0:0:0:
256,192,64526,1,0,0:0:0:0:
256,192,64653,1,8,0:0:0:0:
256,192,64909,1,0,0:0:0:0:
256,192,65037,1,0,0:0:0:0:
256,192,65165,1,0,0:0:0:0:
256,192,65421,1,0,0:0:0:0:
256,192,65549,1,8,0:0:0:0:
256,192,65613,1,8,0:0:0:0:
256,192,65677,1,0,0:0:0:0:
256,192,65932,1,0,0:0:0:0:
256,192,66060,1,0,0:0:0:0:
256,192,66188,1,0,0:0:0:0:
256,192,66380,1,8,0:0:0:0:
256,192,66572,1,0,0:0:0:0:
256,192,66700,1,0,0:0:0:0:
256,192,66956,1,0,0:0:0:0:
256,192,67084,1,8,0:0:0:0:
256,192,67211,1,0,0:0:0:0:
256,192,67467,1,8,0:0:0:0:
256,192,67531,1,8,0:0:0:0:
256,192,67595,1,0,0:0:0:0:
256,192,67723,1,8,0:0:0:0:
256,192,67979,1,8,0:0:0:0:
256,192,68235,1,8,0:0:0:0:
256,192,68490,1,0,0:0:0:0:
256,192,68746,1,4,0:0:0:0:
256,192,68874,1,8,0:0:0:0:
256,192,69002,1,0,0:0:0:0:
256,192,69130,1,8,0:0:0:0:
256,192,69258,1,0,0:0:0:0:
256,192,69386,1,8,0:0:0:0:
256,192,69514,1,0,0:0:0:0:
256,192,69641,1,8,0:0:0:0:
256,192,69769,1,0,0:0:0:0:
256,192,69897,1,8,0:0:0:0:
256,192,70025,1,0,0:0:0:0:
256,192,70153,1,8,0:0:0:0:
256,192,70281,1,0,0:0:0:0:
256,192,70409,1,8,0:0:0:0:
256,192,70537,1,0,0:0:0:0:
256,192,70793,1,0,0:0:0:0:
256,192,70920,1,8,0:0:0:0:
256,192,71048,1,0,0:0:0:0:
256,192,71176,1,8,0:0:0:0:
256,192,71304,1,0,0:0:0:0:
256,192,71432,1,8,0:0:0:0:
256,192,71560,1,0,0:0:0:0:
256,192,71688,1,8,0:0:0:0:
256,192,71816,1,0,0:0:0:0:
256,192,71944,1,8,0:0:0:0:
256,192,72072,1,0,0:0:0:0:
256,192,72199,1,0,0:0:0:0:
256,192,72327,1,8,0:0:0:0:
256,192,72455,1,0,0:0:0:0:
256,192,72583,1,12,0:0:0:0:
256,192,72839,1,0,0:0:0:0:
256,192,72967,1,8,0:0:0:0:
256,192,73031,1,8,0:0:0:0:
256,192,73095,1,0,0:0:0:0:
256,192,73223,1,8,0:0:0:0:
256,192,73351,1,0,0:0:0:0:
256,192,73478,1,8,0:0:0:0:
256,192,73542,1,8,0:0:0:0:
256,192,73606,1,0,0:0:0:0:
256,192,73734,1,8,0:0:0:0:
256,192,73862,1,0,0:0:0:0:
256,192,73990,1,8,0:0:0:0:
256,192,74054,1,8,0:0:0:0:
256,192,74118,1,0,0:0:0:0:
256,192,74246,1,8,0:0:0:0:
256,192,74374,1,0,0:0:0:0:
256,192,74502,1,8,0:0:0:0:
256,192,74630,1,0,0:0:0:0:
256,192,74885,1,0,0:0:0:0:
256,192,75013,1,8,0:0:0:0:
256,192,75077,1,8,0:0:0:0:
256,192,75141,1,0,0:0:0:0:
256,192,75269,1,8,0:0:0:0:
256,192,75333,1,8,0:0:0:0:
256,192,75397,1,0,0:0:0:0:
256,192,75525,1,8,0:0:0:0:
256,192,75589,1,8,0:0:0:0:
256,192,75653,1,0,0:0:0:0:
256,192,75781,1,8,0:0:0:0:
256,192,75845,1,8,0:0:0:0:
256,192,75909,1,0,0:0:0:0:
256,192,76036,1,8,0:0:0:0:
256,192,76100,1,8,0:0:0:0:
256,192,76164,1,0,0:0:0:0:
256,192,76292,1,8,0:0:0:0:
256,192,76420,1,0,0:0:0:0:
256,192,76484,1,0,0:0:0:0:
256,192,76548,1,0,0:0:0:0:
256,192,76612,1,0,0:0:0:0:
256,192,76676,1,8,0:0:0:0:
256,192,76932,1,4,0:0:0:0:
256,192,77188,1,0,0:0:0:0:
256,192,77443,1,8,0:0:0:0:
256,192,77827,1,0,0:0:0:0:
256,192,78211,1,0,0:0:0:0:
256,192,78467,1,8,0:0:0:0:
256,192,78978,1,0,0:0:0:0:
256,192,79234,1,0,0:0:0:0:
256,192,79490,1,8,0:0:0:0:
256,192,79873,1,0,0:0:0:0:
256,192,80257,1,0,0:0:0:0:
256,192,80513,1,8,0:0:0:0:
256,192,81025,1,0,0:0:0:0:
256,192,81280,1,0,0:0:0:0:
256,192,81536,1,8,0:0:0:0:
256,192,81920,1,0,0:0:0:0:
256,192,82303,1,0,0:0:0:0:
256,192,82559,1,8,0:0:0:0:
256,192,83071,1,0,0:0:0:0:
256,192,83327,1,0,0:0:0:0:
256,192,83582,1,8,0:0:0:0:
256,192,83838,1,8,0:0:0:0:
256,192,83966,1,8,0:0:0:0:
256,192,84094,1,4,0:0:0:0:
256,192,84350,1,0,0:0:0:0:
256,192,84606,1,0,0:0:0:0:
256,192,84861,1,0,0:0:0:0:
256,192,85117,1,4,0:0:0:0:
256,192,85373,1,0,0:0:0:0:
256,192,85629,1,0,0:0:0:0:
256,192,85885,1,0,0:0:0:0:
256,192,86140,1,4,0:0:0:0:
256,192,86396,1,0,0:0:0:0:
256,192,86652,1,0,0:0:0:0:
256,192,86908,1,0,0:0:0:0:
256,192,87164,1,4,0:0:0:0:
256,192,87419,1,0,0:0:0:0:
256,192,87675,1,0,0:0:0:0:
256,192,87931,1,0,0:0:0:0:
256,192,88187,1,4,0:0:0:0:
256,192,88315,1,8,0:0:0:0:
256,192,88379,1,8,0:0:0:0:
256,192,88443,1,8,0:0:0:0:
256,192,88571,1,0,0:0:0:0:
256,192,88826,1,8,0:0:0:0:
256,192,88954,1,0,0:0:0:0:
256,192,89082,1,8,0:0:0:0:
256,192,89210,1,4,0:0:0:0:
256,192,89338,1,8,0:0:0:0:
256,192,89402,1,8,0:0:0:0:
256,192,89466,1,8,0:0:0:0:
256,192,89594,1,0,0:0:0:0:
256,192,89850,1,8,0:0:0:0:
256,192,89977,1,0,0:0:0:0:
256,192,90105,1,8,0:0:0:0:
256,192,90233,1,4,0:0:0:0:
256,192,90489,1,4,0:0:0:0:
256,192,90745,1,4,0:0:0:0:
256,192,91001,1,4,0:0:0:0:
256,192,91256,1,12,0:0:0:0:
256,192,91512,1,12,0:0:0:0:
256,192,91768,1,12,0:0:0:0:
256,192,92024,1,12,0:0:0:0:
256,192,92280,1,0,0:0:0:0:
256,192,92791,1,0,0:0:0:0:
256,192,92855,1,0,0:0:0:0:
256,192,92919,1,0,0:0:0:0:
256,192,93047,1,12,0:0:0:0:
256,192,93303,1,4,0:0:0:0:
256,192,93559,1,8,0:0:0:0:
256,192,93687,1,8,0:0:0:0:
256,192,93814,1,0,0:0:0:0:
256,192,93878,1,0,0:0:0:0:
256,192,93942,1,0,0:0:0:0:
256,192,94070,1,8,0:0:0:0:
256,192,94198,1,8,0:0:0:0:
256,192,94326,1,0,0:0:0:0:
256,192,94454,1,8,0:0:0:0:
256,192,94582,1,0,0:0:0:0:
256,192,94710,1,8,0:0:0:0:
256,192,94838,1,0,0:0:0:0:
256,192,94902,1,0,0:0:0:0:
256,192,94966,1,0,0:0:0:0:
256,192,95093,1,0,0:0:0:0:
256,192,95221,1,0,0:0:0:0:
256,192,95349,1,8,0:0:0:0:
256,192,95605,1,8,0:0:0:0:
256,192,95733,1,8,0:0:0:0:
256,192,95861,1,0,0:0:0:0:
256,192,95925,1,0,0:0:0:0:
256,192,95989,1,0,0:0:0:0:
256,192,96117,1,8,0:0:0:0:
256,192,96244,1,8,0:0:0:0:
256,192,96372,1,0,0:0:0:0:
256,192,96628,1,0,0:0:0:0:
256,192,96884,1,0,0:0:0:0:
256,192,97012,1,0,0:0:0:0:
256,192,97076,1,0,0:0:0:0:
256,192,97140,1,0,0:0:0:0:
256,192,97268,1,0,0:0:0:0:
256,192,97396,1,8,0:0:0:0:
256,192,97651,1,0,0:0:0:0:
256,192,97779,1,0,0:0:0:0:
256,192,97907,1,8,0:0:0:0:
256,192,97971,1,8,0:0:0:0:
256,192,98035,1,8,0:0:0:0:
256,192,98163,1,0,0:0:0:0:
256,192,98419,1,8,0:0:0:0:
256,192,98547,1,8,0:0:0:0:
256,192,98675,1,0,0:0:0:0:
256,192,98802,1,0,0:0:0:0:
256,192,98930,1,8,0:0:0:0:
256,192,99058,1,8,0:0:0:0:
256,192,99186,1,0,0:0:0:0:
256,192,99314,1,0,0:0:0:0:
256,192,99442,1,8,0:0:0:0:
256,192,99698,1,8,0:0:0:0:
256,192,99954,1,0,0:0:0:0:
256,192,100209,1,8,0:0:0:0:
256,192,100337,1,0,0:0:0:0:
256,192,100465,1,0,0:0:0:0:
256,192,100529,1,0,0:0:0:0:
256,192,100593,1,0,0:0:0:0:
256,192,100721,1,12,0:0:0:0:
256,192,100977,1,12,0:0:0:0:
256,192,101233,1,12,0:0:0:0:
256,192,101488,1,4,0:0:0:0:
256,192,101616,1,0,0:0:0:0:
256,192,101744,1,8,0:0:0:0:
256,192,101872,1,8,0:0:0:0:
256,192,102000,1,0,0:0:0:0:
256,192,102128,1,0,0:0:0:0:
256,192,102256,1,8,0:0:0:0:
256,192,102384,1,0,0:0:0:0:
256,192,102512,1,8,0:0:0:0:
256,192,102597,1,8,0:0:0:0:
256,192,102682,1,8,0:0:0:0:
256,192,102767,1,8,0:0:0:0:
256,192,102895,1,8,0:0:0:0:
256,192,103023,1,0,0:0:0:0:
256,192,103279,1,0,0:0:0:0:
256,192,103407,1,8,0:0:0:0:
256,192,103535,1,0,0:0:0:0:
256,192,103791,1,8,0:0:0:0:
256,192,103918,1,8,0:0:0:0:
256,192,104046,1,0,0:0:0:0:
256,192,104174,1,8,0:0:0:0:
256,192,104302,1,8,0:0:0:0:
256,192,104430,1,0,0:0:0:0:
256,192,104558,1,8,0:0:0:0:
256,192,104686,1,8,0:0:0:0:
256,192,104814,1,0,0:0:0:0:
256,192,104942,1,0,0:0:0:0:
256,192,105070,1,8,0:0:0:0:
256,192,105197,1,8,0:0:0:0:
256,192,105325,1,0,0:0:0:0:
256,192,105453,1,0,0:0:0:0:
256,192,105581,1,8,0:0:0:0:
256,192,105837,1,0,0:0:0:0:
256,192,105965,1,0,0:0:0:0:
256,192,106093,1,0,0:0:0:0:
256,192,106349,1,0,0:0:0:0:
256,192,106476,1,8,0:0:0:0:
256,192,106540,1,8,0:0:0:0:
256,192,106604,1,0,0:0:0:0:
256,192,106860,1,0,0:0:0:0:
256,192,106988,1,0,0:0:0:0:
256,192,107116,1,0,0:0:0:0:
256,192,107308,1,8,0:0:0:0:
256,192,107500,1,0,0:0:0:0:
256,192,107628,1,0,0:0:0:0:
256,192,107883,1,0,0:0:0:0:
256,192,108011,1,8,0:0:0:0:
256,192,108139,1,0,0:0:0:0:
256,192,108267,1,8,0:0:0:0:
256,192,108395,1,8,0:0:0:0:
256,192,108459,1,8,0:0:0:0:
256,192,108523,1,0,0:0:0:0:
256,192,108651,1,12,0:0:0:0:
256,192,108906,1,8,0:0:0:0:
256,192,109162,1,8,0:0:0:0:
256,192,109418,1,0,0:0:0:0:
256,192,109674,1,4,0:0:0:0:
256,192,109930,1,8,0:0:0:0:
256,192,110058,1,8,0:0:0:0:
256,192,110185,1,0,0:0:0:0:
256,192,110249,1,0,0:0:0:0:
256,192,110313,1,0,0:0:0:0:
256,192,110441,1,8,0:0:0:0:
256,192,110569,1,8,0:0:0:0:
256,192,110697,1,0,0:0:0:0:
256,192,110761,1,0,0:0:0:0:
256,192,110825,1,8,0:0:0:0:
256,192,110953,1,0,0:0:0:0:
256,192,111081,1,8,0:0:0:0:
256,192,111209,1,0,0:0:0:0:
256,192,111273,1,0,0:0:0:0:
256,192,111337,1,0,0:0:0:0:
256,192,111464,1,0,0:0:0:0:
256,192,111592,1,0,0:0:0:0:
256,192,111720,1,8,0:0:0:0:
256,192,111976,1,8,0:0:0:0:
256,192,112104,1,8,0:0:0:0:
256,192,112232,1,0,0:0:0:0:
256,192,112296,1,0,0:0:0:0:
256,192,112360,1,0,0:0:0:0:
256,192,112488,1,8,0:0:0:0:
256,192,112616,1,8,0:0:0:0:
256,192,112743,1,0,0:0:0:0:
256,192,112999,1,0,0:0:0:0:
256,192,113255,1,0,0:0:0:0:
256,192,113383,1,0,0:0:0:0:
256,192,113447,1,0,0:0:0:0:
256,192,113511,1,0,0:0:0:0:
256,192,113639,1,0,0:0:0:0:
256,192,113767,1,8,0:0:0:0:
256,192,114022,1,0,0:0:0:0:
256,192,114150,1,0,0:0:0:0:
256,192,114278,1,8,0:0:0:0:
256,192,114342,1,8,0:0:0:0:
256,192,114406,1,8,0:0:0:0:
256,192,114534,1,0,0:0:0:0:
256,192,114662,1,0,0:0:0:0:
256,192,114790,1,8,0:0:0:0:
256,192,114918,1,8,0:0:0:0:
256,192,115046,1,0,0:0:0:0:
256,192,115174,1,0,0:0:0:0:
256,192,115301,1,8,0:0:0:0:
256,192,115429,1,8,0:0:0:0:
256,192,115493,1,8,0:0:0:0:
256,192,115557,1,0,0:0:0:0:
256,192,115621,1,0,0:0:0:0:
256,192,115685,1,0,0:0:0:0:
256,192,115813,1,12,0:0:0:0:
256,192,116325,1,12,0:0:0:0:
256,192,116836,1,0,0:0:0:0:
256,192,116900,1,0,0:0:0:0:
256,192,116964,1,0,0:0:0:0:
256,192,117092,1,12,0:0:0:0:
256,192,117348,1,12,0:0:0:0:
256,192,117604,1,12,0:0:0:0:
256,192,117859,1,4,0:0:0:0:
256,192,117987,1,0,0:0:0:0:
256,192,118115,1,8,0:0:0:0:
256,192,118243,1,8,0:0:0:0:
256,192,118371,1,0,0:0:0:0:
256,192,118499,1,0,0:0:0:0:
256,192,118627,1,8,0:0:0:0:
256,192,118755,1,0,0:0:0:0:
256,192,118883,1,8,0:0:0:0:
256,192,118968,1,8,0:0:0:0:
256,192,119053,1,8,0:0:0:0:
256,192,119138,1,8,0:0:0:0:
256,192,119266,1,8,0:0:0:0:
256,192,119394,1,0,0:0:0:0:
256,192,119650,1,0,0:0:0:0:
256,192,119778,1,8,0:0:0:0:
256,192,119906,1,0,0:0:0:0:
256,192,120162,1,8,0:0:0:0:
256,192,120290,1,8,0:0:0:0:
256,192,120417,1,0,0:0:0:0:
256,192,120545,1,8,0:0:0:0:
256,192,120673,1,8,0:0:0:0:
256,192,120801,1,0,0:0:0:0:
256,192,120929,1,8,0:0:0:0:
256,192,120993,1,8,0:0:0:0:
256,192,121057,1,8,0:0:0:0:
256,192,121185,1,0,0:0:0:0:
256,192,121313,1,0,0:0:0:0:
256,192,121441,1,8,0:0:0:0:
256,192,121569,1,8,0:0:0:0:
256,192,121696,1,0,0:0:0:0:
256,192,121824,1,0,0:0:0:0:
256,192,121952,1,8,0:0:0:0:
256,192,122208,1,0,0:0:0:0:
256,192,122336,1,0,0:0:0:0:
256,192,122464,1,0,0:0:0:0:
256,192,122720,1,0,0:0:0:0:
256,192,122847,1,8,0:0:0:0:
256,192,122911,1,8,0:0:0:0:
256,192,122975,1,0,0:0:0:0:
256,192,123231,1,0,0:0:0:0:
256,192,123359,1,0,0:0:0:0:
256,192,123487,1,0,0:0:0:0:
256,192,123679,1,8,0:0:0:0:
256,192,123871,1,0,0:0:0:0:
256,192,123999,1,0,0:0:0:0:
256,192,124254,1,0,0:0:0:0:
256,192,124382,1,8,0:0:0:0:
256,192,124510,1,0,0:0:0:0:
256,192,124638,1,0,0:0:0:0:
256,192,124766,1,8,0:0:0:0:
256,192,124830,1,8,0:0:0:0:
256,192,124894,1,0,0:0:0:0:
256,192,125022,1,12,0:0:0:0:
256,192,125278,1,8,0:0:0:0:
256,192,125533,1,8,0:0:0:0:
256,192,125789,1,0,0:0:0:0:
256,192,126045,1,4,0:0:0:0:
256,192,126173,1,0,0:0:0:0:
256,192,126301,1,8,0:0:0:0:
256,192,126429,1,8,0:0:0:0:
256,192,126557,1,4,0:0:0:0:
256,192,126684,1,0,0:0:0:0:
256,192,126812,1,8,0:0:0:0:
256,192,126940,1,8,0:0:0:0:
256,192,127068,1,4,0:0:0:0:
256,192,127196,1,0,0:0:0:0:
256,192,127324,1,8,0:0:0:0:
256,192,127452,1,8,0:0:0:0:
256,192,127580,1,4,0:0:0:0:
256,192,127708,1,0,0:0:0:0:
256,192,127836,1,8,0:0:0:0:
256,192,128091,1,4,0:0:0:0:
256,192,128219,1,0,0:0:0:0:
256,192,128347,1,8,0:0:0:0:
256,192,128475,1,8,0:0:0:0:
256,192,128603,1,4,0:0:0:0:
256,192,128731,1,0,0:0:0:0:
256,192,128859,1,8,0:0:0:0:
256,192,128987,1,8,0:0:0:0:
256,192,129115,1,4,0:0:0:0:
256,192,129242,1,0,0:0:0:0:
256,192,129306,1,0,0:0:0:0:
256,192,129370,1,8,0:0:0:0:
256,192,129498,1,0,0:0:0:0:
256,192,129562,1,0,0:0:0:0:
256,192,129626,1,8,0:0:0:0:
256,192,129754,1,0,0:0:0:0:
256,192,129818,1,0,0:0:0:0:
256,192,129882,1,8,0:0:0:0:
256,192,129946,1,8,0:0:0:0:
256,192,130010,1,0,0:0:0:0:
256,192,130138,1,12,0:0:0:0:
256,192,130266,12,0,138323,0:0:0:0:
