osu file format v14

[General]
AudioFilename: audio.mp3
AudioLeadIn: 0
PreviewTime: 47459
Countdown: 1
SampleSet: Normal
StackLeniency: 0
Mode: 0
LetterboxInBreaks: 0
WidescreenStoryboard: 0

[Editor]
Bookmarks: 2133,10773,28053,45333,47493,64773,82053,90693,98253,107974,142534,146854,164134,196534,200854,218135,235415,252695,261335
DistanceSpacing: 0.7
BeatDivisor: 4
GridSize: 4
TimelineZoom: 1

[Metadata]
Title:Freedom Dive
TitleUnicode:Freedom Dive
Artist:xi
ArtistUnicode:xi
Creator:Sonnyc
Version:Insane
Source:osu!
Tags:Parousia
BeatmapID:1886384
BeatmapSetID:903650

[Difficulty]
HPDrainRate:6
CircleSize:4.7
OverallDifficulty:8
ApproachRate:9
SliderMultiplier:2.22
SliderTickRate:1

[Events]
//Background and Video events
0,0,"bg.png",0,0
//Break Periods
//Storyboard Layer 0 (Background)
//Storyboard Layer 1 (Fail)
//Storyboard Layer 2 (Pass)
//Storyboard Layer 3 (Foreground)
//Storyboard Sound Samples

[TimingPoints]
2133,270.002700027,4,1,1,60,1,0
28053,-125,4,1,1,60,0,0
47493,-100,4,1,1,60,0,0

[HitObjects]
169,92,2133,6,0,B|137:50|137:50|24:63,2,166.5,6|0|0,0:0|0:0|0:0,0:0:0:0:
81,256,2808,2,0,B|194:243,2,111
13,297,3213,2,0,B|45:339|45:339|158:326,2,166.5
81,256,3753,2,0,B|194:243,2,111
343,292,4293,6,0,B|375:334|375:334|488:321,2,166.5,4|0|0,0:0|0:0|0:0,0:0:0:0:
431,128,4968,2,0,B|318:141,2,111
499,87,5373,2,0,B|467:45|467:45|354:58,2,166.5
431,128,5913,2,0,B|374:134,4,55.5
76,39,6453,6,0,B|34:71|34:71|47:184,2,166.5,4|0|0,0:0|0:0|0:0,0:0:0:0:
240,127,7128,2,0,B|227:14,2,111
281,195,7533,2,0,B|323:163|323:163|310:50,2,166.5
240,127,8073,2,0,B|227:14,2,111
453,284,8613,6,0,B|495:252|495:252|482:139,2,166.5,4|0|0,0:0|0:0|0:0,0:0:0:0:
413,217,9153,2,0,B|371:249|371:249|384:362,2,166.5,4|0|0,0:0|0:0|0:0,0:0:0:0:
453,284,9693,1,8,0:0:0:0:
453,284,9963,1,8,0:0:0:0:
453,284,10233,1,8,0:0:0:0:
453,284,10503,1,8,0:0:0:0:
409,48,10773,6,0,B|318:58|318:58|294:23|294:23|205:33,1,222,4|8,0:0|0:0,0:0:0:0:
371,134,11313,2,0,B|280:144|280:144|256:109|256:109|167:119,1,222,0|8,0:0|0:0,0:0:0:0:
333,220,11853,2,0,B|242:230|242:230|218:195|218:195|129:205,1,222,0|8,0:0|0:0,0:0:0:0:
295,306,12393,2,0,B|204:316|204:316|180:281|180:281|91:291,1,222,0|8,0:0|0:0,0:0:0:0:
92,290,12798,1,8,0:0:0:0:
333,220,12933,6,0,B|242:230|242:230|218:195|218:195|129:205,1,222,4|8,0:0|0:0,0:0:0:0:
371,134,13473,2,0,B|280:144|280:144|256:109|256:109|167:119,1,222,0|8,0:0|0:0,0:0:0:0:
409,48,14013,2,0,B|318:58|318:58|294:23|294:23|205:33,1,222,0|12,0:0|0:0,0:0:0:0:
453,284,14553,6,0,B|495:252|495:252|482:139,2,166.5,12|8|8,0:0|0:0|0:0,0:0:0:0:
413,217,15093,2,0,B|322:206|322:206|298:241|298:241|209:232,1,222,4|8,0:0|0:0,0:0:0:0:
375,131,15633,2,0,B|284:120|284:120|260:155|260:155|171:146,1,222,0|8,0:0|0:0,0:0:0:0:
209,232,16038,2,0,B|298:241|298:241|322:206|322:206|413:217,1,222,4|8,0:0|0:0,0:0:0:0:
412,216,16443,1,8,0:0:0:0:
179,19,16713,1,0,0:0:0:0:
256,25,16848,1,8,0:0:0:0:
333,31,16983,1,8,0:0:0:0:
56,356,17253,6,0,B|230:373|230:373|278:303|278:303|460:325,1,444,12|12,0:0|0:0,0:0:0:0:
248,22,18333,2,0,B|237:113|237:113|272:137|272:137|263:226,2,222,12|12|12,0:0|0:0|0:0,0:0:0:0:
112,345,19413,6,0,B|122:254|122:254|87:230|87:230|97:141,1,222,4|8,0:0|0:0,0:0:0:0:
198,307,19953,2,0,B|208:216|208:216|173:192|173:192|183:103,1,222,0|8,0:0|0:0,0:0:0:0:
284,269,20493,2,0,B|294:178|294:178|259:154|259:154|269:65,1,222,0|8,0:0|0:0,0:0:0:0:
370,231,21033,2,0,B|380:140|380:140|345:116|345:116|355:27,1,222,0|8,0:0|0:0,0:0:0:0:
354,27,21438,1,8,0:0:0:0:
284,269,21573,6,0,B|294:178|294:178|259:154|259:154|269:65,1,222,4|8,0:0|0:0,0:0:0:0:
198,307,22113,2,0,B|208:216|208:216|173:192|173:192|183:103,1,222,0|8,0:0|0:0,0:0:0:0:
112,345,22653,2,0,B|122:254|122:254|87:230|87:230|97:141,1,222,0|12,0:0|0:0,0:0:0:0:
443,313,23193,6,0,B|411:355|411:355|298:342,2,166.5,12|8|8,0:0|0:0|0:0,0:0:0:0:
376,273,23733,2,0,B|365:182|365:182|400:158|400:158|391:69,1,222,4|8,0:0|0:0,0:0:0:0:
290,235,24273,2,0,B|279:144|279:144|314:120|314:120|305:31,1,222,0|8,0:0|0:0,0:0:0:0:
391,69,24678,2,0,B|400:158|400:158|365:182|365:182|376:273,1,222,4|8,0:0|0:0,0:0:0:0:
375,272,25083,1,8,0:0:0:0:
178,39,25353,1,0,0:0:0:0:
184,116,25488,1,8,0:0:0:0:
190,193,25623,1,8,0:0:0:0:
415,80,25893,5,6,0:0:0:0:
393,329,26163,1,2,0:0:0:0:
144,351,26433,1,6,0:0:0:0:
79,109,26703,1,2,0:0:0:0:
306,3,26973,1,6,0:0:0:0:
449,208,27243,1,2,0:0:0:0:
272,385,27513,1,6,0:0:0:0:
67,242,27783,1,2,0:0:0:0:
173,15,28053,5,6,0:0:0:0:
250,25,28255,1,2,0:0:0:0:
327,35,28458,1,2,0:0:0:0:
327,35,28593,1,2,0:0:0:0:
458,113,28863,5,2,0:0:0:0:
458,113,28998,1,2,0:0:0:0:
458,113,29133,1,2,0:0:0:0:
381,123,29335,1,2,0:0:0:0:
304,133,29538,1,2,0:0:0:0:
304,133,29673,1,2,0:0:0:0:
173,211,29943,5,2,0:0:0:0:
173,211,30078,1,2,0:0:0:0:
173,211,30213,1,2,0:0:0:0:
250,221,30415,1,2,0:0:0:0:
327,231,30618,1,2,0:0:0:0:
327,231,30753,1,2,0:0:0:0:
458,309,31023,5,2,0:0:0:0:
458,309,31158,1,2,0:0:0:0:
458,309,31293,1,2,0:0:0:0:
381,319,31496,1,2,0:0:0:0:
304,329,31698,1,2,0:0:0:0:
304,329,31833,2,0,L|216:340,1,88.8,2|2,0:0|0:0,0:0:0:0:
206,263,32103,2,0,L|294:252,1,88.8,2|2,0:0|0:0,0:0:0:0:
284,175,32373,5,2,0:0:0:0:
274,98,32575,1,2,0:0:0:0:
264,21,32778,1,2,0:0:0:0:
264,21,32913,1,2,0:0:0:0:
264,21,33183,1,2,0:0:0:0:
125,125,33453,6,0,L|136:213,1,88.8,2|2,0:0|0:0,0:0:0:0:
50,161,33723,2,0,L|61:249,1,88.8,2|2,0:0|0:0,0:0:0:0:
143,301,33993,2,0,L|231:290,1,88.8,2|2,0:0|0:0,0:0:0:0:
179,376,34263,2,0,L|267:365,1,88.8,2|2,0:0|0:0,0:0:0:0:
319,283,34533,6,0,L|308:195,1,88.8,2|2,0:0|0:0,0:0:0:0:
394,247,34803,2,0,L|383:159,1,88.8,2|2,0:0|0:0,0:0:0:0:
307,194,35073,2,0,L|296:106,1,88.8,2|2,0:0|0:0,0:0:0:0:
382,158,35343,2,0,L|371:70,1,88.8,2|2,0:0|0:0,0:0:0:0:
295,105,35613,6,0,L|251:99,1,44.4,2|0,0:0|0:0,0:0:0:0:
168,67,35815,2,0,L|162:111,1,44.4,2|0,0:0|0:0,0:0:0:0:
130,194,36018,2,0,L|174:199,1,44.4,2|0,0:0|0:0,0:0:0:0:
257,232,36220,1,2,0:0:0:0:
257,232,36355,2,0,L|262:188,1,44.4,2|2,0:0|0:0,0:0:0:0:
295,105,36558,1,2,0:0:0:0:
382,158,36693,6,0,L|371:70,1,88.8,6|2,0:0|0:0,0:0:0:0:
394,235,36963,2,0,L|482:224,1,88.8,2|2,0:0|0:0,0:0:0:0:
317,247,37233,2,0,L|328:335,1,88.8,2|2,0:0|0:0,0:0:0:0:
305,170,37503,2,0,L|217:181,1,88.8,2|2,0:0|0:0,0:0:0:0:
370,69,37773,6,0,L|428:76,3,59.2,2|2|2|2,0:0|0:0|0:0|0:0,0:0:0:0:
506,88,38178,1,2,0:0:0:0:
460,150,38313,2,0,L|466:194,1,44.4,2|0,0:0|0:0,0:0:0:0:
388,187,38515,2,0,L|394:231,1,44.4,2|0,0:0|0:0,0:0:0:0:
316,224,38718,1,2,0:0:0:0:
460,278,38853,5,6,0:0:0:0:
208,314,39123,1,2,0:0:0:0:
172,62,39393,1,2,0:0:0:0:
424,26,39663,1,2,0:0:0:0:
316,224,39933,6,0,L|228:213,3,88.8,2|2|2|2,0:0|0:0|0:0|0:0,0:0:0:0:
162,258,40473,2,0,L|74:247,3,88.8,2|2|2|2,0:0|0:0|0:0|0:0,0:0:0:0:
233,296,41013,6,0,L|239:340,1,44.4,6|0,0:0|0:0,0:0:0:0:
311,312,41215,2,0,L|317:356,1,44.4,2|0,0:0|0:0,0:0:0:0:
389,328,41418,2,0,L|395:372,1,44.4,2|0,0:0|0:0,0:0:0:0:
448,137,41958,5,2,0:0:0:0:
448,137,42025,1,0,0:0:0:0:
448,137,42093,2,0,L|360:126,1,88.8,2|2,0:0|0:0,0:0:0:0:
180,202,42633,2,0,B|89:212|89:212|64:179,1,133.2,6|2,0:0|0:0,0:0:0:0:
240,156,43173,2,0,B|215:123|215:123|124:133,1,133.2,2|2,0:0|0:0,0:0:0:0:
124,134,43713,1,4,0:0:0:0:
124,134,43983,1,0,0:0:0:0:
366,148,44253,5,2,0:0:0:0:
212,82,44523,1,2,0:0:0:0:
146,236,44792,1,2,0:0:0:0:
300,302,45062,1,2,0:0:0:0:
97,80,45333,5,6,0:0:0:0:
119,329,45603,1,2,0:0:0:0:
368,351,45873,1,6,0:0:0:0:
433,109,46143,1,2,0:0:0:0:
206,3,46413,1,6,0:0:0:0:
63,208,46683,1,2,0:0:0:0:
240,385,46953,1,6,0:0:0:0:
445,242,47223,1,2,0:0:0:0:
339,15,47493,6,0,P|224:14|277:248,1,444,6|2,0:0|0:0,0:0:0:0:
280,125,48303,1,2,0:0:0:0:
110,284,48573,5,2,0:0:0:0:
299,343,48843,1,2,0:0:0:0:
135,380,49113,1,2,0:0:0:0:
274,247,49383,1,2,0:0:0:0:
24,71,49653,5,2,0:0:0:0:
201,141,49923,1,2,0:0:0:0:
349,22,50193,1,2,0:0:0:0:
349,22,50463,1,2,0:0:0:0:
467,287,50733,5,2,0:0:0:0:
290,357,51003,1,2,0:0:0:0:
142,238,51273,1,2,0:0:0:0:
142,238,51543,1,2,0:0:0:0:
441,166,51813,5,2,0:0:0:0:
245,199,52083,1,2,0:0:0:0:
372,353,52353,1,2,0:0:0:0:
441,166,52623,1,2,0:0:0:0:
176,12,52893,5,2,0:0:0:0:
372,45,53163,1,2,0:0:0:0:
245,199,53433,1,2,0:0:0:0:
176,12,53703,1,2,0:0:0:0:
344,255,53973,5,2,0:0:0:0:
148,222,54243,1,2,0:0:0:0:
364,160,54513,1,2,0:0:0:0:
168,127,54783,1,2,0:0:0:0:
432,66,55053,5,2,0:0:0:0:
40,132,55323,1,6,0:0:0:0:
472,256,55593,1,2,0:0:0:0:
80,322,55863,1,6,0:0:0:0:
173,15,56133,6,0,P|288:14|235:248,1,444,6|2,0:0|0:0,0:0:0:0:
232,125,56943,1,2,0:0:0:0:
402,284,57213,5,2,0:0:0:0:
213,343,57483,1,2,0:0:0:0:
377,380,57753,1,2,0:0:0:0:
238,247,58023,1,2,0:0:0:0:
488,71,58293,5,2,0:0:0:0:
311,141,58563,1,2,0:0:0:0:
163,22,58833,1,2,0:0:0:0:
163,22,59103,1,2,0:0:0:0:
45,287,59373,5,2,0:0:0:0:
222,357,59643,1,2,0:0:0:0:
370,238,59913,1,2,0:0:0:0:
370,238,60183,1,2,0:0:0:0:
71,166,60453,5,2,0:0:0:0:
267,199,60723,1,2,0:0:0:0:
140,353,60993,1,2,0:0:0:0:
71,166,61263,1,2,0:0:0:0:
336,12,61533,5,2,0:0:0:0:
140,45,61803,1,2,0:0:0:0:
267,199,62073,1,2,0:0:0:0:
336,12,62343,1,2,0:0:0:0:
148,274,62613,5,2,0:0:0:0:
148,274,62748,1,0,0:0:0:0:
214,316,62883,2,0,B|327:303,1,111,2|0,0:0|0:0,0:0:0:0:
384,352,63153,1,2,0:0:0:0:
384,352,63288,1,0,0:0:0:0:
426,286,63423,2,0,B|413:173,1,111,2|0,0:0|0:0,0:0:0:0:
462,116,63693,1,2,0:0:0:0:
462,116,63828,1,0,0:0:0:0:
396,74,63963,2,0,B|283:87,1,111,2|0,0:0|0:0,0:0:0:0:
226,38,64233,5,2,0:0:0:0:
178,97,64368,1,0,0:0:0:0:
117,48,64503,1,2,0:0:0:0:
69,107,64638,1,0,0:0:0:0:
128,155,64773,5,2,0:0:0:0:
9,214,64976,1,2,0:0:0:0:
140,235,65178,1,2,0:0:0:0:
128,155,65313,1,0,0:0:0:0:
128,155,65381,1,2,0:0:0:0:
21,294,65583,5,2,0:0:0:0:
21,294,65718,1,2,0:0:0:0:
21,294,65853,1,2,0:0:0:0:
140,235,66056,1,2,0:0:0:0:
9,214,66258,1,2,0:0:0:0:
21,294,66393,1,0,0:0:0:0:
21,294,66461,1,2,0:0:0:0:
259,176,66663,5,2,0:0:0:0:
259,176,66798,1,2,0:0:0:0:
259,176,66933,1,2,0:0:0:0:
140,235,67136,1,2,0:0:0:0:
271,256,67338,1,2,0:0:0:0:
259,176,67473,1,0,0:0:0:0:
259,176,67541,1,2,0:0:0:0:
152,315,67743,5,2,0:0:0:0:
152,315,67878,1,2,0:0:0:0:
152,315,68013,1,2,0:0:0:0:
271,256,68216,1,2,0:0:0:0:
140,235,68418,1,2,0:0:0:0:
152,315,68553,1,2,0:0:0:0:
140,235,68688,1,2,0:0:0:0:
128,155,68823,1,2,0:0:0:0:
116,75,68958,1,2,0:0:0:0:
187,104,69093,5,2,0:0:0:0:
306,45,69296,1,2,0:0:0:0:
175,24,69498,1,2,0:0:0:0:
187,104,69633,1,2,0:0:0:0:
187,104,69903,1,2,0:0:0:0:
377,277,70173,5,2,0:0:0:0:
377,277,70308,1,2,0:0:0:0:
303,302,70443,1,2,0:0:0:0:
303,302,70578,1,2,0:0:0:0:
240,255,70713,1,2,0:0:0:0:
240,255,70848,1,2,0:0:0:0:
166,280,70983,1,2,0:0:0:0:
166,280,71118,1,2,0:0:0:0:
240,255,71253,5,2,0:0:0:0:
240,255,71388,1,2,0:0:0:0:
215,181,71523,1,2,0:0:0:0:
215,181,71658,1,2,0:0:0:0:
262,118,71793,1,2,0:0:0:0:
262,118,71928,1,2,0:0:0:0:
237,44,72063,1,2,0:0:0:0:
237,44,72198,1,2,0:0:0:0:
313,59,72333,5,2,0:0:0:0:
313,59,72401,1,0,0:0:0:0:
365,0,72536,1,2,0:0:0:0:
365,0,72603,1,4,0:0:0:0:
441,16,72738,1,2,0:0:0:0:
441,16,72806,1,0,0:0:0:0:
467,90,72941,1,2,0:0:0:0:
414,148,73076,1,0,0:0:0:0:
414,148,73143,1,2,0:0:0:0:
338,133,73278,1,2,0:0:0:0:
361,207,73413,5,2,0:0:0:0:
361,207,73548,1,2,0:0:0:0:
285,222,73683,1,2,0:0:0:0:
285,222,73818,1,2,0:0:0:0:
376,283,73954,1,2,0:0:0:0:
376,283,74089,1,2,0:0:0:0:
300,298,74224,1,2,0:0:0:0:
300,298,74359,1,2,0:0:0:0:
361,207,74493,6,0,L|351:130,3,74,2|2|2|2,0:0|0:0|0:0|0:0,0:0:0:0:
343,56,74898,1,2,0:0:0:0:
281,103,75033,1,2,0:0:0:0:
281,103,75101,1,0,0:0:0:0:
203,93,75236,1,2,0:0:0:0:
203,93,75304,1,0,0:0:0:0:
125,83,75438,1,2,0:0:0:0:
156,154,75573,5,2,0:0:0:0:
156,154,75708,1,2,0:0:0:0:
80,169,75843,1,2,0:0:0:0:
80,169,75978,1,2,0:0:0:0:
171,230,76114,1,2,0:0:0:0:
171,230,76249,1,2,0:0:0:0:
95,245,76384,1,0,0:0:0:0:
273,56,76654,5,2,0:0:0:0:
273,56,76788,1,2,0:0:0:0:
261,136,76923,1,2,0:0:0:0:
261,136,77057,1,2,0:0:0:0:
249,216,77193,1,2,0:0:0:0:
249,216,77327,1,2,0:0:0:0:
237,296,77463,1,2,0:0:0:0:
237,296,77597,1,2,0:0:0:0:
310,268,77733,5,2,0:0:0:0:
310,268,77801,1,0,0:0:0:0:
388,278,77936,1,2,0:0:0:0:
388,278,78004,1,0,0:0:0:0:
466,288,78138,1,2,0:0:0:0:
466,288,78206,1,0,0:0:0:0:
366,97,78678,5,0,0:0:0:0:
366,97,78746,1,0,0:0:0:0:
366,97,78813,2,0,B|253:110,1,111,2|2,0:0|0:0,0:0:0:0:
193,63,79083,1,2,0:0:0:0:
65,152,79353,2,0,B|23:184|23:184|36:297,1,166.5,2|2,0:0|0:0,0:0:0:0:
336,380,79893,2,0,B|378:348|378:348|365:235,1,166.5,2|2,0:0|0:0,0:0:0:0:
366,235,80434,1,0,0:0:0:0:
366,235,80501,1,2,0:0:0:0:
366,235,80703,1,2,0:0:0:0:
146,148,80973,5,2,0:0:0:0:
300,82,81243,1,2,0:0:0:0:
366,236,81512,1,2,0:0:0:0:
212,302,81782,1,2,0:0:0:0:
256,192,82053,5,4,0:0:0:0:
