osu file format v14

[General]
AudioFilename: audio.mp3
AudioLeadIn: 0
PreviewTime: -1
Countdown: 1
SampleSet: None
StackLeniency: 0.2
Mode: 0
LetterboxInBreaks: 0
WidescreenStoryboard: 1

[Editor]
DistanceSpacing: 6
BeatDivisor: 16
GridSize: 4
TimelineZoom: 1

[Metadata]
Title:Freedom Dive
TitleUnicode:Freedom Dive
Artist:xi
ArtistUnicode:xi
Creator:NO PLEASEGOD NO
Version:EZ
Source:
Tags:
BeatmapID:1627639
BeatmapSetID:765304

[Difficulty]
HPDrainRate:10
CircleSize:2
OverallDifficulty:1
ApproachRate:10
SliderMultiplier:3.59999990463257
SliderTickRate:1

[Events]
//Background and Video events
0,0,"5souckgo83iz[1].png",0,0
//Break Periods
//Storyboard Layer 0 (Background)
//Storyboard Layer 1 (Fail)
//Storyboard Layer 2 (Pass)
//Storyboard Layer 3 (Foreground)
//Storyboard Sound Samples

[TimingPoints]
28742,500,4,1,0,100,1,0
64714,500,4,1,0,100,1,1
99999,500,4,1,0,100,1,0
218086,333.333333333333,4,1,0,100,1,1

[Colours]
Combo1 : 128,255,0
Combo2 : 128,255,255
Combo3 : 209,164,255
Combo4 : 0,255,64
Combo5 : 0,0,255
Combo6 : 255,255,0
Combo7 : 255,0,0

[HitObjects]
256,192,1398,12,0,2148,0:0:0:0:
136,108,2273,5,0,0:0:0:0:
192,96,2523,5,0,0:0:0:0:
232,88,2773,5,0,0:0:0:0:
288,80,3054,5,0,0:0:0:0:
332,112,3367,5,0,0:0:0:0:
272,92,3617,5,0,0:0:0:0:
200,104,3867,5,0,0:0:0:0:
188,136,4023,5,0,0:0:0:0:
172,128,4148,5,0,0:0:0:0:
132,100,4304,5,0,0:0:0:0:
124,168,4492,5,0,0:0:0:0:
172,120,4679,5,0,0:0:0:0:
56,92,4929,5,0,0:0:0:0:
128,104,5210,5,0,0:0:0:0:
136,120,5492,5,0,0:0:0:0:
120,120,5742,5,0,0:0:0:0:
116,120,5992,5,0,0:0:0:0:
116,120,6148,5,0,0:0:0:0:
112,128,6304,5,0,0:0:0:0:
104,124,6429,5,0,0:0:0:0:
104,124,6679,5,0,0:0:0:0:
92,112,6867,5,0,0:0:0:0:
92,112,7085,5,0,0:0:0:0:
80,104,7242,5,0,0:0:0:0:
96,100,7398,5,0,0:0:0:0:
96,100,7523,5,0,0:0:0:0:
96,100,7742,5,0,0:0:0:0:
112,88,7992,5,0,0:0:0:0:
104,92,8210,5,0,0:0:0:0:
116,88,8335,5,0,0:0:0:0:
108,104,8460,5,0,0:0:0:0:
108,96,8617,5,0,0:0:0:0:
112,104,8804,5,0,0:0:0:0:
100,96,8960,5,0,0:0:0:0:
108,96,9242,5,0,0:0:0:0:
96,96,9398,5,0,0:0:0:0:
104,100,9554,5,0,0:0:0:0:
112,96,9679,5,0,0:0:0:0:
112,96,9898,5,0,0:0:0:0:
100,96,10179,5,0,0:0:0:0:
92,96,10335,5,0,0:0:0:0:
100,104,10492,5,0,0:0:0:0:
100,104,10617,5,0,0:0:0:0:
92,92,10773,5,0,0:0:0:0:
92,96,11023,5,0,0:0:0:0:
80,96,11304,5,0,0:0:0:0:
336,184,11554,5,0,0:0:0:0:
88,92,11835,5,0,0:0:0:0:
204,140,12117,5,0,0:0:0:0:
104,96,12367,5,0,0:0:0:0:
196,144,12648,5,0,0:0:0:0:
96,104,12929,5,0,0:0:0:0:
196,148,13179,5,0,0:0:0:0:
76,80,13460,5,0,0:0:0:0:
192,152,13742,5,0,0:0:0:0:
112,100,13992,5,0,0:0:0:0:
72,76,14117,5,0,0:0:0:0:
208,156,14273,5,0,0:0:0:0:
80,68,14523,5,0,0:0:0:0:
140,100,14679,5,0,0:0:0:0:
220,152,14804,5,0,0:0:0:0:
136,96,14929,5,0,0:0:0:0:
172,56,15085,5,0,0:0:0:0:
312,184,15367,5,0,0:0:0:0:
368,56,15648,5,0,0:0:0:0:
364,228,15898,5,0,0:0:0:0:
152,124,16148,5,0,0:0:0:0:
316,96,16429,5,0,0:0:0:0:
356,232,16710,5,0,0:0:0:0:
332,104,16960,5,0,0:0:0:0:
280,184,17117,5,0,0:0:0:0:
168,132,17242,5,0,0:0:0:0:
284,96,17492,5,0,0:0:0:0:
192,204,17804,5,0,0:0:0:0:
352,88,18054,5,0,0:0:0:0:
172,208,18335,5,0,0:0:0:0:
380,92,18585,5,0,0:0:0:0:
240,200,18867,5,0,0:0:0:0:
384,64,19117,5,0,0:0:0:0:
256,196,19367,5,0,0:0:0:0:
412,52,19648,5,0,0:0:0:0:
252,224,19929,5,0,0:0:0:0:
432,72,20210,5,0,0:0:0:0:
296,232,20492,5,0,0:0:0:0:
424,60,20742,5,0,0:0:0:0:
292,220,21023,5,0,0:0:0:0:
408,56,21304,5,0,0:0:0:0:
292,208,21585,5,0,0:0:0:0:
400,88,21867,5,0,0:0:0:0:
268,208,22085,5,0,0:0:0:0:
340,104,22398,5,0,0:0:0:0:
252,212,22648,5,0,0:0:0:0:
320,96,22898,5,0,0:0:0:0:
176,88,22992,2,0,L|172:144,1,44.9999988079071
268,88,23273,2,0,L|256:144,1,44.9999988079071
332,80,23429,2,0,L|340:136,1,44.9999988079071
412,48,23867,2,0,L|344:48,1,67.4999982118607
232,100,24554,1,0,0:0:0:0:
280,192,24804,1,0,0:0:0:0:
292,168,25210,2,0,L|392:108,1,112.499997019768
192,168,25492,2,0,L|300:236,1,112.499997019768
292,56,25742,2,0,L|396:232,1,202.499994635582
224,240,26148,2,0,L|352:176,1,134.999996423721
276,144,26429,2,0,L|148:192,1,134.999996423721
128,92,26679,2,0,L|332:192,1,224.999994039536
376,64,26992,2,0,L|144:80,1,224.999994039536
148,220,27335,2,0,L|176:144,1,67.4999982118607
272,204,27523,2,0,L|312:184,3,44.9999988079071
388,240,27742,2,0,L|392:120,1,112.499997019768
164,184,28023,2,0,L|304:172,1,134.999996423721
372,236,28273,2,0,L|384:136,1,89.9999976158143
156,156,28492,2,0,L|272:132,1,112.499997019768
292,240,28648,2,0,L|368:80,1,157.499995827675
112,112,28835,2,0,L|244:80,1,134.999996423721
376,204,29117,2,0,L|344:80,1,112.499997019768
136,168,29335,2,0,L|256:80,1,134.999996423721
360,224,29554,2,0,L|344:88,1,134.999996423721
116,172,29898,2,0,L|272:68,1,179.999995231629
340,204,30179,2,0,L|156:152,1,179.999995231629
340,92,30460,2,0,L|452:140,1,112.499997019768
296,240,30648,2,0,L|188:144,1,134.999996423721
332,164,30929,2,0,L|364:168,3,22.4999994039536
352,60,31148,2,0,L|272:52,1,67.4999982118607
200,184,31367,2,0,L|276:120,1,89.9999976158143
340,192,31617,2,0,L|360:72,1,112.499997019768
236,200,31867,2,0,L|260:104,1,89.9999976158143
136,160,32085,2,0,L|304:96,1,179.999995231629
180,212,32367,2,0,P|244:112|292:196,1,247.499993443489
384,172,32835,2,0,P|292:140|284:216,1,202.499994635582
256,192,33242,2,0,P|316:128|344:208,1,202.499994635582
300,188,33617,2,0,L|220:152,1,67.4999982118607
248,192,33960,2,0,L|252:216,5,22.4999994039536
356,180,34242,2,0,L|236:96,1,134.999996423721
112,136,34523,2,0,L|300:152,1,179.999995231629
348,48,34773,2,0,L|356:224,1,157.499995827675
160,144,35054,2,0,L|304:144,1,134.999996423721
176,200,35335,2,0,L|312:104,1,157.499995827675
116,152,35710,6,0,L|304:152,1,179.999995231629
356,192,36054,2,0,L|352:100,1,89.9999976158143
196,152,36210,2,0,L|284:128,1,89.9999976158143
344,196,36367,2,0,L|340:152,2,44.9999988079071
392,84,36617,2,0,P|276:184|408:172,1,382.499989867211
112,96,37210,2,0,L|176:212,1,112.499997019768
256,108,37492,2,0,P|160:236|156:112,1,382.499989867211
136,120,38148,2,0,L|264:116,1,112.499997019768
320,100,38429,2,0,L|364:172,2,67.4999982118607
248,180,38679,2,0,L|296:184,2,44.9999988079071
368,120,38898,2,0,L|388:212,1,89.9999976158143
172,156,39117,2,0,L|316:184,2,134.999996423721
416,188,39648,2,0,L|244:168,1,157.499995827675
152,180,39898,2,0,L|372:208,1,202.499994635582
380,100,40179,2,0,L|208:152,1,179.999995231629
368,60,40429,2,0,L|420:264,1,202.499994635582
220,192,40742,2,0,L|244:180,4,22.4999994039536
344,144,40992,2,0,L|292:96,1,67.4999982118607
248,144,41242,2,0,L|308:136,2,44.9999988079071
388,224,41523,2,0,L|392:100,1,112.499997019768
196,132,41835,2,0,L|348:128,1,134.999996423721
200,216,42085,2,0,L|304:180,2,89.9999976158143
284,28,42335,2,0,L|336:236,1,202.499994635582
148,112,42617,2,0,L|244:148,1,89.9999976158143
376,192,42898,2,0,L|248:240,1,134.999996423721
136,164,43148,2,0,L|236:276,1,134.999996423721
316,136,43429,2,0,L|192:160,1,112.499997019768
120,120,43648,2,0,L|304:156,1,179.999995231629
328,156,43960,2,0,L|332:96,2,44.9999988079071
164,136,44210,2,0,L|276:268,1,157.499995827675
344,100,44523,2,0,L|224:172,1,134.999996423721
184,64,44804,2,0,L|276:172,1,134.999996423721
352,76,45054,2,0,L|364:196,1,112.499997019768
224,168,45335,2,0,L|340:160,1,112.499997019768
300,88,45585,2,0,L|140:80,1,157.499995827675
164,168,45867,2,0,L|296:184,1,112.499997019768
296,256,46148,2,0,L|192:252,1,89.9999976158143
184,180,46398,2,0,L|328:204,1,134.999996423721
268,112,46648,2,0,L|136:88,1,134.999996423721
160,44,46898,2,0,L|384:48,1,224.999994039536
356,240,47210,2,0,L|372:112,1,112.499997019768
164,136,47492,2,0,L|284:124,1,112.499997019768
384,176,47742,2,0,L|384:92,2,67.4999982118607
320,100,48054,2,0,L|288:200,1,89.9999976158143
208,72,48304,2,0,L|232:200,1,112.499997019768
124,92,48554,2,0,L|168:200,1,112.499997019768
52,84,48835,2,0,L|80:220,1,134.999996423721
128,80,49085,2,0,L|176:220,1,134.999996423721
224,80,49367,2,0,L|248:204,1,112.499997019768
420,192,49648,2,0,L|248:216,1,157.499995827675
224,160,49929,2,0,L|360:136,1,134.999996423721
392,296,50210,2,0,L|344:208,1,89.9999976158143
304,232,50460,2,0,L|352:320,1,89.9999976158143
200,204,50742,2,0,L|320:256,1,112.499997019768
376,124,50992,2,0,L|372:264,1,134.999996423721
220,168,51242,2,0,L|232:260,1,89.9999976158143
340,136,51554,2,0,L|336:276,1,134.999996423721
200,200,51804,2,0,L|352:200,1,134.999996423721
400,104,52085,2,0,L|300:104,1,89.9999976158143
320,32,52367,2,0,L|392:44,2,67.4999982118607
404,240,52617,2,0,L|396:168,2,67.4999982118607
344,148,52929,2,0,L|456:120,1,112.499997019768
192,176,53179,2,0,L|180:48,1,112.499997019768
272,88,53429,2,0,L|284:152,2,44.9999988079071
356,72,53585,2,0,L|380:172,1,89.9999976158143
252,88,53804,2,0,L|260:184,1,89.9999976158143
180,68,53960,2,0,L|192:136,1,67.4999982118607
340,40,54210,2,0,L|372:180,1,134.999996423721
272,44,54398,2,0,L|296:184,1,134.999996423721
208,92,54773,2,0,L|348:88,1,134.999996423721
332,200,55023,2,0,L|220:180,1,112.499997019768
204,228,55304,2,0,L|316:236,1,112.499997019768
316,148,55585,2,0,L|184:120,1,134.999996423721
432,96,55867,2,0,L|312:72,1,112.499997019768
384,224,56117,2,0,L|224:184,1,157.499995827675
160,260,56367,2,0,L|244:140,1,134.999996423721
360,220,56679,2,0,L|244:144,1,134.999996423721
144,204,56929,2,0,L|232:168,1,89.9999976158143
316,216,57179,2,0,L|252:176,2,67.4999982118607
152,212,57460,2,0,L|264:144,1,112.499997019768
456,196,57710,2,0,P|320:140|296:356,1,427.499988675118
120,220,58554,2,0,L|332:104,1,224.999994039536
104,276,58835,2,0,L|416:216,1,314.99999165535
420,200,59367,6,0,L|396:284,2,67.4999982118607
216,200,59648,2,0,L|364:184,1,134.999996423721
152,252,59898,2,0,L|396:272,1,224.999994039536
312,148,60460,2,0,L|368:160,1,44.9999988079071
136,168,60710,2,0,L|324:184,1,179.999995231629
296,72,60992,2,0,L|304:136,3,44.9999988079071
168,104,61273,2,0,L|260:108,1,89.9999976158143
276,36,61523,2,0,L|296:200,1,157.499995827675
76,132,61804,2,0,L|384:156,1,292.499992251396
276,256,62367,2,0,L|288:224,3,22.4999994039536
256,192,62648,12,0,64367,0:0:0:0:
144,148,64745,6,0,L|356:240,1,224.999994039536
392,144,65182,2,0,L|200:84,1,179.999995231629
164,168,65557,2,0,L|376:248,1,224.999994039536
420,152,65995,2,0,L|256:88,1,157.499995827675
248,176,66214,2,0,L|360:216,1,112.499997019768
348,296,66495,2,0,L|180:228,1,179.999995231629
252,192,66870,2,0,L|208:172,2,44.9999988079071
324,144,67089,2,0,L|264:128,2,44.9999988079071
352,60,67370,2,0,L|280:48,1,67.4999982118607
336,200,67495,2,0,L|300:200,1,22.4999994039536
368,116,67620,2,0,L|336:116,5,22.4999994039536
380,48,67807,2,0,L|336:40,1,44.9999988079071
276,180,67901,2,0,L|332:188,1,44.9999988079071
124,232,68120,2,0,L|424:208,1,292.499992251396
444,112,68557,2,0,L|144:88,1,292.499992251396
132,132,69089,2,0,L|152:288,1,157.499995827675
288,120,69370,2,0,L|296:280,1,157.499995827675
376,132,69651,2,0,L|392:264,1,112.499997019768
184,264,69901,2,0,P|264:120|376:280,1,427.499988675118
392,292,70682,2,0,L|268:128,1,202.499994635582
232,248,70995,2,0,L|388:260,1,134.999996423721
376,168,71245,2,0,L|364:232,2,44.9999988079071
224,160,71464,2,0,L|220:280,1,112.499997019768
292,152,71776,2,0,L|328:324,1,157.499995827675
400,176,72057,2,0,L|412:288,1,112.499997019768
304,228,72339,2,0,L|384:224,1,67.4999982118607
352,140,72526,2,0,L|292:136,2,44.9999988079071
268,72,72714,2,0,L|396:76,1,112.499997019768
376,240,72901,2,0,L|252:208,1,112.499997019768
280,104,73120,2,0,L|456:80,1,157.499995827675
320,268,73432,2,0,L|172:204,1,157.499995827675
196,160,73682,2,0,L|368:156,1,157.499995827675
248,260,73964,2,0,L|112:144,1,157.499995827675
184,124,74245,2,0,L|324:208,1,157.499995827675
412,168,74495,2,0,P|284:100|260:232,1,314.99999165535
184,216,75057,2,0,P|228:128|300:252,1,292.499992251396
312,56,75557,2,0,P|208:72|204:216,1,269.999992847443
248,240,76057,2,0,B|400:168|408:156|408:156|420:84|420:84|280:96|280:96|384:40,1,494.999986886978
368,48,76964,2,0,B|176:104|176:104|368:100|332:100|424:236,1,494.999986886978
404,216,77807,2,0,B|288:232|216:208|196:176,1,202.499994635582
207,189,78182,2,0,P|324:104|336:240,1,337.499991059303
128,232,78745,2,0,B|328:224|328:224|128:104|128:104|384:60|384:60,1,674.999982118607
376,96,79776,2,0,L|400:260,1,157.499995827675
204,228,80057,2,0,L|312:232,1,89.9999976158143
316,160,80245,2,0,L|336:88,1,67.4999982118607
408,80,80401,2,0,L|424:168,1,89.9999976158143
400,264,80651,2,0,L|184:220,1,202.499994635582
184,148,80995,2,0,L|392:144,1,202.499994635582
424,56,81245,2,0,L|248:36,1,157.499995827675
