osu file format v14

[General]
AudioFilename: audio.mp3
AudioLeadIn: 0
PreviewTime: -1
Countdown: 1
SampleSet: Normal
StackLeniency: 0.2
Mode: 0
LetterboxInBreaks: 0
WidescreenStoryboard: 1

[Editor]
DistanceSpacing: 6
BeatDivisor: 16
GridSize: 4
TimelineZoom: 1

[Metadata]
Title:Freedom Dive
TitleUnicode:Freedom Dive
Artist:xi
ArtistUnicode:xi
Creator:NO PLEASEGOD NO
Version:Dive
Source:
Tags:
BeatmapID:1614331
BeatmapSetID:765304

[Difficulty]
HPDrainRate:10
CircleSize:2
OverallDifficulty:10
ApproachRate:10
SliderMultiplier:3.59999990463257
SliderTickRate:1

[Events]
//Background and Video events
0,0,"5souckgo83iz[1].png",0,0
//Break Periods
2,19316,24275
//Storyboard Layer 0 (Background)
//Storyboard Layer 1 (Fail)
//Storyboard Layer 2 (Pass)
//Storyboard Layer 3 (Foreground)
//Storyboard Sound Samples

[TimingPoints]
28742,500,4,1,0,100,1,0
64714,500,4,1,0,100,1,1
99999,500,4,1,0,100,1,0
218086,333.333333333333,4,1,0,100,1,1

[Colours]
Combo1 : 128,255,0
Combo2 : 128,255,255
Combo3 : 209,164,255
Combo4 : 0,255,64
Combo5 : 0,0,255
Combo6 : 255,255,0
Combo7 : 255,0,0

[HitObjects]
256,192,1210,12,2,2085,0:0:0:0:
174,157,2148,5,0,0:0:0:0:
207,183,2335,5,0,0:0:0:0:
185,123,2648,5,0,0:0:0:0:
235,151,2960,5,0,0:0:0:0:
223,123,3210,5,0,0:0:0:0:
205,187,3460,5,0,0:0:0:0:
150,179,3710,5,0,0:0:0:0:
146,151,3898,5,0,0:0:0:0:
146,121,4023,5,0,0:0:0:0:
152,110,4210,5,0,0:0:0:0:
185,131,4460,5,0,0:0:0:0:
152,110,4648,5,0,0:0:0:0:
205,135,4835,5,0,0:0:0:0:
185,114,4960,5,0,0:0:0:0:
182,159,5148,5,0,0:0:0:0:
160,131,5273,5,0,0:0:0:0:
182,135,5460,5,0,0:0:0:0:
203,163,5648,5,0,0:0:0:0:
158,159,5898,5,0,0:0:0:0:
158,159,5960,5,0,0:0:0:0:
158,159,6023,5,0,0:0:0:0:
207,194,6085,5,0,0:0:0:0:
223,155,6172,1,0,0:0:0:0:
256,192,6328,12,0,6953,0:0:0:0:
203,118,7210,5,0,0:0:0:0:
219,192,7522,5,0,0:0:0:0:
223,123,7772,5,0,0:0:0:0:
243,192,8022,5,0,0:0:0:0:
247,127,8272,5,0,0:0:0:0:
260,183,8460,5,0,0:0:0:0:
256,125,8585,5,0,0:0:0:0:
256,175,8772,5,0,0:0:0:0:
276,123,9022,5,0,0:0:0:0:
292,194,9210,5,0,0:0:0:0:
296,127,9397,5,0,0:0:0:0:
306,192,9522,5,0,0:0:0:0:
262,187,9710,5,0,0:0:0:0:
251,123,9835,5,0,0:0:0:0:
247,198,10022,5,0,0:0:0:0:
231,125,10210,5,0,0:0:0:0:
235,192,10398,5,0,0:0:0:0:
231,189,10460,5,0,0:0:0:0:
213,194,10522,5,0,0:0:0:0:
207,192,10585,5,0,0:0:0:0:
207,194,10647,5,0,0:0:0:0:
217,129,10710,5,0,0:0:0:0:
280,159,10960,5,0,0:0:0:0:
185,206,11210,5,0,0:0:0:0:
266,238,11460,5,0,0:0:0:0:
172,139,11710,5,0,0:0:0:0:
225,123,11960,5,0,0:0:0:0:
215,234,12210,5,0,0:0:0:0:
166,139,12453,5,0,0:0:0:0:
201,159,12773,5,0,0:0:0:0:
203,161,13023,5,0,0:0:0:0:
203,161,13273,5,0,0:0:0:0:
201,159,13523,5,0,0:0:0:0:
201,159,13773,5,0,0:0:0:0:
182,149,14210,5,0,0:0:0:0:
187,149,14460,5,0,0:0:0:0:
187,149,14710,5,0,0:0:0:0:
187,149,14835,5,0,0:0:0:0:
187,171,14960,5,0,0:0:0:0:
182,208,15648,6,0,L|260:187,2,67.4999982118607
195,234,16273,5,0,0:0:0:0:
219,248,16335,5,0,0:0:0:0:
231,236,16523,5,0,0:0:0:0:
213,192,16710,5,0,0:0:0:0:
199,224,16835,5,0,0:0:0:0:
217,236,16960,5,0,0:0:0:0:
272,123,17085,6,0,L|306:208,1,89.9999976158143
296,210,17648,6,0,L|231:214,1,44.9999988079071
247,240,18273,6,0,L|172:240,1,67.4999982118607
185,244,18773,6,0,L|251:216,1,67.4999982118607
211,175,19023,6,0,L|247:179,3,22.4999994039536
242,251,25835,6,0,L|245:181,1,67.4999982118607
284,179,26023,6,0,L|288:254,1,67.4999982118607
322,248,26335,6,0,L|316:167,1,67.4999982118607
286,179,26585,6,0,L|290:262,1,67.4999982118607
256,246,26898,6,0,L|256:175,1,67.4999982118607
215,179,27210,6,0,L|215:252,1,67.4999982118607
170,250,27460,6,0,L|172:175,1,67.4999982118607
207,179,27710,6,0,L|211:256,1,67.4999982118607
219,232,28085,5,0,0:0:0:0:
238,244,28147,5,0,0:0:0:0:
260,250,28210,5,0,0:0:0:0:
282,248,28272,5,0,0:0:0:0:
303,239,28335,5,0,0:0:0:0:
319,223,28397,5,0,0:0:0:0:
330,203,28460,5,0,0:0:0:0:
333,181,28522,5,0,0:0:0:0:
329,159,28585,5,0,0:0:0:0:
317,139,28647,5,0,0:0:0:0:
300,124,28710,5,0,0:0:0:0:
279,116,28772,5,0,0:0:0:0:
256,115,28835,5,0,0:0:0:0:
234,123,28897,5,0,0:0:0:0:
216,136,28960,5,0,0:0:0:0:
204,155,29022,5,0,0:0:0:0:
198,177,29085,5,0,0:0:0:0:
200,200,29147,5,0,0:0:0:0:
209,139,29204,5,0,0:0:0:0:
228,126,29266,5,0,0:0:0:0:
249,120,29329,5,0,0:0:0:0:
272,122,29391,5,0,0:0:0:0:
293,131,29454,5,0,0:0:0:0:
309,147,29516,5,0,0:0:0:0:
320,167,29579,5,0,0:0:0:0:
323,189,29641,5,0,0:0:0:0:
318,212,29704,5,0,0:0:0:0:
307,232,29766,5,0,0:0:0:0:
289,246,29829,5,0,0:0:0:0:
269,254,29891,5,0,0:0:0:0:
246,255,29954,5,0,0:0:0:0:
224,248,30016,5,0,0:0:0:0:
206,234,30079,5,0,0:0:0:0:
194,215,30141,5,0,0:0:0:0:
188,194,30204,5,0,0:0:0:0:
190,171,30266,5,0,0:0:0:0:
195,171,30328,5,0,0:0:0:0:
207,152,30390,5,0,0:0:0:0:
226,140,30453,5,0,0:0:0:0:
248,138,30515,5,0,0:0:0:0:
270,147,30578,5,0,0:0:0:0:
284,164,30640,5,0,0:0:0:0:
290,185,30703,5,0,0:0:0:0:
286,208,30765,5,0,0:0:0:0:
273,225,30828,5,0,0:0:0:0:
252,236,30890,5,0,0:0:0:0:
252,236,30953,5,0,0:0:0:0:
246,257,31015,5,0,0:0:0:0:
232,275,31078,5,0,0:0:0:0:
212,285,31140,5,0,0:0:0:0:
190,287,31203,5,0,0:0:0:0:
168,279,31265,5,0,0:0:0:0:
153,262,31328,5,0,0:0:0:0:
144,241,31390,5,0,0:0:0:0:
145,219,31453,5,0,0:0:0:0:
156,199,31515,5,0,0:0:0:0:
173,184,31578,5,0,0:0:0:0:
173,184,31640,5,0,0:0:0:0:
173,184,31703,5,0,0:0:0:0:
161,165,31765,5,0,0:0:0:0:
158,143,31828,5,0,0:0:0:0:
164,121,31890,5,0,0:0:0:0:
179,104,31953,5,0,0:0:0:0:
199,95,32015,5,0,0:0:0:0:
223,97,32078,5,0,0:0:0:0:
242,107,32140,5,0,0:0:0:0:
256,125,32203,5,0,0:0:0:0:
260,147,32265,5,0,0:0:0:0:
255,169,32328,5,0,0:0:0:0:
286,167,32766,5,0,0:0:0:0:
265,159,32828,5,0,0:0:0:0:
242,159,32891,5,0,0:0:0:0:
221,167,32953,5,0,0:0:0:0:
205,183,33016,5,0,0:0:0:0:
196,204,33078,5,0,0:0:0:0:
196,226,33141,5,0,0:0:0:0:
205,248,33203,5,0,0:0:0:0:
221,263,33266,5,0,0:0:0:0:
225,262,33328,5,0,0:0:0:0:
245,273,33390,5,0,0:0:0:0:
267,276,33453,5,0,0:0:0:0:
289,270,33515,5,0,0:0:0:0:
307,256,33578,5,0,0:0:0:0:
318,236,33640,5,0,0:0:0:0:
321,214,33703,5,0,0:0:0:0:
315,192,33765,5,0,0:0:0:0:
302,174,33828,5,0,0:0:0:0:
282,162,33890,5,0,0:0:0:0:
280,147,33953,5,0,0:0:0:0:
260,136,34015,5,0,0:0:0:0:
237,134,34078,5,0,0:0:0:0:
215,141,34140,5,0,0:0:0:0:
198,156,34203,5,0,0:0:0:0:
187,175,34265,5,0,0:0:0:0:
184,198,34328,5,0,0:0:0:0:
190,220,34390,5,0,0:0:0:0:
204,238,34453,5,0,0:0:0:0:
224,249,34515,5,0,0:0:0:0:
224,249,34516,5,0,0:0:0:0:
244,256,34578,5,0,0:0:0:0:
267,256,34641,5,0,0:0:0:0:
288,247,34703,5,0,0:0:0:0:
304,230,34766,5,0,0:0:0:0:
312,209,34828,5,0,0:0:0:0:
311,186,34891,5,0,0:0:0:0:
302,166,34953,5,0,0:0:0:0:
286,150,35016,5,0,0:0:0:0:
265,141,35078,5,0,0:0:0:0:
272,141,35141,5,0,0:0:0:0:
249,135,35203,5,0,0:0:0:0:
227,137,35266,5,0,0:0:0:0:
206,146,35328,5,0,0:0:0:0:
190,163,35391,5,0,0:0:0:0:
179,182,35453,5,0,0:0:0:0:
176,205,35516,5,0,0:0:0:0:
181,227,35578,5,0,0:0:0:0:
193,247,35641,5,0,0:0:0:0:
210,261,35703,5,0,0:0:0:0:
232,269,35766,5,0,0:0:0:0:
254,270,35828,5,0,0:0:0:0:
276,262,35891,5,0,0:0:0:0:
294,249,35953,5,0,0:0:0:0:
306,230,36016,5,0,0:0:0:0:
312,208,36078,5,0,0:0:0:0:
256,192,36203,12,0,36578,0:0:0:0:
245,187,36641,6,0,L|329:216,1,67.4999982118607
304,210,36953,6,0,L|280:252,1,44.9999988079071
281,249,37141,6,0,P|199:242|195:269,1,112.499997019768
227,226,37703,6,0,L|207:212,3,22.4999994039536
231,224,38141,6,0,L|349:204,1,112.499997019768
308,260,38516,6,0,L|268:192,1,67.4999982118607
227,262,38828,6,0,L|320:238,1,89.9999976158143
316,242,39266,6,0,L|225:242,1,89.9999976158143
231,187,39828,6,0,L|260:185,4,22.4999994039536
235,187,40203,6,0,B|359:271|341:267|308:285,2,157.499995827675
256,192,41141,12,0,41766,0:0:0:0:
256,192,41953,12,0,42453,0:0:0:0:
256,192,42773,12,0,43211,0:0:0:0:
160,208,43578,6,0,L|213:212,2,44.9999988079071
195,149,44203,6,0,L|215:236,1,89.9999976158143
237,149,44453,6,0,L|260:224,1,67.4999982118607
288,147,44703,6,0,L|300:238,1,89.9999976158143
249,149,45016,6,0,L|272:248,1,89.9999976158143
193,118,45391,6,0,L|207:204,1,67.4999982118607
264,151,45703,6,0,L|268:200,1,44.9999988079071
203,155,46016,6,0,L|217:230,1,67.4999982118607
247,163,46266,6,0,L|272:248,1,67.4999982118607
191,163,46578,6,0,L|203:252,1,89.9999976158143
239,151,46828,6,0,L|260:240,1,89.9999976158143
201,157,47078,6,0,L|207:252,1,89.9999976158143
211,244,47453,5,0,0:0:0:0:
229,257,47515,5,0,0:0:0:0:
251,261,47578,5,0,0:0:0:0:
274,255,47640,5,0,0:0:0:0:
291,242,47703,5,0,0:0:0:0:
302,222,47765,5,0,0:0:0:0:
304,199,47828,5,0,0:0:0:0:
297,178,47890,5,0,0:0:0:0:
281,162,47953,5,0,0:0:0:0:
260,153,48015,5,0,0:0:0:0:
237,153,48078,5,0,0:0:0:0:
217,163,48140,5,0,0:0:0:0:
202,180,48203,5,0,0:0:0:0:
202,180,48266,5,0,0:0:0:0:
194,201,48328,5,0,0:0:0:0:
195,224,48391,5,0,0:0:0:0:
205,244,48453,5,0,0:0:0:0:
223,259,48516,5,0,0:0:0:0:
244,266,48578,5,0,0:0:0:0:
267,263,48641,5,0,0:0:0:0:
286,252,48703,5,0,0:0:0:0:
300,234,48766,5,0,0:0:0:0:
306,212,48828,5,0,0:0:0:0:
302,189,48891,5,0,0:0:0:0:
289,171,48953,5,0,0:0:0:0:
271,158,49016,5,0,0:0:0:0:
248,154,49078,5,0,0:0:0:0:
250,153,49141,5,0,0:0:0:0:
252,176,49203,5,0,0:0:0:0:
256,199,49266,5,0,0:0:0:0:
262,220,49328,5,0,0:0:0:0:
271,241,49391,5,0,0:0:0:0:
283,231,49453,5,0,0:0:0:0:
284,208,49516,5,0,0:0:0:0:
284,185,49578,5,0,0:0:0:0:
284,163,49641,5,0,0:0:0:0:
285,149,49703,5,0,0:0:0:0:
293,171,49766,5,0,0:0:0:0:
301,193,49828,5,0,0:0:0:0:
308,214,49891,5,0,0:0:0:0:
316,235,49953,5,0,0:0:0:0:
323,257,50016,5,0,0:0:0:0:
327,262,50078,5,0,0:0:0:0:
326,239,50141,5,0,0:0:0:0:
324,216,50203,5,0,0:0:0:0:
324,194,50266,5,0,0:0:0:0:
335,204,50328,5,0,0:0:0:0:
345,219,50391,5,0,0:0:0:0:
345,202,50453,5,0,0:0:0:0:
350,224,50516,5,0,0:0:0:0:
351,224,50766,5,0,0:0:0:0:
328,225,50828,5,0,0:0:0:0:
305,227,50891,5,0,0:0:0:0:
282,229,50953,5,0,0:0:0:0:
260,231,51016,5,0,0:0:0:0:
237,232,51078,5,0,0:0:0:0:
214,234,51141,5,0,0:0:0:0:
191,236,51203,5,0,0:0:0:0:
204,232,51266,5,0,0:0:0:0:
226,227,51328,5,0,0:0:0:0:
248,222,51391,5,0,0:0:0:0:
270,217,51453,5,0,0:0:0:0:
293,211,51516,5,0,0:0:0:0:
314,205,51578,5,0,0:0:0:0:
306,197,51641,5,0,0:0:0:0:
283,195,51703,5,0,0:0:0:0:
283,195,51828,5,0,0:0:0:0:
261,194,51890,5,0,0:0:0:0:
280,187,51953,5,0,0:0:0:0:
281,182,52015,5,0,0:0:0:0:
259,179,52078,5,0,0:0:0:0:
278,175,52140,5,0,0:0:0:0:
291,170,52203,5,0,0:0:0:0:
269,166,52265,5,0,0:0:0:0:
260,162,52328,5,0,0:0:0:0:
283,158,52390,5,0,0:0:0:0:
284,159,52578,5,0,0:0:0:0:
261,163,52640,5,0,0:0:0:0:
256,166,52703,5,0,0:0:0:0:
278,170,52765,5,0,0:0:0:0:
295,174,52828,5,0,0:0:0:0:
273,178,52890,5,0,0:0:0:0:
257,182,52953,5,0,0:0:0:0:
278,188,53015,5,0,0:0:0:0:
295,194,53078,5,0,0:0:0:0:
273,195,53140,5,0,0:0:0:0:
253,197,53203,5,0,0:0:0:0:
251,200,53484,5,0,0:0:0:0:
236,203,53546,5,0,0:0:0:0:
236,216,53609,5,0,0:0:0:0:
247,229,53671,5,0,0:0:0:0:
259,239,53734,5,0,0:0:0:0:
273,242,53796,5,0,0:0:0:0:
280,228,53859,5,0,0:0:0:0:
293,238,53921,5,0,0:0:0:0:
302,242,53984,5,0,0:0:0:0:
303,226,54046,5,0,0:0:0:0:
299,215,54109,5,0,0:0:0:0:
283,213,54171,5,0,0:0:0:0:
284,211,54234,5,0,0:0:0:0:
300,211,54296,5,0,0:0:0:0:
316,210,54359,5,0,0:0:0:0:
329,213,54421,5,0,0:0:0:0:
333,229,54484,5,0,0:0:0:0:
336,244,54546,5,0,0:0:0:0:
340,260,54609,5,0,0:0:0:0:
346,254,54671,5,0,0:0:0:0:
353,240,54734,5,0,0:0:0:0:
360,226,54796,5,0,0:0:0:0:
363,218,54828,5,0,0:0:0:0:
340,216,54890,5,0,0:0:0:0:
317,215,54953,5,0,0:0:0:0:
295,213,55015,5,0,0:0:0:0:
272,212,55078,5,0,0:0:0:0:
249,210,55140,5,0,0:0:0:0:
244,208,55203,5,0,0:0:0:0:
266,205,55265,5,0,0:0:0:0:
289,202,55328,5,0,0:0:0:0:
312,199,55390,5,0,0:0:0:0:
334,196,55453,5,0,0:0:0:0:
324,194,55515,5,0,0:0:0:0:
301,192,55578,5,0,0:0:0:0:
301,192,55766,5,0,0:0:0:0:
278,194,55828,5,0,0:0:0:0:
277,188,55891,5,0,0:0:0:0:
293,175,55953,5,0,0:0:0:0:
270,172,56016,5,0,0:0:0:0:
277,167,56078,5,0,0:0:0:0:
267,165,56141,5,0,0:0:0:0:
254,163,56203,5,0,0:0:0:0:
277,164,56266,5,0,0:0:0:0:
271,161,56328,5,0,0:0:0:0:
275,161,56391,5,0,0:0:0:0:
253,158,56453,5,0,0:0:0:0:
239,155,56516,5,0,0:0:0:0:
262,155,56578,5,0,0:0:0:0:
246,152,56641,5,0,0:0:0:0:
246,148,56703,5,0,0:0:0:0:
243,151,57078,5,0,0:0:0:0:
238,173,57140,5,0,0:0:0:0:
233,195,57203,5,0,0:0:0:0:
249,205,57265,5,0,0:0:0:0:
272,202,57328,5,0,0:0:0:0:
294,198,57390,5,0,0:0:0:0:
313,193,57453,5,0,0:0:0:0:
304,172,57515,5,0,0:0:0:0:
295,151,57578,5,0,0:0:0:0:
290,157,57640,5,0,0:0:0:0:
288,179,57703,5,0,0:0:0:0:
286,202,57765,5,0,0:0:0:0:
284,224,57828,5,0,0:0:0:0:
282,247,57890,5,0,0:0:0:0:
280,270,57953,5,0,0:0:0:0:
275,260,58015,5,0,0:0:0:0:
269,239,58078,5,0,0:0:0:0:
263,217,58140,5,0,0:0:0:0:
256,195,58203,5,0,0:0:0:0:
252,216,58265,5,0,0:0:0:0:
247,239,58328,5,0,0:0:0:0:
249,240,58391,5,0,0:0:0:0:
225,240,58474,5,0,0:0:0:0:
201,240,58557,5,0,0:0:0:0:
189,226,58641,5,0,0:0:0:0:
187,202,58724,5,0,0:0:0:0:
181,225,58807,5,0,0:0:0:0:
175,249,58891,5,0,0:0:0:0:
180,263,58974,5,0,0:0:0:0:
204,259,59057,5,0,0:0:0:0:
213,260,59203,5,0,0:0:0:0:
235,265,59265,5,0,0:0:0:0:
258,268,59328,5,0,0:0:0:0:
263,246,59390,5,0,0:0:0:0:
270,264,59453,5,0,0:0:0:0:
280,257,59515,5,0,0:0:0:0:
282,258,59641,5,0,0:0:0:0:
302,259,59703,5,0,0:0:0:0:
316,256,59766,5,0,0:0:0:0:
306,238,59828,5,0,0:0:0:0:
319,237,59891,5,0,0:0:0:0:
324,238,59953,5,0,0:0:0:0:
318,234,60015,5,0,0:0:0:0:
313,231,60078,5,0,0:0:0:0:
307,226,60140,5,0,0:0:0:0:
302,223,60203,5,0,0:0:0:0:
296,219,60265,5,0,0:0:0:0:
290,215,60328,5,0,0:0:0:0:
284,211,60390,5,0,0:0:0:0:
279,208,60453,5,0,0:0:0:0:
273,204,60515,5,0,0:0:0:0:
267,200,60578,5,0,0:0:0:0:
326,179,60703,5,0,0:0:0:0:
322,202,60765,5,0,0:0:0:0:
312,212,60828,5,0,0:0:0:0:
291,204,60890,5,0,0:0:0:0:
296,224,60953,5,0,0:0:0:0:
304,245,61015,5,0,0:0:0:0:
320,251,61078,5,0,0:0:0:0:
341,242,61140,5,0,0:0:0:0:
341,242,61141,5,0,0:0:0:0:
321,235,61203,5,0,0:0:0:0:
302,229,61266,5,0,0:0:0:0:
282,222,61328,5,0,0:0:0:0:
283,226,61391,5,0,0:0:0:0:
300,237,61453,5,0,0:0:0:0:
317,248,61516,5,0,0:0:0:0:
334,260,61578,5,0,0:0:0:0:
329,259,61641,5,0,0:0:0:0:
310,252,61703,5,0,0:0:0:0:
290,244,61766,5,0,0:0:0:0:
271,237,61828,5,0,0:0:0:0:
266,236,61891,5,0,0:0:0:0:
284,246,61953,5,0,0:0:0:0:
302,256,62016,5,0,0:0:0:0:
319,266,62078,5,0,0:0:0:0:
330,272,62141,5,0,0:0:0:0:
316,269,62203,5,0,0:0:0:0:
302,267,62266,5,0,0:0:0:0:
289,264,62328,5,0,0:0:0:0:
275,261,62391,5,0,0:0:0:0:
262,259,62453,5,0,0:0:0:0:
248,256,62516,5,0,0:0:0:0:
235,254,62578,5,0,0:0:0:0:
222,251,62641,5,0,0:0:0:0:
208,249,62703,5,0,0:0:0:0:
195,246,62766,5,0,0:0:0:0:
183,244,62828,5,0,0:0:0:0:
196,240,62891,5,0,0:0:0:0:
209,236,62953,5,0,0:0:0:0:
223,232,63016,5,0,0:0:0:0:
236,227,63078,5,0,0:0:0:0:
249,224,63141,5,0,0:0:0:0:
262,220,63203,5,0,0:0:0:0:
275,216,63266,5,0,0:0:0:0:
288,212,63328,5,0,0:0:0:0:
301,208,63391,5,0,0:0:0:0:
289,205,63453,5,0,0:0:0:0:
276,202,63516,5,0,0:0:0:0:
263,199,63578,5,0,0:0:0:0:
241,184,63641,5,0,0:0:0:0:
251,186,63703,5,0,0:0:0:0:
263,189,63766,5,0,0:0:0:0:
274,192,63828,5,0,0:0:0:0:
285,194,63891,5,0,0:0:0:0:
296,197,63953,5,0,0:0:0:0:
307,199,64016,5,0,0:0:0:0:
303,195,64078,5,0,0:0:0:0:
298,184,64141,5,0,0:0:0:0:
304,178,64203,5,0,0:0:0:0:
315,179,64266,5,0,0:0:0:0:
326,181,64328,5,0,0:0:0:0:
338,183,64391,5,0,0:0:0:0:
349,184,64453,5,0,0:0:0:0:
353,193,64516,5,0,0:0:0:0:
224,246,64765,5,0,0:0:0:0:
207,231,64891,5,0,0:0:0:0:
213,206,64953,5,0,0:0:0:0:
220,182,65016,5,0,0:0:0:0:
226,158,65078,5,0,0:0:0:0:
233,172,65141,5,0,0:0:0:0:
239,196,65203,5,0,0:0:0:0:
246,220,65266,5,0,0:0:0:0:
253,244,65328,5,0,0:0:0:0:
261,260,65391,5,0,0:0:0:0:
269,236,65453,5,0,0:0:0:0:
277,212,65516,5,0,0:0:0:0:
284,188,65578,5,0,0:0:0:0:
293,165,65641,5,0,0:0:0:0:
298,142,65703,5,0,0:0:0:0:
273,139,65766,5,0,0:0:0:0:
248,135,65828,5,0,0:0:0:0:
224,131,65891,5,0,0:0:0:0:
284,139,66016,5,0,0:0:0:0:
265,126,66078,5,0,0:0:0:0:
243,118,66141,5,0,0:0:0:0:
221,118,66203,5,0,0:0:0:0:
199,124,66266,5,0,0:0:0:0:
180,137,66328,5,0,0:0:0:0:
166,154,66391,5,0,0:0:0:0:
157,175,66453,5,0,0:0:0:0:
155,198,66516,5,0,0:0:0:0:
160,220,66578,5,0,0:0:0:0:
171,240,66641,5,0,0:0:0:0:
187,256,66703,5,0,0:0:0:0:
207,266,66766,5,0,0:0:0:0:
230,270,66828,5,0,0:0:0:0:
252,267,66891,5,0,0:0:0:0:
273,257,66953,5,0,0:0:0:0:
290,241,67016,5,0,0:0:0:0:
302,222,67078,5,0,0:0:0:0:
307,200,67141,5,0,0:0:0:0:
305,177,67203,5,0,0:0:0:0:
297,156,67266,5,0,0:0:0:0:
284,139,67328,5,0,0:0:0:0:
265,126,67390,5,0,0:0:0:0:
243,118,67453,5,0,0:0:0:0:
221,118,67515,5,0,0:0:0:0:
199,124,67578,5,0,0:0:0:0:
180,137,67640,5,0,0:0:0:0:
166,154,67703,5,0,0:0:0:0:
157,175,67765,5,0,0:0:0:0:
155,198,67828,5,0,0:0:0:0:
160,220,67890,5,0,0:0:0:0:
171,240,67953,5,0,0:0:0:0:
187,256,68015,5,0,0:0:0:0:
207,266,68078,5,0,0:0:0:0:
230,270,68140,5,0,0:0:0:0:
252,267,68203,5,0,0:0:0:0:
273,257,68265,5,0,0:0:0:0:
290,241,68328,5,0,0:0:0:0:
302,222,68390,5,0,0:0:0:0:
307,200,68453,5,0,0:0:0:0:
305,177,68515,5,0,0:0:0:0:
297,156,68578,5,0,0:0:0:0:
284,139,68641,5,0,0:0:0:0:
265,126,68703,5,0,0:0:0:0:
243,118,68766,5,0,0:0:0:0:
221,118,68828,5,0,0:0:0:0:
199,124,68891,5,0,0:0:0:0:
180,137,68953,5,0,0:0:0:0:
166,154,69016,5,0,0:0:0:0:
157,175,69078,5,0,0:0:0:0:
155,198,69141,5,0,0:0:0:0:
160,220,69203,5,0,0:0:0:0:
171,240,69266,5,0,0:0:0:0:
187,256,69328,5,0,0:0:0:0:
207,266,69391,5,0,0:0:0:0:
230,270,69453,5,0,0:0:0:0:
252,267,69516,5,0,0:0:0:0:
273,257,69578,5,0,0:0:0:0:
290,241,69641,5,0,0:0:0:0:
302,222,69703,5,0,0:0:0:0:
307,200,69766,5,0,0:0:0:0:
305,177,69828,5,0,0:0:0:0:
297,156,69891,5,0,0:0:0:0:
284,139,69953,5,0,0:0:0:0:
265,126,70015,5,0,0:0:0:0:
243,118,70078,5,0,0:0:0:0:
221,118,70140,5,0,0:0:0:0:
199,124,70203,5,0,0:0:0:0:
180,137,70265,5,0,0:0:0:0:
166,154,70328,5,0,0:0:0:0:
157,175,70390,5,0,0:0:0:0:
155,198,70453,5,0,0:0:0:0:
160,220,70515,5,0,0:0:0:0:
171,240,70578,5,0,0:0:0:0:
187,256,70640,5,0,0:0:0:0:
207,266,70703,5,0,0:0:0:0:
230,270,70765,5,0,0:0:0:0:
252,267,70828,5,0,0:0:0:0:
273,257,70890,5,0,0:0:0:0:
290,241,70953,5,0,0:0:0:0:
302,222,71015,5,0,0:0:0:0:
307,200,71078,5,0,0:0:0:0:
305,177,71140,5,0,0:0:0:0:
297,156,71203,5,0,0:0:0:0:
284,149,71266,5,0,0:0:0:0:
273,169,71328,5,0,0:0:0:0:
262,189,71391,5,0,0:0:0:0:
251,209,71453,5,0,0:0:0:0:
241,228,71516,5,0,0:0:0:0:
230,249,71578,5,0,0:0:0:0:
238,235,71641,5,0,0:0:0:0:
248,214,71703,5,0,0:0:0:0:
259,194,71766,5,0,0:0:0:0:
270,174,71828,5,0,0:0:0:0:
280,153,71891,5,0,0:0:0:0:
276,160,71953,5,0,0:0:0:0:
265,180,72016,5,0,0:0:0:0:
254,200,72078,5,0,0:0:0:0:
243,220,72141,5,0,0:0:0:0:
232,240,72203,5,0,0:0:0:0:
225,253,72266,5,0,0:0:0:0:
236,233,72328,5,0,0:0:0:0:
247,213,72391,5,0,0:0:0:0:
259,194,72453,5,0,0:0:0:0:
270,174,72516,5,0,0:0:0:0:
281,154,72578,5,0,0:0:0:0:
281,154,72703,5,0,0:0:0:0:
301,165,72765,5,0,0:0:0:0:
315,182,72828,5,0,0:0:0:0:
323,204,72890,5,0,0:0:0:0:
322,226,72953,5,0,0:0:0:0:
314,248,73015,5,0,0:0:0:0:
299,265,73078,5,0,0:0:0:0:
278,275,73140,5,0,0:0:0:0:
256,277,73203,5,0,0:0:0:0:
234,272,73265,5,0,0:0:0:0:
215,259,73328,5,0,0:0:0:0:
202,240,73390,5,0,0:0:0:0:
203,244,73453,5,0,0:0:0:0:
188,227,73515,5,0,0:0:0:0:
183,205,73578,5,0,0:0:0:0:
191,183,73640,5,0,0:0:0:0:
207,169,73703,5,0,0:0:0:0:
230,164,73765,5,0,0:0:0:0:
251,171,73828,5,0,0:0:0:0:
266,188,73890,5,0,0:0:0:0:
271,210,73953,5,0,0:0:0:0:
274,214,74078,5,0,0:0:0:0:
294,203,74140,5,0,0:0:0:0:
305,183,74203,5,0,0:0:0:0:
304,161,74265,5,0,0:0:0:0:
292,142,74328,5,0,0:0:0:0:
272,132,74390,5,0,0:0:0:0:
249,134,74453,5,0,0:0:0:0:
231,147,74515,5,0,0:0:0:0:
223,168,74578,5,0,0:0:0:0:
223,168,74703,5,0,0:0:0:0:
212,188,74765,5,0,0:0:0:0:
215,211,74828,5,0,0:0:0:0:
230,227,74890,5,0,0:0:0:0:
252,233,74953,5,0,0:0:0:0:
273,225,75015,5,0,0:0:0:0:
273,225,75078,5,0,0:0:0:0:
252,215,75140,5,0,0:0:0:0:
232,204,75203,5,0,0:0:0:0:
212,194,75265,5,0,0:0:0:0:
192,182,75328,5,0,0:0:0:0:
174,169,75390,5,0,0:0:0:0:
162,149,75453,5,0,0:0:0:0:
175,142,75515,5,0,0:0:0:0:
198,141,75578,5,0,0:0:0:0:
221,141,75640,5,0,0:0:0:0:
243,141,75703,5,0,0:0:0:0:
266,144,75765,5,0,0:0:0:0:
287,152,75828,5,0,0:0:0:0:
305,167,75890,5,0,0:0:0:0:
316,186,75953,5,0,0:0:0:0:
324,207,76015,5,0,0:0:0:0:
330,230,76078,5,0,0:0:0:0:
330,230,76203,5,0,0:0:0:0:
311,243,76265,5,0,0:0:0:0:
290,251,76328,5,0,0:0:0:0:
268,256,76390,5,0,0:0:0:0:
245,256,76453,5,0,0:0:0:0:
223,251,76515,5,0,0:0:0:0:
202,242,76578,5,0,0:0:0:0:
184,228,76640,5,0,0:0:0:0:
169,211,76703,5,0,0:0:0:0:
157,192,76765,5,0,0:0:0:0:
150,170,76828,5,0,0:0:0:0:
147,147,76890,5,0,0:0:0:0:
149,125,76953,5,0,0:0:0:0:
162,141,77078,5,0,0:0:0:0:
179,133,77140,5,0,0:0:0:0:
196,128,77203,5,0,0:0:0:0:
214,126,77265,5,0,0:0:0:0:
233,125,77328,5,0,0:0:0:0:
250,126,77390,5,0,0:0:0:0:
269,129,77453,5,0,0:0:0:0:
286,135,77515,5,0,0:0:0:0:
303,142,77578,5,0,0:0:0:0:
318,152,77640,5,0,0:0:0:0:
333,163,77703,5,0,0:0:0:0:
345,176,77765,5,0,0:0:0:0:
357,190,77828,5,0,0:0:0:0:
377,214,77891,5,0,0:0:0:0:
355,207,77953,5,0,0:0:0:0:
333,201,78016,5,0,0:0:0:0:
311,195,78078,5,0,0:0:0:0:
289,188,78141,5,0,0:0:0:0:
267,182,78203,5,0,0:0:0:0:
245,176,78266,5,0,0:0:0:0:
223,170,78328,5,0,0:0:0:0:
201,164,78391,5,0,0:0:0:0:
182,159,78453,5,0,0:0:0:0:
189,144,78515,5,0,0:0:0:0:
196,130,78578,5,0,0:0:0:0:
204,116,78640,5,0,0:0:0:0:
216,109,78703,5,0,0:0:0:0:
223,109,78765,5,0,0:0:0:0:
229,110,78828,5,0,0:0:0:0:
233,126,78890,5,0,0:0:0:0:
237,141,78953,5,0,0:0:0:0:
241,157,79015,5,0,0:0:0:0:
245,172,79078,5,0,0:0:0:0:
227,186,79140,5,0,0:0:0:0:
207,197,79203,5,0,0:0:0:0:
203,204,79265,5,0,0:0:0:0:
226,204,79328,5,0,0:0:0:0:
248,204,79390,5,0,0:0:0:0:
271,204,79453,5,0,0:0:0:0:
279,183,79515,5,0,0:0:0:0:
285,162,79578,5,0,0:0:0:0:
294,165,79640,5,0,0:0:0:0:
303,186,79703,5,0,0:0:0:0:
313,207,79765,5,0,0:0:0:0:
313,190,79828,5,0,0:0:0:0:
311,167,79890,5,0,0:0:0:0:
309,144,79953,5,0,0:0:0:0:
309,127,80015,5,0,0:0:0:0:
315,148,80078,5,0,0:0:0:0:
322,171,80140,5,0,0:0:0:0:
329,193,80203,5,0,0:0:0:0:
335,214,80265,5,0,0:0:0:0:
342,236,80328,5,0,0:0:0:0:
229,198,80550,6,0,L|377:187,4,134.999996423721
341,254,83363,6,0,L|312:254,1,22.4999994039536,0|0,2:2|2:2,2:2:0:0:
320,254,83425,6,0,L|231:250,1,89.9999976158143,0|0,2:2|2:2,2:2:0:0:
240,250,83675,6,0,L|243:228,1,22.4999994039536,0|0,2:2|2:2,2:2:0:0:
243,228,83800,6,0,L|266:224,1,22.4999994039536,0|0,2:2|2:2,2:2:0:0:
292,222,84050,6,0,L|306:206,1,22.4999994039536,0|0,2:2|2:2,2:2:0:0:
306,216,84113,6,0,L|320:232,1,22.4999994039536,0|0,2:2|2:2,2:2:0:0:
322,228,84144,6,0,L|324:198,1,22.4999994039536,0|0,2:2|2:2,2:2:0:0:
326,204,84238,6,0,L|229:204,1,89.9999976158143,0|0,2:2|2:2,2:2:0:0:
235,204,84519,6,0,L|343:256,1,112.499997019768,0|0,2:2|2:2,2:2:0:0:
331,235,85519,6,0,P|292:228|329:202,2,89.9999976158143
323,199,86144,6,0,L|276:173,1,44.9999988079071
286,179,86363,6,0,L|270:228,1,44.9999988079071
276,216,86706,6,0,L|314:220,1,22.4999994039536
312,216,86894,6,0,P|335:177|359:240,3,134.999996423721
189,171,90144,6,0,L|223:171,5,22.4999994039536
290,135,90769,6,0,L|296:185,3,44.9999988079071
193,151,91488,6,0,L|276:155,2,67.4999982118607
312,240,92050,6,0,L|314:149,2,89.9999976158143
197,165,92706,6,0,L|326:214,2,134.999996423721
337,183,93581,6,0,L|258:260,3,89.9999976158143
345,175,94519,6,0,L|229:173,1,112.499997019768
276,177,95050,6,0,P|225:218|170:124,1,202.499994635582
180,127,95769,6,0,L|320:131,1,134.999996423721
314,218,96238,6,0,L|237:212,1,67.4999982118607
256,183,96519,6,0,L|322:187,1,67.4999982118607
302,163,96800,6,0,L|251:159,1,44.9999988079071
256,131,97081,6,0,L|296:139,2,22.4999994039536
306,108,97331,6,0,L|243:108,1,44.9999988079071
256,175,97613,6,0,L|286:175,2,22.4999994039536
308,131,97863,6,0,L|247:133,1,44.9999988079071
276,179,98144,6,0,L|355:185,1,67.4999982118607
322,230,98363,6,0,L|213:224,1,89.9999976158143
193,155,98706,6,0,L|335:155,1,134.999996423721
268,129,99238,6,0,L|264:185,1,44.9999988079071
235,159,99488,6,0,L|268:159,2,22.4999994039536
302,141,99738,6,0,L|306:210,1,67.4999982118607
276,139,100023,6,0,L|276:212,1,67.4999982118607
223,139,100304,6,0,L|231:210,1,67.4999982118607
282,131,100585,6,0,L|284:206,1,67.4999982118607
203,183,100835,6,0,L|298:192,1,89.9999976158143
231,127,101116,6,0,L|225:216,1,89.9999976158143
270,137,101366,6,0,L|262:208,1,67.4999982118607
326,139,101648,6,0,L|337:228,1,89.9999976158143
298,187,101929,6,0,L|296:234,1,44.9999988079071
251,167,102179,6,0,L|251:232,1,44.9999988079071
199,173,102460,6,0,L|203:216,2,22.4999994039536
237,167,102710,6,0,L|243:216,1,44.9999988079071
280,167,102991,6,0,L|288:218,1,44.9999988079071
316,171,103241,6,0,L|324:208,1,22.4999994039536
353,159,103460,6,0,L|363:214,1,44.9999988079071
302,173,103648,6,0,L|310:224,1,44.9999988079071
256,183,103835,6,0,L|262:224,1,22.4999994039536
219,175,103991,6,0,L|239:252,1,67.4999982118607
164,169,104335,6,0,L|191:224,1,44.9999988079071
187,230,104585,6,0,L|217:224,1,22.4999994039536
256,149,104741,6,0,L|274:228,1,67.4999982118607
306,177,105023,6,0,L|316:230,1,44.9999988079071
219,183,105210,6,0,L|225:238,1,44.9999988079071
239,175,105429,6,0,L|247:242,1,67.4999982118607
268,177,105710,6,0,L|280:228,1,44.9999988079071
300,165,105960,6,0,L|314:232,1,67.4999982118607
276,171,106241,6,0,L|288:271,1,89.9999976158143
219,183,106491,6,0,L|243:242,1,44.9999988079071
276,163,106773,6,0,L|292:222,1,44.9999988079071
329,155,107054,6,0,L|349:234,1,67.4999982118607
262,173,107304,6,0,L|280:236,1,44.9999988079071
306,163,107554,6,0,L|320:224,2,44.9999988079071
349,157,107866,6,0,L|353:206,1,44.9999988079071
304,173,108085,5,0,0:0:0:0:
305,196,108147,5,0,0:0:0:0:
300,218,108210,5,0,0:0:0:0:
287,237,108272,5,0,0:0:0:0:
270,252,108335,5,0,0:0:0:0:
249,260,108397,5,0,0:0:0:0:
227,263,108460,5,0,0:0:0:0:
204,258,108522,5,0,0:0:0:0:
185,247,108585,5,0,0:0:0:0:
169,230,108647,5,0,0:0:0:0:
159,210,108710,5,0,0:0:0:0:
156,187,108772,5,0,0:0:0:0:
160,165,108835,5,0,0:0:0:0:
170,144,108897,5,0,0:0:0:0:
186,128,108960,5,0,0:0:0:0:
206,117,109022,5,0,0:0:0:0:
203,123,109086,5,0,0:0:0:0:
223,111,109148,5,0,0:0:0:0:
245,107,109211,5,0,0:0:0:0:
267,111,109273,5,0,0:0:0:0:
288,121,109336,5,0,0:0:0:0:
304,137,109398,5,0,0:0:0:0:
314,157,109461,5,0,0:0:0:0:
318,179,109523,5,0,0:0:0:0:
315,202,109586,5,0,0:0:0:0:
304,222,109648,5,0,0:0:0:0:
288,238,109711,5,0,0:0:0:0:
268,248,109773,5,0,0:0:0:0:
245,252,109836,5,0,0:0:0:0:
223,248,109898,5,0,0:0:0:0:
203,237,109961,5,0,0:0:0:0:
187,221,109991,5,0,0:0:0:0:
181,211,110054,5,0,0:0:0:0:
173,190,110116,5,0,0:0:0:0:
171,168,110179,5,0,0:0:0:0:
177,145,110241,5,0,0:0:0:0:
190,126,110304,5,0,0:0:0:0:
207,112,110366,5,0,0:0:0:0:
228,104,110429,5,0,0:0:0:0:
251,102,110491,5,0,0:0:0:0:
273,108,110554,5,0,0:0:0:0:
292,121,110616,5,0,0:0:0:0:
306,139,110679,5,0,0:0:0:0:
314,160,110741,5,0,0:0:0:0:
315,183,110804,5,0,0:0:0:0:
309,205,110866,5,0,0:0:0:0:
296,223,110929,5,0,0:0:0:0:
278,237,110991,5,0,0:0:0:0:
268,242,111054,5,0,0:0:0:0:
246,249,111116,5,0,0:0:0:0:
224,249,111179,5,0,0:0:0:0:
202,243,111241,5,0,0:0:0:0:
184,229,111304,5,0,0:0:0:0:
170,211,111366,5,0,0:0:0:0:
164,189,111429,5,0,0:0:0:0:
164,166,111491,5,0,0:0:0:0:
172,145,111554,5,0,0:0:0:0:
186,127,111616,5,0,0:0:0:0:
205,114,111679,5,0,0:0:0:0:
215,110,111773,5,0,0:0:0:0:
237,115,111835,5,0,0:0:0:0:
257,127,111898,5,0,0:0:0:0:
271,144,111960,5,0,0:0:0:0:
281,165,112023,5,0,0:0:0:0:
284,187,112085,5,0,0:0:0:0:
280,210,112148,5,0,0:0:0:0:
270,230,112210,5,0,0:0:0:0:
254,246,112273,5,0,0:0:0:0:
234,257,112335,5,0,0:0:0:0:
211,261,112398,5,0,0:0:0:0:
189,259,112460,5,0,0:0:0:0:
168,250,112523,5,0,0:0:0:0:
164,252,112679,5,0,0:0:0:0:
148,237,112741,5,0,0:0:0:0:
136,217,112804,5,0,0:0:0:0:
131,195,112866,5,0,0:0:0:0:
132,172,112929,5,0,0:0:0:0:
140,151,112991,5,0,0:0:0:0:
154,133,113054,5,0,0:0:0:0:
172,120,113116,5,0,0:0:0:0:
194,112,113179,5,0,0:0:0:0:
216,111,113241,5,0,0:0:0:0:
238,116,113304,5,0,0:0:0:0:
258,128,113366,5,0,0:0:0:0:
273,145,113429,5,0,0:0:0:0:
282,166,113491,5,0,0:0:0:0:
288,177,113648,5,0,0:0:0:0:
284,200,113710,5,0,0:0:0:0:
274,220,113773,5,0,0:0:0:0:
258,235,113835,5,0,0:0:0:0:
237,244,113898,5,0,0:0:0:0:
214,246,113960,5,0,0:0:0:0:
192,240,114023,5,0,0:0:0:0:
173,227,114085,5,0,0:0:0:0:
160,208,114148,5,0,0:0:0:0:
156,212,114241,5,0,0:0:0:0:
154,189,114303,5,0,0:0:0:0:
158,166,114366,5,0,0:0:0:0:
166,145,114428,5,0,0:0:0:0:
179,127,114491,5,0,0:0:0:0:
197,112,114553,5,0,0:0:0:0:
217,102,114616,5,0,0:0:0:0:
240,97,114678,5,0,0:0:0:0:
263,98,114741,5,0,0:0:0:0:
284,104,114803,5,0,0:0:0:0:
304,114,114866,5,0,0:0:0:0:
321,130,114928,5,0,0:0:0:0:
334,148,114991,5,0,0:0:0:0:
342,170,115053,5,0,0:0:0:0:
345,193,115116,5,0,0:0:0:0:
342,215,115178,5,0,0:0:0:0:
333,228,115304,5,0,0:0:0:0:
310,227,115366,5,0,0:0:0:0:
287,227,115429,5,0,0:0:0:0:
264,226,115491,5,0,0:0:0:0:
241,226,115554,5,0,0:0:0:0:
218,226,115616,5,0,0:0:0:0:
218,226,115710,5,0,0:0:0:0:
241,226,115772,5,0,0:0:0:0:
264,227,115835,5,0,0:0:0:0:
286,227,115897,5,0,0:0:0:0:
309,227,115960,5,0,0:0:0:0:
332,227,116022,5,0,0:0:0:0:
337,224,116116,5,0,0:0:0:0:
337,201,116178,5,0,0:0:0:0:
330,179,116241,5,0,0:0:0:0:
317,161,116303,5,0,0:0:0:0:
299,147,116366,5,0,0:0:0:0:
277,139,116428,5,0,0:0:0:0:
255,138,116491,5,0,0:0:0:0:
233,144,116553,5,0,0:0:0:0:
214,156,116616,5,0,0:0:0:0:
199,174,116678,5,0,0:0:0:0:
191,195,116741,5,0,0:0:0:0:
189,217,116803,5,0,0:0:0:0:
194,240,116866,5,0,0:0:0:0:
206,259,116928,5,0,0:0:0:0:
206,259,116991,5,0,0:0:0:0:
225,246,117053,5,0,0:0:0:0:
243,234,117116,5,0,0:0:0:0:
262,220,117178,5,0,0:0:0:0:
267,213,117241,5,0,0:0:0:0:
246,223,117303,5,0,0:0:0:0:
226,234,117366,5,0,0:0:0:0:
150,192,117398,5,0,0:0:0:0:
172,186,117460,5,0,0:0:0:0:
194,181,117523,5,0,0:0:0:0:
217,180,117585,5,0,0:0:0:0:
238,177,117648,5,0,0:0:0:0:
257,163,117710,5,0,0:0:0:0:
246,182,117773,5,0,0:0:0:0:
248,189,117835,5,0,0:0:0:0:
269,181,117898,5,0,0:0:0:0:
289,172,117960,5,0,0:0:0:0:
279,187,118023,5,0,0:0:0:0:
270,198,118085,5,0,0:0:0:0:
288,211,118147,5,0,0:0:0:0:
297,222,118210,5,0,0:0:0:0:
274,223,118272,5,0,0:0:0:0:
251,223,118335,5,0,0:0:0:0:
266,227,118397,5,0,0:0:0:0:
288,233,118460,5,0,0:0:0:0:
298,236,118522,5,0,0:0:0:0:
275,236,118585,5,0,0:0:0:0:
268,236,118741,5,0,0:0:0:0:
253,218,118803,5,0,0:0:0:0:
239,201,118866,5,0,0:0:0:0:
224,183,118928,5,0,0:0:0:0:
217,169,118991,5,0,0:0:0:0:
240,170,119053,5,0,0:0:0:0:
263,171,119116,5,0,0:0:0:0:
270,175,119178,5,0,0:0:0:0:
261,183,119241,5,0,0:0:0:0:
284,183,119303,5,0,0:0:0:0:
292,179,119429,5,0,0:0:0:0:
294,157,119491,5,0,0:0:0:0:
311,153,119554,5,0,0:0:0:0:
334,156,119616,5,0,0:0:0:0:
356,159,119679,5,0,0:0:0:0:
336,150,119741,5,0,0:0:0:0:
315,141,119804,5,0,0:0:0:0:
294,132,119866,5,0,0:0:0:0:
273,123,119929,5,0,0:0:0:0:
252,122,119991,5,0,0:0:0:0:
230,129,120054,5,0,0:0:0:0:
217,139,120148,5,0,0:0:0:0:
215,161,120210,5,0,0:0:0:0:
214,184,120273,5,0,0:0:0:0:
213,207,120335,5,0,0:0:0:0:
211,230,120398,5,0,0:0:0:0:
219,244,120460,5,0,0:0:0:0:
242,245,120523,5,0,0:0:0:0:
265,245,120585,5,0,0:0:0:0:
287,246,120648,5,0,0:0:0:0:
310,246,120710,5,0,0:0:0:0:
333,247,120773,5,0,0:0:0:0:
356,247,120835,5,0,0:0:0:0:
379,248,120898,5,0,0:0:0:0:
376,228,120960,5,0,0:0:0:0:
370,206,121023,5,0,0:0:0:0:
363,184,121085,5,0,0:0:0:0:
357,162,121148,5,0,0:0:0:0:
359,163,121210,5,0,0:0:0:0:
339,174,121272,5,0,0:0:0:0:
319,186,121335,5,0,0:0:0:0:
300,198,121397,5,0,0:0:0:0:
280,209,121460,5,0,0:0:0:0:
261,221,121522,5,0,0:0:0:0:
251,207,121585,5,0,0:0:0:0:
247,185,121647,5,0,0:0:0:0:
242,163,121710,5,0,0:0:0:0:
259,166,121772,5,0,0:0:0:0:
280,175,121835,5,0,0:0:0:0:
296,176,121897,5,0,0:0:0:0:
296,153,121960,5,0,0:0:0:0:
283,141,122022,5,0,0:0:0:0:
261,139,122085,5,0,0:0:0:0:
264,139,122148,5,0,0:0:0:0:
251,158,122210,5,0,0:0:0:0:
238,176,122273,5,0,0:0:0:0:
223,194,122335,5,0,0:0:0:0:
216,200,122398,5,0,0:0:0:0:
219,180,122460,5,0,0:0:0:0:
221,160,122523,5,0,0:0:0:0:
218,182,122585,5,0,0:0:0:0:
216,205,122648,5,0,0:0:0:0:
215,221,122710,5,0,0:0:0:0:
215,198,122773,5,0,0:0:0:0:
216,176,122835,5,0,0:0:0:0:
216,161,122898,5,0,0:0:0:0:
211,183,122960,5,0,0:0:0:0:
207,206,123023,5,0,0:0:0:0:
205,202,123085,5,0,0:0:0:0:
186,215,123147,5,0,0:0:0:0:
168,227,123210,5,0,0:0:0:0:
174,205,123272,5,0,0:0:0:0:
179,184,123335,5,0,0:0:0:0:
164,202,123397,5,0,0:0:0:0:
156,222,123460,5,0,0:0:0:0:
155,227,123522,5,0,0:0:0:0:
156,204,123585,5,0,0:0:0:0:
158,181,123647,5,0,0:0:0:0:
154,181,123835,5,0,0:0:0:0:
176,184,123897,5,0,0:0:0:0:
199,187,123960,5,0,0:0:0:0:
222,190,124022,5,0,0:0:0:0:
244,194,124085,5,0,0:0:0:0:
248,197,124147,5,0,0:0:0:0:
225,199,124210,5,0,0:0:0:0:
202,202,124272,5,0,0:0:0:0:
179,204,124335,5,0,0:0:0:0:
157,207,124397,5,0,0:0:0:0:
169,209,124460,5,0,0:0:0:0:
192,211,124522,5,0,0:0:0:0:
215,213,124585,5,0,0:0:0:0:
238,215,124647,5,0,0:0:0:0:
260,217,124710,5,0,0:0:0:0:
256,218,124772,5,0,0:0:0:0:
233,219,124835,5,0,0:0:0:0:
210,219,124897,5,0,0:0:0:0:
188,220,124960,5,0,0:0:0:0:
165,221,125022,5,0,0:0:0:0:
154,218,125273,5,0,0:0:0:0:
169,201,125335,5,0,0:0:0:0:
185,184,125398,5,0,0:0:0:0:
202,169,125460,5,0,0:0:0:0:
222,168,125523,5,0,0:0:0:0:
232,188,125585,5,0,0:0:0:0:
237,210,125648,5,0,0:0:0:0:
242,233,125710,5,0,0:0:0:0:
246,255,125773,5,0,0:0:0:0:
254,240,125835,5,0,0:0:0:0:
263,219,125898,5,0,0:0:0:0:
272,198,125960,5,0,0:0:0:0:
280,176,126023,5,0,0:0:0:0:
289,156,126085,5,0,0:0:0:0:
296,155,126241,5,0,0:0:0:0:
273,152,126303,5,0,0:0:0:0:
250,149,126366,5,0,0:0:0:0:
228,146,126428,5,0,0:0:0:0:
205,143,126491,5,0,0:0:0:0:
203,139,126554,5,0,0:0:0:0:
225,143,126616,5,0,0:0:0:0:
247,147,126679,5,0,0:0:0:0:
270,151,126741,5,0,0:0:0:0:
292,156,126804,5,0,0:0:0:0:
296,155,126960,5,0,0:0:0:0:
277,168,127022,5,0,0:0:0:0:
259,182,127085,5,0,0:0:0:0:
239,192,127147,5,0,0:0:0:0:
216,192,127210,5,0,0:0:0:0:
197,179,127272,5,0,0:0:0:0:
181,163,127335,5,0,0:0:0:0:
167,145,127397,5,0,0:0:0:0:
162,137,127429,5,0,0:0:0:0:
185,137,127491,5,0,0:0:0:0:
207,137,127554,5,0,0:0:0:0:
230,137,127616,5,0,0:0:0:0:
253,138,127679,5,0,0:0:0:0:
276,138,127741,5,0,0:0:0:0:
299,138,127804,5,0,0:0:0:0:
321,138,127866,5,0,0:0:0:0:
316,139,127898,5,0,0:0:0:0:
312,161,127960,5,0,0:0:0:0:
307,183,128023,5,0,0:0:0:0:
303,206,128085,5,0,0:0:0:0:
300,216,128148,5,0,0:0:0:0:
282,201,128210,5,0,0:0:0:0:
265,187,128273,5,0,0:0:0:0:
246,173,128335,5,0,0:0:0:0:
227,162,128398,5,0,0:0:0:0:
220,170,128460,5,0,0:0:0:0:
236,177,128523,5,0,0:0:0:0:
250,163,128585,5,0,0:0:0:0:
270,151,128648,5,0,0:0:0:0:
262,145,128710,5,0,0:0:0:0:
239,145,128773,5,0,0:0:0:0:
216,145,128835,5,0,0:0:0:0:
204,144,128898,5,0,0:0:0:0:
227,145,128960,5,0,0:0:0:0:
246,155,129023,5,0,0:0:0:0:
252,177,129085,5,0,0:0:0:0:
243,177,129148,5,0,0:0:0:0:
264,166,129210,5,0,0:0:0:0:
256,169,129491,5,0,0:0:0:0:
277,163,129553,5,0,0:0:0:0:
300,159,129616,5,0,0:0:0:0:
294,177,129678,5,0,0:0:0:0:
305,160,129741,5,0,0:0:0:0:
310,162,129803,5,0,0:0:0:0:
312,158,129866,5,0,0:0:0:0:
316,162,129928,5,0,0:0:0:0:
321,160,129991,5,0,0:0:0:0:
330,161,130053,5,0,0:0:0:0:
326,183,130116,5,0,0:0:0:0:
187,143,130398,5,0,0:0:0:0:
186,151,130460,5,0,0:0:0:0:
185,161,130523,5,0,0:0:0:0:
184,170,130585,5,0,0:0:0:0:
184,179,130648,5,0,0:0:0:0:
182,188,130710,5,0,0:0:0:0:
183,185,130773,5,0,0:0:0:0:
184,176,130835,5,0,0:0:0:0:
185,167,130898,5,0,0:0:0:0:
186,158,130960,5,0,0:0:0:0:
186,152,131023,5,0,0:0:0:0:
184,161,131085,5,0,0:0:0:0:
181,170,131148,5,0,0:0:0:0:
181,171,131210,5,0,0:0:0:0:
185,163,131273,5,0,0:0:0:0:
188,155,131335,5,0,0:0:0:0:
186,164,131398,5,0,0:0:0:0:
185,161,131460,5,0,0:0:0:0:
186,170,131523,5,0,0:0:0:0:
188,164,131585,5,0,0:0:0:0:
189,171,131648,5,0,0:0:0:0:
190,162,131710,5,0,0:0:0:0:
187,168,131773,5,0,0:0:0:0:
188,169,131835,5,0,0:0:0:0:
189,174,131898,5,0,0:0:0:0:
187,169,131960,5,0,0:0:0:0:
185,177,132023,5,0,0:0:0:0:
182,172,132085,5,0,0:0:0:0:
184,167,132148,5,0,0:0:0:0:
192,167,132210,5,0,0:0:0:0:
197,175,132273,5,0,0:0:0:0:
197,173,132335,5,0,0:0:0:0:
197,175,132397,5,0,0:0:0:0:
198,177,132460,5,0,0:0:0:0:
199,179,132522,5,0,0:0:0:0:
200,181,132585,5,0,0:0:0:0:
201,183,132647,5,0,0:0:0:0:
202,186,132710,5,0,0:0:0:0:
202,188,132772,5,0,0:0:0:0:
203,190,132835,5,0,0:0:0:0:
204,192,132897,5,0,0:0:0:0:
205,194,132960,5,0,0:0:0:0:
206,196,133022,5,0,0:0:0:0:
207,199,133085,5,0,0:0:0:0:
207,201,133147,5,0,0:0:0:0:
208,203,133210,5,0,0:0:0:0:
209,205,133272,5,0,0:0:0:0:
210,207,133335,5,0,0:0:0:0:
211,209,133397,5,0,0:0:0:0:
212,211,133460,5,0,0:0:0:0:
212,213,133522,5,0,0:0:0:0:
212,212,133585,5,0,0:0:0:0:
211,210,133647,5,0,0:0:0:0:
210,208,133710,5,0,0:0:0:0:
209,205,133772,5,0,0:0:0:0:
208,203,133835,5,0,0:0:0:0:
207,201,133897,5,0,0:0:0:0:
207,199,133960,5,0,0:0:0:0:
206,197,134022,5,0,0:0:0:0:
205,195,134085,5,0,0:0:0:0:
204,193,134147,5,0,0:0:0:0:
203,190,134210,5,0,0:0:0:0:
202,188,134272,5,0,0:0:0:0:
201,186,134335,5,0,0:0:0:0:
201,184,134397,5,0,0:0:0:0:
200,182,134460,5,0,0:0:0:0:
199,180,134522,5,0,0:0:0:0:
199,180,134585,5,0,0:0:0:0:
199,182,134647,5,0,0:0:0:0:
201,183,134710,5,0,0:0:0:0:
203,185,134772,5,0,0:0:0:0:
205,186,134835,5,0,0:0:0:0:
206,187,134897,5,0,0:0:0:0:
205,185,134960,5,0,0:0:0:0:
205,183,135022,5,0,0:0:0:0:
205,185,135085,5,0,0:0:0:0:
206,188,135147,5,0,0:0:0:0:
207,190,135210,5,0,0:0:0:0:
208,192,135272,5,0,0:0:0:0:
208,193,135335,5,0,0:0:0:0:
207,190,135397,5,0,0:0:0:0:
207,190,135460,5,0,0:0:0:0:
207,193,135522,5,0,0:0:0:0:
206,192,135585,5,0,0:0:0:0:
205,190,135647,5,0,0:0:0:0:
205,187,135710,5,0,0:0:0:0:
205,189,135772,5,0,0:0:0:0:
206,191,135835,5,0,0:0:0:0:
206,193,135897,5,0,0:0:0:0:
207,196,135960,5,0,0:0:0:0:
208,198,136022,5,0,0:0:0:0:
209,200,136085,5,0,0:0:0:0:
209,202,136147,5,0,0:0:0:0:
210,204,136210,5,0,0:0:0:0:
210,205,136272,5,0,0:0:0:0:
208,203,136335,5,0,0:0:0:0:
207,202,136397,5,0,0:0:0:0:
207,203,136460,5,0,0:0:0:0:
208,205,136522,5,0,0:0:0:0:
209,208,136585,5,0,0:0:0:0:
209,210,136647,5,0,0:0:0:0:
210,212,136710,5,0,0:0:0:0:
210,213,136772,5,0,0:0:0:0:
209,211,136835,5,0,0:0:0:0:
208,209,136897,5,0,0:0:0:0:
207,208,136960,5,0,0:0:0:0:
207,210,137022,5,0,0:0:0:0:
207,211,137085,5,0,0:0:0:0:
209,210,137147,5,0,0:0:0:0:
209,212,137210,5,0,0:0:0:0:
210,214,137272,5,0,0:0:0:0:
211,215,137335,5,0,0:0:0:0:
212,213,137397,5,0,0:0:0:0:
213,212,137460,5,0,0:0:0:0:
213,214,137522,5,0,0:0:0:0:
213,215,137585,5,0,0:0:0:0:
215,214,137647,5,0,0:0:0:0:
217,213,137710,5,0,0:0:0:0:
220,212,137772,5,0,0:0:0:0:
220,212,137835,5,0,0:0:0:0:
217,212,137897,5,0,0:0:0:0:
217,213,137960,5,0,0:0:0:0:
218,215,138022,5,0,0:0:0:0:
218,214,138085,5,0,0:0:0:0:
217,212,138147,5,0,0:0:0:0:
217,210,138210,5,0,0:0:0:0:
216,211,138272,5,0,0:0:0:0:
215,214,138335,5,0,0:0:0:0:
215,216,138397,5,0,0:0:0:0:
215,217,138460,5,0,0:0:0:0:
215,215,138522,5,0,0:0:0:0:
215,214,138585,5,0,0:0:0:0:
215,214,138647,5,0,0:0:0:0:
215,212,138710,5,0,0:0:0:0:
215,210,138772,5,0,0:0:0:0:
215,211,138835,5,0,0:0:0:0:
215,209,138897,5,0,0:0:0:0:
215,207,138960,5,0,0:0:0:0:
215,205,139022,5,0,0:0:0:0:
215,203,139085,5,0,0:0:0:0:
215,200,139147,5,0,0:0:0:0:
215,198,139210,5,0,0:0:0:0:
215,196,139272,5,0,0:0:0:0:
215,194,139335,5,0,0:0:0:0:
214,191,139397,5,0,0:0:0:0:
212,190,139460,5,0,0:0:0:0:
211,188,139522,5,0,0:0:0:0:
209,187,139585,5,0,0:0:0:0:
207,186,139647,5,0,0:0:0:0:
205,185,139710,5,0,0:0:0:0:
203,183,139772,5,0,0:0:0:0:
203,185,139835,5,0,0:0:0:0:
203,187,139897,5,0,0:0:0:0:
203,189,139960,5,0,0:0:0:0:
203,192,140022,5,0,0:0:0:0:
203,194,140085,5,0,0:0:0:0:
204,196,140147,5,0,0:0:0:0:
204,198,140210,5,0,0:0:0:0:
204,201,140272,5,0,0:0:0:0:
204,203,140335,5,0,0:0:0:0:
204,205,140397,5,0,0:0:0:0:
204,207,140460,5,0,0:0:0:0:
204,205,140522,5,0,0:0:0:0:
203,203,140585,5,0,0:0:0:0:
203,201,140647,5,0,0:0:0:0:
202,199,140710,5,0,0:0:0:0:
202,197,140772,5,0,0:0:0:0:
201,194,140835,5,0,0:0:0:0:
201,192,140897,5,0,0:0:0:0:
200,190,140960,5,0,0:0:0:0:
200,187,141022,5,0,0:0:0:0:
199,185,141085,5,0,0:0:0:0:
199,183,141147,5,0,0:0:0:0:
199,185,141210,5,0,0:0:0:0:
200,187,141272,5,0,0:0:0:0:
201,189,141335,5,0,0:0:0:0:
202,192,141397,5,0,0:0:0:0:
203,194,141460,5,0,0:0:0:0:
204,196,141522,5,0,0:0:0:0:
205,198,141585,5,0,0:0:0:0:
205,200,141647,5,0,0:0:0:0:
206,202,141710,5,0,0:0:0:0:
207,204,141772,5,0,0:0:0:0:
208,206,141835,5,0,0:0:0:0:
208,207,141897,5,0,0:0:0:0:
207,204,141960,5,0,0:0:0:0:
207,202,142022,5,0,0:0:0:0:
206,200,142085,5,0,0:0:0:0:
205,198,142147,5,0,0:0:0:0:
204,196,142210,5,0,0:0:0:0:
203,194,142272,5,0,0:0:0:0:
203,192,142335,5,0,0:0:0:0:
202,189,142397,5,0,0:0:0:0:
201,187,142460,5,0,0:0:0:0:
200,185,142522,5,0,0:0:0:0:
199,183,142585,5,0,0:0:0:0:
195,137,142804,6,0,L|209:220,1,67.4999982118607
235,216,143085,6,0,L|223:125,1,89.9999976158143
247,123,143366,6,0,L|264:214,1,89.9999976158143
290,210,143710,6,0,L|274:110,1,89.9999976158143
280,118,144085,6,0,L|219:116,1,44.9999988079071
219,151,144398,6,0,L|288:153,1,67.4999982118607
296,179,144648,6,0,L|215:185,1,67.4999982118607
302,204,144960,6,0,L|213:212,1,89.9999976158143
304,208,145366,6,0,L|227:208,1,67.4999982118607
239,234,145616,6,0,L|312:236,1,67.4999982118607
318,260,145866,6,0,L|219:256,1,89.9999976158143
229,254,146179,6,0,L|215:159,1,89.9999976158143
215,164,146648,6,0,L|361:177,1,134.999996423721
361,165,147273,6,0,B|213:204|211:204|294:200,1,179.999995231629
310,194,148023,6,0,L|231:240,1,89.9999976158143
235,175,148460,6,0,L|223:116,1,44.9999988079071
164,129,148773,5,0,0:0:0:0:
182,129,148835,5,0,0:0:0:0:
200,130,148898,5,0,0:0:0:0:
218,132,148960,5,0,0:0:0:0:
237,133,149023,5,0,0:0:0:0:
255,136,149085,5,0,0:0:0:0:
273,140,149148,5,0,0:0:0:0:
288,148,149210,5,0,0:0:0:0:
287,165,149273,5,0,0:0:0:0:
274,178,149335,5,0,0:0:0:0:
260,189,149398,5,0,0:0:0:0:
254,197,149460,5,0,0:0:0:0:
272,196,149523,5,0,0:0:0:0:
290,195,149585,5,0,0:0:0:0:
309,195,149648,5,0,0:0:0:0:
327,194,149710,5,0,0:0:0:0:
325,197,149773,5,0,0:0:0:0:
307,200,149835,5,0,0:0:0:0:
289,203,149898,5,0,0:0:0:0:
271,206,149960,5,0,0:0:0:0:
253,209,150023,5,0,0:0:0:0:
235,211,150085,5,0,0:0:0:0:
219,203,150148,5,0,0:0:0:0:
203,194,150210,5,0,0:0:0:0:
187,185,150273,5,0,0:0:0:0:
171,177,150335,5,0,0:0:0:0:
157,170,150398,5,0,0:0:0:0:
166,186,150460,5,0,0:0:0:0:
174,202,150523,5,0,0:0:0:0:
184,218,150585,5,0,0:0:0:0:
195,230,150648,5,0,0:0:0:0:
213,232,150710,5,0,0:0:0:0:
231,234,150773,5,0,0:0:0:0:
249,236,150835,5,0,0:0:0:0:
268,238,150898,5,0,0:0:0:0:
285,240,150960,5,0,0:0:0:0:
304,242,151023,5,0,0:0:0:0:
322,244,151085,5,0,0:0:0:0:
333,230,151148,5,0,0:0:0:0:
337,212,151210,5,0,0:0:0:0:
337,194,151273,5,0,0:0:0:0:
337,176,151335,5,0,0:0:0:0:
337,158,151398,5,0,0:0:0:0:
321,153,151460,5,0,0:0:0:0:
303,152,151523,5,0,0:0:0:0:
284,151,151585,5,0,0:0:0:0:
266,150,151648,5,0,0:0:0:0:
248,148,151710,5,0,0:0:0:0:
230,147,151773,5,0,0:0:0:0:
212,146,151835,5,0,0:0:0:0:
194,145,151898,5,0,0:0:0:0:
175,144,151960,5,0,0:0:0:0:
162,140,152023,5,0,0:0:0:0:
178,136,152085,5,0,0:0:0:0:
193,147,152148,5,0,0:0:0:0:
202,162,152210,5,0,0:0:0:0:
210,179,152273,5,0,0:0:0:0:
216,196,152335,5,0,0:0:0:0:
222,213,152398,5,0,0:0:0:0:
225,200,152460,5,0,0:0:0:0:
228,182,152523,5,0,0:0:0:0:
238,168,152585,5,0,0:0:0:0:
249,153,152648,5,0,0:0:0:0:
258,137,152710,5,0,0:0:0:0:
268,122,152773,5,0,0:0:0:0:
277,106,152835,5,0,0:0:0:0:
277,106,152991,5,0,0:0:0:0:
280,128,153053,5,0,0:0:0:0:
282,151,153116,5,0,0:0:0:0:
283,174,153178,5,0,0:0:0:0:
280,197,153241,5,0,0:0:0:0:
264,201,153303,5,0,0:0:0:0:
249,184,153366,5,0,0:0:0:0:
236,165,153428,5,0,0:0:0:0:
241,182,153491,5,0,0:0:0:0:
248,204,153553,5,0,0:0:0:0:
253,222,153616,5,0,0:0:0:0:
235,209,153678,5,0,0:0:0:0:
216,196,153741,5,0,0:0:0:0:
199,183,153803,5,0,0:0:0:0:
221,189,153866,5,0,0:0:0:0:
243,195,153928,5,0,0:0:0:0:
266,200,153991,5,0,0:0:0:0:
287,206,154053,5,0,0:0:0:0:
280,207,154116,5,0,0:0:0:0:
258,203,154178,5,0,0:0:0:0:
236,199,154241,5,0,0:0:0:0:
213,195,154303,5,0,0:0:0:0:
191,192,154366,5,0,0:0:0:0:
168,193,154428,5,0,0:0:0:0:
175,209,154491,5,0,0:0:0:0:
194,223,154553,5,0,0:0:0:0:
212,236,154616,5,0,0:0:0:0:
231,248,154678,5,0,0:0:0:0:
218,228,154741,5,0,0:0:0:0:
205,210,154803,5,0,0:0:0:0:
189,194,154866,5,0,0:0:0:0:
170,200,154928,5,0,0:0:0:0:
164,221,154991,5,0,0:0:0:0:
162,244,155053,5,0,0:0:0:0:
162,267,155116,5,0,0:0:0:0:
162,263,155178,5,0,0:0:0:0:
163,240,155241,5,0,0:0:0:0:
163,217,155303,5,0,0:0:0:0:
163,195,155366,5,0,0:0:0:0:
164,172,155428,5,0,0:0:0:0:
164,149,155491,5,0,0:0:0:0:
178,145,155553,5,0,0:0:0:0:
199,153,155616,5,0,0:0:0:0:
221,161,155678,5,0,0:0:0:0:
242,169,155741,5,0,0:0:0:0:
263,178,155803,5,0,0:0:0:0:
283,189,155866,5,0,0:0:0:0:
301,203,155928,5,0,0:0:0:0:
313,222,155991,5,0,0:0:0:0:
321,210,156053,5,0,0:0:0:0:
325,187,156116,5,0,0:0:0:0:
328,165,156178,5,0,0:0:0:0:
306,159,156241,5,0,0:0:0:0:
284,153,156303,5,0,0:0:0:0:
263,147,156366,5,0,0:0:0:0:
240,141,156428,5,0,0:0:0:0:
218,135,156491,5,0,0:0:0:0:
196,129,156553,5,0,0:0:0:0:
174,123,156616,5,0,0:0:0:0:
196,118,156678,5,0,0:0:0:0:
218,114,156741,5,0,0:0:0:0:
241,110,156803,5,0,0:0:0:0:
218,106,156866,5,0,0:0:0:0:
196,103,156928,5,0,0:0:0:0:
174,107,156991,5,0,0:0:0:0:
158,123,157053,5,0,0:0:0:0:
149,144,157116,5,0,0:0:0:0:
143,166,157178,5,0,0:0:0:0:
134,175,157523,5,0,0:0:0:0:
155,183,157585,5,0,0:0:0:0:
176,192,157648,5,0,0:0:0:0:
197,200,157710,5,0,0:0:0:0:
218,208,157773,5,0,0:0:0:0:
240,216,157835,5,0,0:0:0:0:
227,212,157991,6,0,L|251:137,1,67.4999982118607
249,139,158335,5,0,0:0:0:0:
261,159,158397,5,0,0:0:0:0:
272,178,158460,5,0,0:0:0:0:
283,198,158522,5,0,0:0:0:0:
294,218,158585,5,0,0:0:0:0:
305,238,158647,5,0,0:0:0:0:
316,258,158710,5,0,0:0:0:0:
308,254,158772,5,0,0:0:0:0:
291,240,158835,5,0,0:0:0:0:
274,225,158897,5,0,0:0:0:0:
256,210,158960,5,0,0:0:0:0:
239,196,159022,5,0,0:0:0:0:
222,181,159085,5,0,0:0:0:0:
204,166,159147,5,0,0:0:0:0:
191,152,159210,5,0,0:0:0:0:
213,148,159272,5,0,0:0:0:0:
236,144,159335,5,0,0:0:0:0:
258,140,159397,5,0,0:0:0:0:
280,136,159460,5,0,0:0:0:0:
303,132,159522,5,0,0:0:0:0:
311,144,159585,5,0,0:0:0:0:
308,167,159647,5,0,0:0:0:0:
303,188,159710,5,0,0:0:0:0:
290,207,159772,5,0,0:0:0:0:
269,208,159835,5,0,0:0:0:0:
250,195,159897,5,0,0:0:0:0:
266,193,159960,5,0,0:0:0:0:
285,189,160022,5,0,0:0:0:0:
264,180,160085,5,0,0:0:0:0:
242,173,160147,5,0,0:0:0:0:
239,169,160273,5,0,0:0:0:0:
220,181,160335,5,0,0:0:0:0:
201,194,160398,5,0,0:0:0:0:
182,207,160460,5,0,0:0:0:0:
171,198,160523,5,0,0:0:0:0:
166,176,160585,5,0,0:0:0:0:
163,176,160648,5,0,0:0:0:0:
161,199,160710,5,0,0:0:0:0:
160,222,160773,5,0,0:0:0:0:
203,139,160991,5,0,0:0:0:0:
224,146,161053,5,0,0:0:0:0:
236,165,161116,5,0,0:0:0:0:
234,187,161178,5,0,0:0:0:0:
220,204,161241,5,0,0:0:0:0:
197,208,161303,5,0,0:0:0:0:
177,198,161366,5,0,0:0:0:0:
167,178,161428,5,0,0:0:0:0:
172,156,161491,5,0,0:0:0:0:
189,141,161553,5,0,0:0:0:0:
260,151,161648,5,0,0:0:0:0:
262,173,161710,5,0,0:0:0:0:
265,196,161773,5,0,0:0:0:0:
268,218,161835,5,0,0:0:0:0:
268,171,161898,5,0,0:0:0:0:
281,153,161960,5,0,0:0:0:0:
296,135,162023,5,0,0:0:0:0:
274,192,162054,5,0,0:0:0:0:
289,207,162116,5,0,0:0:0:0:
154,159,164023,5,0,0:0:0:0:
165,159,164085,5,0,0:0:0:0:
176,160,164148,5,0,0:0:0:0:
188,160,164210,5,0,0:0:0:0:
199,161,164273,5,0,0:0:0:0:
211,161,164335,5,0,0:0:0:0:
222,162,164398,5,0,0:0:0:0:
234,162,164460,5,0,0:0:0:0:
245,162,164523,5,0,0:0:0:0:
257,163,164585,5,0,0:0:0:0:
268,163,164648,5,0,0:0:0:0:
279,164,164710,5,0,0:0:0:0:
290,164,164773,5,0,0:0:0:0:
302,165,164835,5,0,0:0:0:0:
312,166,164898,5,0,0:0:0:0:
311,178,164960,5,0,0:0:0:0:
310,189,165023,5,0,0:0:0:0:
309,200,165085,5,0,0:0:0:0:
309,203,165148,5,0,0:0:0:0:
311,192,165210,5,0,0:0:0:0:
312,181,165273,5,0,0:0:0:0:
314,172,165335,5,0,0:0:0:0:
313,184,165398,5,0,0:0:0:0:
313,183,165460,5,0,0:0:0:0:
316,184,165523,5,0,0:0:0:0:
316,181,165585,5,0,0:0:0:0:
316,186,165648,5,0,0:0:0:0:
316,183,165710,5,0,0:0:0:0:
316,187,165773,5,0,0:0:0:0:
316,178,165835,5,0,0:0:0:0:
316,189,165898,5,0,0:0:0:0:
316,186,165960,5,0,0:0:0:0:
316,176,166023,5,0,0:0:0:0:
316,187,166085,5,0,0:0:0:0:
316,192,166148,5,0,0:0:0:0:
316,181,166210,5,0,0:0:0:0:
316,177,166273,5,0,0:0:0:0:
316,188,166335,5,0,0:0:0:0:
316,200,166398,5,0,0:0:0:0:
316,200,166460,5,0,0:0:0:0:
316,188,166523,5,0,0:0:0:0:
316,177,166585,5,0,0:0:0:0:
316,166,166648,5,0,0:0:0:0:
316,175,166710,5,0,0:0:0:0:
316,187,166773,5,0,0:0:0:0:
316,198,166835,5,0,0:0:0:0:
316,205,166898,5,0,0:0:0:0:
316,194,166960,5,0,0:0:0:0:
316,182,167023,5,0,0:0:0:0:
316,171,167085,5,0,0:0:0:0:
316,166,167148,5,0,0:0:0:0:
316,177,167210,5,0,0:0:0:0:
316,189,167273,5,0,0:0:0:0:
316,200,167335,5,0,0:0:0:0:
316,207,167398,5,0,0:0:0:0:
316,196,167460,5,0,0:0:0:0:
316,184,167523,5,0,0:0:0:0:
316,173,167585,5,0,0:0:0:0:
316,162,167648,5,0,0:0:0:0:
316,171,167710,5,0,0:0:0:0:
316,183,167773,5,0,0:0:0:0:
316,194,167835,5,0,0:0:0:0:
316,206,167898,5,0,0:0:0:0:
318,204,167991,5,0,0:0:0:0:
305,204,168053,5,0,0:0:0:0:
291,204,168116,5,0,0:0:0:0:
277,204,168178,5,0,0:0:0:0:
264,204,168241,5,0,0:0:0:0:
250,204,168303,5,0,0:0:0:0:
236,204,168366,5,0,0:0:0:0:
223,204,168428,5,0,0:0:0:0:
209,204,168491,5,0,0:0:0:0:
198,204,168553,5,0,0:0:0:0:
212,204,168616,5,0,0:0:0:0:
221,204,168678,5,0,0:0:0:0:
207,204,168741,5,0,0:0:0:0:
204,204,168803,5,0,0:0:0:0:
218,204,168866,5,0,0:0:0:0:
210,204,168928,5,0,0:0:0:0:
205,204,168991,5,0,0:0:0:0:
218,204,169053,5,0,0:0:0:0:
206,204,169116,5,0,0:0:0:0:
213,204,169178,5,0,0:0:0:0:
207,204,169241,5,0,0:0:0:0:
213,204,169303,5,0,0:0:0:0:
212,204,169366,5,0,0:0:0:0:
220,204,169428,5,0,0:0:0:0:
233,204,169491,5,0,0:0:0:0:
247,204,169553,5,0,0:0:0:0:
261,204,169616,5,0,0:0:0:0:
274,204,169678,5,0,0:0:0:0:
288,204,169741,5,0,0:0:0:0:
302,204,169803,5,0,0:0:0:0:
315,204,169866,5,0,0:0:0:0:
304,204,169928,5,0,0:0:0:0:
290,204,169991,5,0,0:0:0:0:
276,204,170053,5,0,0:0:0:0:
263,204,170116,5,0,0:0:0:0:
249,204,170178,5,0,0:0:0:0:
235,204,170241,5,0,0:0:0:0:
229,204,170303,5,0,0:0:0:0:
242,204,170366,5,0,0:0:0:0:
256,204,170428,5,0,0:0:0:0:
270,204,170491,5,0,0:0:0:0:
283,204,170553,5,0,0:0:0:0:
297,204,170616,5,0,0:0:0:0:
311,204,170678,5,0,0:0:0:0:
304,204,170741,5,0,0:0:0:0:
290,204,170803,5,0,0:0:0:0:
277,204,170866,5,0,0:0:0:0:
263,204,170928,5,0,0:0:0:0:
249,204,170991,5,0,0:0:0:0:
236,204,171053,5,0,0:0:0:0:
232,204,171116,5,0,0:0:0:0:
246,204,171178,5,0,0:0:0:0:
260,204,171241,5,0,0:0:0:0:
273,204,171303,5,0,0:0:0:0:
287,204,171366,5,0,0:0:0:0:
301,204,171428,5,0,0:0:0:0:
310,204,171491,5,0,0:0:0:0:
297,204,171553,5,0,0:0:0:0:
283,204,171616,5,0,0:0:0:0:
269,204,171678,5,0,0:0:0:0:
256,204,171741,5,0,0:0:0:0:
242,204,171803,5,0,0:0:0:0:
230,204,171866,5,0,0:0:0:0:
244,204,171928,5,0,0:0:0:0:
258,204,171991,5,0,0:0:0:0:
271,204,172053,5,0,0:0:0:0:
285,204,172116,5,0,0:0:0:0:
299,204,172178,5,0,0:0:0:0:
308,204,172241,5,0,0:0:0:0:
295,204,172303,5,0,0:0:0:0:
281,204,172366,5,0,0:0:0:0:
267,204,172428,5,0,0:0:0:0:
253,204,172491,5,0,0:0:0:0:
240,204,172553,5,0,0:0:0:0:
236,204,172616,5,0,0:0:0:0:
250,204,172678,5,0,0:0:0:0:
264,204,172741,5,0,0:0:0:0:
277,204,172803,5,0,0:0:0:0:
291,204,172866,5,0,0:0:0:0:
305,204,172928,5,0,0:0:0:0:
298,204,172991,5,0,0:0:0:0:
284,204,173053,5,0,0:0:0:0:
271,204,173116,5,0,0:0:0:0:
257,204,173178,5,0,0:0:0:0:
243,204,173241,5,0,0:0:0:0:
237,204,173303,5,0,0:0:0:0:
250,204,173366,5,0,0:0:0:0:
264,204,173428,5,0,0:0:0:0:
278,204,173491,5,0,0:0:0:0:
291,204,173553,5,0,0:0:0:0:
305,204,173616,5,0,0:0:0:0:
294,204,173678,5,0,0:0:0:0:
280,204,173741,5,0,0:0:0:0:
266,204,173803,5,0,0:0:0:0:
252,204,173866,5,0,0:0:0:0:
239,204,173928,5,0,0:0:0:0:
245,204,173991,5,0,0:0:0:0:
259,204,174053,5,0,0:0:0:0:
273,204,174116,5,0,0:0:0:0:
286,204,174178,5,0,0:0:0:0:
300,204,174241,5,0,0:0:0:0:
295,204,174303,5,0,0:0:0:0:
281,204,174366,5,0,0:0:0:0:
267,204,174428,5,0,0:0:0:0:
253,204,174491,5,0,0:0:0:0:
240,204,174553,5,0,0:0:0:0:
248,204,174616,5,0,0:0:0:0:
262,204,174678,5,0,0:0:0:0:
276,204,174741,5,0,0:0:0:0:
289,204,174803,5,0,0:0:0:0:
301,204,174866,5,0,0:0:0:0:
287,204,174928,5,0,0:0:0:0:
274,204,174991,5,0,0:0:0:0:
260,204,175053,5,0,0:0:0:0:
246,204,175116,5,0,0:0:0:0:
246,204,175178,5,0,0:0:0:0:
260,204,175241,5,0,0:0:0:0:
273,204,175303,5,0,0:0:0:0:
287,204,175366,5,0,0:0:0:0:
300,204,175428,5,0,0:0:0:0:
286,204,175491,5,0,0:0:0:0:
272,204,175553,5,0,0:0:0:0:
259,204,175616,5,0,0:0:0:0:
245,204,175678,5,0,0:0:0:0:
251,204,175741,5,0,0:0:0:0:
265,204,175803,5,0,0:0:0:0:
279,204,175866,5,0,0:0:0:0:
293,204,175928,5,0,0:0:0:0:
290,204,175991,5,0,0:0:0:0:
276,204,176053,5,0,0:0:0:0:
263,204,176116,5,0,0:0:0:0:
258,204,176178,5,0,0:0:0:0:
272,204,176241,5,0,0:0:0:0:
285,204,176303,5,0,0:0:0:0:
293,204,176366,5,0,0:0:0:0:
279,204,176428,5,0,0:0:0:0:
266,204,176491,5,0,0:0:0:0:
259,204,176553,5,0,0:0:0:0:
273,204,176616,5,0,0:0:0:0:
286,204,176678,5,0,0:0:0:0:
288,204,176741,5,0,0:0:0:0:
274,204,176803,5,0,0:0:0:0:
261,204,176866,5,0,0:0:0:0:
268,205,176928,5,0,0:0:0:0:
281,207,176991,5,0,0:0:0:0:
295,209,177053,5,0,0:0:0:0:
287,208,177116,5,0,0:0:0:0:
274,206,177178,5,0,0:0:0:0:
260,204,177241,5,0,0:0:0:0:
272,204,177303,5,0,0:0:0:0:
286,204,177366,5,0,0:0:0:0:
284,204,177428,5,0,0:0:0:0:
270,204,177491,5,0,0:0:0:0:
266,203,177553,5,0,0:0:0:0:
271,203,177616,5,0,0:0:0:0:
314,204,177710,5,0,0:0:0:0:
303,201,177772,5,0,0:0:0:0:
291,199,177835,5,0,0:0:0:0:
280,197,177897,5,0,0:0:0:0:
269,195,177960,5,0,0:0:0:0:
258,192,178022,5,0,0:0:0:0:
249,186,178085,5,0,0:0:0:0:
260,181,178147,5,0,0:0:0:0:
271,179,178210,5,0,0:0:0:0:
282,177,178272,5,0,0:0:0:0:
294,175,178335,5,0,0:0:0:0:
305,174,178397,5,0,0:0:0:0:
316,172,178460,5,0,0:0:0:0:
327,170,178522,5,0,0:0:0:0:
322,168,178585,5,0,0:0:0:0:
311,168,178647,5,0,0:0:0:0:
299,168,178710,5,0,0:0:0:0:
288,168,178772,5,0,0:0:0:0:
276,168,178835,5,0,0:0:0:0:
265,168,178897,5,0,0:0:0:0:
253,169,178960,5,0,0:0:0:0:
242,169,179022,5,0,0:0:0:0:
247,169,179085,5,0,0:0:0:0:
259,168,179147,5,0,0:0:0:0:
270,168,179210,5,0,0:0:0:0:
281,167,179272,5,0,0:0:0:0:
293,167,179335,5,0,0:0:0:0:
304,166,179397,5,0,0:0:0:0:
316,166,179460,5,0,0:0:0:0:
327,165,179522,5,0,0:0:0:0:
318,163,179585,5,0,0:0:0:0:
307,161,179647,5,0,0:0:0:0:
296,158,179710,5,0,0:0:0:0:
285,154,179772,5,0,0:0:0:0:
275,149,179835,5,0,0:0:0:0:
265,144,179897,5,0,0:0:0:0:
255,138,179960,5,0,0:0:0:0:
246,131,180022,5,0,0:0:0:0:
238,124,180085,5,0,0:0:0:0:
231,114,180147,5,0,0:0:0:0:
230,103,180210,5,0,0:0:0:0:
239,98,180272,5,0,0:0:0:0:
230,104,180335,5,0,0:0:0:0:
221,111,180397,5,0,0:0:0:0:
213,120,180460,5,0,0:0:0:0:
206,129,180522,5,0,0:0:0:0:
201,139,180585,5,0,0:0:0:0:
198,150,180647,5,0,0:0:0:0:
198,162,180710,5,0,0:0:0:0:
200,173,180772,5,0,0:0:0:0:
203,184,180835,5,0,0:0:0:0:
208,194,180897,5,0,0:0:0:0:
214,204,180960,5,0,0:0:0:0:
221,213,181022,5,0,0:0:0:0:
228,222,181085,5,0,0:0:0:0:
235,231,181147,5,0,0:0:0:0:
243,239,181210,5,0,0:0:0:0:
251,246,181272,5,0,0:0:0:0:
260,254,181335,5,0,0:0:0:0:
269,261,181397,5,0,0:0:0:0:
278,269,181460,5,0,0:0:0:0:
286,273,181522,5,0,0:0:0:0:
292,263,181585,5,0,0:0:0:0:
298,253,181647,5,0,0:0:0:0:
303,243,181710,5,0,0:0:0:0:
309,234,181772,5,0,0:0:0:0:
314,223,181835,5,0,0:0:0:0:
320,214,181897,5,0,0:0:0:0:
326,204,181960,5,0,0:0:0:0:
332,194,182022,5,0,0:0:0:0:
338,184,182085,5,0,0:0:0:0:
344,175,182147,5,0,0:0:0:0:
351,166,182210,5,0,0:0:0:0:
357,156,182272,5,0,0:0:0:0:
365,147,182335,5,0,0:0:0:0:
372,140,182397,5,0,0:0:0:0:
362,135,182460,5,0,0:0:0:0:
352,130,182522,5,0,0:0:0:0:
342,125,182585,5,0,0:0:0:0:
332,118,182647,5,0,0:0:0:0:
331,109,182710,5,0,0:0:0:0:
341,103,182772,5,0,0:0:0:0:
346,98,182835,5,0,0:0:0:0:
335,97,182897,5,0,0:0:0:0:
323,96,182960,5,0,0:0:0:0:
312,95,183022,5,0,0:0:0:0:
301,95,183085,5,0,0:0:0:0:
289,94,183147,5,0,0:0:0:0:
278,94,183210,5,0,0:0:0:0:
267,94,183272,5,0,0:0:0:0:
264,98,183273,5,0,0:0:0:0:
264,100,183335,5,0,0:0:0:0:
264,102,183398,5,0,0:0:0:0:
264,105,183460,5,0,0:0:0:0:
264,107,183523,5,0,0:0:0:0:
264,109,183585,5,0,0:0:0:0:
264,111,183648,5,0,0:0:0:0:
264,114,183710,5,0,0:0:0:0:
264,116,183773,5,0,0:0:0:0:
264,118,183835,5,0,0:0:0:0:
264,121,183898,5,0,0:0:0:0:
264,123,183960,5,0,0:0:0:0:
264,125,184023,5,0,0:0:0:0:
264,128,184085,5,0,0:0:0:0:
264,130,184148,5,0,0:0:0:0:
264,132,184210,5,0,0:0:0:0:
264,134,184273,5,0,0:0:0:0:
264,137,184335,5,0,0:0:0:0:
263,139,184398,5,0,0:0:0:0:
263,141,184460,5,0,0:0:0:0:
263,143,184523,5,0,0:0:0:0:
263,146,184585,5,0,0:0:0:0:
263,148,184648,5,0,0:0:0:0:
262,150,184710,5,0,0:0:0:0:
262,152,184773,5,0,0:0:0:0:
262,155,184835,5,0,0:0:0:0:
261,157,184898,5,0,0:0:0:0:
261,160,184960,5,0,0:0:0:0:
261,162,185023,5,0,0:0:0:0:
260,164,185085,5,0,0:0:0:0:
260,166,185148,5,0,0:0:0:0:
259,168,185210,5,0,0:0:0:0:
259,171,185273,5,0,0:0:0:0:
258,173,185335,5,0,0:0:0:0:
257,175,185398,5,0,0:0:0:0:
257,177,185460,5,0,0:0:0:0:
256,179,185523,5,0,0:0:0:0:
255,181,185585,5,0,0:0:0:0:
254,183,185648,5,0,0:0:0:0:
253,186,185710,5,0,0:0:0:0:
252,188,185773,5,0,0:0:0:0:
251,190,185835,5,0,0:0:0:0:
250,192,185898,5,0,0:0:0:0:
249,194,185960,5,0,0:0:0:0:
248,196,186023,5,0,0:0:0:0:
247,198,186085,5,0,0:0:0:0:
246,200,186148,5,0,0:0:0:0:
244,202,186210,5,0,0:0:0:0:
243,203,186273,5,0,0:0:0:0:
241,205,186335,5,0,0:0:0:0:
240,207,186398,5,0,0:0:0:0:
238,208,186460,5,0,0:0:0:0:
237,210,186523,5,0,0:0:0:0:
235,211,186585,5,0,0:0:0:0:
233,213,186648,5,0,0:0:0:0:
231,214,186710,5,0,0:0:0:0:
229,215,186773,5,0,0:0:0:0:
227,216,186835,5,0,0:0:0:0:
225,217,186898,5,0,0:0:0:0:
223,218,186960,5,0,0:0:0:0:
221,219,187023,5,0,0:0:0:0:
219,220,187085,5,0,0:0:0:0:
216,220,187148,5,0,0:0:0:0:
214,221,187210,5,0,0:0:0:0:
212,221,187273,5,0,0:0:0:0:
210,222,187335,5,0,0:0:0:0:
208,222,187398,5,0,0:0:0:0:
205,222,187460,5,0,0:0:0:0:
203,222,187523,5,0,0:0:0:0:
201,222,187585,5,0,0:0:0:0:
199,222,187648,5,0,0:0:0:0:
196,222,187710,5,0,0:0:0:0:
194,222,187773,5,0,0:0:0:0:
192,222,187835,5,0,0:0:0:0:
190,222,187898,5,0,0:0:0:0:
187,222,187960,5,0,0:0:0:0:
185,221,188023,5,0,0:0:0:0:
182,221,188085,5,0,0:0:0:0:
180,220,188148,5,0,0:0:0:0:
178,220,188210,5,0,0:0:0:0:
176,219,188273,5,0,0:0:0:0:
174,219,188335,5,0,0:0:0:0:
171,218,188398,5,0,0:0:0:0:
169,218,188460,5,0,0:0:0:0:
167,217,188523,5,0,0:0:0:0:
165,216,188585,5,0,0:0:0:0:
163,216,188648,5,0,0:0:0:0:
163,215,188710,5,0,0:0:0:0:
165,213,188773,5,0,0:0:0:0:
167,212,188835,5,0,0:0:0:0:
168,210,188898,5,0,0:0:0:0:
170,209,188960,5,0,0:0:0:0:
172,208,189023,5,0,0:0:0:0:
174,206,189085,5,0,0:0:0:0:
175,205,189148,5,0,0:0:0:0:
177,203,189210,5,0,0:0:0:0:
179,202,189273,5,0,0:0:0:0:
180,200,189335,5,0,0:0:0:0:
182,199,189398,5,0,0:0:0:0:
184,198,189460,5,0,0:0:0:0:
186,196,189523,5,0,0:0:0:0:
188,195,189585,5,0,0:0:0:0:
190,193,189648,5,0,0:0:0:0:
191,192,189710,5,0,0:0:0:0:
193,190,189773,5,0,0:0:0:0:
194,189,189835,5,0,0:0:0:0:
192,187,189898,5,0,0:0:0:0:
190,186,189960,5,0,0:0:0:0:
189,184,190023,5,0,0:0:0:0:
187,183,190085,5,0,0:0:0:0:
185,182,190148,5,0,0:0:0:0:
183,180,190210,5,0,0:0:0:0:
181,179,190273,5,0,0:0:0:0:
179,178,190335,5,0,0:0:0:0:
178,176,190398,5,0,0:0:0:0:
176,175,190460,5,0,0:0:0:0:
174,173,190523,5,0,0:0:0:0:
172,172,190585,5,0,0:0:0:0:
171,171,190648,5,0,0:0:0:0:
169,169,190710,5,0,0:0:0:0:
167,168,190773,5,0,0:0:0:0:
166,166,190835,5,0,0:0:0:0:
167,164,190898,5,0,0:0:0:0:
168,162,190960,5,0,0:0:0:0:
168,160,191023,5,0,0:0:0:0:
169,158,191085,5,0,0:0:0:0:
170,156,191148,5,0,0:0:0:0:
172,153,191210,5,0,0:0:0:0:
173,152,191273,5,0,0:0:0:0:
175,151,191335,5,0,0:0:0:0:
177,150,191398,5,0,0:0:0:0:
180,150,191460,5,0,0:0:0:0:
182,149,191523,5,0,0:0:0:0:
185,149,191585,5,0,0:0:0:0:
187,150,191648,5,0,0:0:0:0:
189,150,191710,5,0,0:0:0:0:
191,150,191773,5,0,0:0:0:0:
193,151,191835,5,0,0:0:0:0:
196,152,191898,5,0,0:0:0:0:
198,152,191960,5,0,0:0:0:0:
200,153,192023,5,0,0:0:0:0:
202,154,192085,5,0,0:0:0:0:
204,155,192148,5,0,0:0:0:0:
206,156,192210,5,0,0:0:0:0:
208,157,192273,5,0,0:0:0:0:
210,158,192335,5,0,0:0:0:0:
212,159,192398,5,0,0:0:0:0:
214,160,192460,5,0,0:0:0:0:
216,161,192523,5,0,0:0:0:0:
218,162,192585,5,0,0:0:0:0:
220,164,192648,5,0,0:0:0:0:
222,165,192710,5,0,0:0:0:0:
224,166,192773,5,0,0:0:0:0:
226,167,192835,5,0,0:0:0:0:
228,169,192898,5,0,0:0:0:0:
230,170,192960,5,0,0:0:0:0:
231,171,193023,5,0,0:0:0:0:
233,173,193085,5,0,0:0:0:0:
235,174,193148,5,0,0:0:0:0:
237,176,193210,5,0,0:0:0:0:
238,177,193273,5,0,0:0:0:0:
240,179,193335,5,0,0:0:0:0:
241,181,193398,5,0,0:0:0:0:
243,182,193460,5,0,0:0:0:0:
244,184,193523,5,0,0:0:0:0:
246,186,193585,5,0,0:0:0:0:
247,187,193648,5,0,0:0:0:0:
248,189,193710,5,0,0:0:0:0:
250,192,193773,5,0,0:0:0:0:
251,193,193835,5,0,0:0:0:0:
252,195,193898,5,0,0:0:0:0:
253,197,193960,5,0,0:0:0:0:
254,199,194023,5,0,0:0:0:0:
255,202,194085,5,0,0:0:0:0:
256,204,194148,5,0,0:0:0:0:
256,206,194210,5,0,0:0:0:0:
257,208,194273,5,0,0:0:0:0:
257,210,194335,5,0,0:0:0:0:
257,213,194398,5,0,0:0:0:0:
257,215,194460,5,0,0:0:0:0:
257,217,194523,5,0,0:0:0:0:
256,219,194585,5,0,0:0:0:0:
256,221,194648,5,0,0:0:0:0:
254,223,194710,5,0,0:0:0:0:
253,226,194773,5,0,0:0:0:0:
252,227,194835,5,0,0:0:0:0:
251,230,194898,5,0,0:0:0:0:
249,232,194960,5,0,0:0:0:0:
248,233,195023,5,0,0:0:0:0:
246,235,195085,5,0,0:0:0:0:
245,236,195148,5,0,0:0:0:0:
243,238,195210,5,0,0:0:0:0:
241,239,195273,5,0,0:0:0:0:
239,240,195335,5,0,0:0:0:0:
237,242,195398,5,0,0:0:0:0:
236,243,195460,5,0,0:0:0:0:
234,244,195523,5,0,0:0:0:0:
232,245,195585,5,0,0:0:0:0:
230,246,195648,5,0,0:0:0:0:
228,247,195710,5,0,0:0:0:0:
226,248,195773,5,0,0:0:0:0:
223,246,195866,5,0,0:0:0:0:
231,235,195928,5,0,0:0:0:0:
239,224,195991,5,0,0:0:0:0:
247,213,196053,5,0,0:0:0:0:
256,202,196116,5,0,0:0:0:0:
264,191,196178,5,0,0:0:0:0:
272,180,196241,5,0,0:0:0:0:
280,169,196303,5,0,0:0:0:0:
288,158,196366,5,0,0:0:0:0:
297,147,196428,5,0,0:0:0:0:
306,137,196491,5,0,0:0:0:0:
316,128,196553,5,0,0:0:0:0:
303,126,196616,5,0,0:0:0:0:
289,123,196678,5,0,0:0:0:0:
276,121,196741,5,0,0:0:0:0:
262,117,196803,5,0,0:0:0:0:
249,115,196866,5,0,0:0:0:0:
235,112,196928,5,0,0:0:0:0:
222,109,196991,5,0,0:0:0:0:
212,114,197053,5,0,0:0:0:0:
210,127,197116,5,0,0:0:0:0:
213,140,197178,5,0,0:0:0:0:
221,152,197241,5,0,0:0:0:0:
229,163,197303,5,0,0:0:0:0:
239,172,197366,5,0,0:0:0:0:
250,181,197428,5,0,0:0:0:0:
261,189,197491,5,0,0:0:0:0:
272,196,197553,5,0,0:0:0:0:
284,203,197616,5,0,0:0:0:0:
296,210,197678,5,0,0:0:0:0:
308,216,197741,5,0,0:0:0:0:
319,219,197803,5,0,0:0:0:0:
323,206,197866,5,0,0:0:0:0:
327,194,197928,5,0,0:0:0:0:
332,180,197991,5,0,0:0:0:0:
337,168,198053,5,0,0:0:0:0:
341,154,198116,5,0,0:0:0:0:
345,142,198178,5,0,0:0:0:0:
350,129,198241,5,0,0:0:0:0:
354,116,198303,5,0,0:0:0:0:
357,114,198366,5,0,0:0:0:0:
357,128,198428,5,0,0:0:0:0:
357,141,198491,5,0,0:0:0:0:
355,154,198553,5,0,0:0:0:0:
353,168,198616,5,0,0:0:0:0:
349,181,198678,5,0,0:0:0:0:
343,194,198741,5,0,0:0:0:0:
336,205,198803,5,0,0:0:0:0:
326,215,198866,5,0,0:0:0:0:
316,224,198928,5,0,0:0:0:0:
305,232,198991,5,0,0:0:0:0:
292,237,199053,5,0,0:0:0:0:
279,242,199116,5,0,0:0:0:0:
266,245,199178,5,0,0:0:0:0:
252,247,199241,5,0,0:0:0:0:
239,248,199303,5,0,0:0:0:0:
225,249,199366,5,0,0:0:0:0:
211,249,199428,5,0,0:0:0:0:
211,249,199491,5,0,0:0:0:0:
211,246,199553,5,0,0:0:0:0:
212,244,199616,5,0,0:0:0:0:
212,242,199678,5,0,0:0:0:0:
213,240,199741,5,0,0:0:0:0:
213,237,199803,5,0,0:0:0:0:
214,235,199866,5,0,0:0:0:0:
214,233,199928,5,0,0:0:0:0:
214,231,199991,5,0,0:0:0:0:
215,229,200053,5,0,0:0:0:0:
215,226,200116,5,0,0:0:0:0:
216,224,200178,5,0,0:0:0:0:
216,222,200241,5,0,0:0:0:0:
217,219,200303,5,0,0:0:0:0:
217,217,200366,5,0,0:0:0:0:
218,215,200428,5,0,0:0:0:0:
218,213,200491,5,0,0:0:0:0:
219,211,200553,5,0,0:0:0:0:
220,208,200616,5,0,0:0:0:0:
220,206,200678,5,0,0:0:0:0:
221,204,200741,5,0,0:0:0:0:
221,202,200803,5,0,0:0:0:0:
222,200,200866,5,0,0:0:0:0:
222,197,200928,5,0,0:0:0:0:
223,195,200991,5,0,0:0:0:0:
223,193,201053,5,0,0:0:0:0:
224,190,201116,5,0,0:0:0:0:
224,188,201178,5,0,0:0:0:0:
225,186,201241,5,0,0:0:0:0:
225,184,201303,5,0,0:0:0:0:
226,182,201366,5,0,0:0:0:0:
227,179,201428,5,0,0:0:0:0:
227,177,201491,5,0,0:0:0:0:
228,175,201553,5,0,0:0:0:0:
229,173,201616,5,0,0:0:0:0:
230,171,201678,5,0,0:0:0:0:
230,169,201741,5,0,0:0:0:0:
231,167,201803,5,0,0:0:0:0:
232,165,201866,5,0,0:0:0:0:
233,163,201928,5,0,0:0:0:0:
234,161,201991,5,0,0:0:0:0:
235,159,202053,5,0,0:0:0:0:
236,157,202116,5,0,0:0:0:0:
237,154,202178,5,0,0:0:0:0:
238,152,202241,5,0,0:0:0:0:
239,150,202303,5,0,0:0:0:0:
241,148,202366,5,0,0:0:0:0:
242,147,202428,5,0,0:0:0:0:
244,145,202491,5,0,0:0:0:0:
245,143,202553,5,0,0:0:0:0:
247,142,202616,5,0,0:0:0:0:
249,140,202678,5,0,0:0:0:0:
250,139,202741,5,0,0:0:0:0:
252,138,202803,5,0,0:0:0:0:
254,137,202866,5,0,0:0:0:0:
257,135,202928,5,0,0:0:0:0:
259,134,202991,5,0,0:0:0:0:
261,134,203053,5,0,0:0:0:0:
263,133,203116,5,0,0:0:0:0:
265,132,203178,5,0,0:0:0:0:
267,131,203241,5,0,0:0:0:0:
269,131,203303,5,0,0:0:0:0:
271,130,203366,5,0,0:0:0:0:
273,129,203428,5,0,0:0:0:0:
276,129,203491,5,0,0:0:0:0:
278,128,203553,5,0,0:0:0:0:
280,128,203616,5,0,0:0:0:0:
282,127,203678,5,0,0:0:0:0:
284,127,203741,5,0,0:0:0:0:
287,126,203803,5,0,0:0:0:0:
289,126,203866,5,0,0:0:0:0:
291,125,203928,5,0,0:0:0:0:
294,125,203991,5,0,0:0:0:0:
296,125,204053,5,0,0:0:0:0:
298,124,204116,5,0,0:0:0:0:
300,124,204178,5,0,0:0:0:0:
303,123,204241,5,0,0:0:0:0:
305,123,204303,5,0,0:0:0:0:
307,123,204366,5,0,0:0:0:0:
307,124,204428,5,0,0:0:0:0:
307,126,204491,5,0,0:0:0:0:
306,128,204553,5,0,0:0:0:0:
305,130,204616,5,0,0:0:0:0:
304,132,204678,5,0,0:0:0:0:
303,134,204741,5,0,0:0:0:0:
302,136,204803,5,0,0:0:0:0:
301,138,204866,5,0,0:0:0:0:
300,140,204928,5,0,0:0:0:0:
299,142,204991,5,0,0:0:0:0:
298,144,205053,5,0,0:0:0:0:
297,146,205116,5,0,0:0:0:0:
296,148,205178,5,0,0:0:0:0:
295,150,205241,5,0,0:0:0:0:
294,152,205303,5,0,0:0:0:0:
293,154,205366,5,0,0:0:0:0:
292,157,205428,5,0,0:0:0:0:
291,159,205491,5,0,0:0:0:0:
290,161,205553,5,0,0:0:0:0:
289,163,205616,5,0,0:0:0:0:
288,165,205678,5,0,0:0:0:0:
287,167,205741,5,0,0:0:0:0:
286,169,205803,5,0,0:0:0:0:
285,171,205866,5,0,0:0:0:0:
284,173,205928,5,0,0:0:0:0:
283,175,205991,5,0,0:0:0:0:
282,177,206053,5,0,0:0:0:0:
282,179,206116,5,0,0:0:0:0:
281,181,206178,5,0,0:0:0:0:
280,183,206241,5,0,0:0:0:0:
279,185,206303,5,0,0:0:0:0:
278,187,206366,5,0,0:0:0:0:
277,190,206428,5,0,0:0:0:0:
276,192,206491,5,0,0:0:0:0:
275,194,206553,5,0,0:0:0:0:
274,196,206616,5,0,0:0:0:0:
273,198,206678,5,0,0:0:0:0:
272,200,206741,5,0,0:0:0:0:
272,202,206803,5,0,0:0:0:0:
274,203,206866,5,0,0:0:0:0:
276,205,206928,5,0,0:0:0:0:
278,206,206991,5,0,0:0:0:0:
280,207,207053,5,0,0:0:0:0:
281,209,207116,5,0,0:0:0:0:
283,210,207178,5,0,0:0:0:0:
285,211,207241,5,0,0:0:0:0:
287,212,207303,5,0,0:0:0:0:
289,214,207366,5,0,0:0:0:0:
291,215,207428,5,0,0:0:0:0:
293,216,207491,5,0,0:0:0:0:
295,218,207553,5,0,0:0:0:0:
296,219,207616,5,0,0:0:0:0:
298,220,207678,5,0,0:0:0:0:
300,222,207741,5,0,0:0:0:0:
302,223,207803,5,0,0:0:0:0:
304,224,207866,5,0,0:0:0:0:
306,226,207928,5,0,0:0:0:0:
307,227,207991,5,0,0:0:0:0:
309,229,208053,5,0,0:0:0:0:
311,230,208116,5,0,0:0:0:0:
313,231,208178,5,0,0:0:0:0:
314,233,208241,5,0,0:0:0:0:
315,235,208303,5,0,0:0:0:0:
316,237,208366,5,0,0:0:0:0:
317,239,208428,5,0,0:0:0:0:
318,241,208491,5,0,0:0:0:0:
318,243,208553,5,0,0:0:0:0:
318,246,208616,5,0,0:0:0:0:
318,248,208678,5,0,0:0:0:0:
318,250,208741,5,0,0:0:0:0:
318,252,208803,5,0,0:0:0:0:
317,254,208866,5,0,0:0:0:0:
315,256,208928,5,0,0:0:0:0:
314,258,208991,5,0,0:0:0:0:
312,259,209053,5,0,0:0:0:0:
310,260,209116,5,0,0:0:0:0:
308,261,209178,5,0,0:0:0:0:
305,261,209241,5,0,0:0:0:0:
303,262,209303,5,0,0:0:0:0:
301,262,209366,5,0,0:0:0:0:
299,262,209428,5,0,0:0:0:0:
296,263,209491,5,0,0:0:0:0:
294,263,209553,5,0,0:0:0:0:
291,263,209616,5,0,0:0:0:0:
289,263,209678,5,0,0:0:0:0:
287,263,209741,5,0,0:0:0:0:
285,263,209803,5,0,0:0:0:0:
282,262,209866,5,0,0:0:0:0:
280,262,209928,5,0,0:0:0:0:
278,262,209991,5,0,0:0:0:0:
276,262,210053,5,0,0:0:0:0:
274,261,210116,5,0,0:0:0:0:
271,261,210178,5,0,0:0:0:0:
269,261,210241,5,0,0:0:0:0:
267,260,210303,5,0,0:0:0:0:
265,260,210366,5,0,0:0:0:0:
262,260,210428,5,0,0:0:0:0:
260,259,210491,5,0,0:0:0:0:
258,259,210553,5,0,0:0:0:0:
256,258,210616,5,0,0:0:0:0:
253,258,210678,5,0,0:0:0:0:
251,258,210741,5,0,0:0:0:0:
249,257,210803,5,0,0:0:0:0:
246,257,210866,5,0,0:0:0:0:
244,256,210928,5,0,0:0:0:0:
242,256,210991,5,0,0:0:0:0:
240,255,211053,5,0,0:0:0:0:
238,255,211116,5,0,0:0:0:0:
236,254,211178,5,0,0:0:0:0:
233,253,211241,5,0,0:0:0:0:
231,253,211303,5,0,0:0:0:0:
229,252,211366,5,0,0:0:0:0:
227,252,211428,5,0,0:0:0:0:
225,251,211491,5,0,0:0:0:0:
222,251,211553,5,0,0:0:0:0:
220,250,211616,5,0,0:0:0:0:
218,249,211678,5,0,0:0:0:0:
221,254,211679,5,0,0:0:0:0:
224,236,211741,5,0,0:0:0:0:
227,218,211804,5,0,0:0:0:0:
229,200,211866,5,0,0:0:0:0:
232,182,211929,5,0,0:0:0:0:
235,164,211991,5,0,0:0:0:0:
250,172,212054,5,0,0:0:0:0:
266,181,212116,5,0,0:0:0:0:
281,190,212179,5,0,0:0:0:0:
296,200,212241,5,0,0:0:0:0:
306,215,212304,5,0,0:0:0:0:
311,233,212366,5,0,0:0:0:0:
301,247,212429,5,0,0:0:0:0:
284,253,212491,5,0,0:0:0:0:
266,254,212554,5,0,0:0:0:0:
247,254,212616,5,0,0:0:0:0:
229,252,212679,5,0,0:0:0:0:
219,244,212710,5,0,0:0:0:0:
198,234,212772,5,0,0:0:0:0:
181,219,212835,5,0,0:0:0:0:
174,198,212897,5,0,0:0:0:0:
181,177,212960,5,0,0:0:0:0:
195,159,213022,5,0,0:0:0:0:
212,148,213085,5,0,0:0:0:0:
234,156,213147,5,0,0:0:0:0:
256,164,213210,5,0,0:0:0:0:
271,179,213272,5,0,0:0:0:0:
278,201,213335,5,0,0:0:0:0:
280,223,213397,5,0,0:0:0:0:
264,234,213460,5,0,0:0:0:0:
242,240,213522,5,0,0:0:0:0:
220,246,213585,5,0,0:0:0:0:
215,246,213616,5,0,0:0:0:0:
213,244,213678,5,0,0:0:0:0:
212,242,213741,5,0,0:0:0:0:
211,240,213803,5,0,0:0:0:0:
210,238,213866,5,0,0:0:0:0:
209,236,213928,5,0,0:0:0:0:
209,234,213991,5,0,0:0:0:0:
208,232,214053,5,0,0:0:0:0:
207,230,214116,5,0,0:0:0:0:
206,227,214178,5,0,0:0:0:0:
205,225,214241,5,0,0:0:0:0:
205,223,214303,5,0,0:0:0:0:
204,221,214366,5,0,0:0:0:0:
204,218,214428,5,0,0:0:0:0:
203,216,214491,5,0,0:0:0:0:
203,214,214553,5,0,0:0:0:0:
202,212,214616,5,0,0:0:0:0:
202,210,214678,5,0,0:0:0:0:
202,207,214741,5,0,0:0:0:0:
202,205,214803,5,0,0:0:0:0:
202,203,214866,5,0,0:0:0:0:
201,201,214928,5,0,0:0:0:0:
201,198,214991,5,0,0:0:0:0:
201,196,215053,5,0,0:0:0:0:
201,194,215116,5,0,0:0:0:0:
202,192,215178,5,0,0:0:0:0:
202,189,215241,5,0,0:0:0:0:
202,187,215303,5,0,0:0:0:0:
202,184,215366,5,0,0:0:0:0:
203,182,215428,5,0,0:0:0:0:
203,180,215491,5,0,0:0:0:0:
203,178,215553,5,0,0:0:0:0:
204,176,215616,5,0,0:0:0:0:
204,173,215678,5,0,0:0:0:0:
205,171,215741,5,0,0:0:0:0:
206,169,215803,5,0,0:0:0:0:
206,167,215866,5,0,0:0:0:0:
207,165,215928,5,0,0:0:0:0:
208,163,215991,5,0,0:0:0:0:
209,161,216053,5,0,0:0:0:0:
210,159,216116,5,0,0:0:0:0:
211,156,216178,5,0,0:0:0:0:
212,154,216241,5,0,0:0:0:0:
213,152,216303,5,0,0:0:0:0:
214,150,216366,5,0,0:0:0:0:
215,148,216428,5,0,0:0:0:0:
216,146,216491,5,0,0:0:0:0:
217,144,216553,5,0,0:0:0:0:
219,142,216616,5,0,0:0:0:0:
220,141,216678,5,0,0:0:0:0:
222,139,216741,5,0,0:0:0:0:
223,137,216803,5,0,0:0:0:0:
225,135,216866,5,0,0:0:0:0:
223,135,216991,5,0,0:0:0:0:
223,157,217053,5,0,0:0:0:0:
222,180,217116,5,0,0:0:0:0:
222,203,217178,5,0,0:0:0:0:
221,225,217241,5,0,0:0:0:0:
221,248,217303,5,0,0:0:0:0:
222,225,217366,5,0,0:0:0:0:
224,202,217428,5,0,0:0:0:0:
225,179,217491,5,0,0:0:0:0:
227,157,217553,5,0,0:0:0:0:
227,168,217616,5,0,0:0:0:0:
227,190,217678,5,0,0:0:0:0:
227,213,217741,5,0,0:0:0:0:
227,199,217803,5,0,0:0:0:0:
227,176,217866,5,0,0:0:0:0:
215,169,217929,5,0,0:0:0:0:
233,168,217991,5,0,0:0:0:0:
251,166,218054,5,0,0:0:0:0:
269,165,218116,5,0,0:0:0:0:
287,164,218179,5,0,0:0:0:0:
306,163,218241,5,0,0:0:0:0:
324,161,218304,5,0,0:0:0:0:
342,160,218366,5,0,0:0:0:0:
353,160,218429,5,0,0:0:0:0:
336,167,218491,5,0,0:0:0:0:
319,173,218554,5,0,0:0:0:0:
302,179,218616,5,0,0:0:0:0:
285,186,218679,5,0,0:0:0:0:
268,193,218741,5,0,0:0:0:0:
251,199,218804,5,0,0:0:0:0:
234,205,218866,5,0,0:0:0:0:
216,212,218929,5,0,0:0:0:0:
200,218,218991,5,0,0:0:0:0:
182,224,219054,5,0,0:0:0:0:
165,231,219116,5,0,0:0:0:0:
168,230,219151,5,0,0:0:0:0:
158,209,219192,5,0,0:0:0:0:
154,187,219234,5,0,0:0:0:0:
156,165,219275,5,0,0:0:0:0:
164,143,219317,5,0,0:0:0:0:
177,125,219359,5,0,0:0:0:0:
196,111,219400,5,0,0:0:0:0:
217,103,219442,5,0,0:0:0:0:
240,102,219484,5,0,0:0:0:0:
262,106,219525,5,0,0:0:0:0:
282,116,219567,5,0,0:0:0:0:
299,132,219609,5,0,0:0:0:0:
310,151,219650,5,0,0:0:0:0:
316,173,219692,5,0,0:0:0:0:
316,196,219734,5,0,0:0:0:0:
309,218,219775,5,0,0:0:0:0:
297,237,219817,5,0,0:0:0:0:
279,252,219859,5,0,0:0:0:0:
259,261,219900,5,0,0:0:0:0:
260,258,219985,5,0,0:0:0:0:
256,236,220026,5,0,0:0:0:0:
252,213,220068,5,0,0:0:0:0:
248,190,220109,5,0,0:0:0:0:
243,173,220151,5,0,0:0:0:0:
228,190,220193,5,0,0:0:0:0:
212,207,220234,5,0,0:0:0:0:
197,220,220276,5,0,0:0:0:0:
181,203,220318,5,0,0:0:0:0:
169,184,220359,5,0,0:0:0:0:
164,162,220401,5,0,0:0:0:0:
168,140,220443,5,0,0:0:0:0:
179,120,220484,5,0,0:0:0:0:
199,109,220526,5,0,0:0:0:0:
220,100,220568,5,0,0:0:0:0:
242,99,220609,5,0,0:0:0:0:
265,98,220651,5,0,0:0:0:0:
286,105,220693,5,0,0:0:0:0:
300,124,220734,5,0,0:0:0:0:
306,145,220776,5,0,0:0:0:0:
307,168,220818,5,0,0:0:0:0:
302,190,220859,5,0,0:0:0:0:
293,211,220901,5,0,0:0:0:0:
282,231,220943,5,0,0:0:0:0:
269,250,220984,5,0,0:0:0:0:
253,258,221318,5,0,0:0:0:0:
231,256,221338,5,0,0:0:0:0:
208,254,221380,5,0,0:0:0:0:
185,253,221421,5,0,0:0:0:0:
162,251,221463,5,0,0:0:0:0:
139,249,221505,5,0,0:0:0:0:
130,245,221546,5,0,0:0:0:0:
151,236,221588,5,0,0:0:0:0:
171,227,221630,5,0,0:0:0:0:
193,218,221671,5,0,0:0:0:0:
213,209,221713,5,0,0:0:0:0:
234,200,221755,5,0,0:0:0:0:
255,191,221796,5,0,0:0:0:0:
276,182,221838,5,0,0:0:0:0:
297,173,221880,5,0,0:0:0:0:
318,164,221921,5,0,0:0:0:0:
300,162,221963,5,0,0:0:0:0:
277,162,222005,5,0,0:0:0:0:
254,161,222046,5,0,0:0:0:0:
231,160,222088,5,0,0:0:0:0:
208,159,222130,5,0,0:0:0:0:
191,159,222276,5,0,0:0:0:0:
188,159,222317,5,0,0:0:0:0:
186,158,222359,5,0,0:0:0:0:
184,158,222400,5,0,0:0:0:0:
181,157,222442,5,0,0:0:0:0:
179,156,222484,5,0,0:0:0:0:
178,154,222525,5,0,0:0:0:0:
176,152,222567,5,0,0:0:0:0:
175,150,222609,5,0,0:0:0:0:
174,148,222650,5,0,0:0:0:0:
173,146,222692,5,0,0:0:0:0:
172,144,222734,5,0,0:0:0:0:
172,142,222775,5,0,0:0:0:0:
172,140,222817,5,0,0:0:0:0:
172,137,222859,5,0,0:0:0:0:
173,135,222900,5,0,0:0:0:0:
174,133,222942,5,0,0:0:0:0:
175,131,222984,5,0,0:0:0:0:
176,129,223025,5,0,0:0:0:0:
178,128,223067,5,0,0:0:0:0:
180,126,223109,5,0,0:0:0:0:
182,125,223150,5,0,0:0:0:0:
184,124,223192,5,0,0:0:0:0:
186,124,223234,5,0,0:0:0:0:
188,123,223275,5,0,0:0:0:0:
191,123,223317,5,0,0:0:0:0:
193,123,223359,5,0,0:0:0:0:
195,124,223400,5,0,0:0:0:0:
197,125,223442,5,0,0:0:0:0:
199,126,223484,5,0,0:0:0:0:
201,127,223525,5,0,0:0:0:0:
197,131,223693,5,0,0:0:0:0:
197,133,223734,5,0,0:0:0:0:
198,135,223776,5,0,0:0:0:0:
199,137,223817,5,0,0:0:0:0:
200,139,223859,5,0,0:0:0:0:
201,141,223901,5,0,0:0:0:0:
202,143,223942,5,0,0:0:0:0:
203,145,223984,5,0,0:0:0:0:
204,147,224026,5,0,0:0:0:0:
204,149,224067,5,0,0:0:0:0:
205,151,224109,5,0,0:0:0:0:
206,153,224151,5,0,0:0:0:0:
207,156,224192,5,0,0:0:0:0:
208,158,224234,5,0,0:0:0:0:
209,160,224276,5,0,0:0:0:0:
210,162,224317,5,0,0:0:0:0:
211,164,224359,5,0,0:0:0:0:
212,166,224401,5,0,0:0:0:0:
212,168,224442,5,0,0:0:0:0:
213,170,224484,5,0,0:0:0:0:
214,172,224526,5,0,0:0:0:0:
215,174,224567,5,0,0:0:0:0:
216,176,224609,5,0,0:0:0:0:
217,179,224651,5,0,0:0:0:0:
218,181,224692,5,0,0:0:0:0:
219,183,224734,5,0,0:0:0:0:
220,185,224776,5,0,0:0:0:0:
221,187,224817,5,0,0:0:0:0:
222,189,224859,5,0,0:0:0:0:
223,191,224901,5,0,0:0:0:0:
224,194,224942,5,0,0:0:0:0:
224,196,224984,5,0,0:0:0:0:
225,198,225026,5,0,0:0:0:0:
226,200,225067,5,0,0:0:0:0:
227,202,225109,5,0,0:0:0:0:
228,204,225151,5,0,0:0:0:0:
229,206,225192,5,0,0:0:0:0:
230,208,225234,5,0,0:0:0:0:
231,210,225276,5,0,0:0:0:0:
232,212,225317,5,0,0:0:0:0:
232,214,225359,5,0,0:0:0:0:
233,215,225401,5,0,0:0:0:0:
232,212,225442,5,0,0:0:0:0:
232,210,225484,5,0,0:0:0:0:
231,208,225526,5,0,0:0:0:0:
231,206,225567,5,0,0:0:0:0:
231,204,225609,5,0,0:0:0:0:
230,201,225651,5,0,0:0:0:0:
230,199,225692,5,0,0:0:0:0:
229,197,225734,5,0,0:0:0:0:
229,195,225776,5,0,0:0:0:0:
228,193,225817,5,0,0:0:0:0:
228,190,225859,5,0,0:0:0:0:
227,188,225901,5,0,0:0:0:0:
227,186,225942,5,0,0:0:0:0:
226,183,225984,5,0,0:0:0:0:
226,181,226026,5,0,0:0:0:0:
225,179,226067,5,0,0:0:0:0:
225,177,226109,5,0,0:0:0:0:
225,175,226151,5,0,0:0:0:0:
224,172,226192,5,0,0:0:0:0:
224,170,226234,5,0,0:0:0:0:
223,168,226276,5,0,0:0:0:0:
224,168,226317,5,0,0:0:0:0:
225,170,226359,5,0,0:0:0:0:
226,172,226401,5,0,0:0:0:0:
227,174,226442,5,0,0:0:0:0:
228,176,226484,5,0,0:0:0:0:
229,178,226526,5,0,0:0:0:0:
230,180,226567,5,0,0:0:0:0:
231,182,226609,5,0,0:0:0:0:
232,184,226651,5,0,0:0:0:0:
233,186,226692,5,0,0:0:0:0:
234,188,226734,5,0,0:0:0:0:
235,190,226776,5,0,0:0:0:0:
236,193,226817,5,0,0:0:0:0:
237,195,226859,5,0,0:0:0:0:
238,197,226901,5,0,0:0:0:0:
239,199,226942,5,0,0:0:0:0:
240,201,226984,5,0,0:0:0:0:
241,203,227026,5,0,0:0:0:0:
242,205,227067,5,0,0:0:0:0:
244,205,227109,5,0,0:0:0:0:
246,203,227151,5,0,0:0:0:0:
247,202,227192,5,0,0:0:0:0:
249,200,227234,5,0,0:0:0:0:
251,199,227276,5,0,0:0:0:0:
252,197,227317,5,0,0:0:0:0:
254,196,227359,5,0,0:0:0:0:
256,194,227401,5,0,0:0:0:0:
258,193,227442,5,0,0:0:0:0:
260,191,227484,5,0,0:0:0:0:
261,189,227526,5,0,0:0:0:0:
263,188,227567,5,0,0:0:0:0:
265,187,227609,5,0,0:0:0:0:
266,185,227651,5,0,0:0:0:0:
268,184,227692,5,0,0:0:0:0:
270,182,227734,5,0,0:0:0:0:
272,181,227776,5,0,0:0:0:0:
273,179,227817,5,0,0:0:0:0:
275,178,227859,5,0,0:0:0:0:
277,176,227901,5,0,0:0:0:0:
278,175,227942,5,0,0:0:0:0:
280,173,227984,5,0,0:0:0:0:
282,172,228026,5,0,0:0:0:0:
283,170,228067,5,0,0:0:0:0:
304,171,228276,5,0,0:0:0:0:
298,175,228317,5,0,0:0:0:0:
293,178,228359,5,0,0:0:0:0:
286,182,228400,5,0,0:0:0:0:
281,185,228442,5,0,0:0:0:0:
275,189,228484,5,0,0:0:0:0:
269,193,228525,5,0,0:0:0:0:
263,196,228567,5,0,0:0:0:0:
258,200,228609,5,0,0:0:0:0:
251,203,228650,5,0,0:0:0:0:
246,207,228692,5,0,0:0:0:0:
240,210,228734,5,0,0:0:0:0:
234,214,228775,5,0,0:0:0:0:
228,218,228817,5,0,0:0:0:0:
223,221,228859,5,0,0:0:0:0:
216,225,228900,5,0,0:0:0:0:
211,229,228942,5,0,0:0:0:0:
205,232,228984,5,0,0:0:0:0:
199,236,229025,5,0,0:0:0:0:
193,239,229067,5,0,0:0:0:0:
188,243,229109,5,0,0:0:0:0:
181,246,229150,5,0,0:0:0:0:
176,250,229192,5,0,0:0:0:0:
170,253,229234,5,0,0:0:0:0:
164,257,229275,5,0,0:0:0:0:
158,261,229317,5,0,0:0:0:0:
153,265,229359,5,0,0:0:0:0:
146,268,229400,5,0,0:0:0:0:
148,266,229442,5,0,0:0:0:0:
153,261,229484,5,0,0:0:0:0:
158,256,229525,5,0,0:0:0:0:
163,252,229567,5,0,0:0:0:0:
168,247,229609,5,0,0:0:0:0:
173,243,229650,5,0,0:0:0:0:
178,238,229692,5,0,0:0:0:0:
182,233,229734,5,0,0:0:0:0:
188,229,229775,5,0,0:0:0:0:
193,223,229817,5,0,0:0:0:0:
198,219,229859,5,0,0:0:0:0:
202,214,229900,5,0,0:0:0:0:
207,209,229942,5,0,0:0:0:0:
212,205,229984,5,0,0:0:0:0:
217,200,230025,5,0,0:0:0:0:
223,196,230067,5,0,0:0:0:0:
227,190,230109,5,0,0:0:0:0:
232,186,230150,5,0,0:0:0:0:
237,181,230192,5,0,0:0:0:0:
242,176,230234,5,0,0:0:0:0:
247,172,230275,5,0,0:0:0:0:
252,167,230317,5,0,0:0:0:0:
257,162,230359,5,0,0:0:0:0:
262,158,230400,5,0,0:0:0:0:
267,153,230442,5,0,0:0:0:0:
272,148,230484,5,0,0:0:0:0:
277,143,230525,5,0,0:0:0:0:
282,139,230567,5,0,0:0:0:0:
287,134,230609,5,0,0:0:0:0:
292,129,230650,5,0,0:0:0:0:
297,125,230692,5,0,0:0:0:0:
302,120,230734,5,0,0:0:0:0:
307,115,230775,5,0,0:0:0:0:
312,110,230817,5,0,0:0:0:0:
317,106,230859,5,0,0:0:0:0:
321,101,230900,5,0,0:0:0:0:
325,102,230942,5,0,0:0:0:0:
327,108,230984,5,0,0:0:0:0:
329,115,231025,5,0,0:0:0:0:
331,122,231067,5,0,0:0:0:0:
333,128,231109,5,0,0:0:0:0:
335,135,231150,5,0,0:0:0:0:
337,141,231192,5,0,0:0:0:0:
339,148,231234,5,0,0:0:0:0:
341,154,231275,5,0,0:0:0:0:
342,161,231317,5,0,0:0:0:0:
344,168,231359,5,0,0:0:0:0:
346,174,231400,5,0,0:0:0:0:
348,181,231442,5,0,0:0:0:0:
348,185,231484,5,0,0:0:0:0:
341,183,231525,5,0,0:0:0:0:
335,181,231567,5,0,0:0:0:0:
328,180,231609,5,0,0:0:0:0:
321,178,231650,5,0,0:0:0:0:
314,176,231692,5,0,0:0:0:0:
308,175,231734,5,0,0:0:0:0:
301,173,231775,5,0,0:0:0:0:
295,171,231817,5,0,0:0:0:0:
256,192,231860,12,0,231901,0:0:0:0:
256,192,232047,12,0,232068,0:0:0:0:
300,159,232151,5,0,0:0:0:0:
282,161,232192,5,0,0:0:0:0:
264,163,232234,5,0,0:0:0:0:
245,165,232275,5,0,0:0:0:0:
227,167,232317,5,0,0:0:0:0:
209,170,232359,5,0,0:0:0:0:
191,172,232400,5,0,0:0:0:0:
173,174,232442,5,0,0:0:0:0:
155,176,232484,5,0,0:0:0:0:
151,170,232525,5,0,0:0:0:0:
162,156,232567,5,0,0:0:0:0:
173,141,232609,5,0,0:0:0:0:
185,127,232650,5,0,0:0:0:0:
197,120,232692,5,0,0:0:0:0:
211,131,232734,5,0,0:0:0:0:
225,143,232775,5,0,0:0:0:0:
239,154,232817,5,0,0:0:0:0:
253,166,232859,5,0,0:0:0:0:
267,177,232900,5,0,0:0:0:0:
279,185,232942,5,0,0:0:0:0:
278,167,232984,5,0,0:0:0:0:
277,148,233025,5,0,0:0:0:0:
276,130,233067,5,0,0:0:0:0:
263,124,233109,5,0,0:0:0:0:
245,123,233150,5,0,0:0:0:0:
227,123,233192,5,0,0:0:0:0:
222,132,233234,5,0,0:0:0:0:
228,149,233275,5,0,0:0:0:0:
234,167,233317,5,0,0:0:0:0:
240,184,233359,5,0,0:0:0:0:
246,201,233400,5,0,0:0:0:0:
256,208,233442,5,0,0:0:0:0:
260,212,233464,5,0,0:0:0:0:
269,191,233505,5,0,0:0:0:0:
278,170,233547,5,0,0:0:0:0:
287,149,233588,5,0,0:0:0:0:
297,129,233630,5,0,0:0:0:0:
284,123,233672,5,0,0:0:0:0:
261,123,233713,5,0,0:0:0:0:
238,123,233755,5,0,0:0:0:0:
215,123,233797,5,0,0:0:0:0:
218,135,233838,5,0,0:0:0:0:
231,154,233880,5,0,0:0:0:0:
244,173,233922,5,0,0:0:0:0:
258,191,233963,5,0,0:0:0:0:
250,175,234005,5,0,0:0:0:0:
240,155,234047,5,0,0:0:0:0:
230,135,234088,5,0,0:0:0:0:
220,114,234130,5,0,0:0:0:0:
236,123,234172,5,0,0:0:0:0:
256,135,234213,5,0,0:0:0:0:
275,147,234255,5,0,0:0:0:0:
275,147,234318,5,0,0:0:0:0:
277,174,234373,5,0,0:0:0:0:
270,200,234429,5,0,0:0:0:0:
244,196,234484,5,0,0:0:0:0:
218,185,234540,5,0,0:0:0:0:
212,178,234595,5,0,0:0:0:0:
239,182,234651,5,0,0:0:0:0:
266,185,234706,5,0,0:0:0:0:
294,188,234762,5,0,0:0:0:0:
320,192,234818,5,0,0:0:0:0:
313,190,234873,5,0,0:0:0:0:
286,184,234929,5,0,0:0:0:0:
260,179,234984,5,0,0:0:0:0:
304,147,235089,5,0,0:0:0:0:
306,149,235172,5,0,0:0:0:0:
304,153,235213,5,0,0:0:0:0:
308,149,235255,5,0,0:0:0:0:
312,145,235297,5,0,0:0:0:0:
307,140,235338,5,0,0:0:0:0:
309,146,235380,5,0,0:0:0:0:
304,147,235422,5,0,0:0:0:0:
305,153,235463,5,0,0:0:0:0:
306,149,235505,5,0,0:0:0:0:
304,153,235546,5,0,0:0:0:0:
308,149,235588,5,0,0:0:0:0:
312,145,235630,5,0,0:0:0:0:
307,140,235671,5,0,0:0:0:0:
309,146,235713,5,0,0:0:0:0:
304,147,235776,5,0,0:0:0:0:
304,149,235817,5,0,0:0:0:0:
305,151,235859,5,0,0:0:0:0:
305,153,235900,5,0,0:0:0:0:
305,156,235942,5,0,0:0:0:0:
306,158,235984,5,0,0:0:0:0:
306,160,236025,5,0,0:0:0:0:
305,159,236067,5,0,0:0:0:0:
305,157,236109,5,0,0:0:0:0:
304,155,236150,5,0,0:0:0:0:
305,153,236192,5,0,0:0:0:0:
307,151,236234,5,0,0:0:0:0:
308,151,236275,5,0,0:0:0:0:
308,154,236317,5,0,0:0:0:0:
308,156,236359,5,0,0:0:0:0:
308,159,236400,5,0,0:0:0:0:
308,157,236442,5,0,0:0:0:0:
307,154,236484,5,0,0:0:0:0:
307,152,236525,5,0,0:0:0:0:
306,150,236567,5,0,0:0:0:0:
306,149,236609,5,0,0:0:0:0:
306,151,236650,5,0,0:0:0:0:
306,154,236692,5,0,0:0:0:0:
306,156,236734,5,0,0:0:0:0:
305,155,236775,5,0,0:0:0:0:
305,153,236817,5,0,0:0:0:0:
304,151,236859,5,0,0:0:0:0:
305,152,236900,5,0,0:0:0:0:
306,154,236942,5,0,0:0:0:0:
305,153,236984,5,0,0:0:0:0:
304,153,237025,5,0,0:0:0:0:
305,156,237067,5,0,0:0:0:0:
306,158,237109,5,0,0:0:0:0:
307,160,237150,5,0,0:0:0:0:
308,160,237192,5,0,0:0:0:0:
309,158,237234,5,0,0:0:0:0:
310,156,237275,5,0,0:0:0:0:
310,153,237317,5,0,0:0:0:0:
310,151,237359,5,0,0:0:0:0:
310,149,237400,5,0,0:0:0:0:
308,149,237442,5,0,0:0:0:0:
309,150,237484,5,0,0:0:0:0:
310,152,237525,5,0,0:0:0:0:
312,154,237567,5,0,0:0:0:0:
312,153,237609,5,0,0:0:0:0:
312,150,237650,5,0,0:0:0:0:
312,148,237692,5,0,0:0:0:0:
312,146,237734,5,0,0:0:0:0:
312,144,237775,5,0,0:0:0:0:
312,143,237817,5,0,0:0:0:0:
312,145,237859,5,0,0:0:0:0:
312,147,237900,5,0,0:0:0:0:
310,148,237942,5,0,0:0:0:0:
308,149,237984,5,0,0:0:0:0:
306,150,238025,5,0,0:0:0:0:
306,148,238067,5,0,0:0:0:0:
307,146,238109,5,0,0:0:0:0:
307,144,238150,5,0,0:0:0:0:
307,142,238192,5,0,0:0:0:0:
308,139,238234,5,0,0:0:0:0:
307,140,238275,5,0,0:0:0:0:
306,142,238317,5,0,0:0:0:0:
305,144,238359,5,0,0:0:0:0:
304,146,238400,5,0,0:0:0:0:
303,148,238442,5,0,0:0:0:0:
302,150,238484,5,0,0:0:0:0:
303,149,238525,5,0,0:0:0:0:
305,148,238567,5,0,0:0:0:0:
306,146,238609,5,0,0:0:0:0:
308,145,238650,5,0,0:0:0:0:
309,146,238692,5,0,0:0:0:0:
311,148,238734,5,0,0:0:0:0:
312,148,238775,5,0,0:0:0:0:
313,146,238817,5,0,0:0:0:0:
313,144,238859,5,0,0:0:0:0:
312,141,238900,5,0,0:0:0:0:
312,143,239047,1,0,0:0:0:0:
306,146,239088,5,0,0:0:0:0:
300,149,239130,5,0,0:0:0:0:
295,153,239171,5,0,0:0:0:0:
288,157,239213,5,0,0:0:0:0:
282,160,239255,5,0,0:0:0:0:
277,163,239296,5,0,0:0:0:0:
271,167,239338,5,0,0:0:0:0:
265,170,239380,5,0,0:0:0:0:
259,174,239421,5,0,0:0:0:0:
253,177,239463,5,0,0:0:0:0:
247,180,239505,5,0,0:0:0:0:
241,184,239546,5,0,0:0:0:0:
235,187,239588,5,0,0:0:0:0:
229,191,239630,5,0,0:0:0:0:
224,195,239671,5,0,0:0:0:0:
217,198,239713,5,0,0:0:0:0:
218,198,239755,5,0,0:0:0:0:
224,194,239796,5,0,0:0:0:0:
230,190,239838,5,0,0:0:0:0:
235,187,239880,5,0,0:0:0:0:
241,183,239921,5,0,0:0:0:0:
247,180,239963,5,0,0:0:0:0:
253,176,240005,5,0,0:0:0:0:
259,173,240046,5,0,0:0:0:0:
265,169,240088,5,0,0:0:0:0:
271,166,240130,5,0,0:0:0:0:
276,162,240171,5,0,0:0:0:0:
282,159,240213,5,0,0:0:0:0:
288,155,240255,5,0,0:0:0:0:
294,151,240296,5,0,0:0:0:0:
300,148,240338,5,0,0:0:0:0:
306,145,240380,5,0,0:0:0:0:
300,148,240421,5,0,0:0:0:0:
295,152,240463,5,0,0:0:0:0:
289,156,240505,5,0,0:0:0:0:
283,160,240546,5,0,0:0:0:0:
277,164,240588,5,0,0:0:0:0:
272,167,240630,5,0,0:0:0:0:
266,171,240671,5,0,0:0:0:0:
260,175,240713,5,0,0:0:0:0:
254,178,240755,5,0,0:0:0:0:
249,182,240796,5,0,0:0:0:0:
243,186,240838,5,0,0:0:0:0:
237,190,240880,5,0,0:0:0:0:
232,194,240921,5,0,0:0:0:0:
226,197,240963,5,0,0:0:0:0:
221,201,241005,5,0,0:0:0:0:
219,203,241046,5,0,0:0:0:0:
219,202,241130,5,0,0:0:0:0:
241,200,241171,5,0,0:0:0:0:
264,198,241213,5,0,0:0:0:0:
287,196,241254,5,0,0:0:0:0:
269,183,241296,5,0,0:0:0:0:
251,170,241338,5,0,0:0:0:0:
239,151,241379,5,0,0:0:0:0:
259,141,241421,5,0,0:0:0:0:
281,140,241463,5,0,0:0:0:0:
285,161,241504,5,0,0:0:0:0:
287,183,241546,5,0,0:0:0:0:
290,206,241588,5,0,0:0:0:0:
291,226,241629,5,0,0:0:0:0:
288,204,241671,5,0,0:0:0:0:
285,181,241713,5,0,0:0:0:0:
282,159,241754,5,0,0:0:0:0:
213,118,241880,6,0,L|235:279,1,157.499995827675
211,121,242172,6,0,L|160:131,1,44.9999988079071
217,151,242380,6,0,L|166:167,1,44.9999988079071
211,196,242547,6,0,P|223:147|225:108,1,67.4999982118607
225,117,242693,6,0,P|203:96|223:123,1,89.9999976158143
223,143,242964,6,0,L|195:192,1,44.9999988079071
253,183,243234,6,0,L|243:100,1,67.4999982118607
245,108,243401,6,0,L|292:102,1,44.9999988079071
247,153,243651,6,0,L|312:147,1,44.9999988079071
251,183,243859,6,0,L|302:181,1,44.9999988079071
272,269,244068,6,0,L|262:185,1,67.4999982118607
264,194,244235,6,0,L|310:187,1,44.9999988079071
266,238,244485,6,0,L|331:232,1,44.9999988079071
270,269,244693,6,0,L|320:267,1,44.9999988079071
205,110,244818,6,0,L|205:216,1,89.9999976158143
205,137,245130,6,0,P|274:151|199:202,1,202.499994635582
296,131,245797,6,0,P|284:210|298:131,1,247.499993443489
324,161,246568,6,0,B|318:118|318:118|280:163|280:163|260:118|260:118|237:171,1,202.499994635582
223,123,247109,1,0,0:0:0:0:
241,136,247150,1,0,0:0:0:0:
260,149,247192,1,0,0:0:0:0:
251,151,247233,1,0,0:0:0:0:
229,148,247275,1,0,0:0:0:0:
206,144,247317,1,0,0:0:0:0:
184,141,247358,1,0,0:0:0:0:
161,138,247400,1,0,0:0:0:0:
174,131,247442,1,0,0:0:0:0:
196,125,247483,1,0,0:0:0:0:
218,123,247525,1,0,0:0:0:0:
241,127,247567,1,0,0:0:0:0:
262,136,247608,1,0,0:0:0:0:
279,151,247650,1,0,0:0:0:0:
294,169,247692,1,0,0:0:0:0:
304,189,247733,1,0,0:0:0:0:
313,210,247775,1,0,0:0:0:0:
319,232,247817,1,0,0:0:0:0:
325,254,247858,1,0,0:0:0:0:
322,233,247900,1,0,0:0:0:0:
320,210,247942,1,0,0:0:0:0:
317,187,247983,1,0,0:0:0:0:
315,165,248025,1,0,0:0:0:0:
312,142,248067,1,0,0:0:0:0:
316,131,248172,1,0,0:0:0:0:
294,133,248213,1,0,0:0:0:0:
271,134,248255,1,0,0:0:0:0:
249,135,248296,1,0,0:0:0:0:
272,132,248338,1,0,0:0:0:0:
294,129,248380,1,0,0:0:0:0:
283,131,248421,1,0,0:0:0:0:
261,135,248463,1,0,0:0:0:0:
240,138,248505,1,0,0:0:0:0:
235,135,248859,1,0,0:0:0:0:
238,157,248900,1,0,0:0:0:0:
240,180,248942,1,0,0:0:0:0:
243,203,248983,1,0,0:0:0:0:
242,211,249025,1,0,0:0:0:0:
233,190,249067,1,0,0:0:0:0:
223,169,249108,1,0,0:0:0:0:
245,173,249150,1,0,0:0:0:0:
267,177,249192,1,0,0:0:0:0:
290,181,249233,1,0,0:0:0:0:
324,185,249589,1,0,0:0:0:0:
315,183,249630,1,0,0:0:0:0:
307,180,249672,1,0,0:0:0:0:
298,178,249713,1,0,0:0:0:0:
289,175,249755,1,0,0:0:0:0:
280,173,249797,1,0,0:0:0:0:
271,171,249838,1,0,0:0:0:0:
263,168,249880,1,0,0:0:0:0:
254,166,249922,1,0,0:0:0:0:
245,164,249963,1,0,0:0:0:0:
236,162,250005,1,0,0:0:0:0:
227,160,250047,1,0,0:0:0:0:
218,159,250088,1,0,0:0:0:0:
209,158,250130,1,0,0:0:0:0:
206,163,250172,1,0,0:0:0:0:
213,169,250213,1,0,0:0:0:0:
221,174,250255,1,0,0:0:0:0:
228,179,250297,1,0,0:0:0:0:
231,175,250338,1,0,0:0:0:0:
230,166,250380,1,0,0:0:0:0:
230,157,250422,1,0,0:0:0:0:
230,148,250463,1,0,0:0:0:0:
230,139,250505,1,0,0:0:0:0:
229,130,250547,1,0,0:0:0:0:
230,124,250588,1,0,0:0:0:0:
234,132,250630,1,0,0:0:0:0:
238,140,250672,1,0,0:0:0:0:
242,148,250713,1,0,0:0:0:0:
247,156,250755,1,0,0:0:0:0:
252,164,250797,1,0,0:0:0:0:
258,171,250838,1,0,0:0:0:0:
265,173,250880,1,0,0:0:0:0:
269,165,250922,1,0,0:0:0:0:
271,156,250963,1,0,0:0:0:0:
272,147,251005,1,0,0:0:0:0:
272,138,251047,1,0,0:0:0:0:
273,129,251088,1,0,0:0:0:0:
271,122,251130,1,0,0:0:0:0:
262,121,251172,1,0,0:0:0:0:
253,120,251213,1,0,0:0:0:0:
244,118,251255,1,0,0:0:0:0:
235,117,251297,1,0,0:0:0:0:
226,115,251338,1,0,0:0:0:0:
217,114,251380,1,0,0:0:0:0:
224,114,251422,1,0,0:0:0:0:
233,114,251463,1,0,0:0:0:0:
242,115,251505,1,0,0:0:0:0:
251,116,251547,1,0,0:0:0:0:
261,117,251588,1,0,0:0:0:0:
265,117,251630,1,0,0:0:0:0:
273,116,251672,1,0,0:0:0:0:
282,115,251713,1,0,0:0:0:0:
291,115,251755,1,0,0:0:0:0:
300,114,251797,1,0,0:0:0:0:
308,115,251838,1,0,0:0:0:0:
312,124,251880,1,0,0:0:0:0:
316,132,251922,1,0,0:0:0:0:
319,140,251963,1,0,0:0:0:0:
318,136,252005,1,0,0:0:0:0:
314,128,252047,1,0,0:0:0:0:
313,126,252088,1,0,0:0:0:0:
315,134,252130,1,0,0:0:0:0:
316,143,252172,1,0,0:0:0:0:
319,152,252213,1,0,0:0:0:0:
323,160,252255,1,0,0:0:0:0:
329,168,252297,1,0,0:0:0:0:
334,175,252338,1,0,0:0:0:0:
342,179,252380,1,0,0:0:0:0:
346,172,252422,1,0,0:0:0:0:
347,163,252463,1,0,0:0:0:0:
347,153,252505,1,0,0:0:0:0:
347,144,252547,1,0,0:0:0:0:
346,136,252588,1,0,0:0:0:0:
346,127,252630,1,0,0:0:0:0:
345,117,252672,1,0,0:0:0:0:
344,124,252713,1,0,0:0:0:0:
344,133,252755,1,0,0:0:0:0:
344,142,252797,1,0,0:0:0:0:
343,151,252838,1,0,0:0:0:0:
343,161,252880,1,0,0:0:0:0:
343,170,252922,1,0,0:0:0:0:
343,179,252963,1,0,0:0:0:0:
347,183,253047,1,0,0:0:0:0:
345,172,253088,1,0,0:0:0:0:
343,161,253130,1,0,0:0:0:0:
341,149,253171,1,0,0:0:0:0:
342,155,253213,1,0,0:0:0:0:
344,166,253255,1,0,0:0:0:0:
345,165,253296,1,0,0:0:0:0:
343,173,253338,1,0,0:0:0:0:
343,178,253380,1,0,0:0:0:0:
344,167,253421,1,0,0:0:0:0:
344,156,253463,1,0,0:0:0:0:
346,165,253505,1,0,0:0:0:0:
348,176,253546,1,0,0:0:0:0:
346,171,253588,1,0,0:0:0:0:
342,160,253630,1,0,0:0:0:0:
342,161,253671,1,0,0:0:0:0:
345,172,253713,1,0,0:0:0:0:
347,182,253755,1,0,0:0:0:0:
347,181,253796,1,0,0:0:0:0:
345,169,253838,1,0,0:0:0:0:
343,158,253880,1,0,0:0:0:0:
344,159,253921,1,0,0:0:0:0:
348,169,253963,1,0,0:0:0:0:
351,180,254005,1,0,0:0:0:0:
351,175,254046,1,0,0:0:0:0:
350,164,254088,1,0,0:0:0:0:
349,157,254130,1,0,0:0:0:0:
352,168,254171,1,0,0:0:0:0:
355,179,254213,1,0,0:0:0:0:
353,177,254255,1,0,0:0:0:0:
346,168,254296,1,0,0:0:0:0:
338,160,254338,1,0,0:0:0:0:
339,171,254380,1,0,0:0:0:0:
342,182,254421,1,0,0:0:0:0:
344,185,254463,1,0,0:0:0:0:
344,174,254505,1,0,0:0:0:0:
343,163,254546,1,0,0:0:0:0:
343,151,254588,1,0,0:0:0:0:
346,161,254630,1,0,0:0:0:0:
350,172,254671,1,0,0:0:0:0:
353,182,254713,1,0,0:0:0:0:
356,189,254755,1,0,0:0:0:0:
351,179,254796,1,0,0:0:0:0:
346,169,254838,1,0,0:0:0:0:
346,172,254880,1,0,0:0:0:0:
348,183,254921,1,0,0:0:0:0:
347,184,254963,1,0,0:0:0:0:
344,173,255005,1,0,0:0:0:0:
344,172,255046,1,0,0:0:0:0:
347,173,255088,1,0,0:0:0:0:
347,162,255130,1,0,0:0:0:0:
347,162,255255,1,0,0:0:0:0:
348,176,255296,1,0,0:0:0:0:
348,185,255338,1,0,0:0:0:0:
347,174,255379,1,0,0:0:0:0:
347,182,255421,1,0,0:0:0:0:
347,169,255463,1,0,0:0:0:0:
347,162,255526,1,0,0:0:0:0:
348,178,255567,1,0,0:0:0:0:
348,188,255609,1,0,0:0:0:0:
347,173,255650,1,0,0:0:0:0:
352,158,255692,1,0,0:0:0:0:
353,171,255734,1,0,0:0:0:0:
353,187,255775,1,0,0:0:0:0:
352,196,255817,1,0,0:0:0:0:
350,180,255859,1,0,0:0:0:0:
348,164,255900,1,0,0:0:0:0:
346,161,255942,1,0,0:0:0:0:
345,177,255984,1,0,0:0:0:0:
342,175,256025,1,0,0:0:0:0:
339,159,256067,1,0,0:0:0:0:
344,165,256109,1,0,0:0:0:0:
351,179,256150,1,0,0:0:0:0:
347,157,256234,1,0,0:0:0:0:
350,179,256275,1,0,0:0:0:0:
354,202,256317,1,0,0:0:0:0:
351,187,256358,1,0,0:0:0:0:
347,169,256400,1,0,0:0:0:0:
356,190,256442,1,0,0:0:0:0:
359,196,256465,1,0,0:0:0:0:
355,173,256506,1,0,0:0:0:0:
353,192,256548,1,0,0:0:0:0:
355,187,256568,1,0,0:0:0:0:
353,165,256609,1,0,0:0:0:0:
256,192,256901,12,0,262130,2:2:0:0:
