osu file format v14

[General]
AudioFilename: audio.mp3
AudioLeadIn: 0
PreviewTime: 53974
Countdown: 0
SampleSet: Normal
StackLeniency: 0.7
Mode: 3
LetterboxInBreaks: 0
SpecialStyle: 0
WidescreenStoryboard: 0

[Editor]
Bookmarks: 13174,34774,53974,73174,87274,94774,111574,117799
DistanceSpacing: 1.4
BeatDivisor: 4
GridSize: 8
TimelineZoom: 1.600001

[Metadata]
Title:Fiat Lux
TitleUnicode:Fiat Lux
Artist:xi
ArtistUnicode:xi
Creator:Rido
Version:BASIC
Source:SOUND VOLTEX II -infinite infection-
Tags:夏だ!休みだ!自由研究オリジナル楽曲コンテスト It's Summer! Holiday! Independent Research Original Song Contest sdvx
BeatmapID:1073754
BeatmapSetID:473522

[Difficulty]
HPDrainRate:6
CircleSize:4
OverallDifficulty:6
ApproachRate:10
SliderMultiplier:1.4
SliderTickRate:1

[Events]
//Background and Video events
0,0,"bg-by-bebih.jpg",0,0
//Break Periods
//Storyboard Layer 0 (Background)
//Storyboard Layer 1 (Fail)
//Storyboard Layer 2 (Pass)
//Storyboard Layer 3 (Foreground)
//Storyboard Sound Samples

[TimingPoints]
1174,300,4,1,0,35,1,0

[HitObjects]
448,192,1174,5,0,0:0:0:35:kick.wav
320,192,2374,1,0,0:0:0:0:
64,192,3574,1,0,0:0:0:0:
192,192,4174,1,0,0:0:0:0:
448,192,4774,1,0,0:0:0:0:
320,192,5374,1,0,0:0:0:0:
64,192,5974,1,0,0:0:0:35:cymbal.wav
448,192,5974,1,0,0:0:0:35:kick.wav
320,192,6274,1,0,0:0:0:35:kick.wav
192,192,6574,1,0,0:0:0:35:kick.wav
448,192,6874,1,0,0:0:0:35:kick.wav
64,192,7174,1,0,0:0:0:35:cymbal.wav
192,192,7474,1,0,0:0:0:35:kick.wav
320,192,7774,1,0,0:0:0:35:cymbal.wav
448,192,8074,1,0,0:0:0:35:kick.wav
192,192,8374,1,0,0:0:0:35:cymbal.wav
64,192,8674,1,0,0:0:0:35:kick.wav
320,192,8974,1,0,0:0:0:35:cymbal.wav
192,192,9274,1,0,0:0:0:35:kick.wav
448,192,9574,128,0,10174:0:0:0:35:cymbal.wav
64,192,10174,128,0,10774:0:0:0:35:cymbal.wav
320,192,10774,128,0,11974:0:0:0:35:kick.wav
64,192,11974,1,0,0:0:0:35:kick.wav
448,192,12274,1,0,0:0:0:0:
192,192,12574,1,0,0:0:0:0:
320,192,12724,1,0,0:0:0:35:snare.wav
64,192,13174,1,0,0:0:0:35:cymbal.wav
448,192,13174,1,0,0:0:0:35:kick.wav
192,192,13474,1,0,0:0:0:35:kick.wav
320,192,13774,1,0,0:0:0:35:cymbal.wav
448,192,13924,1,0,0:0:0:35:cymbal.wav
192,192,14224,1,0,0:0:0:35:cymbal.wav
64,192,14524,1,0,0:0:0:35:kick.wav
448,192,14674,1,0,0:0:0:35:kick.wav
320,192,14824,1,0,0:0:0:35:kick.wav
192,192,15124,1,0,0:0:0:70:kick.wav
64,192,15274,1,0,0:0:0:35:kick.wav
320,192,15424,1,0,0:0:0:35:kick.wav
448,192,15574,1,0,0:0:0:35:cymbal.wav
192,192,15874,1,0,0:0:0:35:kick.wav
64,192,16024,1,0,0:0:0:35:cymbal.wav
320,192,16324,1,0,0:0:0:35:cymbal.wav
192,192,16624,1,0,0:0:0:35:cymbal.wav
64,192,16924,1,0,0:0:0:35:kick.wav
320,192,17074,1,0,0:0:0:35:kick.wav
448,192,17224,1,0,0:0:0:35:kick.wav
192,192,17524,1,0,0:0:0:35:kick.wav
64,192,17674,1,0,0:0:0:35:kick.wav
448,192,17824,1,0,0:0:0:35:kick.wav
320,192,17974,1,0,0:0:0:35:cymbal.wav
192,192,18274,1,0,0:0:0:35:kick.wav
64,192,18424,1,0,0:0:0:35:cymbal.wav
320,192,18724,1,0,0:0:0:35:kick.wav
448,192,18874,1,0,0:0:0:35:cymbal.wav
64,192,19174,1,0,0:0:0:35:kick.wav
192,192,19324,1,0,0:0:0:0:
320,192,19474,1,0,0:0:0:35:kick.wav
448,192,19624,1,0,0:0:0:35:kick.wav
192,192,19924,1,0,0:0:0:35:kick.wav
64,192,20074,128,0,20374:0:0:0:35:kick.wav
448,192,20374,1,0,0:0:0:35:cymbal.wav
192,192,20674,1,0,0:0:0:35:kick.wav
320,192,20824,1,0,0:0:0:35:cymbal.wav
64,192,20974,1,0,0:0:0:35:kick.wav
192,192,21124,1,0,0:0:0:0:
448,192,21274,1,0,0:0:0:35:cymbal.wav
64,192,21724,1,0,0:0:0:35:kick.wav
192,192,21874,1,0,0:0:0:35:kick.wav
320,192,22024,1,0,0:0:0:35:kick.wav
448,192,22174,1,0,0:0:0:35:kick.wav
320,192,22324,1,0,0:0:0:35:kick.wav
64,192,22474,128,0,22774:0:0:0:35:snare.wav
448,192,22774,1,0,0:0:0:35:cymbal.wav
320,192,23074,1,0,0:0:0:35:kick.wav
64,192,23374,1,0,0:0:0:35:cymbal.wav
192,192,23524,1,0,0:0:0:35:cymbal.wav
448,192,23824,1,0,0:0:0:35:cymbal.wav
192,192,24124,1,0,0:0:0:35:kick.wav
64,192,24274,1,0,0:0:0:35:kick.wav
448,192,24424,1,0,0:0:0:35:kick.wav
320,192,24724,1,0,0:0:0:70:kick.wav
192,192,24874,1,0,0:0:0:35:kick.wav
64,192,25024,1,0,0:0:0:35:kick.wav
448,192,25174,1,0,0:0:0:35:cymbal.wav
192,192,25474,1,0,0:0:0:35:kick.wav
64,192,25624,1,0,0:0:0:35:cymbal.wav
320,192,25924,1,0,0:0:0:35:cymbal.wav
192,192,26224,1,0,0:0:0:35:cymbal.wav
320,192,26524,1,0,0:0:0:35:kick.wav
448,192,26674,1,0,0:0:0:35:kick.wav
64,192,26824,1,0,0:0:0:35:kick.wav
320,192,27124,1,0,0:0:0:35:kick.wav
192,192,27274,1,0,0:0:0:35:kick.wav
448,192,27424,1,0,0:0:0:35:kick.wav
64,192,27574,1,0,0:0:0:35:cymbal.wav
192,192,27874,1,0,0:0:0:35:kick.wav
320,192,28024,1,0,0:0:0:35:cymbal.wav
64,192,28324,1,0,0:0:0:35:kick.wav
448,192,28474,1,0,0:0:0:35:cymbal.wav
192,192,28774,1,0,0:0:0:35:kick.wav
64,192,28924,1,0,0:0:0:35:kick.wav
320,192,29074,128,0,29374:0:0:0:35:kick.wav
64,192,29374,1,0,0:0:0:35:kick.wav
192,192,29574,1,0,0:0:0:35:kick.wav
448,192,29774,1,0,0:0:0:35:kick.wav
320,192,29974,1,0,0:0:0:35:cymbal.wav
64,192,30274,1,0,0:0:0:35:kick.wav
192,192,30574,1,0,0:0:0:35:kick.wav
448,192,30874,1,0,0:0:0:35:kick.wav
192,192,31174,1,0,0:0:0:35:kick.wav
320,192,31474,1,0,0:0:0:35:kick.wav
64,192,31774,1,0,0:0:0:35:kick.wav
448,192,32074,1,0,0:0:0:35:kick.wav
320,192,32224,1,0,0:0:0:35:cymbal.wav
192,192,32524,1,0,0:0:0:35:kick.wav
64,192,32674,1,0,0:0:0:35:kick.wav
320,192,32974,1,0,0:0:0:35:cymbal.wav
448,192,33274,1,0,0:0:0:35:kick.wav
192,192,33574,1,0,0:0:0:35:cymbal.wav
320,192,33874,1,0,0:0:0:35:kick.wav
64,192,34174,128,0,34774:0:0:0:35:kick.wav
448,192,34774,1,0,0:0:0:35:cymbal.wav
320,192,34774,1,0,0:0:0:35:kick.wav
192,192,35074,1,0,0:0:0:35:snare.wav
64,192,35224,1,0,0:0:0:35:kick.wav
320,192,35524,1,0,0:0:0:35:kick.wav
192,192,35824,1,0,0:0:0:35:kick.wav
320,192,36124,1,0,0:0:0:0:
448,192,36274,1,0,0:0:0:35:snare.wav
64,192,36424,1,0,0:0:0:35:kick.wav
320,192,36724,1,0,0:0:0:35:kick.wav
192,192,36874,1,0,0:0:0:35:snare.wav
64,192,37024,128,0,37474:0:0:0:35:kick.wav
448,192,37474,1,0,0:0:0:35:kick.wav
448,192,37924,1,0,0:0:0:35:kick.wav
192,192,38224,1,0,0:0:0:35:kick.wav
64,192,38674,1,0,0:0:0:35:snare.wav
192,192,38974,1,0,0:0:0:35:kick.wav
320,192,39124,1,0,0:0:0:35:kick.wav
448,192,39424,1,0,0:0:0:35:kick.wav
64,192,39574,128,0,39874:0:0:0:0:
320,192,39874,1,0,0:0:0:35:cymbal.wav
192,192,40324,1,0,0:0:0:35:kick.wav
448,192,40474,1,0,0:0:0:0:
64,192,40624,1,0,0:0:0:0:
448,192,41074,1,0,0:0:0:0:
64,192,41224,1,0,0:0:0:35:kick.wav
192,192,41524,1,0,0:0:0:35:kick.wav
320,192,41674,1,0,0:0:0:35:snare.wav
64,192,41824,128,0,42424:0:0:0:0:
448,192,42424,1,0,0:0:0:0:
192,192,42874,1,0,0:0:0:0:
320,192,43024,1,0,0:0:0:35:kick.wav
64,192,43324,1,0,0:0:0:35:kick.wav
448,192,43474,1,0,0:0:0:35:snare.wav
320,192,43624,1,0,0:0:0:35:kick.wav
192,192,43774,1,0,0:0:0:35:kick.wav
64,192,43924,1,0,0:0:0:35:kick.wav
448,192,44074,1,0,0:0:0:35:snare.wav
320,192,44224,1,0,0:0:0:35:kick.wav
192,192,44374,1,0,0:0:0:35:cymbal.wav
64,192,44374,1,0,0:0:0:35:kick.wav
320,192,44824,1,0,0:0:0:0:
448,192,44974,1,0,0:0:0:0:
64,192,45124,1,0,0:0:0:35:kick.wav
192,192,45274,1,0,0:0:0:0:
64,192,45424,1,0,0:0:0:0:
320,192,45724,1,0,0:0:0:35:kick.wav
192,192,46024,1,0,0:0:0:35:kick.wav
448,192,46324,1,0,0:0:0:0:
320,192,46774,128,0,47074:0:0:0:0:
448,192,47074,1,0,0:0:0:35:kick.wav
64,192,47224,1,0,0:0:0:0:
192,192,47374,1,0,0:0:0:0:
320,192,47524,1,0,0:0:0:35:kick.wav
448,192,47674,1,0,0:0:0:0:
64,192,47824,1,0,0:0:0:35:kick.wav
448,192,48124,1,0,0:0:0:0:
320,192,48274,1,0,0:0:0:35:snare.wav
192,192,48424,1,0,0:0:0:35:kick.wav
64,192,48724,1,0,0:0:0:0:
192,192,48874,1,0,0:0:0:35:kick.wav
320,192,49024,1,0,0:0:0:35:kick.wav
448,192,49474,1,0,0:0:0:35:cymbal.wav
64,192,49474,1,0,0:0:0:35:kick.wav
192,192,49924,1,0,0:0:0:35:kick.wav
448,192,50074,1,0,0:0:0:0:
320,192,50224,1,0,0:0:0:35:kick.wav
320,192,50824,1,0,0:0:0:35:kick.wav
192,192,51124,1,0,0:0:0:0:
64,192,51274,1,0,0:0:0:35:snare.wav
448,192,51424,128,0,52624:0:0:0:35:kick.wav
192,192,52624,128,0,53524:0:0:0:35:kick.wav
320,192,53524,1,0,0:0:0:0:
192,192,53974,1,0,0:0:0:35:cymbal.wav
448,192,53974,1,0,0:0:0:35:kick.wav
64,192,54274,1,0,0:0:0:35:kick.wav
320,192,54574,1,0,0:0:0:35:kick.wav
192,192,54874,1,0,0:0:0:35:kick.wav
448,192,55174,1,0,0:0:0:35:kick.wav
320,192,55474,1,0,0:0:0:35:kick.wav
64,192,55774,1,0,0:0:0:35:kick.wav
320,192,56074,1,0,0:0:0:35:kick.wav
192,192,56374,1,0,0:0:0:35:kick.wav
448,192,56674,1,0,0:0:0:35:kick.wav
64,192,56974,1,0,0:0:0:35:kick.wav
192,192,57274,1,0,0:0:0:35:kick.wav
320,192,57574,1,0,0:0:0:35:kick.wav
448,192,57874,1,0,0:0:0:35:kick.wav
64,192,58174,1,0,0:0:0:35:cymbal.wav
192,192,58324,1,0,0:0:0:35:cymbal.wav
320,192,58624,1,0,0:0:0:35:cymbal.wav
448,192,58624,1,0,0:0:0:35:kick.wav
192,192,59074,1,0,0:0:0:35:kick.wav
448,192,59374,1,0,0:0:0:35:kick.wav
64,192,59674,1,0,0:0:0:35:kick.wav
320,192,59974,1,0,0:0:0:35:kick.wav
192,192,60274,1,0,0:0:0:35:kick.wav
64,192,60574,1,0,0:0:0:35:kick.wav
448,192,60874,1,0,0:0:0:35:kick.wav
192,192,61174,1,0,0:0:0:35:kick.wav
320,192,61474,1,0,0:0:0:35:kick.wav
64,192,61774,1,0,0:0:0:35:kick.wav
192,192,62074,1,0,0:0:0:35:kick.wav
448,192,62374,1,0,0:0:0:35:kick.wav
320,192,62674,1,0,0:0:0:35:kick.wav
192,192,62974,1,0,0:0:0:35:kick.wav
448,192,63274,1,0,0:0:0:35:kick.wav
64,192,63574,1,0,0:0:0:35:cymbal.wav
192,192,63574,1,0,0:0:0:35:kick.wav
320,192,63874,1,0,0:0:0:35:kick.wav
448,192,64174,1,0,0:0:0:35:kick.wav
64,192,64474,1,0,0:0:0:35:kick.wav
192,192,64774,1,0,0:0:0:35:kick.wav
320,192,65074,1,0,0:0:0:35:kick.wav
448,192,65374,1,0,0:0:0:35:kick.wav
192,192,65674,1,0,0:0:0:35:kick.wav
448,192,65974,1,0,0:0:0:35:cymbal.wav
64,192,65974,1,0,0:0:0:35:kick.wav
320,192,66274,1,0,0:0:0:35:kick.wav
192,192,66574,1,0,0:0:0:35:kick.wav
64,192,66874,1,0,0:0:0:35:kick.wav
448,192,67174,1,0,0:0:0:35:kick.wav
320,192,67474,1,0,0:0:0:35:kick.wav
192,192,67774,1,0,0:0:0:35:kick.wav
64,192,68074,1,0,0:0:0:35:kick.wav
320,192,68374,1,0,0:0:0:35:cymbal.wav
448,192,68374,1,0,0:0:0:35:kick.wav
192,192,68674,1,0,0:0:0:35:kick.wav
320,192,68974,1,0,0:0:0:35:kick.wav
448,192,69274,1,0,0:0:0:35:kick.wav
192,192,69574,1,0,0:0:0:35:cymbal.wav
64,192,69574,1,0,0:0:0:35:kick.wav
320,192,69874,1,0,0:0:0:35:kick.wav
64,192,70174,1,0,0:0:0:35:kick.wav
192,192,70474,1,0,0:0:0:35:kick.wav
448,192,70774,128,0,71974:0:0:0:35:cymbal.wav
320,192,70774,1,0,0:0:0:35:kick.wav
64,192,71974,128,0,72574:0:0:0:35:kick.wav
320,192,72574,128,0,73174:0:0:0:0:
192,192,73174,1,0,0:0:0:35:cymbal.wav
192,192,75124,1,0,0:0:0:0:
320,192,75274,1,0,0:0:0:0:
448,192,75424,1,0,0:0:0:0:
192,192,77674,128,0,77974:0:0:0:0:
320,192,77974,1,0,0:0:0:35:cymbal.wav
448,192,77974,1,0,0:0:0:35:kick.wav
64,192,78424,1,0,0:0:0:0:
448,192,78874,1,0,0:0:0:0:
320,192,79024,1,0,0:0:0:0:
192,192,79624,1,0,0:0:0:0:
448,192,79924,1,0,0:0:0:0:
64,192,80074,1,0,0:0:0:0:
192,192,80224,1,0,0:0:0:0:
448,192,80824,1,0,0:0:0:0:
64,192,81274,1,0,0:0:0:0:
320,192,81424,1,0,0:0:0:0:
192,192,82024,128,0,82774:0:0:0:0:
448,192,82774,128,0,84424:0:0:0:35:cymbal.wav
64,192,82774,1,0,0:0:0:35:kick.wav
320,192,84724,1,0,0:0:0:35:kick.wav
448,192,84874,1,0,0:0:0:35:kick.wav
64,192,85024,128,0,86824:0:0:0:35:cymbal.wav
192,192,85024,1,0,0:0:0:35:kick.wav
320,192,87274,128,0,87574:0:0:0:35:kick.wav
192,192,87574,1,0,0:0:0:35:cymbal.wav
64,192,87574,1,0,0:0:0:35:kick.wav
448,192,88024,1,0,0:0:0:35:kick.wav
64,192,88474,1,0,0:0:0:35:kick.wav
192,192,88924,1,0,0:0:0:35:kick.wav
320,192,89374,1,0,0:0:0:35:kick.wav
448,192,89674,1,0,0:0:0:35:kick.wav
64,192,89974,128,0,91174:0:0:0:35:cymbal.wav
320,192,91174,128,0,92374:0:0:0:35:cymbal.wav
192,192,92374,1,0,0:0:0:35:kick.wav
64,192,92674,1,0,0:0:0:35:kick.wav
448,192,92974,1,0,0:0:0:35:kick.wav
320,192,93274,1,0,0:0:0:35:kick.wav
192,192,93574,1,0,0:0:0:35:kick.wav
64,192,94324,1,0,0:0:0:35:snare.wav
192,192,94474,1,0,0:0:0:0:
320,192,94624,1,0,0:0:0:0:
448,192,94774,1,0,0:0:0:35:kick.wav
192,192,95074,1,0,0:0:0:0:
64,192,95374,1,0,0:0:0:0:
320,192,95524,1,0,0:0:0:0:
448,192,95824,1,0,0:0:0:0:
448,192,96424,1,0,0:0:0:0:
64,192,96724,1,0,0:0:0:0:
192,192,96874,1,0,0:0:0:0:
320,192,97024,1,0,0:0:0:0:
448,192,97174,1,0,0:0:0:0:
320,192,97474,1,0,0:0:0:0:
64,192,97624,1,0,0:0:0:0:
64,192,97774,1,0,0:0:0:0:
192,192,97924,1,0,0:0:0:0:
448,192,98074,1,0,0:0:0:0:
320,192,98224,1,0,0:0:0:0:
64,192,98524,128,0,98824:0:0:0:0:
448,192,98824,1,0,0:0:0:0:
320,192,99124,1,0,0:0:0:35:kick.wav
192,192,99274,1,0,0:0:0:35:snare.wav
448,192,99574,1,0,0:0:0:35:cymbal.wav
320,192,99574,1,0,0:0:0:35:kick.wav
64,192,99874,1,0,0:0:0:35:kick.wav
320,192,100024,1,0,0:0:0:35:cymbal.wav
192,192,100324,1,0,0:0:0:35:kick.wav
448,192,100474,1,0,0:0:0:35:cymbal.wav
192,192,100774,1,0,0:0:0:35:kick.wav
64,192,100924,1,0,0:0:0:0:
192,192,101074,1,0,0:0:0:35:kick.wav
448,192,101224,1,0,0:0:0:35:kick.wav
320,192,101524,1,0,0:0:0:35:kick.wav
64,192,101674,128,0,101974:0:0:0:35:kick.wav
448,192,101974,1,0,0:0:0:35:cymbal.wav
320,192,102174,1,0,0:0:0:35:kick.wav
192,192,102374,1,0,0:0:0:35:cymbal.wav
64,192,102574,1,0,0:0:0:35:kick.wav
448,192,102774,1,0,0:0:0:35:cymbal.wav
192,192,102949,1,0,0:0:0:35:kick.wav
320,192,103174,1,0,0:0:0:35:cymbal.wav
64,192,103374,1,0,0:0:0:35:kick.wav
320,192,103574,1,0,0:0:0:35:cymbal.wav
448,192,103774,1,0,0:0:0:35:kick.wav
192,192,103924,128,0,104374:0:0:0:0:
448,192,104674,1,0,0:0:0:35:kick.wav
64,192,104974,1,0,0:0:0:35:cymbal.wav
320,192,105124,1,0,0:0:0:35:cymbal.wav
192,192,105424,1,0,0:0:0:35:cymbal.wav
448,192,105724,1,0,0:0:0:35:kick.wav
64,192,105874,1,0,0:0:0:35:kick.wav
192,192,106024,1,0,0:0:0:35:kick.wav
448,192,106324,1,0,0:0:0:35:kick.wav
320,192,106474,1,0,0:0:0:35:kick.wav
64,192,106624,1,0,0:0:0:35:kick.wav
192,192,106774,1,0,0:0:0:35:cymbal.wav
64,192,107074,1,0,0:0:0:35:kick.wav
448,192,107224,1,0,0:0:0:35:cymbal.wav
192,192,107524,1,0,0:0:0:35:cymbal.wav
320,192,107824,1,0,0:0:0:35:cymbal.wav
64,192,108124,1,0,0:0:0:35:kick.wav
320,192,108274,1,0,0:0:0:35:kick.wav
448,192,108424,1,0,0:0:0:35:cymbal.wav
192,192,108724,1,0,0:0:0:35:kick.wav
320,192,108874,128,0,109174:0:0:0:35:kick.wav
64,192,109174,1,0,0:0:0:35:cymbal.wav
192,192,109474,1,0,0:0:0:35:kick.wav
448,192,109624,1,0,0:0:0:35:cymbal.wav
320,192,109924,1,0,0:0:0:35:kick.wav
192,192,110074,1,0,0:0:0:35:cymbal.wav
320,192,110374,1,0,0:0:0:35:kick.wav
64,192,110524,1,0,0:0:0:35:kick.wav
448,192,110674,128,0,110974:0:0:0:35:kick.wav
192,192,110974,1,0,0:0:0:35:kick.wav
320,192,111174,1,0,0:0:0:35:kick.wav
448,192,111374,1,0,0:0:0:35:kick.wav
192,192,111574,1,0,0:0:0:35:cymbal.wav
64,192,111574,1,0,0:0:0:35:kick.wav
320,192,111874,1,0,0:0:0:35:kick.wav
448,192,112174,1,0,0:0:0:35:kick.wav
64,192,112474,1,0,0:0:0:35:kick.wav
192,192,112774,1,0,0:0:0:35:kick.wav
320,192,113074,1,0,0:0:0:35:kick.wav
448,192,113374,1,0,0:0:0:35:kick.wav
64,192,113674,1,0,0:0:0:35:kick.wav
192,192,113824,128,0,115174:0:0:0:35:cymbal.wav
448,192,115174,128,0,116337:0:0:0:35:cymbal.wav
64,192,115774,128,0,116337:0:0:0:35:kick.wav
320,192,116674,128,0,119074:0:0:0:35:cymbal.wav
192,192,116674,128,0,119074:0:0:0:35:kick.wav
