osu file format v14

[General]
AudioFilename: Freedom Dive.mp3
AudioLeadIn: 0
PreviewTime: -1
Countdown: 1
SampleSet: None
StackLeniency: 0.7
Mode: 2
LetterboxInBreaks: 0
WidescreenStoryboard: 0

[Editor]
Bookmarks: 170627,177562,181121,185317,43417,43712
DistanceSpacing: 0.8
BeatDivisor: 4
GridSize: 8
TimelineZoom: 3.299999

[Metadata]
Title:FREEDOM DiVE
TitleUnicode:FREEDOM DiVE
Artist:xi
ArtistUnicode:xi
Creator:ralip
Version:RALiP DiVE
Source:
Tags:streams freedom the dive xi xi xi xi xi
BeatmapID:906479
BeatmapSetID:418847

[Difficulty]
HPDrainRate:5
CircleSize:4.2
OverallDifficulty:5
ApproachRate:9.7
SliderMultiplier:1.9
SliderTickRate:2

[Events]
//Background and Video events
0,0,"freedom_dive_by_jmc5221-d76lon5 (1).jpg",0,0
//Break Periods
2,82253,90198
2,147054,161479
2,201054,209000
//Storyboard Layer 0 (Background)
//Storyboard Layer 1 (Fail)
//Storyboard Layer 2 (Pass)
//Storyboard Layer 3 (Foreground)
//Storyboard Sound Samples

[TimingPoints]
2133,270.002700027,4,2,0,100,1,0
6367,-100,4,2,0,100,0,0
10773,-66.6666666666667,4,2,0,100,0,0
28053,-57.1428571428571,4,2,0,100,0,0
33453,-66.6666666666667,4,2,0,100,0,0
45333,-100,4,2,0,100,0,0
47493,-66.6666666666667,4,2,0,100,0,0
64773,-66.6666666666667,4,2,0,100,0,0
98253,-100,4,2,0,100,0,0
120934,-66.6666666666667,4,2,0,100,0,0
163864,-66.6666666666667,4,2,0,100,0,0
196534,-100,4,2,0,100,0,0
218135,-66.6666666666667,4,2,0,100,0,0

[HitObjects]
192,112,2133,6,0,L|67:42,2,142.5
48,184,2673,1,0,0:0:0:0:
200,224,2808,1,0,0:0:0:0:
96,72,2943,6,0,L|8:108,2,95
216,128,3415,1,0,0:0:0:0:
336,128,3618,5,0,0:0:0:0:
192,192,3753,1,0,0:0:0:0:
448,200,3888,1,0,0:0:0:0:
216,192,4023,1,0,0:0:0:0:
336,128,4293,6,0,L|464:56,2,142.5
512,184,4833,1,0,0:0:0:0:
360,224,4968,1,0,0:0:0:0:
424,56,5103,6,0,L|511:92,2,95
296,144,5575,1,0,0:0:0:0:
128,144,5778,1,0,0:0:0:0:
216,144,5913,5,0,0:0:0:0:
320,176,6048,6,0,L|368:144,1,47.5
368,168,6183,2,0,L|352:224,1,47.5
384,232,6318,2,0,L|336:256,1,47.5
224,144,6453,6,0,L|96:72,2,142.5
80,216,6993,1,0,0:0:0:0:
232,256,7128,1,0,0:0:0:0:
128,104,7263,6,0,L|40:140,2,95
248,160,7735,1,0,0:0:0:0:
368,160,7938,5,0,0:0:0:0:
224,224,8073,1,0,0:0:0:0:
480,232,8208,1,0,0:0:0:0:
256,224,8343,1,0,0:0:0:0:
384,160,8613,6,0,L|504:72,2,142.5
128,160,9153,6,0,L|8:72,2,142.5
336,152,9693,6,0,L|456:64,2,142.5
192,320,10233,5,0,0:0:0:0:
128,272,10300,1,0,0:0:0:0:
168,224,10368,1,0,0:0:0:0:
232,184,10435,1,0,0:0:0:0:
136,184,10503,1,0,0:0:0:0:
136,136,10570,1,0,0:0:0:0:
200,128,10638,1,0,0:0:0:0:
248,96,10705,1,0,0:0:0:0:
208,184,10773,6,0,L|144:48,1,142.500005435944
368,160,11043,5,0,0:0:0:0:
368,160,11178,1,0,0:0:0:0:
192,200,11313,6,0,L|104:32,1,142.500005435944
384,168,11583,1,0,0:0:0:0:
384,168,11718,1,0,0:0:0:0:
272,168,11853,2,0,L|192:48,1,142.500005435944
464,168,12123,1,0,0:0:0:0:
464,168,12258,1,0,0:0:0:0:
288,64,12393,6,0,L|80:0,2,213.750008153916
304,240,12933,6,0,L|160:160,1,142.500005435944
208,240,13203,6,0,L|344:176,1,142.500005435944
144,160,13473,6,0,L|8:96,1,142.500005435944
240,88,13743,6,0,L|400:88,1,142.500005435944
272,88,14013,6,0,L|112:88,1,142.500005435944
240,88,14283,6,0,L|416:88,1,142.500005435944
272,192,14553,6,0,L|48:192,2,213.750008153916
312,192,15093,6,0,L|352:56,1,142.500005435944
144,184,15363,1,0,0:0:0:0:
144,184,15498,1,0,0:0:0:0:
288,192,15633,6,0,L|328:56,1,142.500005435944
120,184,15903,1,0,0:0:0:0:
120,184,16038,1,0,0:0:0:0:
288,192,16173,1,0,0:0:0:0:
312,176,16240,1,0,0:0:0:0:
336,144,16308,1,0,0:0:0:0:
336,112,16375,1,0,0:0:0:0:
320,80,16443,1,0,0:0:0:0:
256,64,16578,1,0,0:0:0:0:
144,160,16713,6,0,L|40:40,2,142.500005435944
200,192,17253,6,0,L|160:56,1,142.500005435944
384,192,17523,1,0,0:0:0:0:
384,192,17658,1,0,0:0:0:0:
224,192,17793,6,0,L|184:56,1,142.500005435944
384,192,18063,1,0,0:0:0:0:
384,192,18198,1,0,0:0:0:0:
160,192,18333,1,0,0:0:0:0:
200,168,18400,1,0,0:0:0:0:
216,136,18468,1,0,0:0:0:0:
200,104,18535,1,0,0:0:0:0:
160,88,18603,1,0,0:0:0:0:
272,96,18738,1,0,0:0:0:0:
344,288,18873,5,0,0:0:0:0:
400,264,18940,1,0,0:0:0:0:
376,216,19008,1,0,0:0:0:0:
320,208,19075,1,0,0:0:0:0:
328,232,19143,1,0,0:0:0:0:
400,184,19210,1,0,0:0:0:0:
360,136,19278,1,0,0:0:0:0:
304,128,19345,1,0,0:0:0:0:
160,216,19413,6,0,L|104:80,2,142.500005435944
352,216,19818,6,0,L|408:80,2,142.500005435944
224,128,20223,6,0,L|72:128,1,142.500005435944
216,184,20493,2,0,L|392:184,1,142.500005435944
296,184,20763,2,0,L|120:184,1,142.500005435944
208,120,21033,6,0,L|408:40,2,213.750008153916
160,216,21573,6,0,L|104:80,2,142.500005435944
352,216,21978,6,0,L|408:80,2,142.500005435944
224,128,22383,6,0,L|72:128,1,142.500005435944
216,184,22653,2,0,L|392:184,1,142.500005435944
296,184,22923,2,0,L|120:184,1,142.500005435944
208,120,23193,6,0,L|408:40,2,213.750008153916
184,120,23733,6,0,L|326:120,2,142.500005435944
216,168,24138,6,0,L|358:168,2,142.500005435944
296,168,24543,6,0,L|154:168,2,142.500005435944
216,168,24948,6,0,L|358:168,2,142.500005435944
224,224,25353,1,0,0:0:0:0:
480,232,25488,1,0,0:0:0:0:
256,224,25623,1,0,0:0:0:0:
224,224,25893,6,0,L|168:88,1,142.500005435944
376,184,26163,6,0,L|320:48,1,142.500005435944
176,232,26433,6,0,L|120:96,1,142.500005435944
320,200,26703,6,0,L|264:64,1,142.500005435944
288,224,26973,6,0,L|344:88,1,142.500005435944
136,184,27243,6,0,L|192:48,1,142.500005435944
336,232,27513,6,0,L|392:96,1,142.500005435944
192,200,27783,6,0,L|248:64,1,142.500005435944
112,56,28053,5,0,0:0:0:0:
72,64,28120,1,0,0:0:0:0:
40,88,28188,1,0,0:0:0:0:
16,136,28255,1,0,0:0:0:0:
32,168,28323,2,0,L|128:280,1,83.1250007927418
112,264,28458,1,0,0:0:0:0:
176,288,28525,1,0,0:0:0:0:
152,240,28593,1,0,0:0:0:0:
248,176,28660,5,0,0:0:0:0:
248,120,28728,2,0,L|344:120,1,83.1250007927418
344,288,28863,1,0,0:0:0:0:
376,256,28930,1,0,0:0:0:0:
400,216,28998,1,0,0:0:0:0:
424,184,29065,2,0,L|520:32,2,166.250001585484
384,168,29403,1,0,0:0:0:0:
360,144,29470,1,0,0:0:0:0:
344,112,29538,1,0,0:0:0:0:
352,64,29605,1,0,0:0:0:0:
296,176,29673,5,0,0:0:0:0:
232,176,29740,1,0,0:0:0:0:
184,208,29808,1,0,0:0:0:0:
152,248,29875,1,0,0:0:0:0:
264,248,29943,1,0,0:0:0:0:
256,192,30010,1,0,0:0:0:0:
216,152,30078,1,0,0:0:0:0:
160,184,30145,1,0,0:0:0:0:
64,296,30213,6,0,L|16:112,1,166.250001585484
48,120,30415,1,0,0:0:0:0:
96,128,30483,1,0,0:0:0:0:
144,128,30550,1,0,0:0:0:0:
184,128,30618,1,0,0:0:0:0:
392,296,30753,2,0,L|464:96,1,166.250001585484
408,128,30955,1,0,0:0:0:0:
368,128,31023,1,0,0:0:0:0:
320,128,31090,1,0,0:0:0:0:
288,128,31158,1,0,0:0:0:0:
88,136,31293,6,0,L|72:336,1,166.250001585484
128,312,31495,1,0,0:0:0:0:
176,320,31563,1,0,0:0:0:0:
216,320,31630,1,0,0:0:0:0:
264,304,31698,1,0,0:0:0:0:
296,272,31765,1,0,0:0:0:0:
152,216,31833,6,0,L|104:96,1,83.1250007927418
176,104,31968,2,0,L|256:72,1,83.1250007927418
312,88,32103,2,0,L|376:160,1,83.1250007927418
408,192,32238,2,0,L|336:240,1,83.1250007927418
232,296,32373,6,0,B|280:224|280:144|224:64,2,249.375002378225
232,296,32845,1,0,0:0:0:0:
176,232,32913,1,0,0:0:0:0:
152,184,32980,1,0,0:0:0:0:
184,136,33048,1,0,0:0:0:0:
224,120,33115,1,0,0:0:0:0:
256,168,33183,1,0,0:0:0:0:
208,192,33250,1,0,0:0:0:0:
176,144,33318,1,0,0:0:0:0:
184,88,33385,1,0,0:0:0:0:
400,320,33453,5,0,0:0:0:0:
368,288,33520,1,0,0:0:0:0:
352,248,33588,1,0,0:0:0:0:
352,208,33655,1,0,0:0:0:0:
416,200,33723,1,0,0:0:0:0:
448,152,33790,1,0,0:0:0:0:
416,120,33858,1,0,0:0:0:0:
456,64,33925,1,0,0:0:0:0:
224,200,33993,5,0,0:0:0:0:
200,168,34060,1,0,0:0:0:0:
176,128,34128,1,0,0:0:0:0:
176,80,34195,1,0,0:0:0:0:
320,120,34263,1,0,0:0:0:0:
360,96,34330,1,0,0:0:0:0:
392,72,34398,1,0,0:0:0:0:
408,40,34465,1,0,0:0:0:0:
304,200,34533,6,0,L|216:200,1,71.2500027179719
208,264,34668,2,0,L|128:264,1,71.2500027179719
248,328,34803,2,0,L|336:328,1,71.2500027179719
280,256,34938,2,0,L|192:256,1,71.2500027179719
144,184,35073,2,0,L|144:64,3,71.2500027179719
336,176,35343,6,0,L|432:176,1,71.2500027179719
448,216,35478,2,0,L|456:304,1,71.2500027179719
392,304,35613,2,0,L|352:232,1,71.2500027179719
256,224,35748,6,0,L|176:288,1,71.2500027179719
112,208,35883,2,0,L|24:256,1,71.2500027179719
104,128,36018,2,0,L|176:80,1,71.2500027179719
248,96,36153,5,0,0:0:0:0:
312,112,36220,1,0,0:0:0:0:
368,144,36288,1,0,0:0:0:0:
408,200,36355,1,0,0:0:0:0:
400,264,36423,1,0,0:0:0:0:
344,304,36490,1,0,0:0:0:0:
280,296,36558,1,0,0:0:0:0:
232,256,36625,1,0,0:0:0:0:
392,80,36693,6,0,L|480:80,1,71.2500027179719
448,128,36828,2,0,L|360:128,1,71.2500027179719
416,176,36963,2,0,L|496:176,1,71.2500027179719
336,224,37098,2,0,L|256:224,1,71.2500027179719
144,240,37233,2,0,L|80:152,1,71.2500027179719
24,272,37368,2,0,L|-16:184,1,71.2500027179719
160,240,37503,5,0,0:0:0:0:
224,208,37570,1,0,0:0:0:0:
272,160,37638,1,0,0:0:0:0:
256,96,37705,1,0,0:0:0:0:
176,144,37773,6,0,L|142:81,1,71.2500027179719
323,151,37908,2,0,L|358:89,1,71.2500027179719
328,88,38043,1,0,0:0:0:0:
264,72,38110,1,0,0:0:0:0:
208,88,38178,1,0,0:0:0:0:
168,128,38245,1,0,0:0:0:0:
128,176,38313,1,0,0:0:0:0:
88,232,38380,1,0,0:0:0:0:
120,288,38448,1,0,0:0:0:0:
184,312,38515,1,0,0:0:0:0:
264,208,38583,1,0,0:0:0:0:
320,176,38650,1,0,0:0:0:0:
360,128,38718,1,0,0:0:0:0:
320,80,38785,1,0,0:0:0:0:
120,80,38853,6,0,L|32:80,1,71.2500027179719
64,128,38988,2,0,L|152:128,1,71.2500027179719
96,176,39123,2,0,L|16:176,1,71.2500027179719
88,240,39258,2,0,L|168:240,1,71.2500027179719
320,240,39393,2,0,L|384:152,1,71.2500027179719
464,264,39528,2,0,L|504:176,1,71.2500027179719
336,240,39663,5,0,0:0:0:0:
280,216,39730,1,0,0:0:0:0:
248,160,39798,1,0,0:0:0:0:
264,96,39865,1,0,0:0:0:0:
440,96,39933,6,0,L|472:168,1,71.2500027179719
272,88,40068,2,0,L|216:168,1,71.2500027179719
232,184,40203,2,0,L|288:256,1,71.2500027179719
416,160,40338,2,0,L|472:80,1,71.2500027179719
376,144,40473,6,0,L|456:96,1,71.2500027179719
312,112,40608,2,0,L|224:160,1,71.2500027179719
152,160,40743,2,0,L|96:64,1,71.2500027179719
240,88,40878,2,0,L|336:88,1,71.2500027179719
96,304,41013,5,0,0:0:0:0:
64,264,41080,1,0,0:0:0:0:
72,208,41148,1,0,0:0:0:0:
96,168,41215,1,0,0:0:0:0:
176,184,41283,1,0,0:0:0:0:
224,152,41350,1,0,0:0:0:0:
256,120,41418,1,0,0:0:0:0:
224,72,41485,1,0,0:0:0:0:
392,176,41553,5,0,0:0:0:0:
432,128,41620,1,0,0:0:0:0:
416,72,41688,1,0,0:0:0:0:
360,40,41755,1,0,0:0:0:0:
296,48,41823,1,0,0:0:0:0:
248,80,41890,1,0,0:0:0:0:
216,112,41958,1,0,0:0:0:0:
248,168,42025,1,0,0:0:0:0:
176,200,42093,6,0,L|104:136,1,71.2500027179719
304,168,42228,2,0,L|376:240,1,71.2500027179719
464,96,42363,5,0,0:0:0:0:
432,80,42430,1,0,0:0:0:0:
400,72,42498,1,0,0:0:0:0:
344,72,42565,1,0,0:0:0:0:
112,304,42633,5,0,0:0:0:0:
80,256,42700,1,0,0:0:0:0:
80,200,42768,1,0,0:0:0:0:
120,152,42835,1,0,0:0:0:0:
184,208,42903,1,0,0:0:0:0:
248,200,42970,1,0,0:0:0:0:
296,168,43038,1,0,0:0:0:0:
328,104,43105,1,0,0:0:0:0:
232,104,43173,6,0,L|168:40,1,71.2500027179719
136,64,43308,2,0,L|72:120,1,71.2500027179719
216,72,43443,2,0,L|264:144,1,71.2500027179719
248,168,43578,2,0,L|328:216,1,71.2500027179719
384,56,43713,2,0,L|344:128,1,71.2500027179719
312,152,43848,2,0,L|224:192,1,71.2500027179719
416,160,43983,2,0,L|488:216,1,71.2500027179719
312,160,44118,2,0,L|240:208,1,71.2500027179719
344,240,44253,6,0,L|360:168,3,71.2500027179719
168,240,44523,6,0,L|152:152,3,71.2500027179719
280,160,44793,2,0,L|312:64,3,71.2500027179719
144,80,45063,5,0,0:0:0:0:
104,96,45130,1,0,0:0:0:0:
80,128,45198,1,0,0:0:0:0:
88,168,45265,1,0,0:0:0:0:
352,160,45333,6,0,L|480:160,1,95
160,160,45603,6,0,L|40:160,1,95
336,184,45873,6,0,L|464:184,1,95
128,184,46143,6,0,L|-8:184,1,95
112,136,46413,1,0,0:0:0:0:
208,80,46548,1,0,0:0:0:0:
296,104,46683,1,0,0:0:0:0:
288,200,46818,1,0,0:0:0:0:
264,280,46953,1,0,0:0:0:0:
328,200,47088,1,0,0:0:0:0:
256,192,47223,1,0,0:0:0:0:
200,120,47358,1,0,0:0:0:0:
360,288,47493,6,0,L|448:144,1,142.500005435944
200,192,47763,1,8,0:0:0:0:
200,192,47898,1,0,0:0:0:0:
400,304,48033,2,0,L|504:136,1,142.500005435944
200,192,48303,1,8,0:0:0:0:
200,192,48438,1,0,0:0:0:0:
72,304,48573,6,0,L|-16:176,1,142.500005435944
440,160,48843,1,8,0:0:0:0:
440,160,48978,1,0,0:0:0:0:
176,200,49113,5,0,0:0:0:0:
144,168,49180,1,0,0:0:0:0:
144,128,49248,1,0,0:0:0:0:
336,200,49383,5,8,0:0:0:0:
368,168,49450,1,0,0:0:0:0:
368,128,49518,1,0,0:0:0:0:
72,248,49653,5,0,0:0:0:0:
72,248,49788,1,0,0:0:0:0:
248,120,49923,2,0,L|400:224,1,142.500005435944,8|0,0:0|0:0,0:0:0:0:
72,248,50193,1,0,0:0:0:0:
72,248,50328,1,0,0:0:0:0:
224,144,50463,2,0,L|352:264,1,142.500005435944,8|0,0:0|0:0,0:0:0:0:
128,168,50733,6,0,L|16:64,1,142.500005435944
376,160,51003,6,0,L|376:0,1,142.500005435944,8|0,0:0|0:0,0:0:0:0:
136,152,51273,1,0,0:0:0:0:
104,120,51340,1,0,0:0:0:0:
80,88,51408,1,0,0:0:0:0:
376,144,51543,1,8,0:0:0:0:
392,104,51610,1,0,0:0:0:0:
368,72,51678,1,0,0:0:0:0:
136,248,51813,5,0,0:0:0:0:
136,248,51948,1,0,0:0:0:0:
352,160,52083,2,0,L|480:48,1,142.500005435944,8|0,0:0|0:0,0:0:0:0:
264,248,52353,1,0,0:0:0:0:
272,248,52488,1,0,0:0:0:0:
136,248,52623,2,0,L|48:112,1,142.500005435944,8|0,0:0|0:0,0:0:0:0:
368,120,52893,6,0,L|496:56,1,142.500005435944
144,120,53163,6,0,L|144:320,1,142.500005435944,8|0,0:0|0:0,0:0:0:0:
376,120,53433,5,0,0:0:0:0:
400,80,53501,1,0,0:0:0:0:
400,40,53568,1,0,0:0:0:0:
136,120,53703,5,8,0:0:0:0:
112,80,53771,1,0,0:0:0:0:
112,40,53838,1,0,0:0:0:0:
448,248,53973,5,0,0:0:0:0:
448,248,54108,1,0,0:0:0:0:
208,248,54243,1,8,0:0:0:0:
96,248,54378,1,0,0:0:0:0:
344,248,54513,5,0,0:0:0:0:
344,248,54648,1,0,0:0:0:0:
232,248,54783,1,8,0:0:0:0:
120,248,54918,1,0,0:0:0:0:
320,168,55053,6,0,L|448:80,1,142.500005435944
192,168,55323,6,0,L|64:80,1,142.500005435944,8|0,0:0|0:0,0:0:0:0:
376,152,55593,5,0,0:0:0:0:
432,112,55661,1,0,0:0:0:0:
392,72,55728,1,0,0:0:0:0:
368,40,55796,1,0,0:0:0:0:
136,152,55863,5,8,0:0:0:0:
80,112,55931,1,0,0:0:0:0:
112,80,55998,1,0,0:0:0:0:
152,48,56066,1,0,0:0:0:0:
360,288,56133,6,0,L|448:144,1,142.500005435944
200,192,56403,1,8,0:0:0:0:
200,192,56538,1,0,0:0:0:0:
400,304,56673,2,0,L|504:136,1,142.500005435944
200,192,56943,1,8,0:0:0:0:
200,192,57078,1,0,0:0:0:0:
72,304,57213,6,0,L|-16:176,1,142.500005435944
344,144,57483,6,8,L|344:0,1,142.500005435944,8|0,0:0|0:0,0:0:0:0:
176,200,57753,5,0,0:0:0:0:
144,168,57820,1,0,0:0:0:0:
144,128,57888,1,0,0:0:0:0:
336,200,58023,5,8,0:0:0:0:
368,168,58090,1,0,0:0:0:0:
368,128,58158,1,0,0:0:0:0:
72,248,58293,5,0,0:0:0:0:
72,248,58428,1,0,0:0:0:0:
248,120,58563,2,0,L|400:224,1,142.500005435944,8|0,0:0|0:0,0:0:0:0:
72,248,58833,1,0,0:0:0:0:
72,248,58968,1,0,0:0:0:0:
224,144,59103,2,0,L|352:264,1,142.500005435944,8|0,0:0|0:0,0:0:0:0:
128,168,59373,6,0,L|16:64,1,142.500005435944
384,168,59643,6,0,L|384:16,1,142.500005435944,8|0,0:0|0:0,0:0:0:0:
136,152,59913,1,0,0:0:0:0:
104,120,59980,1,0,0:0:0:0:
80,88,60048,1,0,0:0:0:0:
376,144,60183,1,8,0:0:0:0:
392,104,60250,1,0,0:0:0:0:
368,72,60318,1,0,0:0:0:0:
136,248,60453,5,0,0:0:0:0:
136,248,60588,1,0,0:0:0:0:
352,160,60723,2,0,L|480:48,1,142.500005435944,8|0,0:0|0:0,0:0:0:0:
264,248,60993,1,0,0:0:0:0:
272,248,61128,1,0,0:0:0:0:
136,248,61263,2,0,L|48:112,1,142.500005435944,8|0,0:0|0:0,0:0:0:0:
368,120,61533,6,0,L|496:56,1,142.500005435944
144,120,61803,6,0,L|144:-32,1,142.500005435944,8|0,0:0|0:0,0:0:0:0:
376,120,62073,5,0,0:0:0:0:
400,80,62141,5,0,0:0:0:0:
400,40,62208,1,0,0:0:0:0:
136,120,62343,5,8,0:0:0:0:
112,80,62411,1,0,0:0:0:0:
112,40,62478,5,0,0:0:0:0:
288,288,62613,5,0,0:0:0:0:
312,160,62748,1,0,0:0:0:0:
400,80,62883,1,8,0:0:0:0:
504,80,63018,1,0,0:0:0:0:
224,288,63153,5,0,0:0:0:0:
200,160,63288,1,0,0:0:0:0:
112,80,63423,1,8,0:0:0:0:
8,80,63558,1,0,0:0:0:0:
352,224,63693,5,0,0:0:0:0:
376,184,63761,1,0,0:0:0:0:
392,144,63828,1,0,0:0:0:0:
400,96,63896,1,0,0:0:0:0:
168,216,63963,5,8,0:0:0:0:
136,184,64031,1,0,0:0:0:0:
120,144,64098,1,0,0:0:0:0:
112,96,64166,1,0,0:0:0:0:
256,288,64233,5,0,0:0:0:0:
216,272,64301,1,0,0:0:0:0:
192,224,64368,1,0,0:0:0:0:
208,176,64436,1,0,0:0:0:0:
288,216,64503,1,8,0:0:0:0:
336,184,64571,1,0,0:0:0:0:
384,192,64638,1,0,0:0:0:0:
432,216,64706,1,0,0:0:0:0:
120,320,64773,6,0,L|24:152,2,142.500005435944,10|0|10,0:0|0:0|0:0,0:0:0:0:
224,216,65178,1,0,0:0:0:0:
392,320,65313,6,0,L|488:152,2,142.500005435944,2|0|10,0:0|0:0|0:0,0:0:0:0:
288,216,65718,1,0,0:0:0:0:
120,208,65853,6,4,L|24:40,2,142.500005435944,6|4|10,0:0|0:0|0:0,0:0:0:0:
480,200,66258,1,0,0:0:0:0:
296,208,66393,6,0,L|320:-16,1,213.750008153916
248,152,66663,2,0,L|240:320,1,142.500005435944,8|0,0:0|0:0,0:0:0:0:
336,216,66933,2,0,L|352:-8,1,213.750008153916
192,224,67203,2,0,L|200:64,1,142.500005435944,8|0,0:0|0:0,0:0:0:0:
216,208,67473,6,0,L|216:-8,1,213.750008153916
272,152,67743,2,0,L|432:152,1,142.500005435944,8|0,0:0|0:0,0:0:0:0:
176,216,68013,2,0,L|176:0,1,213.750008153916
320,224,68283,2,0,L|416:96,1,142.500005435944,8|0,0:0|0:0,0:0:0:0:
248,304,68553,5,0,0:0:0:0:
376,240,68688,1,0,0:0:0:0:
464,160,68823,1,0,0:0:0:0:
408,72,68958,1,0,0:0:0:0:
200,184,69093,6,0,L|0:80,1,213.750008153916
56,112,69363,1,8,0:0:0:0:
80,184,69498,1,0,0:0:0:0:
352,280,69633,6,0,L|352:40,1,213.750008153916
288,248,69903,6,0,L|288:8,1,213.750008153916,8|0,0:0|0:0,0:0:0:0:
488,176,70173,6,0,L|336:176,1,142.500005435944
448,232,70443,2,0,L|296:232,1,142.500005435944,8|0,0:0|0:0,0:0:0:0:
32,208,70713,2,0,L|232:208,1,142.500005435944
80,272,70983,2,0,L|232:272,1,142.500005435944,8|0,0:0|0:0,0:0:0:0:
496,120,71253,6,0,L|352:120,1,142.500005435944
160,120,71523,6,0,L|16:120,1,142.500005435944,8|0,0:0|0:0,0:0:0:0:
224,272,71793,5,0,0:0:0:0:
336,272,71928,1,0,0:0:0:0:
240,216,72063,1,8,0:0:0:0:
352,216,72198,1,0,0:0:0:0:
288,272,72333,5,0,0:0:0:0:
176,272,72468,1,0,0:0:0:0:
272,216,72603,1,8,0:0:0:0:
160,216,72738,1,0,0:0:0:0:
384,224,72873,5,0,0:0:0:0:
416,192,72941,1,0,0:0:0:0:
424,152,73008,1,0,0:0:0:0:
392,112,73076,1,0,0:0:0:0:
336,104,73143,1,8,0:0:0:0:
280,120,73211,1,0,0:0:0:0:
248,160,73278,1,0,0:0:0:0:
232,208,73346,1,0,0:0:0:0:
480,208,73413,6,0,L|384:336,1,142.500005435944
432,184,73683,2,0,L|320:320,1,142.500005435944,8|0,0:0|0:0,0:0:0:0:
352,192,73953,2,0,L|232:336,1,142.500005435944
208,240,74223,5,8,0:0:0:0:
248,200,74291,1,0,0:0:0:0:
288,160,74358,1,0,0:0:0:0:
40,280,74493,5,0,0:0:0:0:
8,232,74561,1,0,0:0:0:0:
40,200,74628,1,0,0:0:0:0:
88,168,74696,1,0,0:0:0:0:
336,200,74763,6,0,L|440:88,1,142.500005435944,8|0,0:0|0:0,0:0:0:0:
176,200,75033,6,0,L|120:56,1,142.500005435944
328,160,75303,5,8,0:0:0:0:
368,128,75371,1,0,0:0:0:0:
360,80,75438,1,0,0:0:0:0:
32,208,75573,6,0,L|128:336,1,142.500005435944
80,184,75843,2,0,L|192:320,1,142.500005435944,8|0,0:0|0:0,0:0:0:0:
160,192,76113,2,0,L|280:336,1,142.500005435944
272,248,76383,1,8,0:0:0:0:
232,208,76451,1,0,0:0:0:0:
192,176,76518,1,0,0:0:0:0:
408,160,76653,5,0,0:0:0:0:
440,120,76721,1,0,0:0:0:0:
440,72,76788,1,0,0:0:0:0:
392,48,76856,1,0,0:0:0:0:
80,152,76923,6,0,L|0:8,1,142.500005435944,8|0,0:0|0:0,0:0:0:0:
264,176,77193,1,0,0:0:0:0:
304,144,77261,1,0,0:0:0:0:
312,96,77328,1,0,0:0:0:0:
144,168,77463,5,8,0:0:0:0:
104,136,77531,1,0,0:0:0:0:
96,88,77598,1,0,0:0:0:0:
304,256,77733,6,0,L|464:256,1,142.500005435944
184,256,78003,1,8,0:0:0:0:
304,256,78138,1,0,0:0:0:0:
144,216,78273,6,0,L|80:64,1,142.500005435944
360,208,78543,2,0,L|424:56,1,142.500005435944,8|0,0:0|0:0,0:0:0:0:
256,200,78813,1,0,0:0:0:0:
368,200,78948,1,0,0:0:0:0:
96,232,79083,5,8,0:0:0:0:
72,200,79151,1,0,0:0:0:0:
64,160,79218,1,0,0:0:0:0:
80,120,79286,1,0,0:0:0:0:
120,160,79353,6,0,L|272:168,1,142.500005435944
360,176,79623,6,0,L|464:56,1,142.500005435944,8|0,0:0|0:0,0:0:0:0:
152,176,79893,6,0,L|48:56,1,142.500005435944
344,248,80163,5,8,0:0:0:0:
408,208,80231,1,0,0:0:0:0:
344,176,80298,1,0,0:0:0:0:
168,248,80433,5,0,0:0:0:0:
144,200,80501,1,0,0:0:0:0:
144,152,80568,1,0,0:0:0:0:
424,176,80703,5,8,0:0:0:0:
456,128,80771,1,0,0:0:0:0:
488,80,80838,1,0,0:0:0:0:
328,208,80973,5,0,0:0:0:0:
344,176,81041,1,0,0:0:0:0:
352,136,81108,1,0,0:0:0:0:
336,96,81176,1,0,0:0:0:0:
184,208,81243,5,8,0:0:0:0:
168,176,81311,1,0,0:0:0:0:
160,136,81378,1,0,0:0:0:0:
176,96,81446,1,0,0:0:0:0:
352,112,81513,5,0,0:0:0:0:
400,112,81581,1,0,0:0:0:0:
448,112,81648,1,0,0:0:0:0:
488,112,81716,1,0,0:0:0:0:
160,112,81783,5,8,0:0:0:0:
112,112,81851,1,0,0:0:0:0:
64,112,81918,1,0,0:0:0:0:
48,72,81986,1,0,0:0:0:0:
88,64,82053,1,0,0:0:0:0:
208,312,90693,6,0,L|120:192,1,142.500005435944
256,192,90963,1,0,0:0:0:0:
368,192,91098,1,0,0:0:0:0:
480,192,91233,1,0,0:0:0:0:
368,200,91368,1,0,0:0:0:0:
256,200,91503,1,0,0:0:0:0:
144,200,91638,1,0,0:0:0:0:
24,208,91773,2,0,L|24:368,1,142.500005435944
216,208,92043,2,0,L|216:376,1,142.500005435944
480,200,92313,2,0,L|480:368,1,142.500005435944
256,312,92583,1,0,0:0:0:0:
144,296,92718,1,0,0:0:0:0:
376,208,92853,6,0,L|448:72,3,142.500005435944
248,264,93393,1,0,0:0:0:0:
144,216,93528,1,0,0:0:0:0:
80,128,93663,1,0,0:0:0:0:
192,112,93798,1,0,0:0:0:0:
400,112,93933,6,0,L|400:296,1,142.500005435944
112,112,94203,6,0,L|112:320,1,142.500005435944
392,112,94473,6,0,L|280:216,3,142.500005435944
128,200,95013,5,0,0:0:0:0:
40,264,95148,1,0,0:0:0:0:
144,320,95283,1,0,0:0:0:0:
40,264,95418,1,0,0:0:0:0:
384,200,95553,5,0,0:0:0:0:
472,264,95688,1,0,0:0:0:0:
368,320,95823,1,0,0:0:0:0:
472,264,95958,1,0,0:0:0:0:
192,256,96093,5,0,0:0:0:0:
96,208,96228,1,0,0:0:0:0:
32,136,96363,1,0,0:0:0:0:
80,56,96498,1,0,0:0:0:0:
344,232,96633,5,0,0:0:0:0:
448,144,96768,1,0,0:0:0:0:
344,232,96903,1,0,0:0:0:0:
448,144,97038,1,0,0:0:0:0:
152,176,97173,5,0,0:0:0:0:
152,176,97308,1,0,0:0:0:0:
336,176,97443,1,0,0:0:0:0:
328,176,97578,1,0,0:0:0:0:
136,288,97713,5,0,0:0:0:0:
48,232,97848,1,0,0:0:0:0:
376,288,97983,5,0,0:0:0:0:
464,232,98118,1,0,0:0:0:0:
88,264,98253,5,0,0:0:0:0:
40,216,98321,1,0,0:0:0:0:
24,152,98388,1,0,0:0:0:0:
40,96,98456,1,0,0:0:0:0:
88,56,98523,1,0,0:0:0:0:
152,56,98591,1,0,0:0:0:0:
208,96,98658,1,0,0:0:0:0:
232,160,98726,1,0,0:0:0:0:
208,216,98793,2,0,L|152:280,1,47.5
240,280,98928,2,0,L|312:280,1,47.5
336,256,99063,1,0,0:0:0:0:
312,192,99131,1,0,0:0:0:0:
296,128,99198,1,0,0:0:0:0:
336,80,99266,1,0,0:0:0:0:
152,336,99333,5,0,0:0:0:0:
96,304,99401,1,0,0:0:0:0:
64,256,99468,1,0,0:0:0:0:
56,208,99536,1,0,0:0:0:0:
80,168,99603,2,0,L|152:160,1,47.5
184,176,99738,2,0,L|232:232,1,47.5
264,184,99873,2,0,L|288:112,1,47.5
240,96,100008,2,0,L|160:96,1,47.5
128,96,100143,1,0,0:0:0:0:
128,168,100211,1,0,0:0:0:0:
184,224,100278,1,0,0:0:0:0:
248,232,100346,1,0,0:0:0:0:
488,168,100413,6,0,L|496:256,1,47.5
424,224,100548,2,0,L|400:272,1,47.5
336,248,100683,2,0,L|288:296,1,47.5
232,240,100818,2,0,L|176:248,1,47.5
152,192,100953,2,0,L|96:136,1,47.5
176,96,101088,2,0,L|160:48,1,47.5
256,64,101223,2,0,L|264:128,1,47.5
352,88,101358,2,0,L|376:144,1,47.5
128,272,101493,6,0,L|56:224,1,47.5
40,216,101628,2,0,L|32:128,1,47.5
48,112,101763,2,0,L|112:104,1,47.5
144,104,101898,2,0,L|216:104,1,47.5
240,112,102033,2,0,L|272:72,3,47.5
320,96,102304,1,0,0:0:0:0:
368,144,102371,1,0,0:0:0:0:
384,208,102439,1,0,0:0:0:0:
400,280,102506,1,0,0:0:0:0:
56,344,102574,6,0,L|32:304,3,47.5
64,256,102844,2,0,L|64:200,1,47.5
104,168,102979,2,0,L|168:216,1,47.5
184,168,103114,1,0,0:0:0:0:
192,104,103181,1,0,0:0:0:0:
144,80,103249,1,0,0:0:0:0:
80,80,103316,1,0,0:0:0:0:
24,128,103384,2,0,L|48:176,1,47.5
128,128,103519,2,0,L|160:184,1,47.5
384,272,103654,6,0,L|440:224,3,47.5
336,224,103924,1,0,0:0:0:0:
288,176,103991,1,0,0:0:0:0:
280,120,104059,1,0,0:0:0:0:
336,88,104126,1,0,0:0:0:0:
400,104,104194,2,0,L|480:104,1,47.5
392,152,104329,2,0,L|344:192,1,47.5
408,224,104464,2,0,L|368:296,3,47.5
144,272,104734,6,0,L|72:232,1,47.5
128,192,104869,2,0,L|64:160,1,47.5
64,104,105004,2,0,L|136:136,1,47.5
136,72,105139,2,0,L|208:104,1,47.5
152,160,105274,2,0,L|104:216,1,47.5
208,168,105409,2,0,L|208:224,1,47.5
280,160,105544,1,0,0:0:0:0:
320,216,105611,1,0,0:0:0:0:
384,232,105679,1,0,0:0:0:0:
424,192,105746,1,0,0:0:0:0:
144,160,105814,6,0,L|72:216,1,47.5
248,160,105949,2,0,L|320:160,1,47.5
320,200,106084,2,0,L|320:288,1,47.5
144,192,106219,2,0,L|96:248,1,47.5
256,168,106354,2,0,L|328:168,1,47.5
264,208,106489,2,0,L|200:264,1,47.5
192,144,106624,5,0,0:0:0:0:
144,144,106691,1,0,0:0:0:0:
80,144,106759,1,0,0:0:0:0:
24,160,106826,1,0,0:0:0:0:
496,328,106894,6,0,L|-8:72,1,522.5
272,224,107704,6,0,P|336:176|304:96,1,142.5
160,176,107974,6,0,L|48:176,1,95
304,168,108244,1,8,0:0:0:0:
304,168,108379,1,0,0:0:0:0:
160,248,108514,2,0,L|32:248,1,95
312,248,108784,1,8,0:0:0:0:
384,248,108919,1,0,0:0:0:0:
224,216,109054,6,0,L|176:104,1,95
256,152,109324,1,8,0:0:0:0:
456,216,109459,1,0,0:0:0:0:
216,216,109594,6,0,L|80:216,1,95
416,216,109864,1,8,0:0:0:0:
344,216,109999,1,0,0:0:0:0:
96,112,110134,6,0,L|32:8,1,95
272,112,110404,1,8,0:0:0:0:
272,112,110539,1,0,0:0:0:0:
104,256,110674,2,0,L|32:344,1,95
272,256,110944,1,8,0:0:0:0:
344,256,111079,1,0,0:0:0:0:
168,168,111214,6,0,L|64:80,1,95
320,176,111484,1,8,0:0:0:0:
456,168,111619,1,0,0:0:0:0:
320,176,111754,1,0,0:0:0:0:
176,168,111889,1,0,0:0:0:0:
24,184,112024,2,0,L|24:304,1,95,8|0,0:0|0:0,0:0:0:0:
264,304,112294,5,0,0:0:0:0:
320,248,112429,1,0,0:0:0:0:
368,184,112564,1,8,0:0:0:0:
344,112,112699,1,0,0:0:0:0:
264,112,112834,6,0,L|192:256,1,142.5
240,248,113104,2,0,L|200:104,1,142.5,8|0,0:0|0:0,0:0:0:0:
472,240,113374,5,0,0:0:0:0:
40,240,113509,5,0,0:0:0:0:
112,240,113644,1,8,0:0:0:0:
184,240,113779,1,0,0:0:0:0:
80,96,113914,6,0,L|16:208,1,95
224,104,114184,2,0,L|288:224,1,95,8|0,0:0|0:0,0:0:0:0:
384,88,114454,2,0,L|488:88,1,95
384,96,114724,2,0,L|248:96,1,95,8|0,0:0|0:0,0:0:0:0:
392,184,114994,6,0,L|496:184,1,95
376,224,115264,2,0,L|264:224,1,95,8|0,0:0|0:0,0:0:0:0:
40,240,115534,5,0,0:0:0:0:
472,240,115669,5,0,0:0:0:0:
400,240,115804,1,8,0:0:0:0:
328,240,115939,1,0,0:0:0:0:
240,216,116074,6,0,L|304:112,1,95
289,135,116344,2,0,L|344:232,1,95,8|0,0:0|0:0,0:0:0:0:
48,160,116614,5,0,0:0:0:0:
120,160,116749,1,0,0:0:0:0:
56,192,116884,1,8,0:0:0:0:
128,200,117019,1,0,0:0:0:0:
200,208,117154,2,0,L|288:112,1,95
112,176,117424,6,0,L|-8:176,1,95,8|0,0:0|0:0,0:0:0:0:
472,280,117694,5,0,0:0:0:0:
504,232,117762,1,0,0:0:0:0:
472,200,117829,1,0,0:0:0:0:
424,168,117897,1,0,0:0:0:0:
376,208,117964,5,8,0:0:0:0:
328,168,118031,1,0,0:0:0:0:
336,112,118099,1,0,0:0:0:0:
384,80,118166,1,0,0:0:0:0:
264,104,118234,6,0,L|152:104,1,95
272,136,118504,2,0,L|168:136,1,95,8|0,0:0|0:0,0:0:0:0:
464,160,118774,5,0,0:0:0:0:
392,160,118909,1,0,0:0:0:0:
456,192,119044,1,8,0:0:0:0:
384,200,119179,1,0,0:0:0:0:
312,208,119314,2,0,L|224:112,1,95
400,176,119584,6,0,L|520:176,1,95,8|0,0:0|0:0,0:0:0:0:
40,280,119854,5,0,0:0:0:0:
8,232,119922,1,0,0:0:0:0:
40,200,119989,1,0,0:0:0:0:
88,168,120057,1,0,0:0:0:0:
136,208,120124,5,8,0:0:0:0:
184,168,120191,1,0,0:0:0:0:
176,112,120259,1,0,0:0:0:0:
128,80,120326,1,0,0:0:0:0:
248,104,120394,6,0,L|360:104,1,95
240,136,120664,2,0,L|112:136,1,95,8|0,0:0|0:0,0:0:0:0:
304,256,120934,6,0,L|464:256,1,142.500005435944
184,256,121204,1,8,0:0:0:0:
304,256,121339,1,0,0:0:0:0:
144,216,121474,6,0,L|80:64,1,142.500005435944
360,208,121744,2,0,L|424:56,1,142.500005435944,8|0,0:0|0:0,0:0:0:0:
256,200,122014,1,0,0:0:0:0:
368,200,122149,1,0,0:0:0:0:
96,232,122284,5,8,0:0:0:0:
72,200,122352,1,0,0:0:0:0:
64,160,122419,1,0,0:0:0:0:
80,120,122487,1,0,0:0:0:0:
120,160,122554,6,0,L|272:168,1,142.500005435944
360,176,122824,6,0,L|464:56,1,142.500005435944,8|0,0:0|0:0,0:0:0:0:
152,176,123094,6,0,L|48:56,1,142.500005435944
344,248,123364,5,8,0:0:0:0:
408,208,123432,1,0,0:0:0:0:
344,176,123499,1,0,0:0:0:0:
168,248,123634,5,0,0:0:0:0:
144,200,123702,1,0,0:0:0:0:
144,152,123769,1,0,0:0:0:0:
424,176,123904,5,8,0:0:0:0:
456,128,123972,1,0,0:0:0:0:
488,80,124039,1,0,0:0:0:0:
328,208,124174,5,0,0:0:0:0:
344,176,124242,1,0,0:0:0:0:
352,136,124309,1,0,0:0:0:0:
336,96,124377,1,0,0:0:0:0:
184,208,124444,5,8,0:0:0:0:
168,176,124512,1,0,0:0:0:0:
160,136,124579,1,0,0:0:0:0:
176,96,124647,1,0,0:0:0:0:
416,208,124714,5,8,0:0:0:0:
432,176,124782,1,0,0:0:0:0:
440,136,124849,1,0,0:0:0:0:
424,96,124917,1,0,0:0:0:0:
136,208,124984,5,8,0:0:0:0:
120,176,125052,1,0,0:0:0:0:
112,136,125119,1,0,0:0:0:0:
128,96,125187,1,0,0:0:0:0:
392,320,125254,6,0,L|488:152,2,142.500005435944,10|0|10,0:0|0:0|0:0,0:0:0:0:
288,216,125659,1,0,0:0:0:0:
120,320,125794,6,0,L|24:152,2,142.500005435944,2|0|10,0:0|0:0|0:0,0:0:0:0:
224,216,126199,1,0,0:0:0:0:
392,208,126334,6,4,L|488:40,2,142.500005435944,6|4|10,0:0|0:0|0:0,0:0:0:0:
32,200,126739,1,0,0:0:0:0:
216,208,126874,6,0,L|192:-16,1,213.750008153916
264,152,127144,2,0,L|272:320,1,142.500005435944,8|0,0:0|0:0,0:0:0:0:
176,216,127414,2,0,L|160:-8,1,213.750008153916
320,224,127684,2,0,L|312:64,1,142.500005435944,8|0,0:0|0:0,0:0:0:0:
296,208,127954,6,0,L|296:-8,1,213.750008153916
240,152,128224,2,0,L|80:152,1,142.500005435944,8|0,0:0|0:0,0:0:0:0:
336,216,128494,2,0,L|336:0,1,213.750008153916
192,224,128764,2,0,L|96:96,1,142.500005435944,8|0,0:0|0:0,0:0:0:0:
264,304,129034,5,0,0:0:0:0:
136,240,129169,1,0,0:0:0:0:
48,160,129304,1,0,0:0:0:0:
104,72,129439,1,0,0:0:0:0:
312,184,129574,6,0,L|512:80,1,213.750008153916
456,112,129844,1,8,0:0:0:0:
432,184,129979,1,0,0:0:0:0:
160,280,130114,6,0,L|160:40,1,213.750008153916
224,248,130384,6,0,L|224:8,1,213.750008153916,8|0,0:0|0:0,0:0:0:0:
24,176,130654,6,0,L|176:176,1,142.500005435944
64,232,130924,2,0,L|216:232,1,142.500005435944,8|0,0:0|0:0,0:0:0:0:
480,208,131194,2,0,L|280:208,1,142.500005435944
432,272,131464,2,0,L|280:272,1,142.500005435944,8|0,0:0|0:0,0:0:0:0:
17,120,131734,6,0,L|160:120,1,142.500005435944
352,120,132004,6,0,L|496:120,1,142.500005435944,8|0,0:0|0:0,0:0:0:0:
288,272,132274,5,0,0:0:0:0:
176,272,132409,1,0,0:0:0:0:
272,216,132544,1,8,0:0:0:0:
160,216,132679,1,0,0:0:0:0:
224,272,132814,5,0,0:0:0:0:
336,272,132949,1,0,0:0:0:0:
240,216,133084,1,8,0:0:0:0:
352,216,133219,1,0,0:0:0:0:
128,224,133354,5,0,0:0:0:0:
96,192,133422,1,0,0:0:0:0:
88,152,133489,1,0,0:0:0:0:
120,112,133557,1,0,0:0:0:0:
176,104,133624,1,8,0:0:0:0:
232,120,133692,1,0,0:0:0:0:
264,160,133759,1,0,0:0:0:0:
280,208,133827,1,0,0:0:0:0:
32,208,133894,6,0,L|128:336,1,142.500005435944
80,184,134164,2,0,L|192:320,1,142.500005435944,8|0,0:0|0:0,0:0:0:0:
208,240,134434,5,0,0:0:0:0:
248,200,134502,1,0,0:0:0:0:
288,160,134569,1,0,0:0:0:0:
304,240,134704,5,8,0:0:0:0:
264,200,134772,1,0,0:0:0:0:
224,160,134839,1,0,0:0:0:0:
472,280,134974,5,0,0:0:0:0:
504,232,135042,1,0,0:0:0:0:
472,200,135109,1,0,0:0:0:0:
424,168,135177,1,0,0:0:0:0:
176,200,135244,6,0,L|72:88,1,142.500005435944,8|0,0:0|0:0,0:0:0:0:
336,200,135514,6,0,L|392:56,1,142.500005435944
184,160,135784,5,8,0:0:0:0:
144,128,135852,1,0,0:0:0:0:
152,80,135919,1,0,0:0:0:0:
480,208,136054,6,0,L|384:336,1,142.500005435944
432,184,136324,2,0,L|320:320,1,142.500005435944,8|0,0:0|0:0,0:0:0:0:
352,192,136594,2,0,L|232:336,1,142.500005435944
240,248,136864,1,8,0:0:0:0:
280,208,136932,1,0,0:0:0:0:
320,176,136999,1,0,0:0:0:0:
104,160,137134,5,0,0:0:0:0:
72,120,137202,1,0,0:0:0:0:
72,72,137269,1,0,0:0:0:0:
120,48,137337,1,0,0:0:0:0:
432,152,137404,6,0,L|512:8,1,142.500005435944,8|0,0:0|0:0,0:0:0:0:
248,176,137674,1,0,0:0:0:0:
208,144,137742,1,0,0:0:0:0:
200,96,137809,1,0,0:0:0:0:
368,168,137944,5,8,0:0:0:0:
408,136,138012,1,0,0:0:0:0:
416,88,138079,1,0,0:0:0:0:
208,256,138214,6,0,L|48:256,1,142.500005435944
328,256,138484,1,8,0:0:0:0:
208,256,138619,1,0,0:0:0:0:
368,216,138754,6,0,L|432:64,1,142.500005435944
152,208,139024,2,0,L|88:56,1,142.500005435944,8|0,0:0|0:0,0:0:0:0:
256,200,139294,1,0,0:0:0:0:
144,200,139429,1,0,0:0:0:0:
416,232,139564,5,8,0:0:0:0:
440,200,139632,1,0,0:0:0:0:
448,160,139699,1,0,0:0:0:0:
432,120,139767,1,0,0:0:0:0:
392,160,139834,6,0,L|240:168,1,142.500005435944
152,176,140104,6,0,L|48:56,1,142.500005435944,8|0,0:0|0:0,0:0:0:0:
360,176,140374,6,0,L|464:56,1,142.500005435944
168,248,140644,5,8,0:0:0:0:
104,208,140712,1,0,0:0:0:0:
168,176,140779,1,0,0:0:0:0:
344,248,140914,5,0,0:0:0:0:
368,200,140982,1,0,0:0:0:0:
368,152,141049,1,0,0:0:0:0:
88,176,141184,5,8,0:0:0:0:
56,128,141252,1,0,0:0:0:0:
24,80,141319,1,0,0:0:0:0:
184,208,141454,5,0,0:0:0:0:
168,176,141522,1,0,0:0:0:0:
160,136,141589,1,0,0:0:0:0:
176,96,141657,1,0,0:0:0:0:
328,208,141724,5,8,0:0:0:0:
344,176,141792,1,0,0:0:0:0:
352,136,141859,1,0,0:0:0:0:
336,96,141927,1,0,0:0:0:0:
160,112,141994,5,0,0:0:0:0:
112,112,142062,1,0,0:0:0:0:
64,112,142129,1,0,0:0:0:0:
24,112,142197,1,0,0:0:0:0:
352,112,142264,5,8,0:0:0:0:
400,112,142332,1,0,0:0:0:0:
448,112,142399,1,0,0:0:0:0:
464,72,142467,1,0,0:0:0:0:
192,304,142534,5,0,0:0:0:0:
160,272,142601,1,0,0:0:0:0:
160,232,142669,1,0,0:0:0:0:
200,208,142736,1,0,0:0:0:0:
240,192,142804,1,0,0:0:0:0:
240,144,142871,1,0,0:0:0:0:
200,120,142939,1,0,0:0:0:0:
144,104,143006,1,0,0:0:0:0:
112,112,143074,2,0,L|32:112,1,71.2500027179719
80,160,143209,2,0,L|160:160,1,71.2500027179719
48,216,143344,2,0,L|8:296,1,71.2500027179719
64,304,143479,2,0,L|128:216,1,71.2500027179719
320,304,143614,5,0,0:0:0:0:
352,272,143681,1,0,0:0:0:0:
352,232,143749,1,0,0:0:0:0:
312,208,143816,1,0,0:0:0:0:
272,192,143884,1,0,0:0:0:0:
272,144,143951,1,0,0:0:0:0:
312,120,144019,1,0,0:0:0:0:
368,104,144086,1,0,0:0:0:0:
400,112,144154,2,0,L|480:112,1,71.2500027179719
432,160,144289,2,0,L|352:160,1,71.2500027179719
464,216,144424,2,0,L|504:296,1,71.2500027179719
448,304,144559,2,0,L|384:216,1,71.2500027179719
208,232,144694,5,0,0:0:0:0:
160,208,144761,1,0,0:0:0:0:
128,176,144829,1,0,0:0:0:0:
128,120,144896,1,0,0:0:0:0:
168,72,144964,1,0,0:0:0:0:
216,64,145031,1,0,0:0:0:0:
256,104,145099,1,0,0:0:0:0:
248,152,145166,1,0,0:0:0:0:
200,160,145234,2,0,L|136:96,1,71.2500027179719
248,176,145369,2,0,L|336:160,1,71.2500027179719
192,200,145504,2,0,L|64:208,1,71.2500027179719
232,232,145639,2,0,L|296:296,1,71.2500027179719
352,272,145774,2,0,L|344:168,1,71.2500027179719
400,192,145909,2,0,L|408:296,1,71.2500027179719
376,160,146044,2,0,L|376:80,1,71.2500027179719
400,88,146179,2,0,L|400:192,1,71.2500027179719
144,112,146314,5,0,0:0:0:0:
176,160,146381,1,0,0:0:0:0:
232,176,146449,1,0,0:0:0:0:
296,176,146516,1,0,0:0:0:0:
336,152,146584,1,0,0:0:0:0:
344,112,146651,1,0,0:0:0:0:
296,96,146719,1,0,0:0:0:0:
344,56,146786,1,0,0:0:0:0:
384,40,146854,1,0,0:0:0:0:
256,192,161974,12,0,163729,0:0:0:0:
192,240,163864,6,0,L|200:168,1,71.2500027179719
232,176,163999,2,0,L|192:96,1,71.2500027179719
280,136,164134,2,0,L|240:64,3,71.2500027179719
320,64,164404,5,0,0:0:0:0:
368,80,164472,1,0,0:0:0:0:
392,128,164539,1,0,0:0:0:0:
384,184,164607,1,0,0:0:0:0:
304,200,164674,6,0,L|224:272,1,71.2500027179719
192,224,164809,2,0,L|128:152,1,71.2500027179719
280,160,164944,5,0,0:0:0:0:
336,128,165012,1,0,0:0:0:0:
312,80,165079,1,0,0:0:0:0:
352,48,165147,1,0,0:0:0:0:
440,64,165214,5,0,0:0:0:0:
472,128,165282,1,0,0:0:0:0:
464,200,165349,1,0,0:0:0:0:
416,248,165417,1,0,0:0:0:0:
216,232,165484,6,0,L|0:232,4,213.750008153916
64,176,166362,5,0,0:0:0:0:
32,128,166429,1,0,0:0:0:0:
72,80,166497,1,0,0:0:0:0:
144,88,166564,2,0,L|200:32,1,71.2500027179719
288,80,166699,2,0,L|344:24,1,71.2500027179719
176,80,166834,6,0,L|104:152,1,71.2500027179719
288,80,166969,2,0,L|336:152,1,71.2500027179719
320,192,167104,2,0,L|256:264,1,71.2500027179719
192,192,167239,2,0,L|239:245,3,71.2500027179719
392,240,167509,6,0,L|392:96,1,142.500005435944
232,112,167779,2,0,L|136:256,2,142.500005435944
344,120,168184,1,0,0:0:0:0:
456,120,168319,1,0,0:0:0:0:
344,152,168454,6,0,L|256:208,2,71.2500027179719
288,152,168657,2,0,L|200:208,2,71.2500027179719
208,128,168859,2,0,L|208:224,1,71.2500027179719
128,128,168994,2,0,L|128:216,1,71.2500027179719
224,168,169129,2,0,L|288:104,1,71.2500027179719
128,112,169264,2,0,L|40:112,1,71.2500027179719
208,216,169399,5,0,0:0:0:0:
256,200,169467,1,0,0:0:0:0:
296,160,169534,1,0,0:0:0:0:
152,120,169602,1,0,0:0:0:0:
112,152,169669,1,0,0:0:0:0:
88,200,169737,1,0,0:0:0:0:
186,173,169804,5,0,0:0:0:0:
234,157,169872,1,0,0:0:0:0:
274,117,169939,1,0,0:0:0:0:
130,77,170007,1,0,0:0:0:0:
90,109,170074,1,0,0:0:0:0:
66,157,170142,1,0,0:0:0:0:
80,208,170209,1,0,0:0:0:0:
120,240,170277,1,0,0:0:0:0:
216,192,170344,1,0,0:0:0:0:
256,160,170412,1,0,0:0:0:0:
272,104,170479,1,0,0:0:0:0:
168,72,170547,5,0,0:0:0:0:
264,104,170614,6,0,L|336:192,1,71.2500027179719
152,112,170749,2,0,L|104:184,1,71.2500027179719
288,104,170884,6,0,L|360:192,1,71.2500027179719
176,112,171019,2,0,L|128:184,1,71.2500027179719
288,112,171154,2,0,L|504:112,4,213.750008153916
176,120,172099,2,0,L|128:272,1,142.500005435944
248,232,172369,2,0,L|312:72,1,142.500005435944
192,112,172639,2,0,L|48:112,2,142.500005435944
280,184,173044,1,0,0:0:0:0:
328,152,173112,5,0,0:0:0:0:
368,112,173179,1,0,0:0:0:0:
376,56,173247,1,0,0:0:0:0:
320,72,173314,1,0,0:0:0:0:
344,120,173382,1,0,0:0:0:0:
384,160,173449,1,0,0:0:0:0:
376,216,173517,1,0,0:0:0:0:
216,232,173584,5,0,0:0:0:0:
168,160,173719,1,0,0:0:0:0:
176,72,173854,1,0,0:0:0:0:
328,208,173989,2,0,L|360:128,1,71.2500027179719
296,120,174124,2,0,L|200:112,1,71.2500027179719
176,128,174259,2,0,L|136:216,1,71.2500027179719
80,152,174394,2,0,L|32:248,1,71.2500027179719
208,176,174529,6,0,L|288:104,1,71.2500027179719
304,104,174664,1,0,0:0:0:0:
336,64,174732,1,0,0:0:0:0:
304,32,174799,1,0,0:0:0:0:
248,32,174867,1,0,0:0:0:0:
368,288,174934,6,0,L|456:120,3,142.500005435944
192,200,175474,6,0,L|64:104,1,142.500005435944
336,184,175744,5,0,0:0:0:0:
400,128,175879,1,0,0:0:0:0:
368,48,176014,1,0,0:0:0:0:
152,160,176149,6,0,L|80:240,1,71.2500027179719
288,160,176284,2,0,L|344:256,1,71.2500027179719
168,160,176419,2,0,L|96:72,1,71.2500027179719
288,152,176554,2,0,L|344:248,1,71.2500027179719
168,160,176689,2,0,L|88:232,1,71.2500027179719
288,104,176824,6,0,L|352:48,1,71.2500027179719
416,96,176959,2,0,L|416:0,1,71.2500027179719
256,248,177094,5,0,0:0:0:0:
216,192,177162,1,0,0:0:0:0:
216,136,177229,1,0,0:0:0:0:
328,152,177297,5,0,0:0:0:0:
376,200,177364,1,0,0:0:0:0:
392,264,177432,1,0,0:0:0:0:
344,304,177499,1,0,0:0:0:0:
280,304,177567,1,0,0:0:0:0:
240,264,177634,1,0,0:0:0:0:
344,216,177702,5,0,0:0:0:0:
360,144,177769,1,0,0:0:0:0:
304,104,177837,1,0,0:0:0:0:
240,192,177904,5,0,0:0:0:0:
176,168,177972,1,0,0:0:0:0:
176,112,178039,1,0,0:0:0:0:
216,72,178107,1,0,0:0:0:0:
320,128,178174,5,0,0:0:0:0:
352,80,178242,1,0,0:0:0:0:
328,24,178309,1,0,0:0:0:0:
224,48,178377,5,0,0:0:0:0:
176,120,178444,1,0,0:0:0:0:
168,192,178512,1,0,0:0:0:0:
208,256,178579,1,0,0:0:0:0:
280,280,178647,1,0,0:0:0:0:
392,232,178714,5,0,0:0:0:0:
400,160,178782,1,0,0:0:0:0:
360,112,178849,1,0,0:0:0:0:
248,144,178917,1,0,0:0:0:0:
191,119,178984,1,0,0:0:0:0:
183,63,179052,1,0,0:0:0:0:
223,31,179119,1,0,0:0:0:0:
287,23,179187,1,0,0:0:0:0:
256,224,179254,6,0,L|152:112,3,142.500005435944
384,112,179794,6,0,L|384:272,1,142.500005435944
248,120,180064,2,0,L|192:264,1,142.500005435944
368,264,180334,5,0,0:0:0:0:
424,232,180402,1,0,0:0:0:0:
448,184,180469,1,0,0:0:0:0:
416,144,180537,1,0,0:0:0:0:
408,96,180604,1,0,0:0:0:0:
464,96,180672,1,0,0:0:0:0:
472,56,180739,1,0,0:0:0:0:
424,32,180807,1,0,0:0:0:0:
376,32,180874,1,0,0:0:0:0:
272,88,180942,5,0,0:0:0:0:
232,136,181009,1,0,0:0:0:0:
264,192,181077,1,0,0:0:0:0:
384,152,181144,5,0,0:0:0:0:
440,208,181212,1,0,0:0:0:0:
368,272,181279,1,0,0:0:0:0:
280,280,181347,1,0,0:0:0:0:
152,248,181414,5,0,0:0:0:0:
112,208,181482,1,0,0:0:0:0:
104,160,181549,1,0,0:0:0:0:
128,112,181617,1,0,0:0:0:0:
272,160,181684,5,0,0:0:0:0:
312,128,181752,1,0,0:0:0:0:
336,80,181819,1,0,0:0:0:0:
304,32,181887,1,0,0:0:0:0:
184,88,181954,5,0,0:0:0:0:
144,48,182022,1,0,0:0:0:0:
176,16,182089,1,0,0:0:0:0:
240,16,182157,1,0,0:0:0:0:
328,48,182224,2,0,L|400:208,3,142.500005435944
352,208,182697,1,0,0:0:0:0:
160,248,182764,5,0,0:0:0:0:
112,200,182832,1,0,0:0:0:0:
112,136,182899,1,0,0:0:0:0:
216,176,182967,5,0,0:0:0:0:
272,136,183034,1,0,0:0:0:0:
272,72,183102,1,0,0:0:0:0:
216,40,183169,1,0,0:0:0:0:
152,48,183237,1,0,0:0:0:0:
288,272,183304,5,0,0:0:0:0:
344,216,183372,1,0,0:0:0:0:
304,160,183439,1,0,0:0:0:0:
184,224,183507,5,0,0:0:0:0:
232,176,183574,1,0,0:0:0:0:
232,112,183642,1,0,0:0:0:0:
176,80,183709,1,0,0:0:0:0:
112,88,183777,1,0,0:0:0:0:
88,152,183844,1,0,0:0:0:0:
128,200,183912,1,0,0:0:0:0:
184,224,183979,1,0,0:0:0:0:
240,176,184047,1,0,0:0:0:0:
208,112,184114,1,0,0:0:0:0:
224,112,184182,5,0,0:0:0:0:
288,112,184249,1,0,0:0:0:0:
296,256,184317,5,0,0:0:0:0:
360,224,184384,1,0,0:0:0:0:
400,168,184452,1,0,0:0:0:0:
400,112,184519,1,0,0:0:0:0:
360,72,184587,1,0,0:0:0:0:
248,144,184654,5,0,0:0:0:0:
192,112,184722,1,0,0:0:0:0:
192,56,184789,1,0,0:0:0:0:
240,40,184857,1,0,0:0:0:0:
416,208,184924,5,0,0:0:0:0:
448,160,184992,1,0,0:0:0:0:
424,104,185059,1,0,0:0:0:0:
360,72,185127,1,0,0:0:0:0:
272,240,185194,5,0,0:0:0:0:
224,192,185262,1,0,0:0:0:0:
232,128,185329,1,0,0:0:0:0:
320,160,185397,1,0,0:0:0:0:
368,120,185464,1,0,0:0:0:0:
344,64,185532,1,0,0:0:0:0:
280,56,185599,1,0,0:0:0:0:
224,80,185667,1,0,0:0:0:0:
376,144,185734,6,0,L|416:264,1,71.2500027179719
264,208,185869,2,0,L|232:296,1,71.2500027179719
136,200,186004,2,0,L|64:264,1,71.2500027179719
40,152,186139,2,0,L|32:32,1,71.2500027179719
264,112,186274,6,0,L|256:264,1,142.500005435944
440,112,186544,2,0,L|440:296,1,142.500005435944
352,184,186814,2,0,L|272:344,3,142.500005435944
392,272,187354,2,0,L|464:104,3,142.500005435944
272,224,187894,5,0,0:0:0:0:
184,216,187962,1,0,0:0:0:0:
144,160,188029,1,0,0:0:0:0:
152,88,188097,1,0,0:0:0:0:
280,168,188164,1,0,0:0:0:0:
328,128,188232,1,0,0:0:0:0:
344,64,188299,1,0,0:0:0:0:
224,80,188367,1,0,0:0:0:0:
184,128,188434,1,0,0:0:0:0:
128,144,188502,1,0,0:0:0:0:
160,184,188569,1,0,0:0:0:0:
224,216,188637,1,0,0:0:0:0:
256,144,188704,5,0,0:0:0:0:
328,168,188772,1,0,0:0:0:0:
304,240,188839,1,0,0:0:0:0:
216,168,188907,5,0,0:0:0:0:
256,232,188974,1,0,0:0:0:0:
288,280,189042,1,0,0:0:0:0:
352,288,189109,1,0,0:0:0:0:
400,256,189177,1,0,0:0:0:0:
416,200,189244,1,0,0:0:0:0:
424,144,189312,1,0,0:0:0:0:
376,96,189379,1,0,0:0:0:0:
312,80,189447,1,0,0:0:0:0:
256,112,189514,2,0,L|216:200,1,71.2500027179719
96,104,189649,2,0,L|96:216,1,71.2500027179719
80,224,189784,2,0,L|144:312,1,71.2500027179719
232,200,189919,2,0,L|312:208,1,71.2500027179719
416,216,190054,2,0,L|472:128,1,71.2500027179719
320,136,190189,2,0,L|232:136,1,71.2500027179719
112,144,190324,5,0,0:0:0:0:
64,184,190392,1,0,0:0:0:0:
72,248,190459,1,0,0:0:0:0:
136,288,190527,1,0,0:0:0:0:
176,216,190594,1,0,0:0:0:0:
240,232,190662,1,0,0:0:0:0:
256,296,190729,1,0,0:0:0:0:
208,344,190797,1,0,0:0:0:0:
96,240,190864,5,0,0:0:0:0:
104,168,190932,1,0,0:0:0:0:
144,120,190999,1,0,0:0:0:0:
240,184,191067,5,0,0:0:0:0:
296,144,191134,1,0,0:0:0:0:
328,96,191202,1,0,0:0:0:0:
288,48,191269,1,0,0:0:0:0:
216,40,191337,1,0,0:0:0:0:
272,120,191404,5,0,0:0:0:0:
280,192,191472,1,0,0:0:0:0:
336,232,191539,1,0,0:0:0:0:
440,160,191607,1,0,0:0:0:0:
480,208,191674,1,0,0:0:0:0:
472,272,191742,1,0,0:0:0:0:
416,312,191809,1,0,0:0:0:0:
352,304,191877,1,0,0:0:0:0:
416,216,191944,5,0,0:0:0:0:
368,184,192012,1,0,0:0:0:0:
304,176,192079,1,0,0:0:0:0:
248,200,192147,1,0,0:0:0:0:
80,224,192214,6,0,L|40:72,1,142.500005435944
248,120,192484,1,0,0:0:0:0:
248,120,192619,1,0,0:0:0:0:
384,120,192754,2,0,L|424:288,3,142.500005435944
176,280,193294,5,0,0:0:0:0:
144,240,193362,1,0,0:0:0:0:
136,184,193429,1,0,0:0:0:0:
160,128,193497,1,0,0:0:0:0:
336,200,193564,1,0,0:0:0:0:
376,160,193632,1,0,0:0:0:0:
368,104,193699,1,0,0:0:0:0:
328,56,193767,1,0,0:0:0:0:
192,160,193834,5,0,0:0:0:0:
168,216,193902,1,0,0:0:0:0:
176,264,193969,1,0,0:0:0:0:
320,192,194037,1,0,0:0:0:0:
328,248,194104,1,0,0:0:0:0:
296,296,194172,1,0,0:0:0:0:
240,320,194239,1,0,0:0:0:0:
192,288,194307,1,0,0:0:0:0:
320,192,194374,5,0,0:0:0:0:
352,144,194442,1,0,0:0:0:0:
352,96,194509,1,0,0:0:0:0:
320,48,194577,1,0,0:0:0:0:
192,192,194644,5,0,0:0:0:0:
160,144,194712,1,0,0:0:0:0:
160,96,194779,1,0,0:0:0:0:
192,48,194847,1,0,0:0:0:0:
320,192,194914,5,0,0:0:0:0:
288,240,194982,1,0,0:0:0:0:
232,264,195049,1,0,0:0:0:0:
168,240,195117,1,0,0:0:0:0:
272,152,195184,1,0,0:0:0:0:
312,120,195252,1,0,0:0:0:0:
368,160,195319,1,0,0:0:0:0:
376,232,195387,1,0,0:0:0:0:
320,264,195454,1,0,0:0:0:0:
256,248,195522,1,0,0:0:0:0:
360,208,195589,6,0,L|408:304,1,71.2500027179719
216,208,195724,2,0,L|152:288,1,71.2500027179719
96,152,195859,2,0,L|40:64,1,71.2500027179719
208,96,195994,2,0,L|288:96,1,71.2500027179719
408,96,196129,2,0,L|496:96,1,71.2500027179719
288,144,196264,6,0,L|216:216,1,71.2500027179719
408,152,196399,2,0,L|472:256,1,71.2500027179719
160,144,196534,6,0,L|40:144,1,95
352,144,196804,6,0,L|472:144,1,95
160,144,197074,6,0,L|40:144,1,95
352,144,197344,6,0,L|472:144,1,95
144,224,197614,5,0,0:0:0:0:
144,224,197749,1,0,0:0:0:0:
352,232,197884,1,0,0:0:0:0:
352,232,198019,1,0,0:0:0:0:
160,128,198154,6,0,L|40:128,1,95
352,128,198424,6,0,L|472:128,1,95
144,240,198694,5,0,0:0:0:0:
144,240,198829,1,0,0:0:0:0:
352,240,198964,1,0,0:0:0:0:
352,240,199099,1,0,0:0:0:0:
168,176,199234,6,0,L|104:64,1,95
368,168,199504,2,0,L|416:64,1,95
240,88,199774,5,0,0:0:0:0:
176,128,199842,1,0,0:0:0:0:
128,192,199909,1,0,0:0:0:0:
128,272,199977,1,0,0:0:0:0:
288,184,200044,1,0,0:0:0:0:
312,256,200112,1,0,0:0:0:0:
272,320,200179,1,0,0:0:0:0:
192,344,200247,1,0,0:0:0:0:
40,248,200314,5,0,0:0:0:0:
32,176,200382,1,0,0:0:0:0:
80,120,200449,1,0,0:0:0:0:
136,88,200517,1,0,0:0:0:0:
200,80,200584,1,0,0:0:0:0:
256,96,200652,1,0,0:0:0:0:
304,128,200719,1,0,0:0:0:0:
320,192,200787,1,0,0:0:0:0:
296,256,200854,1,0,0:0:0:0:
256,192,209495,5,0,0:0:0:0:
112,208,211655,1,0,0:0:0:0:
368,192,213815,1,0,0:0:0:0:
248,208,214895,5,0,0:0:0:0:
416,200,215975,1,0,0:0:0:0:
144,208,216515,1,0,0:0:0:0:
32,192,217055,1,0,0:0:0:0:
32,192,217325,1,0,0:0:0:0:
456,200,217595,1,0,0:0:0:0:
456,200,217865,1,0,0:0:0:0:
72,336,218135,6,0,L|-24:168,2,142.500005435944,10|0|10,0:0|0:0|0:0,0:0:0:0:
256,216,218540,1,0,0:0:0:0:
440,336,218675,6,0,L|536:168,2,142.500005435944,2|0|10,0:0|0:0|0:0,0:0:0:0:
256,216,219080,1,0,0:0:0:0:
80,216,219215,6,4,L|-16:48,2,142.500005435944,6|4|10,0:0|0:0|0:0,0:0:0:0:
224,216,219620,1,0,0:0:0:0:
320,208,219755,6,0,P|376:144|296:40,1,213.750008153916
248,152,220025,2,0,L|240:320,1,142.500005435944,8|0,0:0|0:0,0:0:0:0:
320,208,220295,2,0,P|384:144|288:48,1,213.750008153916
192,224,220565,2,0,L|200:64,1,142.500005435944,8|0,0:0|0:0,0:0:0:0:
208,152,220835,6,0,P|136:104|200:24,1,213.750008153916
272,152,221105,2,0,L|432:152,1,142.500005435944,8|0,0:0|0:0,0:0:0:0:
200,176,221375,2,0,P|128:144|200:56,1,213.750008153916
320,224,221645,2,0,L|416:96,1,142.500005435944,8|0,0:0|0:0,0:0:0:0:
208,296,221915,5,0,0:0:0:0:
336,120,222050,1,0,0:0:0:0:
456,320,222185,1,0,0:0:0:0:
336,248,222320,1,0,0:0:0:0:
200,184,222455,6,0,L|0:80,1,213.750008153916
56,112,222725,1,8,0:0:0:0:
80,184,222860,1,0,0:0:0:0:
352,248,222995,6,0,B|400:192|360:160|328:32,1,213.750008153916
296,120,223265,2,0,B|296:192|344:256|256:320,1,213.750008153916
488,176,223535,6,0,L|336:176,1,142.500005435944
488,240,223805,2,0,L|336:240,1,142.500005435944,8|0,0:0|0:0,0:0:0:0:
80,200,224075,2,0,L|280:200,1,142.500005435944
80,272,224345,2,0,L|232:272,1,142.500005435944,8|0,0:0|0:0,0:0:0:0:
128,144,224615,5,0,0:0:0:0:
384,144,224750,5,0,0:0:0:0:
128,144,224885,5,0,0:0:0:0:
384,144,225020,5,0,0:0:0:0:
168,256,225155,5,0,0:0:0:0:
288,112,225290,1,0,0:0:0:0:
424,272,225425,1,0,0:0:0:0:
296,208,225560,1,0,0:0:0:0:
104,192,225695,5,0,0:0:0:0:
264,72,225830,1,0,0:0:0:0:
408,208,225965,1,0,0:0:0:0:
256,192,226100,1,0,0:0:0:0:
384,224,226235,5,0,0:0:0:0:
416,192,226303,1,0,0:0:0:0:
424,152,226370,1,0,0:0:0:0:
392,112,226438,1,0,0:0:0:0:
336,104,226505,1,8,0:0:0:0:
280,120,226573,1,0,0:0:0:0:
248,160,226640,1,0,0:0:0:0:
232,208,226708,1,0,0:0:0:0:
480,208,226775,6,0,L|384:336,1,142.500005435944
432,184,227045,2,0,L|320:320,1,142.500005435944,8|0,0:0|0:0,0:0:0:0:
352,192,227315,2,0,L|232:336,1,142.500005435944
208,240,227585,5,8,0:0:0:0:
248,200,227653,1,0,0:0:0:0:
288,160,227720,1,0,0:0:0:0:
40,280,227855,5,0,0:0:0:0:
8,232,227923,1,0,0:0:0:0:
40,200,227990,1,0,0:0:0:0:
88,168,228058,1,0,0:0:0:0:
344,176,228125,1,0,0:0:0:0:
400,128,228192,1,0,0:0:0:0:
344,88,228260,1,0,0:0:0:0:
176,200,228395,6,0,L|120:56,1,142.500005435944
328,160,228665,5,8,0:0:0:0:
368,128,228733,1,0,0:0:0:0:
360,80,228800,1,0,0:0:0:0:
32,208,228935,6,0,L|128:336,1,142.500005435944
80,184,229205,2,0,L|192:320,1,142.500005435944,8|0,0:0|0:0,0:0:0:0:
160,192,229475,2,0,L|280:336,1,142.500005435944
272,248,229745,1,8,0:0:0:0:
232,208,229813,1,0,0:0:0:0:
192,176,229880,1,0,0:0:0:0:
408,160,230015,5,0,0:0:0:0:
440,120,230083,1,0,0:0:0:0:
440,72,230150,1,0,0:0:0:0:
392,48,230218,1,0,0:0:0:0:
80,152,230285,6,0,L|0:8,1,142.500005435944,8|0,0:0|0:0,0:0:0:0:
264,176,230555,1,0,0:0:0:0:
304,144,230623,1,0,0:0:0:0:
312,96,230690,1,0,0:0:0:0:
144,168,230825,5,8,0:0:0:0:
104,136,230893,1,0,0:0:0:0:
96,88,230960,1,0,0:0:0:0:
304,256,231095,6,0,L|464:256,1,142.500005435944
184,256,231365,1,8,0:0:0:0:
304,256,231500,1,0,0:0:0:0:
144,200,231635,5,0,0:0:0:0:
112,152,231702,1,0,0:0:0:0:
120,96,231770,1,0,0:0:0:0:
360,208,231905,2,0,L|424:56,1,142.500005435944,8|0,0:0|0:0,0:0:0:0:
256,200,232175,1,0,0:0:0:0:
368,200,232310,1,0,0:0:0:0:
96,232,232445,5,8,0:0:0:0:
72,200,232513,1,0,0:0:0:0:
64,160,232580,1,0,0:0:0:0:
80,120,232648,1,0,0:0:0:0:
120,160,232715,6,0,L|272:168,1,142.500005435944
360,176,232985,6,0,L|464:56,1,142.500005435944,8|0,0:0|0:0,0:0:0:0:
152,176,233255,6,0,L|48:56,1,142.500005435944
344,248,233525,5,8,0:0:0:0:
408,208,233593,1,0,0:0:0:0:
344,176,233660,1,0,0:0:0:0:
168,248,233795,5,0,0:0:0:0:
144,200,233863,1,0,0:0:0:0:
144,152,233930,1,0,0:0:0:0:
424,176,234065,5,8,0:0:0:0:
456,128,234133,1,0,0:0:0:0:
488,80,234200,1,0,0:0:0:0:
216,200,234335,6,0,L|144:280,1,71.2500027179719
72,160,234470,2,0,L|40:80,1,71.2500027179719
176,88,234605,2,0,L|256:88,1,71.2500027179719
376,128,234740,2,0,L|384:216,1,71.2500027179719
208,256,234875,6,0,L|104:256,1,71.2500027179719
360,264,235010,2,0,L|464:264,1,71.2500027179719
256,248,235145,5,0,0:0:0:0:
208,208,235212,1,0,0:0:0:0:
224,152,235280,1,0,0:0:0:0:
272,112,235347,1,0,0:0:0:0:
432,320,235415,5,2,0:0:0:0:
464,288,235482,1,2,0:0:0:0:
480,240,235550,1,0,0:0:0:0:
472,200,235617,1,0,0:0:0:0:
448,160,235685,1,8,0:0:0:0:
256,216,235820,1,0,0:0:0:0:
104,320,235955,5,2,0:0:0:0:
72,288,236022,1,2,0:0:0:0:
56,240,236090,1,0,0:0:0:0:
64,200,236157,1,0,0:0:0:0:
88,160,236225,1,8,0:0:0:0:
256,216,236360,1,0,0:0:0:0:
432,184,236495,5,2,0:0:0:0:
464,152,236562,1,2,0:0:0:0:
472,112,236630,1,0,0:0:0:0:
464,72,236697,1,0,0:0:0:0:
432,40,236765,1,8,0:0:0:0:
288,216,236900,1,0,0:0:0:0:
192,208,237035,6,0,P|136:144|216:40,1,213.750008153916
264,152,237305,2,0,L|272:320,1,142.500005435944,8|0,0:0|0:0,0:0:0:0:
192,208,237575,2,0,P|128:144|224:48,1,213.750008153916
320,224,237845,2,0,L|312:64,1,142.500005435944,8|0,0:0|0:0,0:0:0:0:
304,152,238115,6,0,P|376:104|312:24,1,213.750008153916
240,152,238385,2,0,L|80:152,1,142.500005435944,8|0,0:0|0:0,0:0:0:0:
312,176,238655,2,0,P|384:144|312:56,1,213.750008153916
192,224,238925,2,0,L|96:96,1,142.500005435944,8|0,0:0|0:0,0:0:0:0:
304,296,239195,5,0,0:0:0:0:
176,120,239330,1,0,0:0:0:0:
56,320,239465,1,0,0:0:0:0:
176,248,239600,1,0,0:0:0:0:
352,216,239735,5,0,0:0:0:0:
400,184,239802,1,0,0:0:0:0:
448,136,239870,1,0,0:0:0:0:
440,64,239937,1,0,0:0:0:0:
352,120,240005,1,8,0:0:0:0:
288,80,240072,1,0,0:0:0:0:
240,136,240140,1,0,0:0:0:0:
240,208,240207,1,0,0:0:0:0:
160,248,240275,6,0,B|112:192|152:160|184:32,1,213.750008153916
216,120,240545,2,0,B|216:192|168:256|256:320,1,213.750008153916
128,224,240815,5,0,0:0:0:0:
88,184,240882,1,0,0:0:0:0:
96,136,240950,1,0,0:0:0:0:
128,88,241017,1,0,0:0:0:0:
256,168,241085,5,8,0:0:0:0:
288,136,241152,1,0,0:0:0:0:
312,88,241220,1,0,0:0:0:0:
288,40,241287,1,0,0:0:0:0:
416,184,241355,5,0,0:0:0:0:
440,144,241422,1,0,0:0:0:0:
448,96,241490,1,0,0:0:0:0:
440,48,241557,1,0,0:0:0:0:
328,112,241625,5,8,0:0:0:0:
296,80,241692,1,0,0:0:0:0:
272,40,241760,1,0,0:0:0:0:
296,16,241827,1,0,0:0:0:0:
432,216,241895,2,0,L|480:296,1,71.2500027179719
320,224,242030,2,0,L|256:288,1,71.2500027179719
160,200,242165,2,0,L|96:128,1,71.2500027179719,8|0,0:0|0:0,0:0:0:0:
200,96,242300,2,0,L|280:96,1,71.2500027179719
336,144,242435,2,0,L|392:224,1,71.2500027179719
496,136,242570,2,0,L|464:232,1,71.2500027179719
352,168,242705,2,0,L|264:216,1,71.2500027179719,8|0,0:0|0:0,0:0:0:0:
224,144,242840,2,0,L|184:64,1,71.2500027179719
312,104,242975,2,0,L|408:80,1,71.2500027179719
232,176,243110,2,0,L|168:80,1,71.2500027179719
320,144,243245,2,0,L|408:136,1,71.2500027179719,8|0,0:0|0:0,0:0:0:0:
392,200,243380,2,0,L|352:264,1,71.2500027179719
128,224,243515,5,0,0:0:0:0:
96,192,243583,1,0,0:0:0:0:
88,152,243650,1,0,0:0:0:0:
120,112,243718,1,0,0:0:0:0:
176,104,243785,1,8,0:0:0:0:
232,120,243853,1,0,0:0:0:0:
264,160,243920,1,0,0:0:0:0:
280,208,243988,1,0,0:0:0:0:
112,160,244055,6,0,L|40:232,1,71.2500027179719
224,168,244190,2,0,L|304:208,1,71.2500027179719
120,160,244325,2,0,L|32:80,1,71.2500027179719,8|0,0:0|0:0,0:0:0:0:
232,152,244460,2,0,L|304:72,1,71.2500027179719
96,184,244595,2,0,L|56:272,1,71.2500027179719
208,176,244730,2,0,L|288:280,1,71.2500027179719
304,240,244865,5,8,0:0:0:0:
264,200,244933,1,0,0:0:0:0:
224,160,245000,1,0,0:0:0:0:
232,104,245067,1,0,0:0:0:0:
472,280,245135,5,0,0:0:0:0:
504,232,245203,1,0,0:0:0:0:
472,200,245270,1,0,0:0:0:0:
424,168,245338,1,0,0:0:0:0:
168,176,245405,1,8,0:0:0:0:
112,128,245472,1,0,0:0:0:0:
168,88,245540,1,0,0:0:0:0:
216,64,245607,1,0,0:0:0:0:
344,160,245675,5,0,0:0:0:0:
384,104,245742,1,0,0:0:0:0:
360,40,245810,1,0,0:0:0:0:
312,32,245877,1,0,0:0:0:0:
184,160,245945,5,8,0:0:0:0:
144,128,246013,1,0,0:0:0:0:
152,80,246080,1,0,0:0:0:0:
200,56,246147,1,0,0:0:0:0:
448,288,246215,6,0,L|496:208,1,71.2500027179719
328,240,246350,2,0,L|256:168,1,71.2500027179719
288,120,246485,2,0,L|360:48,1,71.2500027179719,8|0,0:0|0:0,0:0:0:0:
480,144,246620,2,0,L|432:64,1,71.2500027179719
336,128,246755,2,0,L|280:192,1,71.2500027179719
176,128,246890,2,0,L|232:192,1,71.2500027179719
240,248,247025,1,8,0:0:0:0:
280,208,247093,1,0,0:0:0:0:
320,176,247160,1,0,0:0:0:0:
296,128,247227,1,0,0:0:0:0:
104,160,247295,5,0,0:0:0:0:
72,120,247363,1,0,0:0:0:0:
72,72,247430,1,0,0:0:0:0:
120,48,247498,1,0,0:0:0:0:
368,168,247565,6,0,L|424:64,1,71.2500027179719,8|0,0:0|0:0,0:0:0:0:
416,72,247700,1,0,0:0:0:0:
392,32,247767,1,0,0:0:0:0:
248,176,247835,1,0,0:0:0:0:
208,144,247903,1,0,0:0:0:0:
200,96,247970,1,0,0:0:0:0:
240,56,248037,1,0,0:0:0:0:
368,168,248105,5,8,0:0:0:0:
408,136,248173,1,0,0:0:0:0:
416,88,248240,1,0,0:0:0:0:
376,48,248307,1,0,0:0:0:0:
248,240,248375,6,0,L|144:160,1,71.2500027179719
168,168,248510,1,0,0:0:0:0:
128,120,248577,1,0,0:0:0:0:
192,112,248645,1,8,0:0:0:0:
256,128,248712,1,0,0:0:0:0:
280,200,248780,1,0,0:0:0:0:
280,280,248847,1,0,0:0:0:0:
368,200,248915,5,0,0:0:0:0:
400,152,248982,1,0,0:0:0:0:
392,96,249050,1,0,0:0:0:0:
336,64,249117,1,0,0:0:0:0:
152,208,249185,2,0,L|96:80,1,71.2500027179719,8|0,0:0|0:0,0:0:0:0:
104,96,249320,1,0,0:0:0:0:
88,48,249387,1,0,0:0:0:0:
144,208,249455,1,0,0:0:0:0:
200,208,249522,1,0,0:0:0:0:
256,208,249590,1,0,0:0:0:0:
312,208,249657,1,0,0:0:0:0:
416,232,249725,5,8,0:0:0:0:
440,200,249793,1,0,0:0:0:0:
448,160,249860,1,0,0:0:0:0:
432,120,249928,1,0,0:0:0:0:
280,128,249995,6,0,L|144:136,1,71.2500027179719
152,136,250130,1,0,0:0:0:0:
96,136,250197,1,0,0:0:0:0:
368,120,250265,1,8,0:0:0:0:
352,72,250332,1,0,0:0:0:0:
304,48,250400,1,0,0:0:0:0:
264,64,250467,1,0,0:0:0:0:
288,208,250535,2,0,L|408:208,1,71.2500027179719
392,208,250670,1,0,0:0:0:0:
440,208,250737,1,0,0:0:0:0:
168,248,250805,5,8,0:0:0:0:
104,208,250873,1,0,0:0:0:0:
168,176,250940,1,0,0:0:0:0:
224,152,251007,1,0,0:0:0:0:
344,248,251075,5,0,0:0:0:0:
368,200,251143,1,0,0:0:0:0:
368,152,251210,1,0,0:0:0:0:
312,120,251277,1,0,0:0:0:0:
88,176,251345,5,8,0:0:0:0:
56,128,251413,1,0,0:0:0:0:
24,80,251480,1,0,0:0:0:0:
80,56,251547,1,0,0:0:0:0:
296,200,251615,6,0,L|368:280,1,71.2500027179719
440,160,251750,2,0,L|472:80,1,71.2500027179719
336,88,251885,2,0,L|256:88,1,71.2500027179719,8|0,0:0|0:0,0:0:0:0:
136,128,252020,2,0,L|128:216,1,71.2500027179719
304,256,252155,6,0,L|408:256,1,71.2500027179719
152,264,252290,2,0,L|48:264,1,71.2500027179719
256,248,252425,5,8,0:0:0:0:
304,208,252492,1,0,0:0:0:0:
288,152,252560,1,0,0:0:0:0:
240,112,252627,1,0,0:0:0:0:
80,320,252695,5,0,0:0:0:0:
32,240,252763,1,0,0:0:0:0:
48,136,252830,1,0,0:0:0:0:
112,72,252898,1,0,0:0:0:0:
184,160,252965,1,0,0:0:0:0:
256,96,253033,1,0,0:0:0:0:
320,48,253100,1,0,0:0:0:0:
392,16,253168,1,0,0:0:0:0:
320,136,253235,6,0,L|240:208,1,71.2500027179719
424,200,253370,2,0,L|472:272,1,71.2500027179719
288,240,253505,2,0,L|200:240,1,71.2500027179719
376,192,253640,2,0,L|424:112,1,71.2500027179719
208,288,253775,5,0,0:0:0:0:
160,216,253843,1,0,0:0:0:0:
192,136,253910,1,0,0:0:0:0:
256,80,253978,1,0,0:0:0:0:
304,192,254045,1,0,0:0:0:0:
384,136,254113,1,0,0:0:0:0:
352,56,254180,1,0,0:0:0:0:
256,32,254248,1,0,0:0:0:0:
200,144,254315,2,0,L|240:64,1,71.2500027179719
384,160,254450,2,0,L|344:72,1,71.2500027179719
232,128,254585,2,0,L|136:128,1,71.2500027179719
336,136,254720,2,0,L|408:208,1,71.2500027179719
176,328,254855,5,0,0:0:0:0:
128,264,254923,1,0,0:0:0:0:
128,176,254990,1,0,0:0:0:0:
192,104,255058,1,0,0:0:0:0:
280,200,255125,1,0,0:0:0:0:
376,144,255193,1,0,0:0:0:0:
448,88,255260,1,0,0:0:0:0:
376,40,255328,1,0,0:0:0:0:
256,64,255395,6,0,L|160:136,1,71.2500027179719
416,80,255530,2,0,L|472:168,1,71.2500027179719
240,160,255665,2,0,L|176:208,1,71.2500027179719
400,184,255800,2,0,L|488:184,1,71.2500027179719
480,272,255935,2,0,L|424:336,1,71.2500027179719
304,264,256070,2,0,L|216:224,1,71.2500027179719
392,200,256205,2,0,L|432:112,1,71.2500027179719
256,128,256340,2,0,L|168:184,1,71.2500027179719
80,192,256475,2,0,L|32:264,1,71.2500027179719
216,200,256610,2,0,L|272:280,1,71.2500027179719
360,224,256745,1,0,0:0:0:0:
352,136,256813,1,0,0:0:0:0:
280,88,256880,1,0,0:0:0:0:
192,80,256948,1,0,0:0:0:0:
256,192,257015,12,0,261335,0:0:0:0:
