osu file format v14

[General]
AudioFilename: audio.mp3
AudioLeadIn: 0
PreviewTime: -1
Countdown: 1
SampleSet: Soft
StackLeniency: 0.2
Mode: 0
LetterboxInBreaks: 0
WidescreenStoryboard: 0

[Editor]
Bookmarks: 10773,28053,164134
DistanceSpacing: 1.1
BeatDivisor: 4
GridSize: 8
TimelineZoom: 2.2

[Metadata]
Title:FREEDOM DiVE
TitleUnicode:FREEDOM DiVE
Artist:xi
ArtistUnicode:xi
Creator:ksg
Version:dssdffs
Source:
Tags:
BeatmapID:1365403
BeatmapSetID:644193

[Difficulty]
HPDrainRate:5
CircleSize:4
OverallDifficulty:9
ApproachRate:9.5
SliderMultiplier:2
SliderTickRate:1

[Events]
//Background and Video events
0,0,"0dJGraj.png",0,0
//Break Periods
2,82253,90168
//Storyboard Layer 0 (Background)
//Storyboard Layer 1 (Fail)
//Storyboard Layer 2 (Pass)
//Storyboard Layer 3 (Foreground)
//Storyboard Sound Samples

[TimingPoints]
2133,270.002700027,4,2,0,60,1,0
14755,-133.333333333333,4,2,0,60,0,0
14958,-100,4,2,0,60,0,0
23395,-133.333333333333,4,2,0,60,0,0
23598,-100,4,2,0,60,0,0
90693,-133.333333333333,4,2,0,60,0,0
98793,-100,4,2,0,60,0,0

[HitObjects]
93,111,2133,6,0,L|195:97,1,100
208,111,2335,1,0,0:0:0:0:
223,124,2403,1,0,0:0:0:0:
184,277,2538,2,0,P|160:222|161:164,1,100
271,56,2808,1,0,0:0:0:0:
238,203,2943,1,0,0:0:0:0:
275,37,3078,1,0,0:0:0:0:
333,187,3213,6,0,P|402:195|456:173,1,100
438,170,3415,1,0,0:0:0:0:
446,154,3483,1,0,0:0:0:0:
369,60,3618,1,0,0:0:0:0:
306,283,3753,1,0,0:0:0:0:
488,248,3888,1,0,0:0:0:0:
283,287,4023,1,0,0:0:0:0:
283,287,4293,6,0,L|172:275,1,100
168,289,4495,1,0,0:0:0:0:
153,302,4563,1,0,0:0:0:0:
78,157,4698,2,0,P|90:220|82:276,1,100
8,382,4968,1,0,0:0:0:0:
138,315,5103,1,0,0:0:0:0:
9,217,5238,1,0,0:0:0:0:
200,129,5373,6,0,P|124:134|75:116,1,100
90,143,5575,1,0,0:0:0:0:
78,157,5643,1,0,0:0:0:0:
216,209,5778,2,0,P|245:198|272:167,1,50
168,10,5913,5,0,0:0:0:0:
175,31,5980,1,0,0:0:0:0:
182,52,6048,2,0,L|213:22,2,25
109,73,6183,2,0,P|80:62|53:31,1,50
200,129,6318,2,0,P|229:118|256:87,1,50
65,171,6453,6,0,P|58:227|68:292,1,100
72,290,6655,1,0,0:0:0:0:
81,309,6723,1,0,0:0:0:0:
285,332,6858,2,0,L|150:315,1,100
156,228,7128,1,0,0:0:0:0:
304,171,7263,1,0,0:0:0:0:
138,235,7398,1,0,0:0:0:0:
341,264,7533,6,0,P|386:231|406:179,1,100
396,166,7735,1,0,0:0:0:0:
387,140,7803,1,0,0:0:0:0:
345,15,7938,1,0,0:0:0:0:
304,171,8073,1,0,0:0:0:0:
511,98,8208,1,0,0:0:0:0:
470,254,8343,1,0,0:0:0:0:
470,254,8613,6,0,L|359:241,1,100
356,253,8815,1,0,0:0:0:0:
341,264,8883,1,0,0:0:0:0:
168,334,9018,2,0,P|221:325|288:339,1,100
387,371,9288,1,0,0:0:0:0:
248,243,9423,1,0,0:0:0:0:
401,384,9558,1,0,0:0:0:0:
448,170,9693,5,0,0:0:0:0:
413,157,9760,1,0,0:0:0:0:
375,152,9828,1,0,0:0:0:0:
338,157,9895,1,0,0:0:0:0:
303,170,9963,1,0,0:0:0:0:
266,171,10030,1,0,0:0:0:0:
230,161,10098,1,0,0:0:0:0:
198,142,10165,1,0,0:0:0:0:
172,114,10233,6,0,L|159:188,1,50
130,359,10368,2,0,L|116:285,1,50
104,78,10503,6,0,L|90:151,1,50
59,367,10638,2,0,L|45:293,1,50
34,41,10773,6,0,L|15:140,1,100
172,261,11043,2,0,B|157:187|157:187|172:114,1,150
191,28,11313,2,0,L|302:21,1,100
512,81,11583,2,0,L|401:74,1,100
256,182,11853,6,0,L|275:280,1,100
420,384,12123,2,0,L|429:198,1,150
407,156,12393,1,0,0:0:0:0:
275,280,12528,1,0,0:0:0:0:
491,186,12663,1,0,0:0:0:0:
336,99,12798,5,0,0:0:0:0:
329,123,12865,1,0,0:0:0:0:
322,147,12933,2,0,L|341:245,1,100
488,103,13203,2,0,B|430:82|430:82|341:80,1,150
223,80,13473,2,0,L|242:178,1,100
255,378,13743,2,0,L|274:280,1,100
85,258,14013,6,0,P|137:251|195:262,1,100
380,255,14283,2,0,P|328:262|270:251,1,100
139,69,14553,6,0,L|158:167,1,100
168,116,14755,6,0,L|174:42,1,75.0000028610231
216,26,14958,6,0,L|187:110,1,50
364,144,15093,6,0,L|264:138,1,100
0,53,15363,2,0,L|99:47,1,100
196,220,15633,2,0,B|183:121|183:121|199:73,1,150
308,14,15903,2,0,L|279:97,1,50
209,295,16038,6,0,P|156:285|155:155,1,200
192,143,16375,1,0,0:0:0:0:
239,156,16443,1,0,0:0:0:0:
309,381,16578,2,0,L|326:317,1,50
345,117,16713,5,0,0:0:0:0:
335,153,16780,1,0,0:0:0:0:
325,189,16848,1,0,0:0:0:0:
316,225,16915,1,0,0:0:0:0:
302,260,16983,5,0,0:0:0:0:
279,269,17050,1,0,0:0:0:0:
255,277,17118,1,0,0:0:0:0:
232,286,17185,1,0,0:0:0:0:
209,295,17253,6,0,P|149:280|120:214,1,100
174,42,17523,1,0,0:0:0:0:
196,220,17658,1,0,0:0:0:0:
1,157,17793,6,0,L|100:145,1,100
345,117,18063,1,0,0:0:0:0:
174,42,18198,1,0,0:0:0:0:
243,151,18333,5,0,0:0:0:0:
249,114,18400,1,0,0:0:0:0:
256,77,18468,1,0,0:0:0:0:
262,40,18535,1,0,0:0:0:0:
269,3,18603,5,0,0:0:0:0:
311,30,18670,1,0,0:0:0:0:
360,41,18738,1,0,0:0:0:0:
409,36,18805,1,0,0:0:0:0:
454,16,18873,5,0,0:0:0:0:
440,64,18940,1,0,0:0:0:0:
439,113,19008,1,0,0:0:0:0:
451,162,19075,1,0,0:0:0:0:
476,205,19143,1,0,0:0:0:0:
498,249,19210,1,0,0:0:0:0:
496,298,19278,1,0,0:0:0:0:
468,339,19345,1,0,0:0:0:0:
423,360,19413,6,0,L|306:349,1,100
109,304,19683,2,0,B|208:294|208:294|273:302,1,150
331,274,19953,2,0,L|317:152,1,100
162,112,20223,2,0,L|176:234,1,100
345,280,20493,6,0,L|331:158,1,100
247,28,20763,2,0,P|285:89|358:94,1,150
427,19,21033,2,0,P|377:14|327:18,1,100
173,211,21303,1,0,0:0:0:0:
358,94,21438,1,0,0:0:0:0:
150,12,21573,6,0,L|164:134,1,100
279,297,21843,2,0,L|267:197,1,100
12,216,22113,2,0,P|69:244|171:214,1,150
90,133,22383,1,0,0:0:0:0:
105,314,22518,1,0,0:0:0:0:
268,198,22653,6,0,P|218:194|171:210,1,100
95,329,22923,1,0,0:0:0:0:
236,110,23058,1,0,0:0:0:0:
15,75,23193,6,0,P|67:128|124:128,1,100
68,109,23395,6,0,P|44:81|33:46,1,75.0000028610231
56,22,23598,6,0,P|56:46|62:71,1,50
155,47,23733,6,0,L|285:28,1,100
429,11,24003,2,0,P|425:60|439:108,1,100
370,284,24273,6,0,P|366:234|385:186,1,100
483,252,24543,1,0,0:0:0:0:
312,355,24678,5,0,0:0:0:0:
306,330,24745,1,0,0:0:0:0:
300,306,24813,1,0,0:0:0:0:
220,170,24948,1,0,0:0:0:0:
214,194,25016,1,0,0:0:0:0:
208,219,25083,1,0,0:0:0:0:
383,188,25218,5,0,0:0:0:0:
377,163,25285,1,0,0:0:0:0:
371,139,25353,2,0,L|379:67,3,50
277,27,25623,2,0,L|282:76,3,50
179,77,25893,5,0,0:0:0:0:
143,88,25960,1,0,0:0:0:0:
106,93,26028,1,0,0:0:0:0:
68,90,26095,1,0,0:0:0:0:
32,82,26163,1,0,0:0:0:0:
44,117,26230,1,0,0:0:0:0:
50,154,26298,1,0,0:0:0:0:
49,192,26365,1,0,0:0:0:0:
41,228,26433,5,0,0:0:0:0:
32,264,26500,1,0,0:0:0:0:
36,301,26568,1,0,0:0:0:0:
54,334,26635,1,0,0:0:0:0:
83,358,26703,1,0,0:0:0:0:
118,370,26770,1,0,0:0:0:0:
155,369,26838,1,0,0:0:0:0:
189,354,26905,1,0,0:0:0:0:
216,328,26973,5,0,0:0:0:0:
253,296,27040,1,0,0:0:0:0:
301,283,27108,1,0,0:0:0:0:
350,291,27175,1,0,0:0:0:0:
390,320,27243,1,0,0:0:0:0:
436,338,27310,1,0,0:0:0:0:
482,321,27378,1,0,0:0:0:0:
505,278,27445,1,0,0:0:0:0:
494,230,27513,5,0,0:0:0:0:
454,200,27580,1,0,0:0:0:0:
437,154,27648,1,0,0:0:0:0:
449,106,27715,1,0,0:0:0:0:
484,72,27783,1,0,0:0:0:0:
435,81,27850,1,0,0:0:0:0:
385,80,27918,1,0,0:0:0:0:
337,68,27985,1,0,0:0:0:0:
292,46,28053,6,0,L|273:121,3,50
199,93,28323,2,0,L|218:168,3,50
130,140,28593,6,0,L|111:215,1,50
37,187,28728,1,0,0:0:0:0:
37,187,28795,1,0,0:0:0:0:
37,187,28863,2,0,L|56:262,1,50
76,367,28998,2,0,L|95:292,1,50
166,256,29133,5,0,0:0:0:0:
206,246,29200,1,0,0:0:0:0:
247,241,29268,1,0,0:0:0:0:
289,240,29335,1,0,0:0:0:0:
331,242,29403,1,0,0:0:0:0:
372,248,29470,1,0,0:0:0:0:
412,258,29538,2,0,L|400:209,1,50
455,79,29673,6,0,L|438:153,1,50
337,54,29808,1,0,0:0:0:0:
337,54,29875,1,0,0:0:0:0:
337,54,29943,2,0,L|348:102,1,50
272,155,30078,2,0,L|205:149,1,50
41,140,30213,6,0,L|28:77,3,50
114,196,30483,2,0,L|127:133,3,50
35,278,30753,6,0,L|22:215,1,50
108,334,30888,1,0,0:0:0:0:
108,334,30955,1,0,0:0:0:0:
108,334,31023,2,0,L|121:271,1,50
195,222,31158,2,0,L|208:285,1,50
223,371,31293,5,0,0:0:0:0:
254,380,31360,1,0,0:0:0:0:
288,380,31428,1,0,0:0:0:0:
320,371,31495,1,0,0:0:0:0:
348,354,31563,1,0,0:0:0:0:
370,329,31630,1,0,0:0:0:0:
385,300,31698,2,0,L|374:245,1,50
344,83,31833,6,0,L|333:131,1,50
304,290,31968,2,0,L|292:234,1,50
270,57,32103,6,0,L|258:112,1,50
222,279,32238,2,0,L|210:223,1,50
196,31,32373,6,0,L|167:156,1,100
117,170,32575,5,0,0:0:0:0:
124,203,32642,1,0,0:0:0:0:
132,235,32710,1,0,0:0:0:0:
140,268,32778,2,0,L|152:316,1,50
34,353,32913,6,0,L|52:281,3,50
35,213,33183,2,0,L|17:141,3,50
34,73,33453,5,0,0:0:0:0:
70,79,33520,1,0,0:0:0:0:
108,76,33588,1,0,0:0:0:0:
143,64,33655,1,0,0:0:0:0:
175,44,33723,1,0,0:0:0:0:
211,37,33790,1,0,0:0:0:0:
249,40,33858,1,0,0:0:0:0:
284,52,33925,1,0,0:0:0:0:
316,72,33993,6,0,L|323:138,3,50
239,191,34263,2,0,L|244:141,3,50
321,260,34533,6,0,L|315:210,1,50
398,141,34668,2,0,L|392:190,1,50
402,319,34803,6,0,L|396:269,1,50
479,200,34938,2,0,L|473:249,1,50
483,378,35073,6,0,L|477:328,3,50
321,260,35343,2,0,L|315:309,3,50
159,378,35613,5,0,0:0:0:0:
165,341,35680,1,0,0:0:0:0:
161,304,35748,1,0,0:0:0:0:
147,269,35815,1,0,0:0:0:0:
123,240,35883,1,0,0:0:0:0:
99,211,35950,1,0,0:0:0:0:
87,176,36018,1,0,0:0:0:0:
87,139,36085,1,0,0:0:0:0:
100,104,36153,5,0,0:0:0:0:
123,75,36220,1,0,0:0:0:0:
155,56,36288,1,0,0:0:0:0:
192,49,36355,1,0,0:0:0:0:
229,54,36423,1,0,0:0:0:0:
277,67,36490,1,0,0:0:0:0:
327,70,36558,1,0,0:0:0:0:
377,63,36625,1,0,0:0:0:0:
424,48,36693,6,0,L|448:170,1,100
325,259,36963,2,0,L|344:160,1,100
229,54,37233,6,0,L|253:176,1,100
130,265,37503,2,0,L|149:166,1,100
34,256,37773,5,0,0:0:0:0:
49,319,37863,1,0,0:0:0:0:
100,359,37953,1,0,0:0:0:0:
166,358,38043,6,0,P|231:343|296:346,1,100
443,146,38313,2,0,P|377:160|312:157,1,100
310,133,38515,1,0,0:0:0:0:
316,172,38582,1,0,0:0:0:0:
322,212,38650,1,0,0:0:0:0:
328,251,38717,1,0,0:0:0:0:
335,291,38785,1,0,0:0:0:0:
341,330,38853,6,0,L|457:314,1,100
217,158,39123,2,0,L|315:172,1,100
92,330,39393,6,0,L|190:315,1,100
55,81,39663,2,0,P|64:146|94:204,1,100
260,233,39933,5,0,0:0:0:0:
286,206,40000,1,0,0:0:0:0:
299,172,40068,1,0,0:0:0:0:
295,135,40135,1,0,0:0:0:0:
276,103,40203,1,0,0:0:0:0:
245,82,40270,1,0,0:0:0:0:
208,77,40338,1,0,0:0:0:0:
173,88,40405,1,0,0:0:0:0:
146,114,40473,5,0,0:0:0:0:
121,140,40540,1,0,0:0:0:0:
84,142,40608,1,0,0:0:0:0:
57,117,40675,1,0,0:0:0:0:
55,81,40743,5,0,0:0:0:0:
58,118,40810,1,0,0:0:0:0:
52,155,40878,1,0,0:0:0:0:
37,189,40945,1,0,0:0:0:0:
15,219,41013,5,0,0:0:0:0:
39,352,41958,6,0,L|30:302,1,50
15,219,42093,5,0,0:0:0:0:
305,272,42363,1,0,0:0:0:0:
247,40,42633,6,0,P|218:126|253:197,2,150
359,329,43173,6,0,P|302:349|327:197,1,300
305,272,43713,2,0,B|207:253|207:253|102:286,1,200
24,311,44118,1,0,0:0:0:0:
43,225,44253,6,0,L|23:163,3,50
139,147,44523,2,0,L|123:194,3,50
219,116,44793,2,0,L|239:178,3,50
314,132,45063,2,0,L|330:85,3,50
410,54,45333,5,0,0:0:0:0:
420,89,45400,1,0,0:0:0:0:
431,125,45468,1,0,0:0:0:0:
442,161,45535,1,0,0:0:0:0:
452,197,45603,1,0,0:0:0:0:
463,233,45670,1,0,0:0:0:0:
474,269,45738,1,0,0:0:0:0:
484,305,45805,1,0,0:0:0:0:
495,341,45873,5,0,0:0:0:0:
466,318,45940,1,0,0:0:0:0:
430,306,46008,1,0,0:0:0:0:
393,306,46075,1,0,0:0:0:0:
358,318,46143,1,0,0:0:0:0:
323,333,46210,1,0,0:0:0:0:
286,337,46278,1,0,0:0:0:0:
249,331,46345,1,0,0:0:0:0:
216,314,46413,5,0,0:0:0:0:
192,286,46480,1,0,0:0:0:0:
160,267,46548,1,0,0:0:0:0:
123,259,46615,1,0,0:0:0:0:
86,264,46683,1,0,0:0:0:0:
53,280,46750,1,0,0:0:0:0:
26,306,46818,1,0,0:0:0:0:
9,339,46885,1,0,0:0:0:0:
4,376,46953,5,0,0:0:0:0:
53,366,47020,1,0,0:0:0:0:
98,344,47088,1,0,0:0:0:0:
134,309,47155,1,0,0:0:0:0:
160,267,47223,1,0,0:0:0:0:
172,219,47290,1,0,0:0:0:0:
171,169,47358,1,0,0:0:0:0:
157,121,47425,1,0,0:0:0:0:
130,79,47493,5,0,0:0:0:0:
276,22,47628,1,0,0:0:0:0:
271,59,47695,1,0,0:0:0:0:
266,96,47763,1,0,0:0:0:0:
261,133,47830,1,0,0:0:0:0:
256,170,47898,1,0,0:0:0:0:
393,306,48033,6,0,L|372:169,1,100
351,60,48303,1,0,0:0:0:0:
172,219,48438,1,0,0:0:0:0:
476,201,48573,6,0,L|377:206,1,100
130,79,48843,2,0,L|230:73,1,100
485,77,49113,6,0,P|499:143|495:202,1,100
153,348,49383,2,0,P|139:282|143:223,1,100
372,249,49653,6,0,P|371:299|359:348,1,100
13,175,49923,2,0,P|14:125|27:77,1,100
282,73,50193,6,0,L|382:79,1,100
139,249,50463,1,0,0:0:0:0:
96,39,50598,1,0,0:0:0:0:
296,152,50733,6,0,P|301:201|296:251,1,100
17,381,51003,2,0,P|11:331|16:281,1,100
344,342,51273,6,0,P|294:347|244:342,1,100
86,50,51543,2,0,P|136:44|186:49,1,100
296,152,51813,5,0,0:0:0:0:
149,317,51948,1,0,0:0:0:0:
144,280,52016,1,0,0:0:0:0:
139,243,52083,1,0,0:0:0:0:
134,206,52151,1,0,0:0:0:0:
130,169,52218,1,0,0:0:0:0:
305,46,52353,5,0,0:0:0:0:
296,251,52488,1,0,0:0:0:0:
126,132,52623,1,0,0:0:0:0:
385,95,52758,1,0,0:0:0:0:
306,337,52893,6,0,P|256:341|206:337,1,100
206,47,53163,2,0,P|255:42|305:46,1,100
54,241,53433,6,0,P|49:192|53:142,1,100
456,141,53703,2,0,P|462:191|456:241,1,100
408,365,53973,6,0,L|399:298,3,50
302,201,54243,2,0,L|295:250,3,50
195,135,54513,6,0,L|189:86,3,50
74,9,54783,1,0,0:0:0:0:
78,46,54850,1,0,0:0:0:0:
82,83,54918,1,0,0:0:0:0:
87,120,54985,1,0,0:0:0:0:
91,157,55053,5,0,0:0:0:0:
55,191,55120,1,0,0:0:0:0:
37,237,55188,1,0,0:0:0:0:
40,287,55255,1,0,0:0:0:0:
65,330,55323,1,0,0:0:0:0:
106,357,55390,1,0,0:0:0:0:
155,365,55458,1,0,0:0:0:0:
203,350,55525,1,0,0:0:0:0:
239,316,55593,5,0,0:0:0:0:
283,293,55660,1,0,0:0:0:0:
332,285,55728,1,0,0:0:0:0:
381,293,55795,1,0,0:0:0:0:
425,317,55863,1,0,0:0:0:0:
413,268,55930,1,0,0:0:0:0:
413,218,55998,1,0,0:0:0:0:
425,170,56065,1,0,0:0:0:0:
449,126,56133,5,0,0:0:0:0:
304,42,56268,1,0,0:0:0:0:
309,79,56335,1,0,0:0:0:0:
314,116,56403,1,0,0:0:0:0:
319,153,56470,1,0,0:0:0:0:
324,190,56538,1,0,0:0:0:0:
154,239,56674,5,0,0:0:0:0:
191,245,56741,1,0,0:0:0:0:
225,259,56809,1,0,0:0:0:0:
258,277,56877,1,0,0:0:0:0:
294,286,56945,1,0,0:0:0:0:
332,285,57012,1,0,0:0:0:0:
367,273,57080,1,0,0:0:0:0:
181,74,57213,5,0,0:0:0:0:
183,98,57280,1,0,0:0:0:0:
186,123,57348,1,0,0:0:0:0:
53,211,57483,1,0,0:0:0:0:
50,186,57551,1,0,0:0:0:0:
48,162,57618,1,0,0:0:0:0:
223,235,57753,5,0,0:0:0:0:
225,259,57820,1,0,0:0:0:0:
228,284,57888,1,0,0:0:0:0:
95,372,58023,1,0,0:0:0:0:
92,347,58091,1,0,0:0:0:0:
90,323,58158,1,0,0:0:0:0:
374,327,58293,6,0,L|384:260,3,50
321,186,58563,2,0,L|329:137,3,50
425,95,58833,5,0,0:0:0:0:
436,126,58900,1,0,0:0:0:0:
447,157,58968,1,0,0:0:0:0:
458,189,59035,1,0,0:0:0:0:
469,220,59103,1,0,0:0:0:0:
480,252,59170,1,0,0:0:0:0:
491,283,59238,1,0,0:0:0:0:
303,373,59373,6,0,L|284:307,2,50
136,167,59643,2,0,L|155:233,2,50
164,339,59913,6,0,L|116:353,2,50
273,199,60183,2,0,L|322:186,2,50
107,70,60453,5,0,0:0:0:0:
57,257,60588,1,0,0:0:0:0:
292,113,60723,2,0,P|361:106|426:128,1,100
243,298,60993,6,0,P|174:305|109:283,1,100
107,70,61263,1,0,0:0:0:0:
292,113,61398,1,0,0:0:0:0:
57,257,61533,6,0,L|41:133,1,100
207,58,61803,2,0,L|194:157,1,100
260,284,62073,6,0,L|248:384,1,100
410,284,62343,2,0,L|398:185,1,100
399,0,62613,5,0,0:0:0:0:
292,113,62748,1,0,0:0:0:0:
405,220,62883,1,0,0:0:0:0:
512,107,63018,1,0,0:0:0:0:
322,34,63153,5,0,0:0:0:0:
481,185,63288,1,0,0:0:0:0:
477,30,63423,1,0,0:0:0:0:
326,189,63558,1,0,0:0:0:0:
512,107,63693,5,0,0:0:0:0:
292,113,63828,1,0,0:0:0:0:
445,260,63963,5,0,0:0:0:0:
240,179,64098,1,0,0:0:0:0:
316,376,64233,5,0,0:0:0:0:
164,216,64368,1,0,0:0:0:0:
445,260,64503,5,0,0:0:0:0:
62,374,64638,1,0,0:0:0:0:
129,37,64773,5,0,0:0:0:0:
176,52,64840,1,0,0:0:0:0:
226,57,64908,1,0,0:0:0:0:
275,51,64975,1,0,0:0:0:0:
322,34,65043,6,0,P|356:25|392:26,1,50
375,180,65178,2,0,P|341:189|305:188,1,50
471,72,65313,5,0,0:0:0:0:
484,119,65380,1,0,0:0:0:0:
484,169,65448,1,0,0:0:0:0:
471,217,65515,1,0,0:0:0:0:
445,260,65583,6,0,P|433:301|431:338,1,50
253,226,65718,2,0,P|244:202|239:178,1,50
375,180,65853,5,0,0:0:0:0:
360,214,65920,1,0,0:0:0:0:
352,251,65988,1,0,0:0:0:0:
349,288,66055,1,0,0:0:0:0:
352,325,66123,1,0,0:0:0:0:
305,308,66190,1,0,0:0:0:0:
256,303,66258,1,0,0:0:0:0:
207,313,66325,1,0,0:0:0:0:
162,335,66393,6,0,P|140:306|117:289,1,50
6,224,66528,2,0,P|43:228|63:236,1,50
256,303,66663,6,0,P|236:260|227:246,1,50
17,112,66798,2,0,P|61:118|86:126,1,50
308,113,66933,5,0,0:0:0:0:
258,108,67000,1,0,0:0:0:0:
210,121,67068,1,0,0:0:0:0:
169,150,67135,1,0,0:0:0:0:
141,190,67203,1,0,0:0:0:0:
145,153,67270,1,0,0:0:0:0:
141,116,67338,1,0,0:0:0:0:
127,81,67405,1,0,0:0:0:0:
106,51,67473,5,0,0:0:0:0:
156,50,67540,1,0,0:0:0:0:
205,45,67608,1,0,0:0:0:0:
254,34,67675,1,0,0:0:0:0:
301,18,67743,1,0,0:0:0:0:
349,30,67810,1,0,0:0:0:0:
385,63,67878,1,0,0:0:0:0:
400,111,67945,1,0,0:0:0:0:
390,159,68013,5,0,0:0:0:0:
378,207,68080,1,0,0:0:0:0:
383,257,68148,1,0,0:0:0:0:
404,302,68215,1,0,0:0:0:0:
440,336,68283,6,0,L|452:269,1,50
512,145,68418,2,0,L|474:211,1,50
362,354,68553,6,0,L|373:286,1,50
457,92,68688,2,0,L|419:158,1,50
283,371,68823,6,0,L|294:303,1,50
402,39,68958,2,0,L|364:105,1,50
204,383,69093,5,0,0:0:0:0:
161,356,69160,1,0,0:0:0:0:
113,345,69228,1,0,0:0:0:0:
63,348,69295,1,0,0:0:0:0:
17,367,69363,1,0,0:0:0:0:
33,320,69430,1,0,0:0:0:0:
39,270,69498,1,0,0:0:0:0:
34,221,69565,1,0,0:0:0:0:
18,173,69633,5,0,0:0:0:0:
5,125,69700,1,0,0:0:0:0:
16,77,69768,1,0,0:0:0:0:
50,41,69835,1,0,0:0:0:0:
96,24,69903,1,0,0:0:0:0:
145,33,69971,1,0,0:0:0:0:
191,52,70038,1,0,0:0:0:0:
240,53,70106,1,0,0:0:0:0:
286,33,70173,5,0,0:0:0:0:
281,70,70240,1,0,0:0:0:0:
277,108,70308,1,0,0:0:0:0:
272,145,70375,1,0,0:0:0:0:
267,182,70443,5,0,0:0:0:0:
301,165,70510,1,0,0:0:0:0:
338,158,70578,1,0,0:0:0:0:
375,160,70645,1,0,0:0:0:0:
411,171,70714,5,0,0:0:0:0:
406,208,70781,1,0,0:0:0:0:
401,245,70849,1,0,0:0:0:0:
397,282,70916,1,0,0:0:0:0:
392,318,70983,5,0,0:0:0:0:
435,297,71050,1,0,0:0:0:0:
457,253,71118,1,0,0:0:0:0:
448,204,71185,1,0,0:0:0:0:
412,171,71253,5,0,0:0:0:0:
375,160,71321,1,0,0:0:0:0:
338,158,71388,1,0,0:0:0:0:
301,165,71456,1,0,0:0:0:0:
267,182,71523,1,0,0:0:0:0:
231,189,71590,1,0,0:0:0:0:
193,188,71658,1,0,0:0:0:0:
157,177,71725,1,0,0:0:0:0:
125,159,71793,5,0,0:0:0:0:
127,196,71860,1,0,0:0:0:0:
129,234,71928,1,0,0:0:0:0:
130,271,71995,1,0,0:0:0:0:
132,309,72063,1,0,0:0:0:0:
146,343,72130,1,0,0:0:0:0:
174,368,72198,1,0,0:0:0:0:
210,376,72265,1,0,0:0:0:0:
246,367,72333,5,0,0:0:0:0:
273,341,72400,1,0,0:0:0:0:
305,322,72468,1,0,0:0:0:0:
341,311,72535,1,0,0:0:0:0:
378,308,72603,1,0,0:0:0:0:
415,315,72670,1,0,0:0:0:0:
449,329,72738,1,0,0:0:0:0:
479,351,72805,1,0,0:0:0:0:
504,380,72873,5,0,0:0:0:0:
480,351,72940,1,0,0:0:0:0:
462,318,73008,1,0,0:0:0:0:
451,283,73075,1,0,0:0:0:0:
447,245,73143,1,0,0:0:0:0:
450,208,73210,1,0,0:0:0:0:
461,172,73278,1,0,0:0:0:0:
479,139,73345,1,0,0:0:0:0:
502,110,73413,6,0,P|443:102|395:80,1,100
125,111,73683,2,0,P|184:102|232:80,1,100
358,212,73953,6,0,L|337:330,1,100
142,209,74223,2,0,L|124:110,1,100
379,41,74493,5,0,0:0:0:0:
411,99,74583,1,0,0:0:0:0:
402,164,74673,1,0,0:0:0:0:
358,212,74763,2,0,P|309:223|261:214,1,100
28,113,75033,6,0,P|76:101|170:153,1,150
169,355,75303,2,0,L|151:256,1,100
330,21,75573,6,0,L|312:119,1,100
273,317,75843,1,0,0:0:0:0:
214,48,75978,1,0,0:0:0:0:
453,182,76113,6,0,L|356:207,1,100
151,256,76383,1,0,0:0:0:0:
330,21,76518,1,0,0:0:0:0:
356,207,76653,5,0,0:0:0:0:
321,221,76720,1,0,0:0:0:0:
284,225,76788,1,0,0:0:0:0:
247,220,76855,1,0,0:0:0:0:
213,205,76923,1,0,0:0:0:0:
177,180,76990,1,0,0:0:0:0:
134,178,77058,1,0,0:0:0:0:
96,198,77125,1,0,0:0:0:0:
74,235,77193,5,0,0:0:0:0:
75,278,77260,1,0,0:0:0:0:
98,315,77328,1,0,0:0:0:0:
137,334,77395,1,0,0:0:0:0:
180,329,77463,1,0,0:0:0:0:
165,292,77531,1,0,0:0:0:0:
151,256,77598,2,0,L|133:201,1,50
82,53,77733,5,0,0:0:0:0:
124,79,77800,1,0,0:0:0:0:
172,93,77868,1,0,0:0:0:0:
222,95,77935,1,0,0:0:0:0:
270,84,78003,1,0,0:0:0:0:
314,61,78070,1,0,0:0:0:0:
351,27,78138,2,0,P|358:53|356:97,1,50
323,276,78273,5,0,0:0:0:0:
350,316,78340,1,0,0:0:0:0:
396,333,78408,1,0,0:0:0:0:
443,320,78475,1,0,0:0:0:0:
473,281,78543,1,0,0:0:0:0:
475,232,78610,1,0,0:0:0:0:
447,191,78678,1,0,0:0:0:0:
400,175,78745,1,0,0:0:0:0:
353,190,78813,5,0,0:0:0:0:
306,207,78880,1,0,0:0:0:0:
256,203,78948,1,0,0:0:0:0:
213,180,79015,1,0,0:0:0:0:
182,141,79083,1,0,0:0:0:0:
171,92,79151,1,0,0:0:0:0:
134,60,79218,1,0,0:0:0:0:
85,53,79286,1,0,0:0:0:0:
40,75,79353,5,0,0:0:0:0:
15,117,79421,1,0,0:0:0:0:
16,166,79488,1,0,0:0:0:0:
45,206,79555,1,0,0:0:0:0:
92,222,79623,1,0,0:0:0:0:
140,228,79690,1,0,0:0:0:0:
173,264,79758,1,0,0:0:0:0:
171,313,79825,1,0,0:0:0:0:
134,347,79893,5,0,0:0:0:0:
171,313,79960,1,0,0:0:0:0:
215,288,80028,1,0,0:0:0:0:
262,274,80095,1,0,0:0:0:0:
312,270,80163,1,0,0:0:0:0:
362,278,80230,1,0,0:0:0:0:
408,296,80298,1,0,0:0:0:0:
449,324,80365,1,0,0:0:0:0:
484,360,80433,5,0,0:0:0:0:
504,314,80500,1,0,0:0:0:0:
503,265,80568,1,0,0:0:0:0:
480,220,80635,1,0,0:0:0:0:
441,190,80703,1,0,0:0:0:0:
418,146,80770,1,0,0:0:0:0:
420,97,80838,1,0,0:0:0:0:
446,54,80905,1,0,0:0:0:0:
489,30,80973,5,0,0:0:0:0:
428,17,81040,1,0,0:0:0:0:
365,17,81108,1,0,0:0:0:0:
304,28,81175,1,0,0:0:0:0:
246,51,81243,5,0,0:0:0:0:
197,62,81310,1,0,0:0:0:0:
147,64,81378,1,0,0:0:0:0:
98,56,81445,1,0,0:0:0:0:
51,38,81513,5,0,0:0:0:0:
70,98,81580,1,0,0:0:0:0:
70,160,81648,1,0,0:0:0:0:
50,219,81715,1,0,0:0:0:0:
13,269,81783,5,0,0:0:0:0:
2,328,81850,1,0,0:0:0:0:
41,373,81918,2,0,P|76:361|106:335,1,50
489,30,82053,5,0,0:0:0:0:
89,78,90693,6,0,L|77:171,1,75.0000028610231
165,143,90963,2,0,L|153:236,1,75.0000028610231
256,262,91233,6,0,L|244:169,1,75.0000028610231
332,197,91503,2,0,L|320:104,1,75.0000028610231
438,94,91773,5,0,0:0:0:0:
498,154,91908,1,0,0:0:0:0:
416,175,92043,1,0,0:0:0:0:
438,94,92178,1,0,0:0:0:0:
476,235,92313,5,0,0:0:0:0:
454,316,92448,1,0,0:0:0:0:
394,256,92583,1,0,0:0:0:0:
476,235,92718,1,0,0:0:0:0:
454,316,92853,6,0,L|352:342,1,75.0000028610231
241,300,93123,2,0,L|313:281,1,75.0000028610231
172,246,93393,6,0,L|100:265,1,75.0000028610231
194,166,93663,2,0,L|266:147,1,75.0000028610231
348,127,93933,5,0,0:0:0:0:
289,65,94068,1,0,0:0:0:0:
266,147,94203,1,0,0:0:0:0:
348,127,94338,1,0,0:0:0:0:
207,87,94473,5,0,0:0:0:0:
125,109,94608,1,0,0:0:0:0:
183,170,94743,1,0,0:0:0:0:
207,87,94878,1,0,0:0:0:0:
97,192,95013,5,0,0:0:0:0:
374,325,96093,5,0,0:0:0:0:
456,70,96633,1,0,0:0:0:0:
160,71,97173,5,0,0:0:0:0:
113,158,97308,1,0,0:0:0:0:
131,254,97443,1,0,0:0:0:0:
207,316,97578,1,0,0:0:0:0:
305,316,97713,5,0,0:0:0:0:
380,253,97848,1,0,0:0:0:0:
398,157,97983,1,0,0:0:0:0:
351,71,98118,1,0,0:0:0:0:
256,120,98253,5,0,0:0:0:0:
255,132,98320,1,0,0:0:0:0:
254,144,98388,1,0,0:0:0:0:
253,157,98455,1,0,0:0:0:0:
252,169,98523,1,0,0:0:0:0:
251,182,98590,1,0,0:0:0:0:
250,194,98658,1,0,0:0:0:0:
249,207,98725,1,0,0:0:0:0:
248,219,98793,6,0,L|255:278,7,50
394,330,99333,5,0,0:0:0:0:
395,315,99400,1,0,0:0:0:0:
396,298,99468,1,0,0:0:0:0:
397,283,99535,1,0,0:0:0:0:
399,267,99603,1,0,0:0:0:0:
400,252,99670,1,0,0:0:0:0:
401,236,99738,1,0,0:0:0:0:
402,221,99805,1,0,0:0:0:0:
404,206,99873,6,0,L|395:132,7,50
388,48,100413,5,0,0:0:0:0:
364,56,100480,1,0,0:0:0:0:
339,59,100548,1,0,0:0:0:0:
315,57,100615,1,0,0:0:0:0:
291,49,100683,1,0,0:0:0:0:
267,41,100750,1,0,0:0:0:0:
242,39,100818,1,0,0:0:0:0:
217,44,100885,1,0,0:0:0:0:
195,55,100953,6,0,L|186:123,3,50
102,61,101223,2,0,L|95:11,3,50
9,67,101493,5,0,0:0:0:0:
19,102,101560,1,0,0:0:0:0:
42,131,101628,1,0,0:0:0:0:
75,149,101695,1,0,0:0:0:0:
112,153,101763,1,0,0:0:0:0:
147,166,101830,1,0,0:0:0:0:
174,191,101898,1,0,0:0:0:0:
190,225,101965,1,0,0:0:0:0:
191,262,102033,5,0,0:0:0:0:
223,244,102100,1,0,0:0:0:0:
260,237,102168,1,0,0:0:0:0:
297,241,102235,1,0,0:0:0:0:
331,257,102304,1,0,0:0:0:0:
366,270,102371,1,0,0:0:0:0:
403,268,102439,1,0,0:0:0:0:
437,252,102506,1,0,0:0:0:0:
462,225,102574,6,0,L|450:170,3,50
393,57,102844,2,0,L|381:105,3,50
366,270,103114,6,0,L|353:214,3,50
296,11,103384,6,0,L|285:60,3,50
256,171,103654,1,0,0:0:0:0:
219,178,103721,1,0,0:0:0:0:
181,177,103789,1,0,0:0:0:0:
145,169,103856,1,0,0:0:0:0:
111,153,103924,6,0,L|51:167,3,50
150,245,104194,2,0,L|87:242,3,50
163,343,104464,2,0,L|103:324,3,50
244,277,104734,5,0,0:0:0:0:
267,268,104801,1,0,0:0:0:0:
291,263,104869,1,0,0:0:0:0:
316,262,104936,1,0,0:0:0:0:
341,264,105004,1,0,0:0:0:0:
366,270,105071,1,0,0:0:0:0:
389,279,105139,1,0,0:0:0:0:
410,291,105206,1,0,0:0:0:0:
430,307,105274,5,0,0:0:0:0:
412,273,105341,1,0,0:0:0:0:
408,236,105409,1,0,0:0:0:0:
416,200,105476,1,0,0:0:0:0:
436,169,105544,1,0,0:0:0:0:
446,133,105611,1,0,0:0:0:0:
443,95,105679,1,0,0:0:0:0:
429,61,105746,1,0,0:0:0:0:
404,33,105814,5,0,0:0:0:0:
371,69,105881,1,0,0:0:0:0:
325,86,105949,1,0,0:0:0:0:
276,78,106016,1,0,0:0:0:0:
236,48,106084,1,0,0:0:0:0:
190,31,106151,1,0,0:0:0:0:
141,38,106219,1,0,0:0:0:0:
101,66,106286,1,0,0:0:0:0:
79,111,106354,5,0,0:0:0:0:
128,111,106421,1,0,0:0:0:0:
171,136,106489,1,0,0:0:0:0:
195,179,106556,1,0,0:0:0:0:
195,229,106624,1,0,0:0:0:0:
193,278,106691,1,0,0:0:0:0:
217,321,106759,1,0,0:0:0:0:
259,347,106826,1,0,0:0:0:0:
309,347,106894,5,0,0:0:0:0:
309,347,107704,5,0,0:0:0:0:
309,347,107974,6,0,P|385:352|454:333,1,100
480,332,108176,5,0,0:0:0:0:
488,292,108243,1,0,0:0:0:0:
489,253,108311,1,0,0:0:0:0:
484,213,108378,1,0,0:0:0:0:
471,175,108446,1,0,0:0:0:0:
452,140,108514,6,0,P|432:104|418:87,1,50
375,235,108649,2,0,P|386:257|400:277,1,50
277,115,108784,6,0,P|256:78|242:61,1,50
211,267,108919,2,0,P|231:303|245:320,1,50
102,137,109054,5,0,0:0:0:0:
65,132,109121,1,0,0:0:0:0:
32,149,109189,1,0,0:0:0:0:
14,181,109256,1,0,0:0:0:0:
17,218,109324,1,0,0:0:0:0:
40,247,109391,1,0,0:0:0:0:
75,258,109459,1,0,0:0:0:0:
110,248,109526,1,0,0:0:0:0:
134,220,109594,5,0,0:0:0:0:
170,187,109661,1,0,0:0:0:0:
219,177,109729,1,0,0:0:0:0:
265,195,109796,1,0,0:0:0:0:
295,234,109864,1,0,0:0:0:0:
310,281,109931,1,0,0:0:0:0:
350,311,109999,1,0,0:0:0:0:
399,312,110066,1,0,0:0:0:0:
440,286,110134,6,0,P|428:220|441:156,1,100
471,85,110336,1,0,0:0:0:0:
433,71,110403,1,0,0:0:0:0:
394,63,110471,1,0,0:0:0:0:
354,60,110538,1,0,0:0:0:0:
314,62,110606,1,0,0:0:0:0:
275,70,110674,6,0,L|269:124,1,50
206,316,110809,2,0,L|210:266,1,50
191,47,110944,6,0,L|185:101,1,50
121,326,111079,2,0,L|125:276,1,50
0,135,111214,2,0,P|71:126|141:151,1,100
194,198,111416,5,0,0:0:0:0:
194,198,111484,2,0,P|153:203|127:195,1,50
17,28,111619,2,0,P|58:23|84:31,1,50
318,220,111754,6,0,P|277:225|251:217,1,50
141,50,111889,2,0,P|182:45|208:53,1,50
442,242,112024,6,0,P|401:247|375:239,1,50
265,72,112159,2,0,P|306:67|332:75,1,50
507,189,112294,6,0,P|523:235|514:283,1,100
454,351,112496,1,0,0:0:0:0:
417,335,112563,1,0,0:0:0:0:
378,327,112631,1,0,0:0:0:0:
338,326,112698,1,0,0:0:0:0:
298,333,112766,1,0,0:0:0:0:
261,346,112833,5,0,0:0:0:0:
224,365,112901,1,0,0:0:0:0:
183,363,112969,1,0,0:0:0:0:
148,341,113036,1,0,0:0:0:0:
129,305,113104,1,0,0:0:0:0:
131,263,113171,1,0,0:0:0:0:
153,229,113239,1,0,0:0:0:0:
167,182,113306,1,0,0:0:0:0:
146,138,113374,5,0,0:0:0:0:
189,162,113441,1,0,0:0:0:0:
238,157,113509,1,0,0:0:0:0:
275,124,113576,1,0,0:0:0:0:
287,77,113644,5,0,0:0:0:0:
320,41,113711,1,0,0:0:0:0:
369,30,113779,1,0,0:0:0:0:
414,48,113846,1,0,0:0:0:0:
442,89,113914,5,0,0:0:0:0:
441,138,113981,1,0,0:0:0:0:
413,179,114049,1,0,0:0:0:0:
380,216,114116,1,0,0:0:0:0:
370,265,114184,5,0,0:0:0:0:
385,312,114251,1,0,0:0:0:0:
420,346,114319,1,0,0:0:0:0:
468,359,114386,1,0,0:0:0:0:
511,334,114454,5,0,0:0:0:0:
468,359,114521,1,0,0:0:0:0:
419,369,114589,1,0,0:0:0:0:
370,362,114656,1,0,0:0:0:0:
326,339,114724,1,0,0:0:0:0:
278,322,114791,1,0,0:0:0:0:
229,318,114859,1,0,0:0:0:0:
179,325,114926,1,0,0:0:0:0:
133,344,114994,5,0,0:0:0:0:
86,357,115061,1,0,0:0:0:0:
41,338,115129,1,0,0:0:0:0:
18,295,115196,1,0,0:0:0:0:
27,247,115264,1,0,0:0:0:0:
65,215,115331,1,0,0:0:0:0:
93,174,115398,1,0,0:0:0:0:
98,125,115466,1,0,0:0:0:0:
80,79,115534,6,0,P|128:92|178:88,1,100
250,46,115736,1,0,0:0:0:0:
299,39,115803,1,0,0:0:0:0:
349,42,115871,1,0,0:0:0:0:
397,55,115939,2,0,P|402:87|398:122,1,50
386,229,116074,5,0,0:0:0:0:
343,255,116141,1,0,0:0:0:0:
293,255,116209,1,0,0:0:0:0:
251,231,116276,1,0,0:0:0:0:
224,189,116344,1,0,0:0:0:0:
186,158,116411,1,0,0:0:0:0:
137,153,116479,1,0,0:0:0:0:
93,174,116546,1,0,0:0:0:0:
66,216,116614,6,0,P|69:287|84:351,1,100
272,132,116884,2,0,P|269:61|254:-3,1,100
240,251,117154,6,0,P|240:301|248:351,1,100
446,168,117424,2,0,P|443:97|428:33,1,100
79,12,117694,5,0,0:0:0:0:
40,64,117784,1,0,0:0:0:0:
46,130,117874,1,0,0:0:0:0:
92,174,117964,2,0,P|141:166|190:171,1,100
446,168,118234,6,0,P|359:188|278:170,1,150
240,251,118504,2,0,P|240:301|248:351,1,100
446,168,118774,6,0,P|445:118|437:68,1,100
66,216,119044,2,0,P|66:265|74:315,1,100
232,2,119314,6,0,P|182:2|132:10,1,100
280,382,119584,2,0,P|329:381|379:373,1,100
446,168,119854,5,0,0:0:0:0:
397,156,119921,1,0,0:0:0:0:
347,158,119989,1,0,0:0:0:0:
299,172,120056,1,0,0:0:0:0:
257,198,120124,1,0,0:0:0:0:
208,207,120191,1,0,0:0:0:0:
161,193,120259,1,0,0:0:0:0:
126,158,120326,1,0,0:0:0:0:
113,110,120394,5,0,0:0:0:0:
126,158,120461,1,0,0:0:0:0:
121,207,120529,1,0,0:0:0:0:
99,252,120596,1,0,0:0:0:0:
63,286,120664,1,0,0:0:0:0:
49,332,120731,1,0,0:0:0:0:
76,373,120799,1,0,0:0:0:0:
124,380,120866,1,0,0:0:0:0:
160,348,120934,5,0,0:0:0:0:
203,322,121001,1,0,0:0:0:0:
251,310,121069,1,0,0:0:0:0:
301,313,121136,1,0,0:0:0:0:
347,331,121204,1,0,0:0:0:0:
394,346,121271,1,0,0:0:0:0:
439,328,121339,1,0,0:0:0:0:
463,286,121406,1,0,0:0:0:0:
455,237,121474,5,0,0:0:0:0:
426,197,121541,1,0,0:0:0:0:
416,148,121609,1,0,0:0:0:0:
425,100,121676,1,0,0:0:0:0:
453,58,121744,1,0,0:0:0:0:
407,78,121811,1,0,0:0:0:0:
358,81,121879,1,0,0:0:0:0:
310,67,121946,1,0,0:0:0:0:
269,39,122014,5,0,0:0:0:0:
293,82,122081,1,0,0:0:0:0:
296,132,122149,1,0,0:0:0:0:
279,178,122216,1,0,0:0:0:0:
245,214,122284,1,0,0:0:0:0:
223,258,122351,1,0,0:0:0:0:
227,308,122419,1,0,0:0:0:0:
255,348,122486,1,0,0:0:0:0:
300,369,122554,5,0,0:0:0:0:
255,348,122621,1,0,0:0:0:0:
206,340,122689,1,0,0:0:0:0:
157,346,122756,1,0,0:0:0:0:
111,365,122824,1,0,0:0:0:0:
61,368,122891,1,0,0:0:0:0:
20,342,122959,1,0,0:0:0:0:
2,296,123026,1,0,0:0:0:0:
15,248,123094,5,0,0:0:0:0:
53,216,123161,1,0,0:0:0:0:
74,171,123229,1,0,0:0:0:0:
73,121,123296,1,0,0:0:0:0:
53,76,123364,1,0,0:0:0:0:
96,53,123431,1,0,0:0:0:0:
146,49,123499,1,0,0:0:0:0:
193,65,123566,1,0,0:0:0:0:
230,99,123634,5,0,0:0:0:0:
271,126,123701,1,0,0:0:0:0:
320,130,123769,1,0,0:0:0:0:
365,109,123836,1,0,0:0:0:0:
393,68,123904,1,0,0:0:0:0:
435,44,123971,1,0,0:0:0:0:
483,56,124039,1,0,0:0:0:0:
509,97,124106,1,0,0:0:0:0:
498,144,124174,5,0,0:0:0:0:
465,197,124241,1,0,0:0:0:0:
452,258,124309,1,0,0:0:0:0:
461,319,124376,1,0,0:0:0:0:
491,374,124444,5,0,0:0:0:0:
461,320,124511,1,0,0:0:0:0:
408,289,124579,1,0,0:0:0:0:
346,289,124646,1,0,0:0:0:0:
293,321,124714,5,0,0:0:0:0:
237,346,124781,1,0,0:0:0:0:
175,338,124849,1,0,0:0:0:0:
126,301,124916,1,0,0:0:0:0:
104,243,124984,1,0,0:0:0:0:
113,182,125051,1,0,0:0:0:0:
153,135,125119,1,0,0:0:0:0:
211,114,125186,1,0,0:0:0:0:
271,126,125254,6,0,P|338:134|399:116,1,100
463,90,125456,1,0,0:0:0:0:
463,90,125524,1,0,0:0:0:0:
81,2,125659,2,0,P|79:33|87:69,1,50
215,204,125794,5,0,0:0:0:0:
255,219,125861,1,0,0:0:0:0:
298,215,125929,1,0,0:0:0:0:
335,192,125996,1,0,0:0:0:0:
358,155,126064,1,0,0:0:0:0:
362,112,126131,1,0,0:0:0:0:
346,71,126199,1,0,0:0:0:0:
314,42,126266,1,0,0:0:0:0:
272,30,126334,6,0,P|225:38|171:28,1,100
81,2,126536,1,0,0:0:0:0:
81,2,126604,1,0,0:0:0:0:
16,210,126739,2,0,P|49:220|75:218,1,50
271,126,126874,5,0,0:0:0:0:
222,116,126941,1,0,0:0:0:0:
179,139,127009,1,0,0:0:0:0:
159,183,127076,1,0,0:0:0:0:
170,231,127144,1,0,0:0:0:0:
209,261,127211,1,0,0:0:0:0:
230,305,127278,1,0,0:0:0:0:
211,349,127346,1,0,0:0:0:0:
163,365,127414,5,0,0:0:0:0:
211,349,127481,1,0,0:0:0:0:
260,343,127549,1,0,0:0:0:0:
310,346,127616,1,0,0:0:0:0:
358,359,127684,1,0,0:0:0:0:
406,366,127751,1,0,0:0:0:0:
450,343,127819,1,0,0:0:0:0:
472,299,127886,1,0,0:0:0:0:
463,251,127954,6,0,P|452:211|451:186,1,50
470,21,128089,1,0,0:0:0:0:
423,3,128156,1,0,0:0:0:0:
373,0,128224,1,0,0:0:0:0:
325,14,128291,1,0,0:0:0:0:
283,41,128359,1,0,0:0:0:0:
235,52,128426,1,0,0:0:0:0:
187,40,128494,6,0,P|175:68|169:103,1,50
152,310,128629,1,0,0:0:0:0:
152,310,128696,1,0,0:0:0:0:
152,310,128764,6,0,P|150:273|141:247,1,50
365,260,128899,2,0,P|359:285|360:310,1,50
178,175,129034,6,0,P|184:150|184:126,1,50
328,125,129169,2,0,P|327:150|333:175,1,50
105,71,129304,6,0,P|97:47|84:26,1,50
428,26,129439,2,0,P|414:47|406:71,1,50
287,224,129574,5,0,0:0:0:0:
248,192,129641,1,0,0:0:0:0:
227,147,129709,1,0,0:0:0:0:
227,98,129776,1,0,0:0:0:0:
248,53,129844,5,0,0:0:0:0:
227,98,129911,1,0,0:0:0:0:
191,132,129979,1,0,0:0:0:0:
145,150,130046,1,0,0:0:0:0:
95,150,130114,5,0,0:0:0:0:
54,177,130181,1,0,0:0:0:0:
29,220,130249,1,0,0:0:0:0:
25,270,130316,1,0,0:0:0:0:
43,316,130384,5,0,0:0:0:0:
80,350,130451,1,0,0:0:0:0:
126,368,130518,1,0,0:0:0:0:
174,360,130586,1,0,0:0:0:0:
212,328,130654,5,0,0:0:0:0:
256,304,130721,1,0,0:0:0:0:
305,298,130789,1,0,0:0:0:0:
353,312,130856,1,0,0:0:0:0:
392,342,130924,5,0,0:0:0:0:
382,293,130991,1,0,0:0:0:0:
392,244,131059,1,0,0:0:0:0:
420,202,131126,1,0,0:0:0:0:
460,174,131194,5,0,0:0:0:0:
409,169,131261,1,0,0:0:0:0:
366,144,131329,1,0,0:0:0:0:
335,105,131396,1,0,0:0:0:0:
320,58,131464,5,0,0:0:0:0:
299,104,131531,1,0,0:0:0:0:
262,138,131599,1,0,0:0:0:0:
215,155,131666,1,0,0:0:0:0:
166,155,131734,5,0,0:0:0:0:
120,136,131801,1,0,0:0:0:0:
71,145,131869,1,0,0:0:0:0:
36,179,131936,1,0,0:0:0:0:
24,227,132004,1,0,0:0:0:0:
41,273,132071,1,0,0:0:0:0:
80,303,132139,1,0,0:0:0:0:
129,307,132206,1,0,0:0:0:0:
172,284,132274,5,0,0:0:0:0:
217,263,132341,1,0,0:0:0:0:
267,263,132409,1,0,0:0:0:0:
312,285,132476,1,0,0:0:0:0:
343,323,132544,1,0,0:0:0:0:
372,362,132611,1,0,0:0:0:0:
420,372,132679,1,0,0:0:0:0:
463,348,132746,1,0,0:0:0:0:
479,302,132814,5,0,0:0:0:0:
465,254,132881,1,0,0:0:0:0:
464,204,132949,1,0,0:0:0:0:
476,156,133016,1,0,0:0:0:0:
499,111,133084,6,0,P|496:79|489:47,1,50
391,234,133219,2,0,P|387:266|380:298,1,50
356,77,133354,6,0,P|352:44|345:12,1,50
257,248,133489,2,0,P|253:280|246:312,1,50
223,55,133624,6,0,P|219:22|212:-9,1,50
122,271,133759,2,0,P|118:303|111:335,1,50
28,124,133894,6,0,P|85:115|145:129,1,100
300,372,134164,2,0,P|243:381|183:367,1,100
288,112,134434,6,0,P|297:169|283:229,1,100
40,384,134704,2,0,P|31:327|45:267,1,100
184,46,134974,5,0,0:0:0:0:
225,96,135064,1,0,0:0:0:0:
288,112,135154,1,0,0:0:0:0:
348,87,135244,2,0,P|411:74|478:101,1,100
474,299,135514,5,0,0:0:0:0:
431,324,135581,1,0,0:0:0:0:
382,333,135649,1,0,0:0:0:0:
332,326,135716,1,0,0:0:0:0:
288,304,135784,1,0,0:0:0:0:
238,297,135851,1,0,0:0:0:0:
189,306,135919,1,0,0:0:0:0:
147,332,135986,1,0,0:0:0:0:
121,374,136054,6,0,P|42:367|0:334,1,100
226,162,136324,2,0,P|147:169|105:202,1,100
348,384,136594,6,0,P|269:377|227:344,1,100
462,112,136864,2,0,P|383:119|341:152,1,100
487,314,137134,5,0,0:0:0:0:
460,330,137201,1,0,0:0:0:0:
429,333,137269,1,0,0:0:0:0:
400,324,137336,1,0,0:0:0:0:
377,303,137404,1,0,0:0:0:0:
365,274,137471,1,0,0:0:0:0:
366,243,137539,1,0,0:0:0:0:
380,216,137606,1,0,0:0:0:0:
425,194,137674,5,0,0:0:0:0:
380,216,137741,1,0,0:0:0:0:
331,210,137809,1,0,0:0:0:0:
292,180,137876,1,0,0:0:0:0:
276,134,137944,1,0,0:0:0:0:
286,85,138011,1,0,0:0:0:0:
321,50,138079,1,0,0:0:0:0:
369,38,138146,1,0,0:0:0:0:
415,54,138214,6,0,P|396:109|417:174,1,100
425,194,138416,1,0,0:0:0:0:
420,243,138484,1,0,0:0:0:0:
156,375,138619,2,0,P|147:329|148:304,1,50
199,161,138754,5,0,0:0:0:0:
208,112,138821,1,0,0:0:0:0:
198,63,138889,2,0,P|139:54|74:63,1,100
52,235,139159,1,0,0:0:0:0:
221,326,139294,6,0,P|225:293|228:258,1,50
291,58,139429,2,0,P|287:91|284:126,1,50
198,355,139564,6,0,P|202:314|206:272,1,50
314,29,139699,2,0,P|309:69|305:111,1,50
244,297,139834,6,0,P|248:264|251:229,3,50
268,87,140104,2,0,P|264:120|261:155,3,50
216,87,140374,5,0,0:0:0:0:
179,118,140441,1,0,0:0:0:0:
161,164,140509,1,0,0:0:0:0:
168,213,140576,1,0,0:0:0:0:
198,252,140644,1,0,0:0:0:0:
244,271,140711,1,0,0:0:0:0:
293,266,140779,1,0,0:0:0:0:
333,237,140846,1,0,0:0:0:0:
354,192,140914,5,0,0:0:0:0:
380,150,140981,1,0,0:0:0:0:
425,132,141049,1,0,0:0:0:0:
473,144,141116,1,0,0:0:0:0:
503,182,141184,1,0,0:0:0:0:
505,231,141251,1,0,0:0:0:0:
477,272,141319,1,0,0:0:0:0:
463,319,141386,1,0,0:0:0:0:
486,362,141454,5,0,0:0:0:0:
446,333,141521,1,0,0:0:0:0:
398,319,141589,1,0,0:0:0:0:
348,325,141656,1,0,0:0:0:0:
304,347,141724,1,0,0:0:0:0:
260,324,141791,1,0,0:0:0:0:
210,319,141858,1,0,0:0:0:0:
162,332,141926,1,0,0:0:0:0:
123,362,141994,5,0,0:0:0:0:
133,313,142061,1,0,0:0:0:0:
127,263,142129,1,0,0:0:0:0:
106,218,142196,1,0,0:0:0:0:
71,183,142264,1,0,0:0:0:0:
42,142,142331,1,0,0:0:0:0:
36,93,142399,1,0,0:0:0:0:
54,47,142466,1,0,0:0:0:0:
92,16,142534,5,0,0:0:0:0:
125,53,142601,1,0,0:0:0:0:
171,71,142669,1,0,0:0:0:0:
220,66,142736,1,0,0:0:0:0:
261,39,142804,1,0,0:0:0:0:
302,12,142871,1,0,0:0:0:0:
351,16,142939,1,0,0:0:0:0:
389,48,143006,1,0,0:0:0:0:
400,95,143074,5,0,0:0:0:0:
380,140,143141,1,0,0:0:0:0:
347,178,143208,1,0,0:0:0:0:
332,225,143276,1,0,0:0:0:0:
337,274,143343,1,0,0:0:0:0:
361,317,143411,1,0,0:0:0:0:
401,347,143478,1,0,0:0:0:0:
449,358,143546,1,0,0:0:0:0:
499,348,143614,5,0,0:0:0:0:
489,287,143681,1,0,0:0:0:0:
450,239,143749,1,0,0:0:0:0:
393,216,143816,1,0,0:0:0:0:
332,225,143884,1,0,0:0:0:0:
275,250,143951,1,0,0:0:0:0:
213,248,144019,1,0,0:0:0:0:
158,219,144086,1,0,0:0:0:0:
121,172,144154,5,0,0:0:0:0:
118,106,144221,1,0,0:0:0:0:
151,50,144289,1,0,0:0:0:0:
209,20,144356,1,0,0:0:0:0:
275,27,144424,1,0,0:0:0:0:
325,69,144491,1,0,0:0:0:0:
345,132,144559,1,0,0:0:0:0:
327,195,144626,1,0,0:0:0:0:
278,238,144694,5,0,0:0:0:0:
327,195,144761,1,0,0:0:0:0:
390,193,144829,1,0,0:0:0:0:
438,233,144896,1,0,0:0:0:0:
449,295,144964,5,0,0:0:0:0:
416,349,145031,1,0,0:0:0:0:
356,367,145099,1,0,0:0:0:0:
298,342,145166,1,0,0:0:0:0:
251,305,145233,5,0,0:0:0:0:
194,286,145301,1,0,0:0:0:0:
134,288,145368,1,0,0:0:0:0:
79,309,145436,1,0,0:0:0:0:
33,351,145504,5,0,0:0:0:0:
79,309,145571,1,0,0:0:0:0:
96,250,145639,1,0,0:0:0:0:
81,191,145706,1,0,0:0:0:0:
36,148,145774,5,0,0:0:0:0:
16,78,145841,1,0,0:0:0:0:
62,23,145909,1,0,0:0:0:0:
134,30,145976,1,0,0:0:0:0:
167,94,146044,5,0,0:0:0:0:
202,159,146111,1,0,0:0:0:0:
270,186,146179,1,0,0:0:0:0:
339,162,146246,1,0,0:0:0:0:
375,97,146314,5,0,0:0:0:0:
443,73,146381,1,0,0:0:0:0:
502,116,146449,1,0,0:0:0:0:
502,188,146516,1,0,0:0:0:0:
443,230,146584,5,0,0:0:0:0:
380,263,146651,1,0,0:0:0:0:
383,334,146719,1,0,0:0:0:0:
449,362,146786,1,0,0:0:0:0:
501,314,146854,5,0,0:0:0:0:
256,192,146921,12,0,149014,0:0:0:0:
