osu file format v14

[General]
AudioFilename: audio.ogg
AudioLeadIn: 0
PreviewTime: 164059
Countdown: 0
SampleSet: Normal
StackLeniency: 0.7
Mode: 1
LetterboxInBreaks: 0
WidescreenStoryboard: 1

[Editor]
Bookmarks: 2058,8538,10698,17178,19338,25818,27978,36618,40938,45258,47418,56058,62538,64698,81978,90618,94938,98178,107899,125179,146779,153259,155419,164059,196459,198619,200779,209420,213740,218060,235340
DistanceSpacing: 0.1
BeatDivisor: 4
GridSize: 32
TimelineZoom: 2.7

[Metadata]
Title:FREEDOM DiVE
TitleUnicode:FREEDOM DiVE↓
Artist:xi
ArtistUnicode:xi
Creator:gaston_2199
Version:KyeX's iNNER ONi
Source:MAXBEAT
Tags:Parousia VOEZ Muse Dash SOUND VOLTEX IV HEAVENLY HAVEN 太鼓の達人 セッションでドドンがドン! Taiko no Tatsujin Drum Session! CHUNITHM PLUS Cytus II WACCA BMS くらんて Kurante piano electronic happy hardcore video game instrumental full long version extended fa featured artist KyeX
BeatmapID:3325869
BeatmapSetID:1613246

[Difficulty]
HPDrainRate:5.5
CircleSize:2
OverallDifficulty:6.5
ApproachRate:10
SliderMultiplier:1.4
SliderTickRate:1

[Events]
//Background and Video events
0,0,"BG.jpg",0,0
//Break Periods
//Storyboard Layer 0 (Background)
//Storyboard Layer 1 (Fail)
//Storyboard Layer 2 (Pass)
//Storyboard Layer 3 (Foreground)
//Storyboard Layer 4 (Overlay)
//Storyboard Sound Samples

[TimingPoints]
2058,270.002700027,4,1,0,80,1,0
2255,-111.111111111111,4,1,0,80,0,0
9613,-111.111111111111,4,1,0,80,0,0
9748,-109.58904109589,4,1,0,80,0,0
9815,-108.849022374521,4,1,0,80,0,0
9883,-108.108108108108,4,1,0,80,0,0
10018,-106.666666666667,4,1,0,80,0,0
10153,-105.263157894737,4,1,0,80,0,0
10220,-104.580226590491,4,1,0,80,0,0
10288,-103.896103896104,4,1,0,80,0,0
10355,-103.230739820302,4,1,0,80,0,0
10423,-102.564102564103,4,1,0,80,0,0
10490,-101.915636500896,4,1,0,80,0,0
10558,-101.26582278481,4,1,0,80,0,0
10625,-100.633619083116,4,1,0,80,0,0
10693,-100,4,1,0,80,0,0
28108,-117.647058823529,4,1,0,70,0,0
45388,-116.788321167883,4,1,0,70,0,0
45455,-115.942028985507,4,1,0,70,0,0
45523,-115.107913669065,4,1,0,70,0,0
45658,-114.285714285714,4,1,0,70,0,0
45793,-113.475177304965,4,1,0,70,0,0
45860,-112.676056338028,4,1,0,70,0,0
45928,-111.888111888112,4,1,0,70,0,0
46063,-111.111111111111,4,1,0,70,0,0
46198,-110.344827586207,4,1,0,70,0,0
46333,-109.58904109589,4,1,0,70,0,0
46400,-108.843537414966,4,1,0,70,0,0
46468,-108.108108108108,4,1,0,70,0,0
46535,-107.38255033557,4,1,0,70,0,0
46603,-106.666666666667,4,1,0,70,0,0
46738,-105.960264900662,4,1,0,70,0,0
46873,-105.263157894737,4,1,0,70,0,0
46940,-104.575163398693,4,1,0,70,0,0
47008,-103.896103896104,4,1,0,70,0,0
47075,-103.225806451613,4,1,0,70,0,0
47143,-102.564102564103,4,1,0,70,0,0
47210,-101.910828025478,4,1,0,70,0,0
47278,-101.26582278481,4,1,0,70,0,0
47345,-100.62893081761,4,1,0,70,0,0
47413,-100,4,1,0,80,0,0
64698,-100,4,1,0,80,0,1
81978,-100,4,1,0,80,0,0
82243,-125,4,1,0,80,0,0
98173,-125,4,1,0,80,0,0
98376,-124.270141225875,4,1,0,80,0,0
98443,-124.031119021645,4,1,0,80,0,0
98578,-123.552289170408,4,1,0,80,0,0
98713,-123.077142206016,4,1,0,80,0,0
98848,-122.605635801243,4,1,0,80,0,0
98983,-122.137728275004,4,1,0,80,0,0
99253,-121.212546291101,4,1,0,80,0,0
99456,-120.526124919798,4,1,0,80,0,0
99523,-120.301275268697,4,1,0,80,0,0
99658,-119.850758689561,4,1,0,80,0,0
99793,-119.403603802786,4,1,0,80,0,0
99928,-118.959773121507,4,1,0,80,0,0
100063,-118.51922971416,4,1,0,80,0,0
100198,-118.081937194239,4,1,0,80,0,0
100333,-117.647859710271,4,1,0,80,0,0
100536,-117.001110298697,4,1,0,80,0,0
100603,-116.789209060929,4,1,0,80,0,0
100738,-116.364566780684,4,1,0,80,0,0
100873,-115.943001288107,4,1,0,80,0,0
101008,-115.524479264151,4,1,0,80,0,0
101076,-115.314810366456,4,1,0,80,0,0
101143,-115.108967869132,4,1,0,80,0,0
101278,-114.696434734132,4,1,0,80,0,0
101413,-114.286847952598,4,1,0,80,0,0
101616,-113.676428026416,4,1,0,80,0,0
101683,-113.476388086358,4,1,0,80,0,0
101818,-113.075453427203,4,1,0,80,0,0
101886,-112.874572197403,4,1,0,80,0,0
101953,-112.677341957021,4,1,0,80,0,0
102089,-112.279106029106,4,1,0,80,0,0
102224,-111.886572575424,4,1,0,80,0,0
102359,-111.496774193548,4,1,0,80,0,0
102426,-111.304325424427,4,1,0,80,0,0
102494,-111.109682396811,4,1,0,80,0,0
102696,-110.535472151866,4,1,0,80,0,0
102764,-110.343506576427,4,1,0,80,0,0
102899,-109.964367523543,4,1,0,80,0,0
102966,-109.777167975201,4,1,0,80,0,0
103034,-109.587824984147,4,1,0,80,0,0
103169,-109.213852376137,4,1,0,80,0,0
103304,-108.842423479028,4,1,0,80,0,0
103371,-108.659021175997,4,1,0,80,0,0
103439,-108.473512427818,4,1,0,80,0,0
103506,-108.291350226834,4,1,0,80,0,0
103574,-108.107093706994,4,1,0,80,0,0
103709,-107.743142144638,4,1,0,80,0,0
103844,-107.381632906673,4,1,0,80,0,0
103911,-107.203116470647,4,1,0,80,0,0
103979,-107.022541491206,4,1,0,80,0,0
104046,-106.845216015036,4,1,0,80,0,0
104114,-106.665843722997,4,1,0,80,0,0
104249,-106.311515748031,4,1,0,80,0,0
104384,-105.959534028204,4,1,0,80,0,0
104451,-105.785710787914,4,1,0,80,0,0
104519,-105.609875336104,4,1,0,80,0,0
104586,-105.437196476072,4,1,0,80,0,0
104654,-105.262516749909,4,1,0,80,0,0
104789,-104.917435648373,4,1,0,80,0,0
104856,-104.747011903896,4,1,0,80,0,0
104924,-104.574609705918,4,1,0,80,0,0
104991,-104.405296989029,4,1,0,80,0,0
105059,-104.234016887817,4,1,0,80,0,0
105126,-104.065804369294,4,1,0,80,0,0
105194,-103.895635445473,4,1,0,80,0,0
105261,-103.728512436378,4,1,0,80,0,0
105329,-103.559443911793,4,1,0,80,0,0
105396,-103.393399861201,4,1,0,80,0,0
105464,-103.225421096643,4,1,0,80,0,0
105599,-102.893546082401,4,1,0,80,0,0
105734,-102.563798219585,4,1,0,80,0,0
105801,-102.400929086083,4,1,0,80,0,0
105869,-102.236157122574,4,1,0,80,0,0
105936,-102.07432608028,4,1,0,80,0,0
106004,-101.910602665409,4,1,0,80,0,0
106071,-101.749799821016,4,1,0,80,0,0
106139,-101.587114977663,4,1,0,80,0,0
106206,-101.427330563185,4,1,0,80,0,0
106274,-101.265674440408,4,1,0,80,0,0
106341,-101.106898811195,4,1,0,80,0,0
106409,-100.946261682243,4,1,0,80,0,0
106476,-100.788485315044,4,1,0,80,0,0
106544,-100.628857575405,4,1,0,80,0,0
106611,-100.472071066462,4,1,0,80,0,0
106679,-100.313443231948,4,1,0,80,0,0
106746,-100.15763729513,4,1,0,80,0,0
106814,-100,4,1,0,80,0,0
107899,-100,4,1,0,90,0,1
146779,-100,4,1,0,80,0,0
147049,-111.111111111111,4,1,0,80,0,0
162029,-110.526315789474,4,1,0,80,0,0
162164,-109.947643979058,4,1,0,80,0,0
162299,-109.375,4,1,0,80,0,0
162367,-108.80829015544,4,1,0,80,0,0
162434,-108.247422680412,4,1,0,80,0,0
162569,-107.692307692308,4,1,0,80,0,0
162704,-107.142857142857,4,1,0,80,0,0
162772,-106.598984771574,4,1,0,80,0,0
162839,-106.060606060606,4,1,0,80,0,0
162974,-105.527638190955,4,1,0,80,0,0
163109,-105,4,1,0,80,0,0
163244,-104.477611940299,4,1,0,80,0,0
163379,-103.960396039604,4,1,0,80,0,0
163447,-103.448275862069,4,1,0,80,0,0
163514,-102.941176470588,4,1,0,80,0,0
163649,-102.439024390244,4,1,0,80,0,0
163784,-101.941747572816,4,1,0,80,0,0
163852,-101.449275362319,4,1,0,80,0,0
163919,-100.961538461538,4,1,0,80,0,0
163987,-100.478468899522,4,1,0,80,0,0
164054,-100,4,1,0,80,0,0
200914,-117.647058823529,4,1,0,80,0,0
218060,-100,4,1,0,90,0,1
234255,-99.7067448680352,4,1,0,90,0,1
234322,-99.4152046783626,4,1,0,90,0,1
234390,-99.1253644314869,4,1,0,90,0,1
234457,-98.8372093023256,4,1,0,90,0,1
234525,-98.5507246376812,4,1,0,90,0,1
234592,-98.2658959537572,4,1,0,90,0,1
234660,-97.9827089337176,4,1,0,90,0,1
234727,-97.7011494252874,4,1,0,90,0,1
234795,-97.4212034383954,4,1,0,90,0,1
234862,-97.1428571428571,4,1,0,90,0,1
234930,-96.8660968660969,4,1,0,90,0,1
234997,-96.5909090909091,4,1,0,90,0,1
235065,-96.3172804532578,4,1,0,90,0,1
235132,-96.045197740113,4,1,0,90,0,1
235200,-95.7746478873239,4,1,0,90,0,1
235267,-95.5056179775281,4,1,0,90,0,1
235335,-95.2380952380952,4,1,0,90,0,1
252750,-95.1599671862182,4,1,0,90,0,1
252818,-95.0819672131148,4,1,0,90,0,1
252885,-95.004095004095,4,1,0,90,0,1
253020,-94.9263502454992,4,1,0,90,0,1
253155,-94.8487326246934,4,1,0,90,0,1
253223,-94.7712418300654,4,1,0,90,0,1
253290,-94.6938775510204,4,1,0,90,0,1
253358,-94.6166394779772,4,1,0,90,0,1
253425,-94.5395273023635,4,1,0,90,0,1
253560,-94.4625407166124,4,1,0,90,0,1
253695,-94.3856794141578,4,1,0,90,0,1
253763,-94.3089430894309,4,1,0,90,0,1
253830,-94.2323314378554,4,1,0,90,0,1
253898,-94.1558441558442,4,1,0,90,0,1
253965,-94.0794809407948,4,1,0,90,0,1
254033,-94.0032414910859,4,1,0,90,0,1
254100,-93.9271255060729,4,1,0,90,0,1
254168,-93.8511326860841,4,1,0,90,0,1
254235,-93.7752627324171,4,1,0,90,0,1
254303,-93.6995153473344,4,1,0,90,0,1
254370,-93.6238902340597,4,1,0,90,0,1
254438,-93.5483870967742,4,1,0,90,0,1
254505,-93.4730056406124,4,1,0,90,0,1
254573,-93.3977455716586,4,1,0,90,0,1
254640,-93.3226065969429,4,1,0,90,0,1
254775,-93.2475884244373,4,1,0,90,0,1
254843,-93.1726907630522,4,1,0,90,0,1
254910,-93.0979133226324,4,1,0,90,0,1
254978,-93.0232558139535,4,1,0,90,0,1
255045,-92.9487179487179,4,1,0,90,0,1
255113,-92.8742994395516,4,1,0,90,0,1
255180,-92.8,4,1,0,90,0,1
255248,-92.7258193445244,4,1,0,90,0,1
255315,-92.6517571884984,4,1,0,90,0,1
255383,-92.5778132482043,4,1,0,90,0,1
255450,-92.5039872408293,4,1,0,90,0,1
255518,-92.4302788844622,4,1,0,90,0,1
255585,-92.3566878980892,4,1,0,90,0,1
255653,-92.2832140015911,4,1,0,90,0,1
255720,-92.2098569157393,4,1,0,90,0,1
255788,-92.1366163621922,4,1,0,90,0,1
255855,-92.0634920634921,4,1,0,90,0,1
255923,-91.9904837430611,4,1,0,90,0,1
255990,-91.9175911251981,4,1,0,90,0,1
256058,-91.8448139350752,4,1,0,90,0,1
256125,-91.7721518987342,4,1,0,90,0,1
256193,-91.699604743083,4,1,0,90,0,1
256260,-91.6271721958926,4,1,0,90,0,1
256328,-91.5548539857932,4,1,0,90,0,1
256395,-91.4826498422713,4,1,0,90,0,1
256463,-91.4105594956659,4,1,0,90,0,1
256530,-91.3385826771653,4,1,0,90,0,1
256598,-91.2667191188041,4,1,0,90,0,1
256665,-91.1949685534591,4,1,0,90,0,1
256733,-91.1233307148468,4,1,0,90,0,1
256800,-91.0518053375196,4,1,0,90,0,1
256868,-90.9803921568627,4,1,0,90,0,1
256940,-83.3333333333333,4,1,0,90,0,0
257008,-10,4,1,0,90,0,0
257210,-100,4,1,0,90,0,0

[HitObjects]
256,192,1247,12,0,1922,0:0:0:0:
256,192,2058,5,12,0:0:0:0:
256,192,2260,1,0,0:0:0:0:
256,192,2463,1,8,0:0:0:0:
256,192,2733,1,0,0:0:0:0:
256,192,2868,1,8,0:0:0:0:
256,192,3003,1,8,0:0:0:0:
256,192,3138,1,0,0:0:0:0:
256,192,3340,1,8,0:0:0:0:
256,192,3543,1,0,0:0:0:0:
256,192,3678,1,8,0:0:0:0:
256,192,3813,1,8,0:0:0:0:
256,192,3948,1,0,0:0:0:0:
256,192,4218,1,12,0:0:0:0:
256,192,4420,1,0,0:0:0:0:
256,192,4623,1,8,0:0:0:0:
256,192,4893,1,0,0:0:0:0:
256,192,5028,1,8,0:0:0:0:
256,192,5163,1,8,0:0:0:0:
256,192,5298,1,0,0:0:0:0:
256,192,5500,1,8,0:0:0:0:
256,192,5703,1,0,0:0:0:0:
256,192,5838,1,8,0:0:0:0:
256,192,5905,1,8,0:0:0:0:
256,192,5973,1,0,0:0:0:0:
256,192,6040,1,0,0:0:0:0:
256,192,6108,1,8,0:0:0:0:
256,192,6243,1,0,0:0:0:0:
256,192,6378,1,12,0:0:0:0:
256,192,6580,1,0,0:0:0:0:
256,192,6783,1,8,0:0:0:0:
256,192,6918,1,0,0:0:0:0:
256,192,7053,1,0,0:0:0:0:
256,192,7120,1,0,0:0:0:0:
256,192,7188,1,8,0:0:0:0:
256,192,7323,1,8,0:0:0:0:
256,192,7458,1,0,0:0:0:0:
256,192,7660,1,8,0:0:0:0:
256,192,7863,1,8,0:0:0:0:
256,192,7998,1,0,0:0:0:0:
256,192,8133,1,8,0:0:0:0:
256,192,8200,1,0,0:0:0:0:
256,192,8268,1,8,0:0:0:0:
256,192,8403,1,0,0:0:0:0:
256,192,8538,1,12,0:0:0:0:
256,192,8740,1,0,0:0:0:0:
256,192,8943,1,0,0:0:0:0:
256,192,9078,1,12,0:0:0:0:
256,192,9213,1,0,0:0:0:0:
256,192,9280,1,0,0:0:0:0:
256,192,9348,1,8,0:0:0:0:
256,192,9483,1,8,0:0:0:0:
256,192,9618,1,4,0:0:0:0:
256,192,9753,1,8,0:0:0:0:
256,192,9820,1,8,0:0:0:0:
256,192,9888,1,0,0:0:0:0:
256,192,10023,1,8,0:0:0:0:
256,192,10158,1,8,0:0:0:0:
256,192,10225,1,8,0:0:0:0:
256,192,10293,1,0,0:0:0:0:
256,192,10360,1,0,0:0:0:0:
256,192,10428,1,8,0:0:0:0:
256,192,10495,1,0,0:0:0:0:
256,192,10563,1,8,0:0:0:0:
256,192,10630,1,8,0:0:0:0:
256,192,10698,1,4,0:0:0:0:
256,192,10968,1,8,0:0:0:0:
256,192,11103,1,0,0:0:0:0:
256,192,11170,1,0,0:0:0:0:
256,192,11238,1,8,0:0:0:0:
256,192,11373,1,0,0:0:0:0:
256,192,11508,1,8,0:0:0:0:
256,192,11575,1,0,0:0:0:0:
256,192,11643,1,8,0:0:0:0:
256,192,11710,1,8,0:0:0:0:
256,192,11778,1,0,0:0:0:0:
256,192,11913,1,0,0:0:0:0:
256,192,12048,1,8,0:0:0:0:
256,192,12115,1,0,0:0:0:0:
256,192,12183,1,8,0:0:0:0:
256,192,12318,1,0,0:0:0:0:
256,192,12453,1,0,0:0:0:0:
256,192,12520,1,0,0:0:0:0:
256,192,12588,1,8,0:0:0:0:
256,192,12723,1,8,0:0:0:0:
256,192,12858,1,4,0:0:0:0:
256,192,13128,1,8,0:0:0:0:
256,192,13263,1,0,0:0:0:0:
256,192,13330,1,0,0:0:0:0:
256,192,13398,1,8,0:0:0:0:
256,192,13533,1,0,0:0:0:0:
256,192,13668,1,8,0:0:0:0:
256,192,13735,1,0,0:0:0:0:
256,192,13803,1,8,0:0:0:0:
256,192,13938,1,0,0:0:0:0:
256,192,14073,1,0,0:0:0:0:
256,192,14208,1,12,0:0:0:0:
256,192,14478,1,12,0:0:0:0:
256,192,14680,1,12,0:0:0:0:
256,192,14883,1,12,0:0:0:0:
256,192,15018,1,4,0:0:0:0:
256,192,15288,1,8,0:0:0:0:
256,192,15423,1,8,0:0:0:0:
256,192,15490,1,8,0:0:0:0:
256,192,15558,1,0,0:0:0:0:
256,192,15693,1,0,0:0:0:0:
256,192,15828,1,12,0:0:0:0:
256,192,15963,1,4,0:0:0:0:
256,192,16233,1,4,0:0:0:0:
256,192,16368,1,12,0:0:0:0:
256,192,16503,1,0,0:0:0:0:
256,192,16570,1,8,0:0:0:0:
256,192,16638,1,0,0:0:0:0:
256,192,16773,1,0,0:0:0:0:
256,192,16840,1,0,0:0:0:0:
256,192,16908,1,8,0:0:0:0:
256,192,17043,1,8,0:0:0:0:
256,192,17178,1,4,0:0:0:0:
256,192,17380,1,8,0:0:0:0:
256,192,17448,1,0,0:0:0:0:
256,192,17583,1,0,0:0:0:0:
256,192,17718,1,12,0:0:0:0:
256,192,17853,1,0,0:0:0:0:
256,192,17920,1,0,0:0:0:0:
256,192,17988,1,8,0:0:0:0:
256,192,18123,1,8,0:0:0:0:
256,192,18258,1,4,0:0:0:0:
256,192,18393,1,8,0:0:0:0:
256,192,18460,1,8,0:0:0:0:
256,192,18528,1,0,0:0:0:0:
256,192,18663,1,8,0:0:0:0:
256,192,18798,1,8,0:0:0:0:
256,192,18865,1,8,0:0:0:0:
256,192,18933,1,0,0:0:0:0:
256,192,19000,1,0,0:0:0:0:
256,192,19068,1,8,0:0:0:0:
256,192,19135,1,0,0:0:0:0:
256,192,19203,1,8,0:0:0:0:
256,192,19270,1,8,0:0:0:0:
256,192,19338,1,4,0:0:0:0:
256,192,19608,1,8,0:0:0:0:
256,192,19743,1,0,0:0:0:0:
256,192,19810,1,0,0:0:0:0:
256,192,19878,1,8,0:0:0:0:
256,192,20013,1,0,0:0:0:0:
256,192,20148,1,8,0:0:0:0:
256,192,20215,1,0,0:0:0:0:
256,192,20283,1,8,0:0:0:0:
256,192,20350,1,8,0:0:0:0:
256,192,20418,1,0,0:0:0:0:
256,192,20553,1,0,0:0:0:0:
256,192,20688,1,8,0:0:0:0:
256,192,20755,1,0,0:0:0:0:
256,192,20823,1,8,0:0:0:0:
256,192,20958,1,0,0:0:0:0:
256,192,21093,1,0,0:0:0:0:
256,192,21160,1,0,0:0:0:0:
256,192,21228,1,8,0:0:0:0:
256,192,21363,1,8,0:0:0:0:
256,192,21498,1,4,0:0:0:0:
256,192,21768,1,8,0:0:0:0:
256,192,21903,1,0,0:0:0:0:
256,192,21970,1,0,0:0:0:0:
256,192,22038,1,8,0:0:0:0:
256,192,22173,1,0,0:0:0:0:
256,192,22308,1,8,0:0:0:0:
256,192,22375,1,0,0:0:0:0:
256,192,22443,1,8,0:0:0:0:
256,192,22578,1,0,0:0:0:0:
256,192,22713,1,0,0:0:0:0:
256,192,22848,1,12,0:0:0:0:
256,192,23118,1,12,0:0:0:0:
256,192,23320,1,12,0:0:0:0:
256,192,23523,1,12,0:0:0:0:
256,192,23658,1,4,0:0:0:0:
256,192,23928,1,8,0:0:0:0:
256,192,24063,1,8,0:0:0:0:
256,192,24130,1,8,0:0:0:0:
256,192,24198,1,0,0:0:0:0:
256,192,24333,1,0,0:0:0:0:
256,192,24468,1,12,0:0:0:0:
256,192,24603,1,4,0:0:0:0:
256,192,24873,1,4,0:0:0:0:
256,192,25008,1,12,0:0:0:0:
256,192,25143,1,0,0:0:0:0:
256,192,25210,1,8,0:0:0:0:
256,192,25278,1,0,0:0:0:0:
256,192,25413,1,0,0:0:0:0:
256,192,25480,1,0,0:0:0:0:
256,192,25548,1,8,0:0:0:0:
256,192,25683,1,8,0:0:0:0:
256,192,25818,1,4,0:0:0:0:
256,192,25953,1,0,0:0:0:0:
256,192,26020,1,0,0:0:0:0:
256,192,26088,1,8,0:0:0:0:
256,192,26223,1,0,0:0:0:0:
256,192,26358,1,8,0:0:0:0:
256,192,26425,1,8,0:0:0:0:
256,192,26493,1,0,0:0:0:0:
256,192,26560,1,0,0:0:0:0:
256,192,26628,1,8,0:0:0:0:
256,192,26763,1,8,0:0:0:0:
256,192,26898,1,0,0:0:0:0:
256,192,26965,1,8,0:0:0:0:
256,192,27033,1,0,0:0:0:0:
256,192,27100,1,0,0:0:0:0:
256,192,27168,1,8,0:0:0:0:
256,192,27303,1,0,0:0:0:0:
256,192,27438,1,8,0:0:0:0:
256,192,27505,1,8,0:0:0:0:
256,192,27573,1,0,0:0:0:0:
256,192,27640,1,0,0:0:0:0:
256,192,27708,1,8,0:0:0:0:
256,192,27775,1,8,0:0:0:0:
256,192,27843,1,8,0:0:0:0:
256,192,27910,1,8,0:0:0:0:
256,192,27978,1,4,0:0:0:0:
256,192,28180,1,0,0:0:0:0:
256,192,28383,1,0,0:0:0:0:
256,192,28585,1,8,0:0:0:0:
256,192,28788,1,8,0:0:0:0:
256,192,28923,1,8,0:0:0:0:
256,192,29058,1,0,0:0:0:0:
256,192,29260,1,8,0:0:0:0:
256,192,29463,1,8,0:0:0:0:
256,192,29598,1,0,0:0:0:0:
256,192,29868,1,0,0:0:0:0:
256,192,30003,1,8,0:0:0:0:
256,192,30138,1,0,0:0:0:0:
256,192,30340,1,0,0:0:0:0:
256,192,30543,1,0,0:0:0:0:
256,192,30745,1,8,0:0:0:0:
256,192,30948,1,0,0:0:0:0:
256,192,31083,1,0,0:0:0:0:
256,192,31218,1,8,0:0:0:0:
256,192,31420,1,8,0:0:0:0:
256,192,31623,1,8,0:0:0:0:
256,192,31758,1,0,0:0:0:0:
256,192,31893,1,0,0:0:0:0:
256,192,32028,1,8,0:0:0:0:
256,192,32163,1,8,0:0:0:0:
256,192,32298,1,0,0:0:0:0:
256,192,32500,1,0,0:0:0:0:
256,192,32703,1,0,0:0:0:0:
256,192,32838,1,8,0:0:0:0:
256,192,33108,1,0,0:0:0:0:
256,192,33378,1,8,0:0:0:0:
256,192,33513,1,8,0:0:0:0:
256,192,33648,1,0,0:0:0:0:
256,192,33783,1,8,0:0:0:0:
256,192,33918,1,0,0:0:0:0:
256,192,34053,1,0,0:0:0:0:
256,192,34188,1,8,0:0:0:0:
256,192,34323,1,8,0:0:0:0:
256,192,34458,1,0,0:0:0:0:
256,192,34593,1,8,0:0:0:0:
256,192,34728,1,0,0:0:0:0:
256,192,34863,1,0,0:0:0:0:
256,192,34998,1,8,0:0:0:0:
256,192,35133,1,0,0:0:0:0:
256,192,35268,1,8,0:0:0:0:
256,192,35403,1,8,0:0:0:0:
256,192,35538,1,0,0:0:0:0:
256,192,35740,1,0,0:0:0:0:
256,192,35943,1,0,0:0:0:0:
256,192,36078,1,8,0:0:0:0:
256,192,36280,1,8,0:0:0:0:
256,192,36483,1,8,0:0:0:0:
256,192,36618,1,4,0:0:0:0:
256,192,36888,1,0,0:0:0:0:
256,192,37158,1,8,0:0:0:0:
256,192,37428,1,0,0:0:0:0:
256,192,37698,1,8,0:0:0:0:
256,192,37788,1,0,0:0:0:0:
256,192,37878,1,0,0:0:0:0:
256,192,37968,1,8,0:0:0:0:
256,192,38238,1,0,0:0:0:0:
256,192,38440,1,8,0:0:0:0:
256,192,38643,1,8,0:0:0:0:
256,192,38778,1,4,0:0:0:0:
256,192,39048,1,0,0:0:0:0:
256,192,39318,1,8,0:0:0:0:
256,192,39588,1,0,0:0:0:0:
256,192,39858,1,8,0:0:0:0:
256,192,39993,1,8,0:0:0:0:
256,192,40128,1,0,0:0:0:0:
256,192,40263,1,0,0:0:0:0:
256,192,40398,1,8,0:0:0:0:
256,192,40533,1,0,0:0:0:0:
256,192,40668,1,8,0:0:0:0:
256,192,40938,1,4,0:0:0:0:
256,192,41748,1,8,0:0:0:0:
256,192,41883,1,8,0:0:0:0:
256,192,42018,1,4,0:0:0:0:
256,192,42288,1,8,0:0:0:0:
256,192,42558,1,4,0:0:0:0:
256,192,42760,1,8,0:0:0:0:
256,192,42963,1,8,0:0:0:0:
256,192,43098,1,4,0:0:0:0:
256,192,43638,1,4,0:0:0:0:
256,192,43908,1,4,0:0:0:0:
256,192,44178,1,8,0:0:0:0:
256,192,44448,1,8,0:0:0:0:
256,192,44583,1,0,0:0:0:0:
256,192,44718,1,8,0:0:0:0:
256,192,44853,1,0,0:0:0:0:
256,192,44988,1,8,0:0:0:0:
256,192,45123,1,8,0:0:0:0:
256,192,45258,1,4,0:0:0:0:
256,192,45393,1,0,0:0:0:0:
256,192,45460,1,0,0:0:0:0:
256,192,45528,1,8,0:0:0:0:
256,192,45663,1,0,0:0:0:0:
256,192,45798,1,8,0:0:0:0:
256,192,45865,1,8,0:0:0:0:
256,192,45933,1,0,0:0:0:0:
256,192,46068,1,8,0:0:0:0:
256,192,46203,1,0,0:0:0:0:
256,192,46338,1,8,0:0:0:0:
256,192,46405,1,0,0:0:0:0:
256,192,46473,1,0,0:0:0:0:
256,192,46540,1,0,0:0:0:0:
256,192,46608,1,8,0:0:0:0:
256,192,46743,1,0,0:0:0:0:
256,192,46878,1,8,0:0:0:0:
256,192,46945,1,8,0:0:0:0:
256,192,47013,1,0,0:0:0:0:
256,192,47080,1,0,0:0:0:0:
256,192,47148,1,8,0:0:0:0:
256,192,47215,1,8,0:0:0:0:
256,192,47283,1,8,0:0:0:0:
256,192,47350,1,8,0:0:0:0:
256,192,47418,1,4,0:0:0:0:
256,192,47688,1,8,0:0:0:0:
256,192,47823,1,0,0:0:0:0:
256,192,47958,1,8,0:0:0:0:
256,192,48025,1,8,0:0:0:0:
256,192,48093,1,0,0:0:0:0:
256,192,48160,1,0,0:0:0:0:
256,192,48228,1,8,0:0:0:0:
256,192,48363,1,0,0:0:0:0:
256,192,48498,1,8,0:0:0:0:
256,192,48565,1,8,0:0:0:0:
256,192,48633,1,0,0:0:0:0:
256,192,48768,1,8,0:0:0:0:
256,192,48903,1,0,0:0:0:0:
256,192,49038,1,8,0:0:0:0:
256,192,49105,1,0,0:0:0:0:
256,192,49173,1,0,0:0:0:0:
256,192,49308,1,8,0:0:0:0:
256,192,49443,1,0,0:0:0:0:
256,192,49578,1,8,0:0:0:0:
256,192,49713,1,0,0:0:0:0:
256,192,49780,1,0,0:0:0:0:
256,192,49848,1,8,0:0:0:0:
256,192,49983,1,0,0:0:0:0:
256,192,50118,1,8,0:0:0:0:
256,192,50185,1,8,0:0:0:0:
256,192,50253,1,0,0:0:0:0:
256,192,50320,1,0,0:0:0:0:
256,192,50388,1,8,0:0:0:0:
256,192,50523,1,0,0:0:0:0:
256,192,50658,1,8,0:0:0:0:
256,192,50725,1,8,0:0:0:0:
256,192,50793,1,0,0:0:0:0:
256,192,50928,1,8,0:0:0:0:
256,192,51063,1,0,0:0:0:0:
256,192,51198,1,8,0:0:0:0:
256,192,51265,1,0,0:0:0:0:
256,192,51333,1,0,0:0:0:0:
256,192,51400,1,0,0:0:0:0:
256,192,51468,1,8,0:0:0:0:
256,192,51738,1,8,0:0:0:0:
256,192,51873,1,0,0:0:0:0:
256,192,51940,1,0,0:0:0:0:
256,192,52008,1,8,0:0:0:0:
256,192,52143,1,0,0:0:0:0:
256,192,52278,1,8,0:0:0:0:
256,192,52346,1,8,0:0:0:0:
256,192,52413,1,0,0:0:0:0:
256,192,52481,1,0,0:0:0:0:
256,192,52548,1,8,0:0:0:0:
256,192,52683,1,0,0:0:0:0:
256,192,52818,1,8,0:0:0:0:
256,192,52886,1,8,0:0:0:0:
256,192,52953,1,0,0:0:0:0:
256,192,53088,1,8,0:0:0:0:
256,192,53223,1,0,0:0:0:0:
256,192,53358,1,8,0:0:0:0:
256,192,53426,1,0,0:0:0:0:
256,192,53493,1,0,0:0:0:0:
256,192,53561,1,0,0:0:0:0:
256,192,53628,1,8,0:0:0:0:
256,192,53763,1,8,0:0:0:0:
256,192,53898,1,0,0:0:0:0:
256,192,54033,1,0,0:0:0:0:
256,192,54101,1,0,0:0:0:0:
256,192,54168,1,8,0:0:0:0:
256,192,54303,1,0,0:0:0:0:
256,192,54438,1,8,0:0:0:0:
256,192,54506,1,8,0:0:0:0:
256,192,54573,1,0,0:0:0:0:
256,192,54641,1,0,0:0:0:0:
256,192,54708,1,8,0:0:0:0:
256,192,54843,1,0,0:0:0:0:
256,192,54978,1,8,0:0:0:0:
256,192,55113,1,0,0:0:0:0:
256,192,55181,1,0,0:0:0:0:
256,192,55248,1,8,0:0:0:0:
256,192,55383,1,0,0:0:0:0:
256,192,55518,1,8,0:0:0:0:
256,192,55586,1,8,0:0:0:0:
256,192,55653,1,0,0:0:0:0:
256,192,55721,1,0,0:0:0:0:
256,192,55788,1,8,0:0:0:0:
256,192,55856,1,8,0:0:0:0:
256,192,55923,1,8,0:0:0:0:
256,192,55991,1,8,0:0:0:0:
256,192,56058,1,4,0:0:0:0:
256,192,56328,1,8,0:0:0:0:
256,192,56463,1,0,0:0:0:0:
256,192,56598,1,8,0:0:0:0:
256,192,56665,1,8,0:0:0:0:
256,192,56733,1,0,0:0:0:0:
256,192,56800,1,0,0:0:0:0:
256,192,56868,1,8,0:0:0:0:
256,192,57003,1,0,0:0:0:0:
256,192,57138,1,8,0:0:0:0:
256,192,57205,1,8,0:0:0:0:
256,192,57273,1,0,0:0:0:0:
256,192,57408,1,8,0:0:0:0:
256,192,57543,1,0,0:0:0:0:
256,192,57678,1,8,0:0:0:0:
256,192,57745,1,0,0:0:0:0:
256,192,57813,1,0,0:0:0:0:
256,192,57948,1,8,0:0:0:0:
256,192,58083,1,0,0:0:0:0:
256,192,58218,1,8,0:0:0:0:
256,192,58353,1,0,0:0:0:0:
256,192,58420,1,0,0:0:0:0:
256,192,58488,1,8,0:0:0:0:
256,192,58623,1,0,0:0:0:0:
256,192,58758,1,8,0:0:0:0:
256,192,58825,1,8,0:0:0:0:
256,192,58893,1,0,0:0:0:0:
256,192,58960,1,0,0:0:0:0:
256,192,59028,1,8,0:0:0:0:
256,192,59163,1,0,0:0:0:0:
256,192,59298,1,8,0:0:0:0:
256,192,59365,1,8,0:0:0:0:
256,192,59433,1,0,0:0:0:0:
256,192,59568,1,8,0:0:0:0:
256,192,59703,1,0,0:0:0:0:
256,192,59838,1,8,0:0:0:0:
256,192,59905,1,0,0:0:0:0:
256,192,59973,1,0,0:0:0:0:
256,192,60040,1,0,0:0:0:0:
256,192,60108,1,8,0:0:0:0:
256,192,60378,1,8,0:0:0:0:
256,192,60513,1,0,0:0:0:0:
256,192,60580,1,0,0:0:0:0:
256,192,60648,1,8,0:0:0:0:
256,192,60783,1,0,0:0:0:0:
256,192,60918,1,8,0:0:0:0:
256,192,60986,1,8,0:0:0:0:
256,192,61053,1,0,0:0:0:0:
256,192,61121,1,0,0:0:0:0:
256,192,61188,1,8,0:0:0:0:
256,192,61323,1,0,0:0:0:0:
256,192,61458,1,8,0:0:0:0:
256,192,61526,1,8,0:0:0:0:
256,192,61593,1,0,0:0:0:0:
256,192,61728,1,8,0:0:0:0:
256,192,61863,1,0,0:0:0:0:
256,192,61998,1,8,0:0:0:0:
256,192,62066,1,0,0:0:0:0:
256,192,62133,5,0,0:0:0:0:
256,192,62201,1,0,0:0:0:0:
256,192,62268,1,8,0:0:0:0:
256,192,62403,1,8,0:0:0:0:
256,192,62538,5,0,0:0:0:0:
256,192,62673,1,0,0:0:0:0:
256,192,62741,1,0,0:0:0:0:
256,192,62808,1,8,0:0:0:0:
256,192,62943,1,8,0:0:0:0:
256,192,63078,1,0,0:0:0:0:
256,192,63146,1,0,0:0:0:0:
256,192,63213,1,8,0:0:0:0:
256,192,63281,1,0,0:0:0:0:
256,192,63348,1,8,0:0:0:0:
256,192,63483,1,0,0:0:0:0:
256,192,63551,1,0,0:0:0:0:
256,192,63618,1,8,0:0:0:0:
256,192,63753,1,0,0:0:0:0:
256,192,63888,1,8,0:0:0:0:
256,192,63956,1,8,0:0:0:0:
256,192,64023,1,0,0:0:0:0:
256,192,64091,1,0,0:0:0:0:
256,192,64158,1,8,0:0:0:0:
256,192,64226,1,0,0:0:0:0:
256,192,64293,1,8,0:0:0:0:
256,192,64361,1,8,0:0:0:0:
256,192,64428,1,0,0:0:0:0:
256,192,64496,1,8,0:0:0:0:
256,192,64563,1,0,0:0:0:0:
256,192,64631,1,0,0:0:0:0:
256,192,64698,1,12,0:0:0:0:
256,192,64901,1,0,0:0:0:0:
256,192,64968,1,8,0:0:0:0:
256,192,65103,1,0,0:0:0:0:
256,192,65238,1,8,0:0:0:0:
256,192,65306,1,0,0:0:0:0:
256,192,65441,1,0,0:0:0:0:
256,192,65508,1,8,0:0:0:0:
256,192,65643,1,0,0:0:0:0:
256,192,65711,1,0,0:0:0:0:
256,192,65778,1,8,0:0:0:0:
256,192,65981,1,0,0:0:0:0:
256,192,66048,1,8,0:0:0:0:
256,192,66183,1,0,0:0:0:0:
256,192,66318,1,0,0:0:0:0:
256,192,66386,1,8,0:0:0:0:
256,192,66453,1,0,0:0:0:0:
256,192,66521,1,0,0:0:0:0:
256,192,66588,1,8,0:0:0:0:
256,192,66723,1,0,0:0:0:0:
256,192,66858,1,8,0:0:0:0:
256,192,67061,1,8,0:0:0:0:
256,192,67128,1,0,0:0:0:0:
256,192,67263,1,0,0:0:0:0:
256,192,67398,1,8,0:0:0:0:
256,192,67466,1,0,0:0:0:0:
256,192,67601,1,0,0:0:0:0:
256,192,67668,1,8,0:0:0:0:
256,192,67803,1,0,0:0:0:0:
256,192,67938,1,8,0:0:0:0:
256,192,68006,1,8,0:0:0:0:
256,192,68073,1,0,0:0:0:0:
256,192,68141,1,0,0:0:0:0:
256,192,68208,1,8,0:0:0:0:
256,192,68343,1,0,0:0:0:0:
256,192,68478,1,8,0:0:0:0:
256,192,68546,1,0,0:0:0:0:
256,192,68613,1,8,0:0:0:0:
256,192,68681,1,0,0:0:0:0:
256,192,68748,1,8,0:0:0:0:
256,192,68883,1,8,0:0:0:0:
256,192,69018,1,0,0:0:0:0:
256,192,69221,1,8,0:0:0:0:
256,192,69288,1,0,0:0:0:0:
256,192,69423,1,8,0:0:0:0:
256,192,69558,1,0,0:0:0:0:
256,192,69626,1,0,0:0:0:0:
256,192,69693,1,8,0:0:0:0:
256,192,69761,1,0,0:0:0:0:
256,192,69828,1,8,0:0:0:0:
256,192,69963,1,0,0:0:0:0:
256,192,70098,1,8,0:0:0:0:
256,192,70233,1,0,0:0:0:0:
256,192,70301,1,0,0:0:0:0:
256,192,70368,1,8,0:0:0:0:
256,192,70503,1,8,0:0:0:0:
256,192,70638,1,0,0:0:0:0:
256,192,70706,1,8,0:0:0:0:
256,192,70773,1,0,0:0:0:0:
256,192,70908,1,8,0:0:0:0:
256,192,70976,1,0,0:0:0:0:
256,192,71043,1,8,0:0:0:0:
256,192,71111,1,8,0:0:0:0:
256,192,71178,1,0,0:0:0:0:
256,192,71313,1,0,0:0:0:0:
256,192,71381,1,0,0:0:0:0:
256,192,71448,1,8,0:0:0:0:
256,192,71583,1,0,0:0:0:0:
256,192,71718,1,8,0:0:0:0:
256,192,71786,1,0,0:0:0:0:
256,192,71853,1,0,0:0:0:0:
256,192,71921,1,0,0:0:0:0:
256,192,71988,1,8,0:0:0:0:
256,192,72123,1,8,0:0:0:0:
256,192,72191,1,8,0:0:0:0:
256,192,72258,1,0,0:0:0:0:
256,192,72393,1,0,0:0:0:0:
256,192,72461,1,0,0:0:0:0:
256,192,72528,1,8,0:0:0:0:
256,192,72663,1,8,0:0:0:0:
256,192,72798,1,0,0:0:0:0:
256,192,72866,1,0,0:0:0:0:
256,192,72933,1,8,0:0:0:0:
256,192,73001,1,8,0:0:0:0:
256,192,73068,1,0,0:0:0:0:
256,192,73136,1,8,0:0:0:0:
256,192,73203,1,0,0:0:0:0:
256,192,73271,1,0,0:0:0:0:
256,192,73338,1,8,0:0:0:0:
256,192,73473,1,0,0:0:0:0:
256,192,73541,1,0,0:0:0:0:
256,192,73608,1,8,0:0:0:0:
256,192,73743,1,0,0:0:0:0:
256,192,73878,1,8,0:0:0:0:
256,192,74013,1,8,0:0:0:0:
256,192,74081,1,0,0:0:0:0:
256,192,74148,1,8,0:0:0:0:
256,192,74283,1,0,0:0:0:0:
256,192,74418,1,8,0:0:0:0:
256,192,74508,1,0,0:0:0:0:
256,192,74598,1,0,0:0:0:0:
256,192,74688,1,8,0:0:0:0:
256,192,74823,1,0,0:0:0:0:
256,192,74958,1,8,0:0:0:0:
256,192,75161,1,8,0:0:0:0:
256,192,75228,1,0,0:0:0:0:
256,192,75363,1,8,0:0:0:0:
256,192,75498,1,0,0:0:0:0:
256,192,75633,1,0,0:0:0:0:
256,192,75701,1,0,0:0:0:0:
256,192,75768,1,8,0:0:0:0:
256,192,75903,1,0,0:0:0:0:
256,192,76038,1,8,0:0:0:0:
256,192,76106,1,0,0:0:0:0:
256,192,76173,1,8,0:0:0:0:
256,192,76241,1,8,0:0:0:0:
256,192,76308,1,0,0:0:0:0:
256,192,76443,1,0,0:0:0:0:
256,192,76578,1,8,0:0:0:0:
256,192,76646,1,0,0:0:0:0:
256,192,76713,1,8,0:0:0:0:
256,192,76781,1,0,0:0:0:0:
256,192,76848,1,8,0:0:0:0:
256,192,76983,1,8,0:0:0:0:
256,192,77118,1,0,0:0:0:0:
256,192,77253,1,0,0:0:0:0:
256,192,77321,1,0,0:0:0:0:
256,192,77388,1,8,0:0:0:0:
256,192,77523,1,0,0:0:0:0:
256,192,77658,1,8,0:0:0:0:
256,192,77861,1,8,0:0:0:0:
256,192,77928,1,0,0:0:0:0:
256,192,78063,1,8,0:0:0:0:
256,192,78198,1,0,0:0:0:0:
256,192,78266,1,8,0:0:0:0:
256,192,78333,1,0,0:0:0:0:
256,192,78401,1,0,0:0:0:0:
256,192,78468,1,8,0:0:0:0:
256,192,78603,1,8,0:0:0:0:
256,192,78738,1,0,0:0:0:0:
256,192,78873,1,0,0:0:0:0:
256,192,78941,1,0,0:0:0:0:
256,192,79008,1,8,0:0:0:0:
256,192,79143,1,0,0:0:0:0:
256,192,79278,1,8,0:0:0:0:
256,192,79481,1,8,0:0:0:0:
256,192,79548,1,0,0:0:0:0:
256,192,79683,1,8,0:0:0:0:
256,192,79818,1,0,0:0:0:0:
256,192,79953,1,0,0:0:0:0:
256,192,80021,1,0,0:0:0:0:
256,192,80088,1,8,0:0:0:0:
256,192,80223,1,0,0:0:0:0:
256,192,80358,1,8,0:0:0:0:
256,192,80426,1,0,0:0:0:0:
256,192,80561,1,0,0:0:0:0:
256,192,80628,1,8,0:0:0:0:
256,192,80763,1,0,0:0:0:0:
256,192,80898,1,8,0:0:0:0:
256,192,80966,1,8,0:0:0:0:
256,192,81033,1,0,0:0:0:0:
256,192,81101,1,0,0:0:0:0:
256,192,81168,1,8,0:0:0:0:
256,192,81303,1,0,0:0:0:0:
256,192,81438,1,8,0:0:0:0:
256,192,81506,1,8,0:0:0:0:
256,192,81573,1,0,0:0:0:0:
256,192,81641,1,0,0:0:0:0:
256,192,81708,1,8,0:0:0:0:
256,192,81776,1,8,0:0:0:0:
256,192,81843,1,8,0:0:0:0:
256,192,81911,1,8,0:0:0:0:
256,192,81978,1,4,0:0:0:0:
256,192,82248,1,0,0:0:0:0:
256,192,82383,1,0,0:0:0:0:
256,192,82518,1,8,0:0:0:0:
256,192,82653,1,0,0:0:0:0:
256,192,82788,1,0,0:0:0:0:
256,192,82923,1,0,0:0:0:0:
256,192,83058,1,8,0:0:0:0:
256,192,83193,1,0,0:0:0:0:
256,192,83328,1,8,0:0:0:0:
256,192,83463,1,8,0:0:0:0:
256,192,83598,1,0,0:0:0:0:
256,192,83733,1,8,0:0:0:0:
256,192,83868,1,0,0:0:0:0:
256,192,84003,1,0,0:0:0:0:
256,192,84138,1,8,0:0:0:0:
256,192,84273,1,0,0:0:0:0:
256,192,84408,1,0,0:0:0:0:
256,192,84543,1,0,0:0:0:0:
256,192,84678,1,8,0:0:0:0:
256,192,84813,1,0,0:0:0:0:
256,192,84948,1,8,0:0:0:0:
256,192,85083,1,0,0:0:0:0:
256,192,85218,1,8,0:0:0:0:
256,192,85353,1,8,0:0:0:0:
256,192,85488,1,0,0:0:0:0:
256,192,85623,1,8,0:0:0:0:
256,192,85758,1,8,0:0:0:0:
256,192,85893,1,8,0:0:0:0:
256,192,86028,1,0,0:0:0:0:
256,192,86163,1,8,0:0:0:0:
256,192,86298,1,0,0:0:0:0:
256,192,86568,1,0,0:0:0:0:
256,192,86703,1,0,0:0:0:0:
256,192,86838,1,8,0:0:0:0:
256,192,86973,1,0,0:0:0:0:
256,192,87108,1,0,0:0:0:0:
256,192,87243,1,0,0:0:0:0:
256,192,87378,1,8,0:0:0:0:
256,192,87513,1,0,0:0:0:0:
256,192,87648,1,8,0:0:0:0:
256,192,87783,1,0,0:0:0:0:
256,192,87918,1,8,0:0:0:0:
256,192,88053,1,8,0:0:0:0:
256,192,88188,1,0,0:0:0:0:
256,192,88323,1,8,0:0:0:0:
256,192,88458,1,0,0:0:0:0:
256,192,88593,1,0,0:0:0:0:
256,192,88728,1,8,0:0:0:0:
256,192,88863,1,8,0:0:0:0:
256,192,88998,1,0,0:0:0:0:
256,192,89133,1,8,0:0:0:0:
256,192,89268,1,8,0:0:0:0:
256,192,89403,1,8,0:0:0:0:
256,192,89538,1,0,0:0:0:0:
256,192,89673,1,8,0:0:0:0:
256,192,89808,1,0,0:0:0:0:
256,192,89943,1,0,0:0:0:0:
256,192,90078,1,8,0:0:0:0:
256,192,90348,1,8,0:0:0:0:
256,192,90618,1,4,0:0:0:0:
256,192,90753,1,8,0:0:0:0:
256,192,91023,1,8,0:0:0:0:
256,192,91293,1,8,0:0:0:0:
256,192,91563,1,8,0:0:0:0:
256,192,91698,1,0,0:0:0:0:
256,192,91833,1,0,0:0:0:0:
256,192,91968,1,8,0:0:0:0:
256,192,92103,1,0,0:0:0:0:
256,192,92238,1,8,0:0:0:0:
256,192,92373,1,8,0:0:0:0:
256,192,92508,1,0,0:0:0:0:
256,192,92643,1,8,0:0:0:0:
256,192,92778,1,4,0:0:0:0:
256,192,92913,1,8,0:0:0:0:
256,192,93183,1,8,0:0:0:0:
256,192,93453,1,8,0:0:0:0:
256,192,93723,1,8,0:0:0:0:
256,192,93858,1,0,0:0:0:0:
256,192,93993,1,8,0:0:0:0:
256,192,94128,1,0,0:0:0:0:
256,192,94263,1,0,0:0:0:0:
256,192,94398,1,8,0:0:0:0:
256,192,94533,1,8,0:0:0:0:
256,192,94668,1,0,0:0:0:0:
256,192,94803,1,8,0:0:0:0:
256,192,94938,1,4,0:0:0:0:
256,192,95073,1,8,0:0:0:0:
256,192,95343,1,8,0:0:0:0:
256,192,95613,1,8,0:0:0:0:
256,192,95883,1,8,0:0:0:0:
256,192,96018,1,4,0:0:0:0:
256,192,96153,1,0,0:0:0:0:
256,192,96288,1,8,0:0:0:0:
256,192,96423,1,8,0:0:0:0:
256,192,96558,1,4,0:0:0:0:
256,192,96693,1,8,0:0:0:0:
256,192,96828,1,0,0:0:0:0:
256,192,96963,1,8,0:0:0:0:
256,192,97098,1,4,0:0:0:0:
256,192,97233,1,0,0:0:0:0:
256,192,97368,1,8,0:0:0:0:
256,192,97503,1,0,0:0:0:0:
256,192,97571,1,0,0:0:0:0:
256,192,97638,1,8,0:0:0:0:
256,192,97773,1,0,0:0:0:0:
256,192,97908,1,8,0:0:0:0:
256,192,97976,1,8,0:0:0:0:
256,192,98043,1,8,0:0:0:0:
256,192,98111,1,8,0:0:0:0:
256,192,98178,1,4,0:0:0:0:
256,192,98381,1,8,0:0:0:0:
256,192,98448,1,0,0:0:0:0:
256,192,98583,1,8,0:0:0:0:
256,192,98718,1,0,0:0:0:0:
256,192,98853,1,0,0:0:0:0:
256,192,98988,1,8,0:0:0:0:
256,192,99258,1,0,0:0:0:0:
256,192,99461,1,8,0:0:0:0:
256,192,99528,1,0,0:0:0:0:
256,192,99663,1,8,0:0:0:0:
256,192,99798,1,0,0:0:0:0:
256,192,99933,1,0,0:0:0:0:
256,192,100068,1,8,0:0:0:0:
256,192,100203,1,0,0:0:0:0:
256,192,100338,1,8,0:0:0:0:
256,192,100541,1,8,0:0:0:0:
256,192,100608,1,0,0:0:0:0:
256,192,100743,1,8,0:0:0:0:
256,192,100878,1,0,0:0:0:0:
256,192,101013,1,8,0:0:0:0:
256,192,101081,1,8,0:0:0:0:
256,192,101148,1,0,0:0:0:0:
256,192,101283,1,8,0:0:0:0:
256,192,101418,1,0,0:0:0:0:
256,192,101621,1,8,0:0:0:0:
256,192,101688,1,0,0:0:0:0:
256,192,101823,1,8,0:0:0:0:
256,192,101891,1,8,0:0:0:0:
256,192,101958,1,0,0:0:0:0:
256,192,102094,1,0,0:0:0:0:
256,192,102229,1,8,0:0:0:0:
256,192,102364,1,0,0:0:0:0:
256,192,102431,1,8,0:0:0:0:
256,192,102499,1,0,0:0:0:0:
256,192,102701,1,8,0:0:0:0:
256,192,102769,1,0,0:0:0:0:
256,192,102904,1,0,0:0:0:0:
256,192,102971,1,0,0:0:0:0:
256,192,103039,1,8,0:0:0:0:
256,192,103174,1,8,0:0:0:0:
256,192,103309,1,0,0:0:0:0:
256,192,103376,1,8,0:0:0:0:
256,192,103444,1,0,0:0:0:0:
256,192,103511,1,0,0:0:0:0:
256,192,103579,1,8,0:0:0:0:
256,192,103714,1,0,0:0:0:0:
256,192,103849,1,8,0:0:0:0:
256,192,103916,1,0,0:0:0:0:
256,192,103984,1,8,0:0:0:0:
256,192,104051,1,0,0:0:0:0:
256,192,104119,1,8,0:0:0:0:
256,192,104254,1,0,0:0:0:0:
256,192,104389,1,8,0:0:0:0:
256,192,104456,1,8,0:0:0:0:
256,192,104524,1,0,0:0:0:0:
256,192,104591,1,0,0:0:0:0:
256,192,104659,1,8,0:0:0:0:
256,192,104794,1,0,0:0:0:0:
256,192,104861,1,0,0:0:0:0:
256,192,104929,1,8,0:0:0:0:
256,192,104996,1,0,0:0:0:0:
256,192,105064,1,0,0:0:0:0:
256,192,105131,1,0,0:0:0:0:
256,192,105199,1,8,0:0:0:0:
256,192,105266,1,0,0:0:0:0:
256,192,105334,1,8,0:0:0:0:
256,192,105401,1,8,0:0:0:0:
256,192,105469,1,0,0:0:0:0:
256,192,105604,1,0,0:0:0:0:
256,192,105739,1,8,0:0:0:0:
256,192,105806,1,0,0:0:0:0:
256,192,105874,1,8,0:0:0:0:
256,192,105941,1,8,0:0:0:0:
256,192,106009,1,0,0:0:0:0:
256,192,106076,1,0,0:0:0:0:
256,192,106144,1,8,0:0:0:0:
256,192,106211,1,0,0:0:0:0:
256,192,106279,1,8,0:0:0:0:
256,192,106346,1,8,0:0:0:0:
256,192,106414,1,0,0:0:0:0:
256,192,106481,1,0,0:0:0:0:
256,192,106549,1,8,0:0:0:0:
256,192,106616,1,0,0:0:0:0:
256,192,106684,1,0,0:0:0:0:
256,192,106751,1,0,0:0:0:0:
256,192,106819,1,8,0:0:0:0:
256,192,107629,1,12,0:0:0:0:
256,192,107899,1,4,0:0:0:0:
256,192,108034,1,0,0:0:0:0:
256,192,108101,1,0,0:0:0:0:
256,192,108169,1,8,0:0:0:0:
256,192,108304,1,0,0:0:0:0:
256,192,108439,1,8,0:0:0:0:
256,192,108506,1,0,0:0:0:0:
256,192,108641,1,0,0:0:0:0:
256,192,108709,1,8,0:0:0:0:
256,192,108844,1,8,0:0:0:0:
256,192,108911,1,0,0:0:0:0:
256,192,108979,1,8,0:0:0:0:
256,192,109114,1,0,0:0:0:0:
256,192,109181,1,0,0:0:0:0:
256,192,109249,1,8,0:0:0:0:
256,192,109384,1,0,0:0:0:0:
256,192,109519,1,0,0:0:0:0:
256,192,109586,1,8,0:0:0:0:
256,192,109654,1,0,0:0:0:0:
256,192,109721,1,0,0:0:0:0:
256,192,109789,1,8,0:0:0:0:
256,192,109924,1,0,0:0:0:0:
256,192,110059,1,8,0:0:0:0:
256,192,110261,1,8,0:0:0:0:
256,192,110329,1,0,0:0:0:0:
256,192,110464,1,0,0:0:0:0:
256,192,110599,1,0,0:0:0:0:
256,192,110666,1,8,0:0:0:0:
256,192,110734,1,0,0:0:0:0:
256,192,110801,1,0,0:0:0:0:
256,192,110869,1,8,0:0:0:0:
256,192,111004,1,0,0:0:0:0:
256,192,111139,1,8,0:0:0:0:
256,192,111206,1,8,0:0:0:0:
256,192,111274,1,0,0:0:0:0:
256,192,111341,1,0,0:0:0:0:
256,192,111409,1,8,0:0:0:0:
256,192,111544,1,0,0:0:0:0:
256,192,111679,1,8,0:0:0:0:
256,192,111746,1,0,0:0:0:0:
256,192,111814,1,8,0:0:0:0:
256,192,111881,1,0,0:0:0:0:
256,192,111949,1,8,0:0:0:0:
256,192,112084,1,0,0:0:0:0:
256,192,112151,1,0,0:0:0:0:
256,192,112219,1,8,0:0:0:0:
256,192,112354,1,8,0:0:0:0:
256,192,112421,1,8,0:0:0:0:
256,192,112489,1,0,0:0:0:0:
256,192,112624,1,8,0:0:0:0:
256,192,112759,1,0,0:0:0:0:
256,192,112826,1,0,0:0:0:0:
256,192,112894,1,8,0:0:0:0:
256,192,112961,1,0,0:0:0:0:
256,192,113029,1,8,0:0:0:0:
256,192,113164,1,0,0:0:0:0:
256,192,113299,1,8,0:0:0:0:
256,192,113366,1,8,0:0:0:0:
256,192,113434,1,0,0:0:0:0:
256,192,113501,1,0,0:0:0:0:
256,192,113569,1,8,0:0:0:0:
256,192,113704,1,8,0:0:0:0:
256,192,113839,1,0,0:0:0:0:
256,192,113906,1,8,0:0:0:0:
256,192,113974,1,0,0:0:0:0:
256,192,114041,1,0,0:0:0:0:
256,192,114109,1,8,0:0:0:0:
256,192,114176,1,0,0:0:0:0:
256,192,114244,1,8,0:0:0:0:
256,192,114379,1,0,0:0:0:0:
256,192,114514,1,0,0:0:0:0:
256,192,114581,1,0,0:0:0:0:
256,192,114649,1,8,0:0:0:0:
256,192,114784,1,0,0:0:0:0:
256,192,114919,1,8,0:0:0:0:
256,192,114986,1,0,0:0:0:0:
256,192,115054,1,0,0:0:0:0:
256,192,115121,1,0,0:0:0:0:
256,192,115189,1,8,0:0:0:0:
256,192,115324,1,8,0:0:0:0:
256,192,115391,1,8,0:0:0:0:
256,192,115459,1,0,0:0:0:0:
256,192,115594,1,0,0:0:0:0:
256,192,115661,1,0,0:0:0:0:
256,192,115729,1,8,0:0:0:0:
256,192,115864,1,8,0:0:0:0:
256,192,115999,1,0,0:0:0:0:
256,192,116066,1,0,0:0:0:0:
256,192,116134,1,8,0:0:0:0:
256,192,116201,1,8,0:0:0:0:
256,192,116269,1,0,0:0:0:0:
256,192,116336,1,8,0:0:0:0:
256,192,116404,1,0,0:0:0:0:
256,192,116471,1,0,0:0:0:0:
256,192,116539,1,8,0:0:0:0:
256,192,116674,1,0,0:0:0:0:
256,192,116741,1,0,0:0:0:0:
256,192,116809,1,8,0:0:0:0:
256,192,116944,1,0,0:0:0:0:
256,192,117079,1,8,0:0:0:0:
256,192,117214,1,8,0:0:0:0:
256,192,117281,1,0,0:0:0:0:
256,192,117349,1,8,0:0:0:0:
256,192,117484,1,0,0:0:0:0:
256,192,117619,1,8,0:0:0:0:
256,192,117709,1,0,0:0:0:0:
256,192,117799,1,0,0:0:0:0:
256,192,117889,1,8,0:0:0:0:
256,192,118024,1,0,0:0:0:0:
256,192,118159,1,8,0:0:0:0:
256,192,118361,1,8,0:0:0:0:
256,192,118429,1,0,0:0:0:0:
256,192,118564,1,8,0:0:0:0:
256,192,118699,1,0,0:0:0:0:
256,192,118766,1,0,0:0:0:0:
256,192,118834,1,8,0:0:0:0:
256,192,118901,1,0,0:0:0:0:
256,192,118969,1,8,0:0:0:0:
256,192,119104,1,0,0:0:0:0:
256,192,119239,1,8,0:0:0:0:
256,192,119306,1,0,0:0:0:0:
256,192,119374,1,8,0:0:0:0:
256,192,119441,1,8,0:0:0:0:
256,192,119509,1,0,0:0:0:0:
256,192,119644,1,0,0:0:0:0:
256,192,119779,1,8,0:0:0:0:
256,192,119846,1,0,0:0:0:0:
256,192,119914,1,8,0:0:0:0:
256,192,119981,1,0,0:0:0:0:
256,192,120049,1,8,0:0:0:0:
256,192,120184,1,8,0:0:0:0:
256,192,120319,1,0,0:0:0:0:
256,192,120454,1,0,0:0:0:0:
256,192,120521,1,0,0:0:0:0:
256,192,120589,1,8,0:0:0:0:
256,192,120724,1,0,0:0:0:0:
256,192,120859,1,8,0:0:0:0:
256,192,121061,1,8,0:0:0:0:
256,192,121129,1,0,0:0:0:0:
256,192,121264,1,8,0:0:0:0:
256,192,121399,1,0,0:0:0:0:
256,192,121466,1,8,0:0:0:0:
256,192,121534,1,0,0:0:0:0:
256,192,121601,1,0,0:0:0:0:
256,192,121669,1,8,0:0:0:0:
256,192,121804,1,8,0:0:0:0:
256,192,121939,1,0,0:0:0:0:
256,192,122074,1,0,0:0:0:0:
256,192,122141,1,0,0:0:0:0:
256,192,122209,1,8,0:0:0:0:
256,192,122344,1,0,0:0:0:0:
256,192,122479,1,8,0:0:0:0:
256,192,122681,1,8,0:0:0:0:
256,192,122749,1,0,0:0:0:0:
256,192,122884,1,8,0:0:0:0:
256,192,123019,1,8,0:0:0:0:
256,192,123086,1,8,0:0:0:0:
256,192,123154,1,0,0:0:0:0:
256,192,123221,1,0,0:0:0:0:
256,192,123289,1,8,0:0:0:0:
256,192,123424,1,0,0:0:0:0:
256,192,123559,1,8,0:0:0:0:
256,192,123626,1,0,0:0:0:0:
256,192,123761,1,0,0:0:0:0:
256,192,123829,1,8,0:0:0:0:
256,192,123964,1,0,0:0:0:0:
256,192,124099,1,8,0:0:0:0:
256,192,124234,1,8,0:0:0:0:
256,192,124301,1,8,0:0:0:0:
256,192,124369,1,0,0:0:0:0:
256,192,124504,1,0,0:0:0:0:
256,192,124639,1,8,0:0:0:0:
256,192,124706,1,8,0:0:0:0:
256,192,124774,1,0,0:0:0:0:
256,192,124841,1,0,0:0:0:0:
256,192,124909,1,8,0:0:0:0:
256,192,124976,1,8,0:0:0:0:
256,192,125044,1,8,0:0:0:0:
256,192,125111,1,8,0:0:0:0:
256,192,125179,1,4,0:0:0:0:
256,192,125314,1,0,0:0:0:0:
256,192,125381,1,0,0:0:0:0:
256,192,125449,1,8,0:0:0:0:
256,192,125584,1,0,0:0:0:0:
256,192,125719,1,8,0:0:0:0:
256,192,125786,1,0,0:0:0:0:
256,192,125921,1,0,0:0:0:0:
256,192,125989,1,8,0:0:0:0:
256,192,126124,1,8,0:0:0:0:
256,192,126191,1,0,0:0:0:0:
256,192,126259,1,8,0:0:0:0:
256,192,126394,1,0,0:0:0:0:
256,192,126461,1,0,0:0:0:0:
256,192,126529,1,8,0:0:0:0:
256,192,126664,1,0,0:0:0:0:
256,192,126799,1,0,0:0:0:0:
256,192,126866,1,8,0:0:0:0:
256,192,126934,1,0,0:0:0:0:
256,192,127001,1,0,0:0:0:0:
256,192,127069,1,8,0:0:0:0:
256,192,127204,1,0,0:0:0:0:
256,192,127339,1,8,0:0:0:0:
256,192,127541,1,8,0:0:0:0:
256,192,127609,1,0,0:0:0:0:
256,192,127744,1,0,0:0:0:0:
256,192,127879,1,0,0:0:0:0:
256,192,127946,1,8,0:0:0:0:
256,192,128014,1,0,0:0:0:0:
256,192,128081,1,0,0:0:0:0:
256,192,128149,1,8,0:0:0:0:
256,192,128284,1,0,0:0:0:0:
256,192,128419,1,8,0:0:0:0:
256,192,128486,1,8,0:0:0:0:
256,192,128554,1,0,0:0:0:0:
256,192,128621,1,0,0:0:0:0:
256,192,128689,1,8,0:0:0:0:
256,192,128824,1,0,0:0:0:0:
256,192,128959,1,8,0:0:0:0:
256,192,129026,1,0,0:0:0:0:
256,192,129094,1,8,0:0:0:0:
256,192,129161,1,0,0:0:0:0:
256,192,129229,1,8,0:0:0:0:
256,192,129364,1,0,0:0:0:0:
256,192,129431,1,0,0:0:0:0:
256,192,129499,1,8,0:0:0:0:
256,192,129634,1,8,0:0:0:0:
256,192,129701,1,8,0:0:0:0:
256,192,129769,1,0,0:0:0:0:
256,192,129904,1,8,0:0:0:0:
256,192,130039,1,0,0:0:0:0:
256,192,130106,1,0,0:0:0:0:
256,192,130174,1,8,0:0:0:0:
256,192,130241,1,0,0:0:0:0:
256,192,130309,1,8,0:0:0:0:
256,192,130444,1,0,0:0:0:0:
256,192,130579,1,8,0:0:0:0:
256,192,130646,1,8,0:0:0:0:
256,192,130714,1,0,0:0:0:0:
256,192,130781,1,0,0:0:0:0:
256,192,130849,1,8,0:0:0:0:
256,192,130984,1,8,0:0:0:0:
256,192,131119,1,0,0:0:0:0:
256,192,131186,1,8,0:0:0:0:
256,192,131254,1,0,0:0:0:0:
256,192,131321,1,0,0:0:0:0:
256,192,131389,1,8,0:0:0:0:
256,192,131456,1,0,0:0:0:0:
256,192,131524,1,8,0:0:0:0:
256,192,131659,1,0,0:0:0:0:
256,192,131794,1,0,0:0:0:0:
256,192,131861,1,0,0:0:0:0:
256,192,131929,1,8,0:0:0:0:
256,192,132064,1,0,0:0:0:0:
256,192,132199,1,8,0:0:0:0:
256,192,132266,1,0,0:0:0:0:
256,192,132334,1,0,0:0:0:0:
256,192,132401,1,0,0:0:0:0:
256,192,132469,1,8,0:0:0:0:
256,192,132604,1,8,0:0:0:0:
256,192,132671,1,8,0:0:0:0:
256,192,132739,1,0,0:0:0:0:
256,192,132874,1,0,0:0:0:0:
256,192,132941,1,0,0:0:0:0:
256,192,133009,1,8,0:0:0:0:
256,192,133144,1,8,0:0:0:0:
256,192,133279,1,0,0:0:0:0:
256,192,133346,1,0,0:0:0:0:
256,192,133414,1,8,0:0:0:0:
256,192,133481,1,8,0:0:0:0:
256,192,133549,1,0,0:0:0:0:
256,192,133616,1,8,0:0:0:0:
256,192,133684,1,0,0:0:0:0:
256,192,133751,1,0,0:0:0:0:
256,192,133819,1,8,0:0:0:0:
256,192,133954,1,0,0:0:0:0:
256,192,134021,1,0,0:0:0:0:
256,192,134089,1,8,0:0:0:0:
256,192,134224,1,0,0:0:0:0:
256,192,134359,1,8,0:0:0:0:
256,192,134494,1,8,0:0:0:0:
256,192,134561,1,0,0:0:0:0:
256,192,134629,1,8,0:0:0:0:
256,192,134764,1,0,0:0:0:0:
256,192,134899,1,8,0:0:0:0:
256,192,134989,1,0,0:0:0:0:
256,192,135079,1,0,0:0:0:0:
256,192,135169,1,8,0:0:0:0:
256,192,135304,1,0,0:0:0:0:
256,192,135439,1,8,0:0:0:0:
256,192,135641,1,8,0:0:0:0:
256,192,135709,1,0,0:0:0:0:
256,192,135844,1,8,0:0:0:0:
256,192,135979,1,0,0:0:0:0:
256,192,136046,1,0,0:0:0:0:
256,192,136114,1,8,0:0:0:0:
256,192,136181,1,0,0:0:0:0:
256,192,136249,1,8,0:0:0:0:
256,192,136384,1,0,0:0:0:0:
256,192,136519,1,8,0:0:0:0:
256,192,136586,1,0,0:0:0:0:
256,192,136654,1,8,0:0:0:0:
256,192,136721,1,8,0:0:0:0:
256,192,136789,1,0,0:0:0:0:
256,192,136924,1,0,0:0:0:0:
256,192,137059,1,8,0:0:0:0:
256,192,137126,1,0,0:0:0:0:
256,192,137194,1,8,0:0:0:0:
256,192,137261,1,0,0:0:0:0:
256,192,137329,1,8,0:0:0:0:
256,192,137464,1,8,0:0:0:0:
256,192,137599,1,0,0:0:0:0:
256,192,137734,1,0,0:0:0:0:
256,192,137801,1,0,0:0:0:0:
256,192,137869,1,8,0:0:0:0:
256,192,138004,1,0,0:0:0:0:
256,192,138139,1,8,0:0:0:0:
256,192,138341,1,8,0:0:0:0:
256,192,138409,1,0,0:0:0:0:
256,192,138544,1,8,0:0:0:0:
256,192,138679,1,0,0:0:0:0:
256,192,138746,1,8,0:0:0:0:
256,192,138814,1,0,0:0:0:0:
256,192,138881,1,0,0:0:0:0:
256,192,138949,1,8,0:0:0:0:
256,192,139084,1,8,0:0:0:0:
256,192,139219,1,0,0:0:0:0:
256,192,139354,1,0,0:0:0:0:
256,192,139421,1,0,0:0:0:0:
256,192,139489,1,8,0:0:0:0:
256,192,139624,1,0,0:0:0:0:
256,192,139759,1,8,0:0:0:0:
256,192,139961,1,8,0:0:0:0:
256,192,140029,1,0,0:0:0:0:
256,192,140164,1,8,0:0:0:0:
256,192,140299,1,8,0:0:0:0:
256,192,140366,1,8,0:0:0:0:
256,192,140434,1,0,0:0:0:0:
256,192,140501,1,0,0:0:0:0:
256,192,140569,1,8,0:0:0:0:
256,192,140704,1,0,0:0:0:0:
256,192,140839,1,8,0:0:0:0:
256,192,140906,1,0,0:0:0:0:
256,192,141041,1,0,0:0:0:0:
256,192,141109,1,8,0:0:0:0:
256,192,141244,1,0,0:0:0:0:
256,192,141379,1,8,0:0:0:0:
256,192,141514,1,8,0:0:0:0:
256,192,141581,1,8,0:0:0:0:
256,192,141649,1,0,0:0:0:0:
256,192,141784,1,0,0:0:0:0:
256,192,141919,1,8,0:0:0:0:
256,192,141986,1,8,0:0:0:0:
256,192,142054,1,0,0:0:0:0:
256,192,142121,1,0,0:0:0:0:
256,192,142189,1,8,0:0:0:0:
256,192,142256,1,0,0:0:0:0:
256,192,142324,1,8,0:0:0:0:
256,192,142459,1,4,0:0:0:0:
256,192,142594,1,0,0:0:0:0:
256,192,142661,1,0,0:0:0:0:
256,192,142729,1,8,0:0:0:0:
256,192,142864,1,8,0:0:0:0:
256,192,142999,1,0,0:0:0:0:
256,192,143066,1,0,0:0:0:0:
256,192,143134,1,8,0:0:0:0:
256,192,143201,1,8,0:0:0:0:
256,192,143269,1,0,0:0:0:0:
256,192,143404,1,0,0:0:0:0:
256,192,143539,1,8,0:0:0:0:
256,192,143606,1,8,0:0:0:0:
256,192,143674,1,0,0:0:0:0:
256,192,143741,1,0,0:0:0:0:
256,192,143809,1,8,0:0:0:0:
256,192,143944,1,0,0:0:0:0:
256,192,144079,1,8,0:0:0:0:
256,192,144146,1,8,0:0:0:0:
256,192,144214,1,0,0:0:0:0:
256,192,144281,1,0,0:0:0:0:
256,192,144349,1,8,0:0:0:0:
256,192,144416,1,0,0:0:0:0:
256,192,144484,1,8,0:0:0:0:
256,192,144619,1,0,0:0:0:0:
256,192,144686,1,0,0:0:0:0:
256,192,144754,1,8,0:0:0:0:
256,192,144821,1,0,0:0:0:0:
256,192,144889,1,8,0:0:0:0:
256,192,144956,1,8,0:0:0:0:
256,192,145024,1,0,0:0:0:0:
256,192,145091,1,0,0:0:0:0:
256,192,145159,1,8,0:0:0:0:
256,192,145226,1,0,0:0:0:0:
256,192,145294,1,8,0:0:0:0:
256,192,145361,1,8,0:0:0:0:
256,192,145429,1,0,0:0:0:0:
256,192,145564,1,0,0:0:0:0:
256,192,145699,1,8,0:0:0:0:
256,192,145766,1,8,0:0:0:0:
256,192,145834,1,0,0:0:0:0:
256,192,145901,1,0,0:0:0:0:
256,192,145969,1,8,0:0:0:0:
256,192,146036,1,0,0:0:0:0:
256,192,146104,1,8,0:0:0:0:
256,192,146171,1,8,0:0:0:0:
256,192,146239,1,0,0:0:0:0:
256,192,146306,1,0,0:0:0:0:
256,192,146374,1,8,0:0:0:0:
256,192,146441,1,8,0:0:0:0:
256,192,146509,1,0,0:0:0:0:
256,192,146576,1,8,0:0:0:0:
256,192,146644,1,0,0:0:0:0:
256,192,146711,1,0,0:0:0:0:
256,192,146779,1,12,0:0:0:0:
256,192,147049,1,8,0:0:0:0:
256,192,147319,1,0,0:0:0:0:
256,192,147454,1,0,0:0:0:0:
256,192,147589,1,8,0:0:0:0:
256,192,147724,1,8,0:0:0:0:
256,192,147859,1,0,0:0:0:0:
256,192,148129,1,8,0:0:0:0:
256,192,148399,1,0,0:0:0:0:
256,192,148534,1,0,0:0:0:0:
256,192,148669,1,8,0:0:0:0:
256,192,148939,1,4,0:0:0:0:
256,192,149209,1,8,0:0:0:0:
256,192,149479,1,0,0:0:0:0:
256,192,149614,1,0,0:0:0:0:
256,192,149749,1,8,0:0:0:0:
256,192,149884,1,8,0:0:0:0:
256,192,150019,1,0,0:0:0:0:
256,192,150289,1,12,0:0:0:0:
256,192,150559,1,12,0:0:0:0:
256,192,150761,1,12,0:0:0:0:
256,192,150964,1,12,0:0:0:0:
256,192,151099,1,4,0:0:0:0:
256,192,151369,1,8,0:0:0:0:
256,192,151639,1,0,0:0:0:0:
256,192,151774,1,0,0:0:0:0:
256,192,151909,1,12,0:0:0:0:
256,192,152044,1,4,0:0:0:0:
256,192,152314,1,4,0:0:0:0:
256,192,152449,1,12,0:0:0:0:
256,192,152584,1,8,0:0:0:0:
256,192,152719,1,0,0:0:0:0:
256,192,152854,1,0,0:0:0:0:
256,192,152922,1,0,0:0:0:0:
256,192,152989,1,8,0:0:0:0:
256,192,153124,1,8,0:0:0:0:
256,192,153192,1,8,0:0:0:0:
256,192,153259,1,0,0:0:0:0:
256,192,153394,1,0,0:0:0:0:
256,192,153529,1,8,0:0:0:0:
256,192,153664,1,0,0:0:0:0:
256,192,153732,1,0,0:0:0:0:
256,192,153799,1,8,0:0:0:0:
256,192,153934,1,0,0:0:0:0:
256,192,154069,1,8,0:0:0:0:
256,192,154137,1,8,0:0:0:0:
256,192,154204,1,0,0:0:0:0:
256,192,154339,1,12,0:0:0:0:
256,192,154474,1,0,0:0:0:0:
256,192,154609,1,8,0:0:0:0:
256,192,154744,1,0,0:0:0:0:
256,192,154812,1,0,0:0:0:0:
256,192,154879,1,8,0:0:0:0:
256,192,155014,1,0,0:0:0:0:
256,192,155149,1,8,0:0:0:0:
256,192,155217,1,8,0:0:0:0:
256,192,155284,1,8,0:0:0:0:
256,192,155352,1,8,0:0:0:0:
256,192,155419,1,4,0:0:0:0:
256,192,155689,1,8,0:0:0:0:
256,192,155959,1,0,0:0:0:0:
256,192,156094,1,0,0:0:0:0:
256,192,156229,1,8,0:0:0:0:
256,192,156364,1,8,0:0:0:0:
256,192,156499,1,0,0:0:0:0:
256,192,156769,1,8,0:0:0:0:
256,192,157039,1,0,0:0:0:0:
256,192,157174,1,0,0:0:0:0:
256,192,157309,1,8,0:0:0:0:
256,192,157579,1,4,0:0:0:0:
256,192,157849,1,8,0:0:0:0:
256,192,158119,1,0,0:0:0:0:
256,192,158254,1,0,0:0:0:0:
256,192,158389,1,8,0:0:0:0:
256,192,158524,1,8,0:0:0:0:
256,192,158659,1,0,0:0:0:0:
256,192,158929,1,12,0:0:0:0:
256,192,159199,1,12,0:0:0:0:
256,192,159402,1,12,0:0:0:0:
256,192,159604,1,12,0:0:0:0:
256,192,159739,1,4,0:0:0:0:
256,192,160009,1,8,0:0:0:0:
256,192,160279,1,0,0:0:0:0:
256,192,160414,1,0,0:0:0:0:
256,192,160549,1,12,0:0:0:0:
256,192,160684,1,4,0:0:0:0:
256,192,160954,1,4,0:0:0:0:
256,192,161089,1,12,0:0:0:0:
256,192,161224,1,8,0:0:0:0:
256,192,161359,1,0,0:0:0:0:
256,192,161494,1,0,0:0:0:0:
256,192,161562,1,0,0:0:0:0:
256,192,161629,1,8,0:0:0:0:
256,192,161764,1,8,0:0:0:0:
256,192,161832,1,8,0:0:0:0:
256,192,161899,1,0,0:0:0:0:
256,192,162034,1,0,0:0:0:0:
256,192,162169,1,8,0:0:0:0:
256,192,162304,1,0,0:0:0:0:
256,192,162372,1,0,0:0:0:0:
256,192,162439,1,8,0:0:0:0:
256,192,162574,1,0,0:0:0:0:
256,192,162709,1,8,0:0:0:0:
256,192,162777,1,8,0:0:0:0:
256,192,162844,1,0,0:0:0:0:
256,192,162979,1,12,0:0:0:0:
256,192,163114,1,0,0:0:0:0:
256,192,163249,1,8,0:0:0:0:
256,192,163384,1,0,0:0:0:0:
256,192,163452,1,0,0:0:0:0:
256,192,163519,1,8,0:0:0:0:
256,192,163654,1,0,0:0:0:0:
256,192,163789,1,8,0:0:0:0:
256,192,163857,1,8,0:0:0:0:
256,192,163924,1,8,0:0:0:0:
256,192,163992,1,8,0:0:0:0:
256,192,164059,1,4,0:0:0:0:
256,192,164329,1,8,0:0:0:0:
256,192,164397,1,8,0:0:0:0:
256,192,164464,1,0,0:0:0:0:
256,192,164532,1,0,0:0:0:0:
256,192,164599,1,8,0:0:0:0:
256,192,164667,1,8,0:0:0:0:
256,192,164734,1,0,0:0:0:0:
256,192,164802,1,0,0:0:0:0:
256,192,164869,1,8,0:0:0:0:
256,192,164937,1,8,0:0:0:0:
256,192,165004,1,0,0:0:0:0:
256,192,165072,1,8,0:0:0:0:
256,192,165139,1,0,0:0:0:0:
256,192,165274,1,0,0:0:0:0:
256,192,165409,1,8,0:0:0:0:
256,192,165612,1,0,0:0:0:0:
256,192,165814,1,8,0:0:0:0:
256,192,166017,1,8,0:0:0:0:
256,192,166219,1,0,0:0:0:0:
256,192,166354,1,0,0:0:0:0:
256,192,166422,1,0,0:0:0:0:
256,192,166489,1,8,0:0:0:0:
256,192,166624,1,0,0:0:0:0:
256,192,166692,1,0,0:0:0:0:
256,192,166759,1,8,0:0:0:0:
256,192,166827,1,0,0:0:0:0:
256,192,166894,1,8,0:0:0:0:
256,192,166962,1,0,0:0:0:0:
256,192,167029,1,8,0:0:0:0:
256,192,167097,1,8,0:0:0:0:
256,192,167164,1,0,0:0:0:0:
256,192,167232,1,0,0:0:0:0:
256,192,167299,1,8,0:0:0:0:
256,192,167434,1,8,0:0:0:0:
256,192,167569,1,0,0:0:0:0:
256,192,167704,1,8,0:0:0:0:
256,192,167772,1,8,0:0:0:0:
256,192,167839,1,0,0:0:0:0:
256,192,168042,1,0,0:0:0:0:
256,192,168244,1,8,0:0:0:0:
256,192,168379,1,0,0:0:0:0:
256,192,168447,1,0,0:0:0:0:
256,192,168514,1,0,0:0:0:0:
256,192,168649,1,8,0:0:0:0:
256,192,168784,1,0,0:0:0:0:
256,192,168852,1,0,0:0:0:0:
256,192,168919,1,8,0:0:0:0:
256,192,169054,1,0,0:0:0:0:
256,192,169189,1,8,0:0:0:0:
256,192,169257,1,8,0:0:0:0:
256,192,169324,1,0,0:0:0:0:
256,192,169392,1,0,0:0:0:0:
256,192,169459,1,8,0:0:0:0:
256,192,169527,1,0,0:0:0:0:
256,192,169594,1,0,0:0:0:0:
256,192,169662,1,0,0:0:0:0:
256,192,169729,1,8,0:0:0:0:
256,192,169797,1,0,0:0:0:0:
256,192,169864,1,0,0:0:0:0:
256,192,169932,1,0,0:0:0:0:
256,192,169999,1,8,0:0:0:0:
256,192,170067,1,8,0:0:0:0:
256,192,170134,1,8,0:0:0:0:
256,192,170202,1,8,0:0:0:0:
256,192,170269,1,0,0:0:0:0:
256,192,170337,1,0,0:0:0:0:
256,192,170404,1,8,0:0:0:0:
256,192,170472,1,0,0:0:0:0:
256,192,170539,1,8,0:0:0:0:
256,192,170674,1,0,0:0:0:0:
256,192,170742,1,8,0:0:0:0:
256,192,170809,1,0,0:0:0:0:
256,192,170944,1,8,0:0:0:0:
256,192,171012,1,8,0:0:0:0:
256,192,171079,1,0,0:0:0:0:
256,192,171282,1,8,0:0:0:0:
256,192,171484,1,0,0:0:0:0:
256,192,171619,1,8,0:0:0:0:
256,192,171687,1,0,0:0:0:0:
256,192,171822,1,0,0:0:0:0:
256,192,171889,1,8,0:0:0:0:
256,192,172024,1,0,0:0:0:0:
256,192,172092,1,0,0:0:0:0:
256,192,172159,1,8,0:0:0:0:
256,192,172294,1,0,0:0:0:0:
256,192,172497,1,8,0:0:0:0:
256,192,172699,1,4,0:0:0:0:
256,192,172969,1,8,0:0:0:0:
256,192,173104,1,8,0:0:0:0:
256,192,173172,1,8,0:0:0:0:
256,192,173239,1,0,0:0:0:0:
256,192,173374,1,8,0:0:0:0:
256,192,173509,1,0,0:0:0:0:
256,192,173577,1,0,0:0:0:0:
256,192,173644,1,8,0:0:0:0:
256,192,173712,1,8,0:0:0:0:
256,192,173779,1,0,0:0:0:0:
256,192,173914,1,0,0:0:0:0:
256,192,174049,1,8,0:0:0:0:
256,192,174117,1,0,0:0:0:0:
256,192,174184,1,8,0:0:0:0:
256,192,174252,1,8,0:0:0:0:
256,192,174319,1,0,0:0:0:0:
256,192,174387,1,8,0:0:0:0:
256,192,174454,1,0,0:0:0:0:
256,192,174522,1,0,0:0:0:0:
256,192,174589,1,8,0:0:0:0:
256,192,174724,1,8,0:0:0:0:
256,192,174859,1,0,0:0:0:0:
256,192,175129,1,8,0:0:0:0:
256,192,175197,1,8,0:0:0:0:
256,192,175264,1,0,0:0:0:0:
256,192,175399,1,8,0:0:0:0:
256,192,175467,1,8,0:0:0:0:
256,192,175534,1,0,0:0:0:0:
256,192,175602,1,0,0:0:0:0:
256,192,175669,1,8,0:0:0:0:
256,192,175737,1,0,0:0:0:0:
256,192,175804,1,8,0:0:0:0:
256,192,175872,1,8,0:0:0:0:
256,192,175939,1,0,0:0:0:0:
256,192,176074,1,8,0:0:0:0:
256,192,176209,1,0,0:0:0:0:
256,192,176277,1,0,0:0:0:0:
256,192,176344,1,8,0:0:0:0:
256,192,176412,1,0,0:0:0:0:
256,192,176479,1,8,0:0:0:0:
256,192,176614,1,0,0:0:0:0:
256,192,176749,1,8,0:0:0:0:
256,192,176817,1,8,0:0:0:0:
256,192,176884,1,0,0:0:0:0:
256,192,176952,1,0,0:0:0:0:
256,192,177019,1,8,0:0:0:0:
256,192,177087,1,0,0:0:0:0:
256,192,177154,1,8,0:0:0:0:
256,192,177222,1,8,0:0:0:0:
256,192,177289,1,0,0:0:0:0:
256,192,177424,1,8,0:0:0:0:
256,192,177492,1,0,0:0:0:0:
256,192,177559,1,8,0:0:0:0:
256,192,177627,1,8,0:0:0:0:
256,192,177694,1,0,0:0:0:0:
256,192,177829,1,8,0:0:0:0:
256,192,177897,1,0,0:0:0:0:
256,192,177964,1,8,0:0:0:0:
256,192,178032,1,8,0:0:0:0:
256,192,178099,1,0,0:0:0:0:
256,192,178234,1,8,0:0:0:0:
256,192,178369,1,8,0:0:0:0:
256,192,178437,1,8,0:0:0:0:
256,192,178504,1,0,0:0:0:0:
256,192,178572,1,0,0:0:0:0:
256,192,178639,1,8,0:0:0:0:
256,192,178707,1,0,0:0:0:0:
256,192,178774,1,0,0:0:0:0:
256,192,178842,1,0,0:0:0:0:
256,192,178909,1,8,0:0:0:0:
256,192,178977,1,0,0:0:0:0:
256,192,179044,1,8,0:0:0:0:
256,192,179112,1,0,0:0:0:0:
256,192,179179,1,8,0:0:0:0:
256,192,179314,1,0,0:0:0:0:
256,192,179382,1,0,0:0:0:0:
256,192,179449,1,8,0:0:0:0:
256,192,179584,1,8,0:0:0:0:
256,192,179719,1,0,0:0:0:0:
256,192,179787,1,0,0:0:0:0:
256,192,179854,1,8,0:0:0:0:
256,192,179922,1,8,0:0:0:0:
256,192,179989,1,0,0:0:0:0:
256,192,180124,1,8,0:0:0:0:
256,192,180259,1,0,0:0:0:0:
256,192,180394,1,8,0:0:0:0:
256,192,180462,1,8,0:0:0:0:
256,192,180529,1,0,0:0:0:0:
256,192,180664,1,0,0:0:0:0:
256,192,180732,1,0,0:0:0:0:
256,192,180799,1,8,0:0:0:0:
256,192,180867,1,0,0:0:0:0:
256,192,180934,1,8,0:0:0:0:
256,192,181002,1,8,0:0:0:0:
256,192,181069,1,0,0:0:0:0:
256,192,181137,1,0,0:0:0:0:
256,192,181204,1,8,0:0:0:0:
256,192,181272,1,8,0:0:0:0:
256,192,181339,1,4,0:0:0:0:
256,192,181542,1,0,0:0:0:0:
256,192,181609,1,8,0:0:0:0:
256,192,181744,1,8,0:0:0:0:
256,192,181879,1,0,0:0:0:0:
256,192,182014,1,8,0:0:0:0:
256,192,182082,1,0,0:0:0:0:
256,192,182149,1,8,0:0:0:0:
256,192,182284,1,8,0:0:0:0:
256,192,182419,1,0,0:0:0:0:
256,192,182487,1,0,0:0:0:0:
256,192,182554,1,8,0:0:0:0:
256,192,182689,1,8,0:0:0:0:
256,192,182757,1,8,0:0:0:0:
256,192,182824,1,0,0:0:0:0:
256,192,182892,1,0,0:0:0:0:
256,192,182959,1,8,0:0:0:0:
256,192,183027,1,0,0:0:0:0:
256,192,183094,1,0,0:0:0:0:
256,192,183162,1,0,0:0:0:0:
256,192,183229,1,8,0:0:0:0:
256,192,183297,1,8,0:0:0:0:
256,192,183364,1,0,0:0:0:0:
256,192,183432,1,0,0:0:0:0:
256,192,183499,1,8,0:0:0:0:
256,192,183702,1,0,0:0:0:0:
256,192,183769,1,8,0:0:0:0:
256,192,183904,1,8,0:0:0:0:
256,192,184039,1,0,0:0:0:0:
256,192,184174,1,8,0:0:0:0:
256,192,184242,1,8,0:0:0:0:
256,192,184309,1,0,0:0:0:0:
256,192,184444,1,8,0:0:0:0:
256,192,184579,1,0,0:0:0:0:
256,192,184647,1,0,0:0:0:0:
256,192,184714,1,8,0:0:0:0:
256,192,184849,1,8,0:0:0:0:
256,192,184917,1,0,0:0:0:0:
256,192,184984,1,0,0:0:0:0:
256,192,185052,1,0,0:0:0:0:
256,192,185119,1,8,0:0:0:0:
256,192,185187,1,8,0:0:0:0:
256,192,185254,1,0,0:0:0:0:
256,192,185322,1,0,0:0:0:0:
256,192,185389,1,8,0:0:0:0:
256,192,185457,1,0,0:0:0:0:
256,192,185524,1,8,0:0:0:0:
256,192,185592,1,8,0:0:0:0:
256,192,185659,1,0,0:0:0:0:
256,192,185862,1,8,0:0:0:0:
256,192,185929,1,0,0:0:0:0:
253,187,186064,1,0,0:0:0:0:
256,192,186199,1,8,0:0:0:0:
253,186,186334,1,0,0:0:0:0:
256,192,186402,1,8,0:0:0:0:
256,192,186469,1,0,0:0:0:0:
256,192,186604,1,8,0:0:0:0:
253,187,186739,1,0,0:0:0:0:
256,192,186807,1,8,0:0:0:0:
253,186,186942,1,8,0:0:0:0:
256,192,187009,1,0,0:0:0:0:
251,185,187144,1,0,0:0:0:0:
256,192,187212,1,8,0:0:0:0:
254,189,187279,1,0,0:0:0:0:
256,192,187414,1,8,0:0:0:0:
256,192,187549,1,0,0:0:0:0:
256,192,187617,1,0,0:0:0:0:
256,192,187684,1,0,0:0:0:0:
256,192,187752,1,0,0:0:0:0:
256,192,187819,1,8,0:0:0:0:
256,192,187954,1,0,0:0:0:0:
256,192,188022,1,0,0:0:0:0:
256,192,188089,1,8,0:0:0:0:
256,192,188157,1,0,0:0:0:0:
256,192,188224,1,8,0:0:0:0:
256,192,188292,1,8,0:0:0:0:
256,192,188359,1,0,0:0:0:0:
256,192,188427,1,8,0:0:0:0:
256,192,188494,1,0,0:0:0:0:
256,192,188562,1,0,0:0:0:0:
256,192,188629,1,8,0:0:0:0:
256,192,188764,1,0,0:0:0:0:
256,192,188832,1,0,0:0:0:0:
256,192,188899,1,8,0:0:0:0:
256,192,188967,1,0,0:0:0:0:
256,192,189034,1,8,0:0:0:0:
256,192,189102,1,0,0:0:0:0:
256,192,189169,1,8,0:0:0:0:
256,192,189304,1,0,0:0:0:0:
256,192,189439,1,8,0:0:0:0:
256,192,189507,1,8,0:0:0:0:
256,192,189574,1,0,0:0:0:0:
256,192,189642,1,0,0:0:0:0:
256,192,189709,1,8,0:0:0:0:
256,192,189777,1,0,0:0:0:0:
256,192,189844,1,8,0:0:0:0:
256,192,189912,1,8,0:0:0:0:
256,192,189979,1,4,0:0:0:0:
256,192,190249,1,8,0:0:0:0:
256,192,190317,1,8,0:0:0:0:
256,192,190384,1,0,0:0:0:0:
256,192,190452,1,0,0:0:0:0:
256,192,190519,1,8,0:0:0:0:
256,192,190587,1,0,0:0:0:0:
256,192,190654,1,0,0:0:0:0:
256,192,190722,1,0,0:0:0:0:
256,192,190789,1,8,0:0:0:0:
256,192,190857,1,0,0:0:0:0:
256,192,190924,1,8,0:0:0:0:
256,192,190992,1,0,0:0:0:0:
256,192,191059,1,8,0:0:0:0:
256,192,191194,1,8,0:0:0:0:
256,192,191262,1,8,0:0:0:0:
256,192,191329,1,0,0:0:0:0:
256,192,191464,1,8,0:0:0:0:
256,192,191532,1,0,0:0:0:0:
256,192,191599,1,0,0:0:0:0:
256,192,191734,1,8,0:0:0:0:
256,192,191802,1,8,0:0:0:0:
256,192,191869,1,0,0:0:0:0:
256,192,191937,1,8,0:0:0:0:
256,192,192004,1,0,0:0:0:0:
256,192,192072,1,0,0:0:0:0:
256,192,192139,1,8,0:0:0:0:
256,192,192274,1,8,0:0:0:0:
256,192,192409,1,0,0:0:0:0:
256,192,192544,1,0,0:0:0:0:
256,192,192612,1,0,0:0:0:0:
256,192,192679,1,8,0:0:0:0:
256,192,192882,1,8,0:0:0:0:
256,192,193219,1,8,0:0:0:0:
256,192,193287,1,8,0:0:0:0:
256,192,193354,1,0,0:0:0:0:
256,192,193422,1,8,0:0:0:0:
256,192,193489,1,0,0:0:0:0:
256,192,193624,1,8,0:0:0:0:
256,192,193759,1,8,0:0:0:0:
256,192,193827,1,8,0:0:0:0:
256,192,193894,1,0,0:0:0:0:
256,192,193962,1,0,0:0:0:0:
256,192,194029,1,8,0:0:0:0:
256,192,194164,1,8,0:0:0:0:
256,192,194299,1,0,0:0:0:0:
256,192,194434,1,8,0:0:0:0:
256,192,194502,1,0,0:0:0:0:
256,192,194569,1,8,0:0:0:0:
256,192,194704,1,0,0:0:0:0:
256,192,194839,1,0,0:0:0:0:
256,192,194907,1,8,0:0:0:0:
256,192,194974,1,0,0:0:0:0:
256,192,195109,1,8,0:0:0:0:
256,192,195244,1,8,0:0:0:0:
256,192,195312,1,8,0:0:0:0:
256,192,195379,1,0,0:0:0:0:
256,192,195649,1,8,0:0:0:0:
256,192,195784,1,8,0:0:0:0:
256,192,195852,1,0,0:0:0:0:
256,192,195919,1,8,0:0:0:0:
256,192,195987,1,8,0:0:0:0:
256,192,196054,1,0,0:0:0:0:
256,192,196122,1,0,0:0:0:0:
256,192,196189,1,8,0:0:0:0:
256,192,196257,1,0,0:0:0:0:
256,192,196324,1,8,0:0:0:0:
256,192,196392,1,8,0:0:0:0:
256,192,196459,1,0,0:0:0:0:
256,192,196594,1,0,0:0:0:0:
256,192,196662,1,0,0:0:0:0:
256,192,196729,1,8,0:0:0:0:
256,192,196864,1,0,0:0:0:0:
256,192,196999,1,8,0:0:0:0:
256,192,197067,1,8,0:0:0:0:
256,192,197134,1,0,0:0:0:0:
256,192,197202,1,0,0:0:0:0:
256,192,197269,1,8,0:0:0:0:
256,192,197404,1,0,0:0:0:0:
256,192,197472,1,0,0:0:0:0:
256,192,197539,1,8,0:0:0:0:
256,192,197674,1,8,0:0:0:0:
256,192,197742,1,8,0:0:0:0:
256,192,197809,1,0,0:0:0:0:
256,192,197944,1,8,0:0:0:0:
256,192,198079,1,8,0:0:0:0:
256,192,198147,1,8,0:0:0:0:
256,192,198214,1,0,0:0:0:0:
256,192,198282,1,8,0:0:0:0:
256,192,198349,1,0,0:0:0:0:
256,192,198417,1,0,0:0:0:0:
256,192,198484,1,8,0:0:0:0:
256,192,198552,1,0,0:0:0:0:
256,192,198619,1,8,0:0:0:0:
256,192,198754,1,8,0:0:0:0:
256,192,198822,1,8,0:0:0:0:
256,192,198889,1,0,0:0:0:0:
256,192,199024,1,0,0:0:0:0:
256,192,199159,1,8,0:0:0:0:
256,192,199227,1,8,0:0:0:0:
256,192,199294,1,0,0:0:0:0:
256,192,199362,1,0,0:0:0:0:
256,192,199429,1,8,0:0:0:0:
256,192,199497,1,0,0:0:0:0:
256,192,199564,1,0,0:0:0:0:
256,192,199632,1,0,0:0:0:0:
256,192,199699,1,8,0:0:0:0:
256,192,199767,1,0,0:0:0:0:
256,192,199834,1,8,0:0:0:0:
256,192,199902,1,8,0:0:0:0:
256,192,199969,1,0,0:0:0:0:
256,192,200037,1,8,0:0:0:0:
256,192,200104,1,0,0:0:0:0:
256,192,200172,1,0,0:0:0:0:
256,192,200239,1,8,0:0:0:0:
256,192,200374,1,0,0:0:0:0:
256,192,200442,1,0,0:0:0:0:
256,192,200509,1,8,0:0:0:0:
256,192,200577,1,0,0:0:0:0:
256,192,200644,1,8,0:0:0:0:
256,192,200712,1,8,0:0:0:0:
256,192,200779,1,4,0:0:0:0:
256,192,200982,1,0,0:0:0:0:
256,192,201184,1,0,0:0:0:0:
256,192,201387,1,8,0:0:0:0:
256,192,201589,1,8,0:0:0:0:
256,192,201724,1,8,0:0:0:0:
256,192,201859,1,0,0:0:0:0:
256,192,202062,1,8,0:0:0:0:
256,192,202265,1,8,0:0:0:0:
256,192,202400,1,0,0:0:0:0:
256,192,202670,1,0,0:0:0:0:
256,192,202805,1,8,0:0:0:0:
256,192,202940,1,0,0:0:0:0:
256,192,203142,1,0,0:0:0:0:
256,192,203345,1,0,0:0:0:0:
256,192,203547,1,8,0:0:0:0:
256,192,203750,1,0,0:0:0:0:
256,192,203885,1,0,0:0:0:0:
256,192,204020,1,8,0:0:0:0:
256,192,204222,1,8,0:0:0:0:
256,192,204425,1,8,0:0:0:0:
256,192,204560,1,0,0:0:0:0:
256,192,204695,1,0,0:0:0:0:
256,192,204830,1,8,0:0:0:0:
256,192,204965,1,8,0:0:0:0:
256,192,205100,1,0,0:0:0:0:
256,192,205302,1,0,0:0:0:0:
256,192,205505,1,0,0:0:0:0:
256,192,205640,1,8,0:0:0:0:
256,192,205910,1,0,0:0:0:0:
256,192,206180,1,8,0:0:0:0:
256,192,206315,1,8,0:0:0:0:
256,192,206450,1,0,0:0:0:0:
256,192,206585,1,8,0:0:0:0:
256,192,206720,1,0,0:0:0:0:
256,192,206855,1,0,0:0:0:0:
256,192,206990,1,8,0:0:0:0:
256,192,207125,1,8,0:0:0:0:
256,192,207260,1,0,0:0:0:0:
256,192,207395,1,8,0:0:0:0:
256,192,207530,1,0,0:0:0:0:
256,192,207665,1,0,0:0:0:0:
256,192,207800,1,8,0:0:0:0:
256,192,207935,1,0,0:0:0:0:
256,192,208070,1,8,0:0:0:0:
256,192,208205,1,8,0:0:0:0:
256,192,208340,1,0,0:0:0:0:
256,192,208542,1,0,0:0:0:0:
256,192,208745,1,0,0:0:0:0:
256,192,208880,1,8,0:0:0:0:
256,192,209082,1,8,0:0:0:0:
256,192,209285,1,8,0:0:0:0:
256,192,209420,1,4,0:0:0:0:
256,192,209690,1,0,0:0:0:0:
256,192,209960,1,8,0:0:0:0:
256,192,210230,1,0,0:0:0:0:
256,192,210500,1,8,0:0:0:0:
256,192,210590,1,0,0:0:0:0:
256,192,210680,1,0,0:0:0:0:
256,192,210770,1,8,0:0:0:0:
256,192,211040,1,0,0:0:0:0:
256,192,211242,1,8,0:0:0:0:
256,192,211445,1,8,0:0:0:0:
256,192,211580,1,4,0:0:0:0:
256,192,211850,1,0,0:0:0:0:
256,192,212120,1,8,0:0:0:0:
256,192,212390,1,0,0:0:0:0:
256,192,212660,1,8,0:0:0:0:
256,192,212795,1,8,0:0:0:0:
256,192,212930,1,0,0:0:0:0:
256,192,213065,1,0,0:0:0:0:
256,192,213200,1,8,0:0:0:0:
256,192,213335,1,0,0:0:0:0:
256,192,213470,1,8,0:0:0:0:
256,192,213740,1,4,0:0:0:0:
256,192,214550,1,8,0:0:0:0:
256,192,214685,1,8,0:0:0:0:
256,192,214820,1,4,0:0:0:0:
256,192,215090,1,8,0:0:0:0:
256,192,215360,1,4,0:0:0:0:
256,192,215562,1,8,0:0:0:0:
256,192,215765,1,8,0:0:0:0:
256,192,215900,1,4,0:0:0:0:
256,192,216440,1,4,0:0:0:0:
256,192,216710,1,4,0:0:0:0:
256,192,216980,1,8,0:0:0:0:
256,192,217250,1,8,0:0:0:0:
256,192,217385,1,0,0:0:0:0:
256,192,217520,1,8,0:0:0:0:
256,192,217655,1,0,0:0:0:0:
256,192,217790,1,8,0:0:0:0:
256,192,217925,1,8,0:0:0:0:
256,192,218060,1,4,0:0:0:0:
256,192,218195,1,0,0:0:0:0:
256,192,218262,1,0,0:0:0:0:
256,192,218330,1,8,0:0:0:0:
256,192,218465,1,0,0:0:0:0:
256,192,218600,1,8,0:0:0:0:
256,192,218667,1,0,0:0:0:0:
256,192,218802,1,0,0:0:0:0:
256,192,218870,1,8,0:0:0:0:
256,192,219005,1,8,0:0:0:0:
256,192,219072,1,0,0:0:0:0:
256,192,219140,1,8,0:0:0:0:
256,192,219275,1,0,0:0:0:0:
256,192,219342,1,0,0:0:0:0:
256,192,219410,1,8,0:0:0:0:
256,192,219545,1,0,0:0:0:0:
256,192,219680,1,0,0:0:0:0:
256,192,219747,1,8,0:0:0:0:
256,192,219815,1,0,0:0:0:0:
256,192,219882,1,0,0:0:0:0:
256,192,219950,1,8,0:0:0:0:
256,192,220085,1,0,0:0:0:0:
256,192,220220,1,8,0:0:0:0:
256,192,220422,1,8,0:0:0:0:
256,192,220490,1,0,0:0:0:0:
256,192,220625,1,0,0:0:0:0:
256,192,220760,1,0,0:0:0:0:
256,192,220827,1,8,0:0:0:0:
256,192,220895,1,0,0:0:0:0:
256,192,220962,1,0,0:0:0:0:
256,192,221030,1,8,0:0:0:0:
256,192,221165,1,0,0:0:0:0:
256,192,221300,1,8,0:0:0:0:
256,192,221367,1,8,0:0:0:0:
256,192,221435,1,0,0:0:0:0:
256,192,221502,1,0,0:0:0:0:
256,192,221570,1,8,0:0:0:0:
256,192,221705,1,0,0:0:0:0:
256,192,221840,1,8,0:0:0:0:
256,192,221907,1,0,0:0:0:0:
256,192,221975,1,8,0:0:0:0:
256,192,222042,1,0,0:0:0:0:
256,192,222110,1,8,0:0:0:0:
256,192,222177,1,8,0:0:0:0:
256,192,222245,1,0,0:0:0:0:
256,192,222312,1,0,0:0:0:0:
256,192,222380,1,8,0:0:0:0:
256,192,222515,1,8,0:0:0:0:
256,192,222582,1,8,0:0:0:0:
256,192,222650,1,0,0:0:0:0:
256,192,222785,1,8,0:0:0:0:
256,192,222920,1,0,0:0:0:0:
256,192,222987,1,0,0:0:0:0:
256,192,223055,1,8,0:0:0:0:
256,192,223122,1,0,0:0:0:0:
256,192,223190,1,8,0:0:0:0:
256,192,223325,1,0,0:0:0:0:
256,192,223460,1,8,0:0:0:0:
256,192,223527,1,8,0:0:0:0:
256,192,223595,1,0,0:0:0:0:
256,192,223662,1,0,0:0:0:0:
256,192,223730,1,8,0:0:0:0:
256,192,223865,1,8,0:0:0:0:
256,192,224000,1,0,0:0:0:0:
256,192,224067,1,8,0:0:0:0:
256,192,224135,1,0,0:0:0:0:
256,192,224202,1,0,0:0:0:0:
256,192,224270,1,8,0:0:0:0:
256,192,224337,1,0,0:0:0:0:
256,192,224405,1,8,0:0:0:0:
256,192,224472,1,8,0:0:0:0:
256,192,224540,1,0,0:0:0:0:
256,192,224675,1,0,0:0:0:0:
256,192,224742,1,0,0:0:0:0:
256,192,224810,1,8,0:0:0:0:
256,192,224945,1,0,0:0:0:0:
256,192,225080,1,8,0:0:0:0:
256,192,225147,1,0,0:0:0:0:
256,192,225215,1,0,0:0:0:0:
256,192,225282,1,0,0:0:0:0:
256,192,225350,1,8,0:0:0:0:
256,192,225485,1,8,0:0:0:0:
256,192,225552,1,8,0:0:0:0:
256,192,225620,1,0,0:0:0:0:
256,192,225755,1,0,0:0:0:0:
256,192,225822,1,0,0:0:0:0:
256,192,225890,1,8,0:0:0:0:
256,192,226025,1,8,0:0:0:0:
256,192,226160,1,0,0:0:0:0:
256,192,226227,1,0,0:0:0:0:
256,192,226295,1,8,0:0:0:0:
256,192,226362,1,8,0:0:0:0:
256,192,226430,1,0,0:0:0:0:
256,192,226497,1,8,0:0:0:0:
256,192,226565,1,0,0:0:0:0:
256,192,226632,1,0,0:0:0:0:
256,192,226700,1,8,0:0:0:0:
256,192,226835,1,0,0:0:0:0:
256,192,226902,1,0,0:0:0:0:
256,192,226970,1,8,0:0:0:0:
256,192,227105,1,0,0:0:0:0:
256,192,227240,1,8,0:0:0:0:
256,192,227307,1,8,0:0:0:0:
256,192,227375,1,0,0:0:0:0:
256,192,227442,1,0,0:0:0:0:
256,192,227510,1,8,0:0:0:0:
256,192,227645,1,0,0:0:0:0:
256,192,227780,1,8,0:0:0:0:
256,192,227870,1,0,0:0:0:0:
256,192,227960,1,0,0:0:0:0:
256,192,228050,1,8,0:0:0:0:
256,192,228185,1,0,0:0:0:0:
256,192,228320,1,8,0:0:0:0:
256,192,228522,1,8,0:0:0:0:
256,192,228590,1,0,0:0:0:0:
256,192,228725,1,8,0:0:0:0:
256,192,228860,1,0,0:0:0:0:
256,192,228927,1,0,0:0:0:0:
256,192,228995,1,8,0:0:0:0:
256,192,229062,1,0,0:0:0:0:
256,192,229130,1,8,0:0:0:0:
256,192,229265,1,0,0:0:0:0:
256,192,229400,1,8,0:0:0:0:
256,192,229467,1,0,0:0:0:0:
256,192,229535,1,8,0:0:0:0:
256,192,229602,1,8,0:0:0:0:
256,192,229670,1,0,0:0:0:0:
256,192,229805,1,0,0:0:0:0:
256,192,229940,1,8,0:0:0:0:
256,192,230007,1,0,0:0:0:0:
256,192,230075,1,8,0:0:0:0:
256,192,230142,1,0,0:0:0:0:
256,192,230210,1,8,0:0:0:0:
256,192,230277,1,8,0:0:0:0:
256,192,230345,1,0,0:0:0:0:
256,192,230412,1,0,0:0:0:0:
256,192,230480,1,8,0:0:0:0:
256,192,230615,1,0,0:0:0:0:
256,192,230682,1,0,0:0:0:0:
256,192,230750,1,8,0:0:0:0:
256,192,230885,1,0,0:0:0:0:
256,192,231020,1,8,0:0:0:0:
256,192,231222,1,8,0:0:0:0:
256,192,231290,1,0,0:0:0:0:
256,192,231425,1,8,0:0:0:0:
256,192,231560,1,0,0:0:0:0:
256,192,231627,1,8,0:0:0:0:
256,192,231695,1,0,0:0:0:0:
256,192,231762,1,0,0:0:0:0:
256,192,231830,1,8,0:0:0:0:
256,192,231965,1,8,0:0:0:0:
256,192,232100,1,0,0:0:0:0:
256,192,232235,1,0,0:0:0:0:
256,192,232302,1,0,0:0:0:0:
256,192,232370,1,8,0:0:0:0:
256,192,232505,1,0,0:0:0:0:
256,192,232640,1,8,0:0:0:0:
256,192,232842,1,8,0:0:0:0:
256,192,232910,1,0,0:0:0:0:
256,192,233045,1,8,0:0:0:0:
256,192,233180,1,8,0:0:0:0:
256,192,233247,1,8,0:0:0:0:
256,192,233315,1,0,0:0:0:0:
256,192,233382,1,0,0:0:0:0:
256,192,233450,1,8,0:0:0:0:
256,192,233585,1,0,0:0:0:0:
256,192,233720,1,8,0:0:0:0:
256,192,233787,1,0,0:0:0:0:
256,192,233922,1,0,0:0:0:0:
256,192,233990,1,8,0:0:0:0:
256,192,234125,1,0,0:0:0:0:
256,192,234260,1,8,0:0:0:0:
256,192,234327,1,0,0:0:0:0:
256,192,234395,1,8,0:0:0:0:
256,192,234462,1,8,0:0:0:0:
256,192,234530,1,0,0:0:0:0:
256,192,234597,1,8,0:0:0:0:
256,192,234665,1,0,0:0:0:0:
256,192,234732,1,0,0:0:0:0:
256,192,234800,1,8,0:0:0:0:
256,192,234867,1,8,0:0:0:0:
256,192,234935,1,0,0:0:0:0:
256,192,235002,1,0,0:0:0:0:
256,192,235070,1,8,0:0:0:0:
256,192,235137,1,8,0:0:0:0:
256,192,235205,1,8,0:0:0:0:
256,192,235272,1,8,0:0:0:0:
256,192,235340,1,4,0:0:0:0:
256,192,235475,1,0,0:0:0:0:
256,192,235542,1,0,0:0:0:0:
256,192,235610,1,8,0:0:0:0:
256,192,235745,1,0,0:0:0:0:
256,192,235880,1,8,0:0:0:0:
256,192,235947,1,0,0:0:0:0:
256,192,236082,1,0,0:0:0:0:
256,192,236150,1,8,0:0:0:0:
256,192,236285,1,8,0:0:0:0:
256,192,236352,1,0,0:0:0:0:
256,192,236420,1,8,0:0:0:0:
256,192,236555,1,0,0:0:0:0:
256,192,236622,1,0,0:0:0:0:
256,192,236690,1,8,0:0:0:0:
256,192,236825,1,0,0:0:0:0:
256,192,236960,1,0,0:0:0:0:
256,192,237027,1,8,0:0:0:0:
256,192,237095,1,0,0:0:0:0:
256,192,237162,1,0,0:0:0:0:
256,192,237230,1,8,0:0:0:0:
256,192,237365,1,0,0:0:0:0:
256,192,237500,1,8,0:0:0:0:
256,192,237702,1,8,0:0:0:0:
256,192,237770,1,0,0:0:0:0:
256,192,237905,1,0,0:0:0:0:
256,192,238040,1,0,0:0:0:0:
256,192,238107,1,8,0:0:0:0:
256,192,238175,1,0,0:0:0:0:
256,192,238242,1,0,0:0:0:0:
256,192,238310,1,8,0:0:0:0:
256,192,238445,1,0,0:0:0:0:
256,192,238580,1,8,0:0:0:0:
256,192,238647,1,8,0:0:0:0:
256,192,238715,1,0,0:0:0:0:
256,192,238782,1,0,0:0:0:0:
256,192,238850,1,8,0:0:0:0:
256,192,238985,1,0,0:0:0:0:
256,192,239120,1,8,0:0:0:0:
256,192,239187,1,0,0:0:0:0:
256,192,239255,1,8,0:0:0:0:
256,192,239322,1,0,0:0:0:0:
256,192,239390,1,8,0:0:0:0:
256,192,239457,1,8,0:0:0:0:
256,192,239525,1,0,0:0:0:0:
256,192,239592,1,0,0:0:0:0:
256,192,239660,1,8,0:0:0:0:
256,192,239795,1,8,0:0:0:0:
256,192,239862,1,8,0:0:0:0:
256,192,239930,1,0,0:0:0:0:
256,192,240065,1,8,0:0:0:0:
256,192,240200,1,0,0:0:0:0:
256,192,240267,1,0,0:0:0:0:
256,192,240335,1,8,0:0:0:0:
256,192,240402,1,0,0:0:0:0:
256,192,240470,1,8,0:0:0:0:
256,192,240605,1,0,0:0:0:0:
256,192,240740,1,8,0:0:0:0:
256,192,240807,1,8,0:0:0:0:
256,192,240875,1,0,0:0:0:0:
256,192,240942,1,0,0:0:0:0:
256,192,241010,1,8,0:0:0:0:
256,192,241077,1,0,0:0:0:0:
256,192,241145,1,8,0:0:0:0:
256,192,241212,1,8,0:0:0:0:
256,192,241280,1,0,0:0:0:0:
256,192,241347,1,8,0:0:0:0:
256,192,241415,1,0,0:0:0:0:
256,192,241482,1,0,0:0:0:0:
256,192,241550,1,8,0:0:0:0:
256,192,241617,1,0,0:0:0:0:
256,192,241685,1,8,0:0:0:0:
256,192,241752,1,8,0:0:0:0:
256,192,241820,1,0,0:0:0:0:
256,192,241955,1,0,0:0:0:0:
256,192,242022,1,0,0:0:0:0:
256,192,242090,1,8,0:0:0:0:
256,192,242225,1,0,0:0:0:0:
256,192,242360,1,8,0:0:0:0:
256,192,242427,1,0,0:0:0:0:
256,192,242495,1,0,0:0:0:0:
256,192,242562,1,0,0:0:0:0:
256,192,242630,1,8,0:0:0:0:
256,192,242765,1,8,0:0:0:0:
256,192,242832,1,8,0:0:0:0:
256,192,242900,1,0,0:0:0:0:
256,192,243035,1,0,0:0:0:0:
256,192,243102,1,0,0:0:0:0:
256,192,243170,1,8,0:0:0:0:
256,192,243305,1,8,0:0:0:0:
256,192,243440,1,0,0:0:0:0:
256,192,243507,1,0,0:0:0:0:
256,192,243575,1,8,0:0:0:0:
256,192,243642,1,8,0:0:0:0:
256,192,243710,1,0,0:0:0:0:
256,192,243777,1,8,0:0:0:0:
256,192,243845,1,0,0:0:0:0:
256,192,243912,1,0,0:0:0:0:
256,192,243980,1,8,0:0:0:0:
256,192,244115,1,0,0:0:0:0:
256,192,244182,1,0,0:0:0:0:
256,192,244250,1,8,0:0:0:0:
256,192,244385,1,0,0:0:0:0:
256,192,244520,1,8,0:0:0:0:
256,192,244587,1,8,0:0:0:0:
256,192,244655,1,0,0:0:0:0:
256,192,244722,1,0,0:0:0:0:
256,192,244790,1,8,0:0:0:0:
256,192,244925,1,0,0:0:0:0:
256,192,245060,1,8,0:0:0:0:
256,192,245150,1,0,0:0:0:0:
256,192,245240,1,0,0:0:0:0:
256,192,245330,1,8,0:0:0:0:
256,192,245465,1,0,0:0:0:0:
256,192,245600,1,8,0:0:0:0:
256,192,245802,1,8,0:0:0:0:
256,192,245870,1,0,0:0:0:0:
256,192,246005,1,8,0:0:0:0:
256,192,246140,1,0,0:0:0:0:
256,192,246207,1,0,0:0:0:0:
256,192,246275,1,8,0:0:0:0:
256,192,246342,1,0,0:0:0:0:
256,192,246410,1,8,0:0:0:0:
256,192,246545,1,0,0:0:0:0:
256,192,246680,1,8,0:0:0:0:
256,192,246747,1,0,0:0:0:0:
256,192,246815,1,8,0:0:0:0:
256,192,246882,1,8,0:0:0:0:
256,192,246950,1,0,0:0:0:0:
256,192,247085,1,0,0:0:0:0:
256,192,247220,1,8,0:0:0:0:
256,192,247287,1,0,0:0:0:0:
256,192,247355,1,8,0:0:0:0:
256,192,247422,1,0,0:0:0:0:
256,192,247490,1,8,0:0:0:0:
256,192,247557,1,8,0:0:0:0:
256,192,247625,1,0,0:0:0:0:
256,192,247692,1,0,0:0:0:0:
256,192,247760,1,8,0:0:0:0:
256,192,247895,1,0,0:0:0:0:
256,192,247962,1,0,0:0:0:0:
256,192,248030,1,8,0:0:0:0:
256,192,248165,1,0,0:0:0:0:
256,192,248300,1,8,0:0:0:0:
256,192,248502,1,8,0:0:0:0:
256,192,248570,1,0,0:0:0:0:
256,192,248705,1,8,0:0:0:0:
256,192,248840,1,0,0:0:0:0:
256,192,248907,1,8,0:0:0:0:
256,192,248975,1,0,0:0:0:0:
256,192,249042,1,0,0:0:0:0:
256,192,249110,1,8,0:0:0:0:
256,192,249245,1,8,0:0:0:0:
256,192,249380,1,0,0:0:0:0:
256,192,249515,1,0,0:0:0:0:
256,192,249582,1,0,0:0:0:0:
256,192,249650,1,8,0:0:0:0:
256,192,249785,1,0,0:0:0:0:
256,192,249920,1,8,0:0:0:0:
256,192,250122,1,8,0:0:0:0:
256,192,250190,1,0,0:0:0:0:
256,192,250325,1,8,0:0:0:0:
256,192,250460,1,8,0:0:0:0:
256,192,250527,1,8,0:0:0:0:
256,192,250595,1,0,0:0:0:0:
256,192,250662,1,0,0:0:0:0:
256,192,250730,1,8,0:0:0:0:
256,192,250865,1,0,0:0:0:0:
256,192,251000,1,8,0:0:0:0:
256,192,251067,1,0,0:0:0:0:
256,192,251202,1,0,0:0:0:0:
256,192,251270,1,8,0:0:0:0:
256,192,251405,1,0,0:0:0:0:
256,192,251540,1,8,0:0:0:0:
256,192,251607,1,0,0:0:0:0:
256,192,251675,1,8,0:0:0:0:
256,192,251742,1,8,0:0:0:0:
256,192,251810,1,0,0:0:0:0:
256,192,251877,1,8,0:0:0:0:
256,192,251945,1,0,0:0:0:0:
256,192,252012,1,0,0:0:0:0:
256,192,252080,1,8,0:0:0:0:
256,192,252148,1,8,0:0:0:0:
256,192,252215,1,0,0:0:0:0:
256,192,252283,1,0,0:0:0:0:
256,192,252350,1,8,0:0:0:0:
256,192,252418,1,0,0:0:0:0:
256,192,252485,1,8,0:0:0:0:
256,192,252620,1,4,0:0:0:0:
256,192,252755,1,0,0:0:0:0:
256,192,252823,1,0,0:0:0:0:
256,192,252890,1,8,0:0:0:0:
256,192,253025,1,8,0:0:0:0:
256,192,253160,1,0,0:0:0:0:
256,192,253228,1,0,0:0:0:0:
256,192,253295,1,8,0:0:0:0:
256,192,253363,1,8,0:0:0:0:
256,192,253430,1,0,0:0:0:0:
256,192,253565,1,0,0:0:0:0:
256,192,253700,1,8,0:0:0:0:
256,192,253768,1,8,0:0:0:0:
256,192,253835,1,0,0:0:0:0:
256,192,253903,1,0,0:0:0:0:
256,192,253970,1,8,0:0:0:0:
256,192,254038,1,0,0:0:0:0:
256,192,254105,1,8,0:0:0:0:
256,192,254173,1,0,0:0:0:0:
256,192,254240,1,8,0:0:0:0:
256,192,254308,1,8,0:0:0:0:
256,192,254375,1,0,0:0:0:0:
256,192,254443,1,0,0:0:0:0:
256,192,254510,1,8,0:0:0:0:
256,192,254578,1,0,0:0:0:0:
256,192,254645,1,8,0:0:0:0:
256,192,254780,1,0,0:0:0:0:
256,192,254848,1,0,0:0:0:0:
256,192,254915,1,8,0:0:0:0:
256,192,254983,1,0,0:0:0:0:
256,192,255050,1,8,0:0:0:0:
256,192,255118,1,8,0:0:0:0:
256,192,255185,1,0,0:0:0:0:
256,192,255253,1,0,0:0:0:0:
256,192,255320,1,8,0:0:0:0:
256,192,255388,1,0,0:0:0:0:
256,192,255455,1,8,0:0:0:0:
256,192,255523,1,8,0:0:0:0:
256,192,255590,1,0,0:0:0:0:
256,192,255658,1,8,0:0:0:0:
256,192,255725,1,0,0:0:0:0:
256,192,255793,1,0,0:0:0:0:
256,192,255860,1,8,0:0:0:0:
256,192,255928,1,8,0:0:0:0:
256,192,255995,1,0,0:0:0:0:
256,192,256063,1,0,0:0:0:0:
256,192,256130,1,8,0:0:0:0:
256,192,256198,1,0,0:0:0:0:
256,192,256265,1,8,0:0:0:0:
256,192,256333,1,8,0:0:0:0:
256,192,256400,1,0,0:0:0:0:
256,192,256468,1,0,0:0:0:0:
256,192,256535,1,8,0:0:0:0:
256,192,256603,1,8,0:0:0:0:
256,192,256670,1,0,0:0:0:0:
256,192,256738,1,8,0:0:0:0:
256,192,256805,1,0,0:0:0:0:
256,192,256873,1,0,0:0:0:0:
256,192,256940,1,12,0:0:0:0:
256,192,257008,12,0,261260,0:0:0:0:
