osu file format v14

[General]
AudioFilename: audio.ogg
AudioLeadIn: 0
PreviewTime: 164059
Countdown: 0
SampleSet: Normal
StackLeniency: 0.7
Mode: 1
LetterboxInBreaks: 0
WidescreenStoryboard: 1

[Editor]
Bookmarks: 2058,10698,27978,47418,64698,81978,107899,125179,146779,164059,200779,218060,235340
DistanceSpacing: 0.7
BeatDivisor: 4
GridSize: 32
TimelineZoom: 1.599999

[Metadata]
Title:FREEDOM DiVE
TitleUnicode:FREEDOM DiVE↓
Artist:xi
ArtistUnicode:xi
Creator:gaston_2199
Version:FUTSUU
Source:MAXBEAT
Tags:Parousia VOEZ Muse Dash SOUND VOLTEX IV HEAVENLY HAVEN 太鼓の達人 セッションでドドンがドン! Taiko no Tatsujin Drum Session! CHUNITHM PLUS Cytus II WACCA BMS くらんて Kurante piano electronic happy hardcore video game instrumental full long version extended fa featured artist KyeX
BeatmapID:3606487
BeatmapSetID:1613246

[Difficulty]
HPDrainRate:7
CircleSize:2
OverallDifficulty:4
ApproachRate:10
SliderMultiplier:1.4
SliderTickRate:1

[Events]
//Background and Video events
0,0,"BG.jpg",0,0
//Break Periods
//Storyboard Layer 0 (Background)
//Storyboard Layer 1 (Fail)
//Storyboard Layer 2 (Pass)
//Storyboard Layer 3 (Foreground)
//Storyboard Layer 4 (Overlay)
//Storyboard Sound Samples

[TimingPoints]
2058,270.002700027,4,1,0,80,1,0
2260,-111.111111111111,4,1,0,80,0,0
9618,-111.111111111111,4,1,0,80,0,0
9753,-110.236220472441,4,1,0,80,0,0
9820,-109.375,4,1,0,80,0,0
9888,-108.527131782946,4,1,0,80,0,0
10023,-107.692307692308,4,1,0,80,0,0
10090,-106.870229007634,4,1,0,80,0,0
10158,-106.060606060606,4,1,0,80,0,0
10225,-105.263157894737,4,1,0,80,0,0
10293,-104.477611940299,4,1,0,80,0,0
10360,-103.703703703704,4,1,0,80,0,0
10428,-102.941176470588,4,1,0,80,0,0
10495,-102.189781021898,4,1,0,80,0,0
10563,-101.449275362319,4,1,0,80,0,0
10630,-100.719424460432,4,1,0,80,0,0
10698,-100,4,1,0,80,0,0
28113,-125,4,1,0,70,0,0
45258,-123.893805309735,4,1,0,70,0,0
45393,-122.80701754386,4,1,0,70,0,0
45460,-121.739130434783,4,1,0,70,0,0
45528,-120.689655172414,4,1,0,70,0,0
45663,-119.65811965812,4,1,0,70,0,0
45798,-118.64406779661,4,1,0,70,0,0
45865,-117.647058823529,4,1,0,70,0,0
45933,-116.666666666667,4,1,0,70,0,0
46000,-115.702479338843,4,1,0,70,0,0
46068,-114.754098360656,4,1,0,70,0,0
46203,-113.821138211382,4,1,0,70,0,0
46270,-112.903225806452,4,1,0,70,0,0
46338,-112,4,1,0,70,0,0
46473,-111.111111111111,4,1,0,70,0,0
46540,-110.236220472441,4,1,0,70,0,0
46608,-109.375,4,1,0,70,0,0
46675,-108.527131782946,4,1,0,70,0,0
46743,-107.692307692308,4,1,0,70,0,0
46810,-106.870229007634,4,1,0,70,0,0
46878,-106.060606060606,4,1,0,70,0,0
46945,-105.263157894737,4,1,0,70,0,0
47013,-104.477611940299,4,1,0,70,0,0
47080,-103.703703703704,4,1,0,70,0,0
47148,-102.941176470588,4,1,0,70,0,0
47215,-102.189781021898,4,1,0,70,0,0
47283,-101.449275362319,4,1,0,70,0,0
47350,-100.719424460432,4,1,0,70,0,0
47418,-100,4,1,0,80,0,0
64698,-100,4,1,0,90,0,1
81978,-100,4,1,0,80,0,0
82248,-125,4,1,0,80,0,0
98178,-125,4,1,0,80,0,0
98381,-124.272848495242,4,1,0,80,0,0
98448,-124.03223845942,4,1,0,80,0,0
98718,-123.079346793291,4,1,0,80,0,0
98853,-122.608370473452,4,1,0,80,0,0
98988,-122.140984896046,4,1,0,80,0,0
99258,-121.216969890917,4,1,0,80,0,0
99461,-120.532900057735,4,1,0,80,0,0
99528,-120.30668580345,4,1,0,80,0,0
99663,-119.856651444872,4,1,0,80,0,0
99798,-119.409971449076,4,1,0,80,0,0
99933,-118.96660845234,4,1,0,80,0,0
100068,-118.526525643806,4,1,0,80,0,0
100338,-117.656056051345,4,1,0,80,0,0
100541,-117.011616913327,4,1,0,80,0,0
100608,-116.798278860563,4,1,0,80,0,0
100743,-116.374063479724,4,1,0,80,0,0
100878,-115.952918476982,4,1,0,80,0,0
101013,-115.534810638445,4,1,0,80,0,0
101081,-115.326951908661,4,1,0,80,0,0
101148,-115.119707227561,4,1,0,80,0,0
101283,-114.707575976563,4,1,0,80,0,0
101418,-114.298515719475,4,1,0,80,0,0
101621,-113.690108051079,4,1,0,80,0,0
101688,-113.488828159756,4,1,0,80,0,0
101823,-113.088271049968,4,1,0,80,0,0
101891,-112.88898722774,4,1,0,80,0,0
101958,-112.690531516161,4,1,0,80,0,0
102094,-112.295579933678,4,1,0,80,0,0
102229,-111.90338709172,4,1,0,80,0,0
102296,-111.708253787748,4,1,0,80,0,0
102364,-111.513924186143,4,1,0,80,0,0
102499,-111.127162812406,4,1,0,80,0,0
102634,-110.726643598616,4,1,0,80,0,0
102701,-110.535344781847,4,1,0,80,0,0
102769,-110.344827586207,4,1,0,80,0,0
102904,-109.965635738832,4,1,0,80,0,0
103039,-109.58904109589,4,1,0,80,0,0
103174,-109.215017064846,4,1,0,80,0,0
103241,-109.028901381178,4,1,0,80,0,0
103309,-108.843537414966,4,1,0,80,0,0
103376,-108.658802666922,4,1,0,80,0,0
103444,-108.474576271186,4,1,0,80,0,0
103579,-108.108108108108,4,1,0,80,0,0
103714,-107.744107744108,4,1,0,80,0,0
103781,-107.562967361093,4,1,0,80,0,0
103849,-107.38255033557,4,1,0,80,0,0
103916,-107.202737529106,4,1,0,80,0,0
103984,-107.023411371237,4,1,0,80,0,0
104051,-106.844684156429,4,1,0,80,0,0
104119,-106.666666666667,4,1,0,80,0,0
104254,-106.312292358804,4,1,0,80,0,0
104321,-106.135930408793,4,1,0,80,0,0
104389,-105.960264900662,4,1,0,80,0,0
104524,-105.610561056106,4,1,0,80,0,0
104659,-105.263157894737,4,1,0,80,0,0
104794,-104.918032786885,4,1,0,80,0,0
104861,-104.746262653349,4,1,0,80,0,0
104929,-104.575163398693,4,1,0,80,0,0
105064,-104.234527687296,4,1,0,80,0,0
105131,-104.064986502771,4,1,0,80,0,0
105199,-103.896103896104,4,1,0,80,0,0
105266,-103.727768546006,4,1,0,80,0,0
105334,-103.559870550162,4,1,0,80,0,0
105401,-103.392515209039,4,1,0,80,0,0
105469,-103.225806451613,4,1,0,80,0,0
105536,-103.059634426865,4,1,0,80,0,0
105604,-102.893890675241,4,1,0,80,0,0
105739,-102.564102564103,4,1,0,80,0,0
105806,-102.400052428827,4,1,0,80,0,0
105874,-102.23642172524,4,1,0,80,0,0
105941,-102.073417326146,4,1,0,80,0,0
106009,-101.910828025478,4,1,0,80,0,0
106076,-101.748859395286,4,1,0,80,0,0
106144,-101.587301587302,4,1,0,80,0,0
106211,-101.426358885,4,1,0,80,0,0
106279,-101.26582278481,4,1,0,80,0,0
106346,-101.10589629366,4,1,0,80,0,0
106414,-100.946372239748,4,1,0,80,0,0
106481,-100.787350784327,4,1,0,80,0,0
106549,-100.62893081761,4,1,0,80,0,0
106616,-100.471008085907,4,1,0,80,0,0
106684,-100.313479623824,4,1,0,80,0,0
106751,-100.1564443661,4,1,0,80,0,0
106819,-100,4,1,0,80,0,0
107899,-100,4,1,0,90,0,1
146779,-100,4,1,0,80,0,0
147049,-111.111111111111,4,1,0,80,0,0
164059,-100,4,1,0,90,0,0
196459,-100,4,1,0,90,0,0
196594,-100,4,1,0,90,0,0
196729,-100,4,1,0,90,0,0
196797,-100,4,1,0,90,0,0
196864,-100,4,1,0,90,0,0
196932,-100,4,1,0,90,0,0
196999,-100,4,1,0,90,0,0
197067,-100,4,1,0,90,0,0
197134,-100,4,1,0,90,0,0
197202,-100,4,1,0,90,0,0
197269,-100,4,1,0,90,0,0
197337,-100,4,1,0,90,0,0
197404,-100,4,1,0,90,0,0
197472,-100,4,1,0,90,0,0
197539,-100,4,1,0,90,0,0
197674,-100,4,1,0,90,0,0
197742,-100,4,1,0,90,0,0
197809,-100,4,1,0,90,0,0
197877,-100,4,1,0,90,0,0
197944,-100,4,1,0,90,0,0
198012,-100,4,1,0,90,0,0
198079,-100,4,1,0,90,0,0
198214,-100,4,1,0,90,0,0
198282,-100,4,1,0,90,0,0
198349,-100,4,1,0,90,0,0
198417,-100,4,1,0,90,0,0
198484,-100,4,1,0,90,0,0
198619,-100,4,1,0,90,0,0
198687,-100,4,1,0,90,0,0
198754,-100,4,1,0,90,0,0
198822,-100,4,1,0,90,0,0
198889,-100,4,1,0,90,0,0
198957,-100,4,1,0,90,0,0
199024,-100,4,1,0,90,0,0
199092,-100,4,1,0,90,0,0
199159,-100,4,1,0,90,0,0
199227,-100,4,1,0,90,0,0
199294,-100,4,1,0,90,0,0
199362,-100,4,1,0,90,0,0
199429,-100,4,1,0,90,0,0
199497,-100,4,1,0,90,0,0
199564,-100,4,1,0,90,0,0
199632,-100,4,1,0,90,0,0
199699,-100,4,1,0,90,0,0
199767,-100,4,1,0,90,0,0
199834,-100,4,1,0,90,0,0
199902,-100,4,1,0,90,0,0
199969,-100,4,1,0,90,0,0
200037,-100,4,1,0,90,0,0
200104,-100,4,1,0,90,0,0
200172,-100,4,1,0,90,0,0
200239,-100,4,1,0,90,0,0
200307,-100,4,1,0,90,0,0
200374,-100,4,1,0,90,0,0
200509,-100,4,1,0,90,0,0
200577,-100,4,1,0,90,0,0
200644,-100,4,1,0,90,0,0
200712,-100,4,1,0,90,0,0
200779,-100,4,1,0,90,0,0
200914,-125,4,1,0,80,0,0
218060,-100,4,1,0,90,0,1
252620,-99.8487140695915,4,1,0,90,0,1
252688,-99.6978851963746,4,1,0,90,0,1
252755,-99.5475113122172,4,1,0,90,0,1
252823,-99.3975903614458,4,1,0,90,0,1
252890,-99.2481203007519,4,1,0,90,0,1
252958,-99.0990990990991,4,1,0,90,0,1
253025,-98.9505247376312,4,1,0,90,0,1
253093,-98.8023952095808,4,1,0,90,0,1
253160,-98.6547085201794,4,1,0,90,0,1
253228,-98.5074626865672,4,1,0,90,0,1
253295,-98.3606557377049,4,1,0,90,0,1
253363,-98.2142857142857,4,1,0,90,0,1
253430,-98.0683506686478,4,1,0,90,0,1
253498,-97.9228486646884,4,1,0,90,0,1
253565,-97.7777777777778,4,1,0,90,0,1
253633,-97.6331360946746,4,1,0,90,0,1
253700,-97.4889217134416,4,1,0,90,0,1
253768,-97.3451327433628,4,1,0,90,0,1
253835,-97.2017673048601,4,1,0,90,0,1
253903,-97.0588235294118,4,1,0,90,0,1
253970,-96.9162995594714,4,1,0,90,0,1
254038,-96.7741935483871,4,1,0,90,0,1
254105,-96.6325036603221,4,1,0,90,0,1
254173,-96.4912280701754,4,1,0,90,0,1
254240,-96.3503649635037,4,1,0,90,0,1
254308,-96.2099125364431,4,1,0,90,0,1
254375,-96.0698689956332,4,1,0,90,0,1
254443,-95.9302325581395,4,1,0,90,0,1
254510,-95.7910014513788,4,1,0,90,0,1
254578,-95.6521739130435,4,1,0,90,0,1
254645,-95.5137481910275,4,1,0,90,0,1
254713,-95.3757225433526,4,1,0,90,0,1
254780,-95.2380952380952,4,1,0,90,0,1
254848,-95.1008645533141,4,1,0,90,0,1
254915,-94.9640287769784,4,1,0,90,0,1
254983,-94.8275862068965,4,1,0,90,0,1
255050,-94.6915351506456,4,1,0,90,0,1
255118,-94.5558739255014,4,1,0,90,0,1
255185,-94.4206008583691,4,1,0,90,0,1
255253,-94.2857142857143,4,1,0,90,0,1
255320,-94.151212553495,4,1,0,90,0,1
255388,-94.017094017094,4,1,0,90,0,1
255455,-93.8833570412518,4,1,0,90,0,1
255523,-93.75,4,1,0,90,0,1
255590,-93.6170212765957,4,1,0,90,0,1
255658,-93.4844192634561,4,1,0,90,0,1
255725,-93.3521923620933,4,1,0,90,0,1
255793,-93.2203389830509,4,1,0,90,0,1
255860,-93.0888575458392,4,1,0,90,0,1
255928,-92.9577464788732,4,1,0,90,0,1
255995,-92.8270042194093,4,1,0,90,0,1
256063,-92.6966292134831,4,1,0,90,0,1
256130,-92.5666199158485,4,1,0,90,0,1
256198,-92.436974789916,4,1,0,90,0,1
256265,-92.3076923076923,4,1,0,90,0,1
256333,-92.1787709497207,4,1,0,90,0,1
256400,-92.0502092050209,4,1,0,90,0,1
256468,-91.9220055710306,4,1,0,90,0,1
256535,-91.7941585535466,4,1,0,90,0,1
256670,-91.4127423822715,4,1,0,90,0,1
256738,-91.2863070539419,4,1,0,90,0,1
256805,-91.1602209944751,4,1,0,90,0,1
256873,-91.0344827586207,4,1,0,90,0,1
256940,-90.9090909090909,4,1,0,90,0,0
257008,-66.6666666666667,4,1,0,90,0,0
257210,-100,4,1,0,90,0,0

[HitObjects]
256,192,1247,12,0,1922,0:0:0:0:
229,121,2058,5,12,0:0:0:0:
229,121,2868,1,8,0:0:0:0:
229,121,3138,1,0,0:0:0:0:
224,96,3678,1,8,0:0:0:0:
224,96,3948,1,0,0:0:0:0:
224,96,4218,1,12,0:0:0:0:
229,121,5028,1,8,0:0:0:0:
229,121,5298,1,0,0:0:0:0:
224,96,5838,1,0,0:0:0:0:
224,96,5973,1,0,0:0:0:0:
224,96,6108,1,8,0:0:0:0:
224,96,6378,1,12,0:0:0:0:
229,121,7188,1,8,0:0:0:0:
229,121,7458,1,0,0:0:0:0:
224,96,7998,1,8,0:0:0:0:
224,96,8538,1,12,0:0:0:0:
224,96,9078,1,12,0:0:0:0:
224,96,9618,1,12,0:0:0:0:
224,96,9888,1,12,0:0:0:0:
224,96,10158,1,12,0:0:0:0:
224,96,10428,1,12,0:0:0:0:
224,96,10698,1,4,0:0:0:0:
224,96,10968,1,8,0:0:0:0:
224,96,11373,1,0,0:0:0:0:
224,96,11508,1,8,0:0:0:0:
224,96,11778,1,0,0:0:0:0:
224,96,12048,1,8,0:0:0:0:
224,96,12453,1,0,0:0:0:0:
224,96,12588,1,8,0:0:0:0:
224,96,12858,1,12,0:0:0:0:
224,96,13128,1,8,0:0:0:0:
224,96,13533,1,0,0:0:0:0:
224,96,13668,1,8,0:0:0:0:
224,96,13938,1,0,0:0:0:0:
224,96,14208,1,12,0:0:0:0:
224,96,14478,1,12,0:0:0:0:
224,96,15018,1,4,0:0:0:0:
224,96,15288,1,8,0:0:0:0:
224,96,15828,1,4,0:0:0:0:
224,96,16368,1,12,0:0:0:0:
224,96,16908,1,0,0:0:0:0:
224,96,17178,1,12,0:0:0:0:
224,64,17718,1,12,0:0:0:0:
224,64,18258,1,12,0:0:0:0:
224,64,18528,1,12,0:0:0:0:
224,64,18798,1,12,0:0:0:0:
224,64,19068,1,8,0:0:0:0:
224,64,19203,1,8,0:0:0:0:
224,96,19338,1,4,0:0:0:0:
224,96,19608,1,8,0:0:0:0:
224,96,20013,1,0,0:0:0:0:
224,96,20148,1,8,0:0:0:0:
224,96,20418,1,0,0:0:0:0:
224,96,20688,1,8,0:0:0:0:
224,96,21093,1,0,0:0:0:0:
224,96,21228,1,8,0:0:0:0:
224,96,21498,1,12,0:0:0:0:
224,96,21768,1,8,0:0:0:0:
224,96,22173,1,0,0:0:0:0:
224,96,22308,1,8,0:0:0:0:
224,96,22578,1,0,0:0:0:0:
224,96,22848,1,12,0:0:0:0:
224,96,23118,1,12,0:0:0:0:
224,96,23658,1,4,0:0:0:0:
224,96,23928,1,8,0:0:0:0:
224,96,24468,1,4,0:0:0:0:
224,96,25008,1,12,0:0:0:0:
224,96,25818,1,8,0:0:0:0:
224,96,26088,1,8,0:0:0:0:
224,64,26358,1,0,0:0:0:0:
224,64,26628,1,0,0:0:0:0:
224,64,26898,1,8,0:0:0:0:
224,64,27033,1,0,0:0:0:0:
224,64,27168,1,8,0:0:0:0:
224,64,27438,1,0,0:0:0:0:
224,64,27573,1,0,0:0:0:0:
224,64,27708,1,8,0:0:0:0:
248,192,27978,5,4,0:0:0:0:
216,192,29058,1,8,0:0:0:0:
216,192,29598,1,8,0:0:0:0:
248,160,30138,1,0,0:0:0:0:
216,192,31218,1,0,0:0:0:0:
216,192,31758,1,8,0:0:0:0:
216,192,32028,1,8,0:0:0:0:
216,192,32298,1,0,0:0:0:0:
216,192,32838,1,0,0:0:0:0:
216,192,33378,1,8,0:0:0:0:
216,192,33648,1,8,0:0:0:0:
216,192,33918,1,0,0:0:0:0:
216,192,34188,1,8,0:0:0:0:
248,192,34458,1,0,0:0:0:0:
248,192,34998,1,8,0:0:0:0:
216,192,35268,1,0,0:0:0:0:
248,192,35538,1,0,0:0:0:0:
248,192,36618,5,4,0:0:0:0:
216,192,37698,1,8,0:0:0:0:
216,192,37968,1,0,0:0:0:0:
216,192,38238,1,8,0:0:0:0:
216,192,38778,1,4,0:0:0:0:
216,192,39858,1,8,0:0:0:0:
216,192,40128,1,8,0:0:0:0:
216,192,40398,1,0,0:0:0:0:
248,192,40938,1,4,0:0:0:0:
248,192,42018,1,4,0:0:0:0:
248,160,42558,1,4,0:0:0:0:
248,192,43098,1,4,0:0:0:0:
248,192,43638,1,4,0:0:0:0:
248,192,43908,1,4,0:0:0:0:
248,192,44448,1,12,0:0:0:0:
248,192,44718,1,12,0:0:0:0:
256,192,45258,1,0,0:0:0:0:
256,192,45528,1,8,0:0:0:0:
256,192,45798,1,0,0:0:0:0:
256,192,46068,1,0,0:0:0:0:
256,192,46338,1,8,0:0:0:0:
256,192,46473,1,0,0:0:0:0:
256,192,46608,1,8,0:0:0:0:
256,192,46878,1,0,0:0:0:0:
256,192,47013,1,0,0:0:0:0:
256,192,47148,1,8,0:0:0:0:
256,192,47418,1,4,0:0:0:0:
256,192,47958,1,8,0:0:0:0:
256,192,48228,1,8,0:0:0:0:
256,192,48498,1,0,0:0:0:0:
256,192,48768,1,8,0:0:0:0:
253,185,48903,1,0,0:0:0:0:
256,192,49038,1,0,0:0:0:0:
256,192,49308,1,8,0:0:0:0:
256,192,49578,1,0,0:0:0:0:
256,192,50118,1,8,0:0:0:0:
256,192,50388,1,0,0:0:0:0:
256,192,50658,1,8,0:0:0:0:
256,192,50793,1,0,0:0:0:0:
256,192,50928,1,8,0:0:0:0:
256,192,51198,1,0,0:0:0:0:
256,192,51738,1,0,0:0:0:0:
256,192,52008,1,8,0:0:0:0:
256,192,52278,1,8,0:0:0:0:
251,178,52548,1,0,0:0:0:0:
256,192,53088,1,8,0:0:0:0:
256,192,53358,1,0,0:0:0:0:
256,192,53628,1,8,0:0:0:0:
256,192,53898,1,0,0:0:0:0:
256,192,54168,1,0,0:0:0:0:
256,192,54438,1,8,0:0:0:0:
256,192,54708,1,0,0:0:0:0:
256,192,54978,1,8,0:0:0:0:
256,192,55248,1,8,0:0:0:0:
256,192,55383,1,8,0:0:0:0:
256,192,55518,1,0,0:0:0:0:
256,192,55788,1,8,0:0:0:0:
256,192,56058,1,4,0:0:0:0:
256,192,56598,1,8,0:0:0:0:
256,192,56868,1,8,0:0:0:0:
256,192,57138,1,0,0:0:0:0:
256,192,57408,1,8,0:0:0:0:
253,185,57543,1,0,0:0:0:0:
256,192,57678,1,0,0:0:0:0:
256,192,57948,1,8,0:0:0:0:
256,192,58218,1,0,0:0:0:0:
256,192,58758,1,8,0:0:0:0:
256,192,59028,1,0,0:0:0:0:
256,192,59298,1,8,0:0:0:0:
256,192,59433,1,0,0:0:0:0:
256,192,59568,1,8,0:0:0:0:
256,192,59838,1,0,0:0:0:0:
256,192,60378,1,0,0:0:0:0:
256,192,60648,1,8,0:0:0:0:
256,192,60918,1,8,0:0:0:0:
256,192,61188,1,0,0:0:0:0:
256,192,61728,1,8,0:0:0:0:
256,192,61998,1,0,0:0:0:0:
256,192,62268,1,8,0:0:0:0:
256,192,62538,5,0,0:0:0:0:
256,192,62808,1,8,0:0:0:0:
256,192,62943,1,8,0:0:0:0:
256,192,63078,1,0,0:0:0:0:
256,192,63348,1,0,0:0:0:0:
256,192,63483,1,8,0:0:0:0:
256,192,63618,1,0,0:0:0:0:
256,192,63888,1,8,0:0:0:0:
256,192,64158,1,8,0:0:0:0:
256,192,64293,5,8,0:0:0:0:
256,192,64428,1,8,0:0:0:0:
248,128,64698,5,4,0:0:0:0:
248,192,65238,1,8,0:0:0:0:
248,192,65508,1,0,0:0:0:0:
248,192,65643,1,8,0:0:0:0:
248,192,65778,1,0,0:0:0:0:
242,151,66183,1,8,0:0:0:0:
216,96,66318,1,0,0:0:0:0:
214,87,66588,1,8,0:0:0:0:
216,64,66858,1,0,0:0:0:0:
216,64,67398,1,0,0:0:0:0:
216,96,67668,1,8,0:0:0:0:
248,160,67803,1,0,0:0:0:0:
248,128,67938,1,0,0:0:0:0:
246,128,68208,1,8,0:0:0:0:
216,64,68478,1,8,0:0:0:0:
216,96,68613,1,8,0:0:0:0:
216,64,68748,1,0,0:0:0:0:
216,64,69018,1,8,0:0:0:0:
248,128,69558,1,8,0:0:0:0:
248,96,69828,1,0,0:0:0:0:
248,96,70098,1,8,0:0:0:0:
216,32,70233,1,0,0:0:0:0:
248,96,70368,1,0,0:0:0:0:
248,96,70638,1,8,0:0:0:0:
248,64,71178,1,0,0:0:0:0:
248,64,71313,1,0,0:0:0:0:
248,64,71448,1,8,0:0:0:0:
216,64,71718,1,0,0:0:0:0:
216,64,71988,1,8,0:0:0:0:
248,64,72258,1,0,0:0:0:0:
220,58,72798,1,8,0:0:0:0:
216,64,72933,1,0,0:0:0:0:
216,64,73068,1,8,0:0:0:0:
216,64,73338,1,4,0:0:0:0:
248,96,73878,1,0,0:0:0:0:
248,96,74148,1,8,0:0:0:0:
248,96,74418,1,0,0:0:0:0:
248,96,74553,1,8,0:0:0:0:
248,96,74688,1,0,0:0:0:0:
248,64,74958,1,8,0:0:0:0:
248,64,75498,1,0,0:0:0:0:
248,64,75768,1,8,0:0:0:0:
248,64,76038,1,0,0:0:0:0:
248,64,76308,1,0,0:0:0:0:
248,64,76578,1,8,0:0:0:0:
248,64,76713,1,8,0:0:0:0:
248,64,76848,1,8,0:0:0:0:
248,64,77118,1,0,0:0:0:0:
248,64,77388,1,8,0:0:0:0:
248,64,77658,1,0,0:0:0:0:
216,64,78468,1,8,0:0:0:0:
248,64,78603,1,8,0:0:0:0:
248,32,78738,1,0,0:0:0:0:
216,64,79008,1,0,0:0:0:0:
216,64,79278,1,8,0:0:0:0:
216,64,79818,1,8,0:0:0:0:
216,64,80088,1,8,0:0:0:0:
216,64,80358,1,0,0:0:0:0:
216,64,80628,1,0,0:0:0:0:
216,64,80898,1,8,0:0:0:0:
216,64,81033,1,0,0:0:0:0:
216,64,81168,1,8,0:0:0:0:
216,32,81438,1,0,0:0:0:0:
216,64,81573,1,0,0:0:0:0:
216,64,81708,1,8,0:0:0:0:
207,118,81978,1,4,0:0:0:0:
224,128,82788,1,0,0:0:0:0:
224,128,83058,1,8,0:0:0:0:
224,128,83598,1,8,0:0:0:0:
224,128,83868,1,0,0:0:0:0:
224,128,84138,1,8,0:0:0:0:
224,128,84948,1,0,0:0:0:0:
224,128,85218,1,8,0:0:0:0:
224,128,85488,1,0,0:0:0:0:
224,128,85758,1,8,0:0:0:0:
224,128,86298,1,0,0:0:0:0:
224,128,87108,1,0,0:0:0:0:
224,128,87378,1,8,0:0:0:0:
224,128,87918,1,8,0:0:0:0:
224,128,88188,1,0,0:0:0:0:
224,128,88458,1,0,0:0:0:0:
224,128,88998,1,8,0:0:0:0:
224,128,89538,1,0,0:0:0:0:
224,128,89808,1,0,0:0:0:0:
224,128,90078,1,8,0:0:0:0:
224,128,90618,1,4,0:0:0:0:
253,124,91698,1,8,0:0:0:0:
256,128,92778,1,4,0:0:0:0:
256,128,93858,1,8,0:0:0:0:
256,128,94938,1,4,0:0:0:0:
256,128,96018,1,4,0:0:0:0:
256,128,96558,1,4,0:0:0:0:
256,128,97098,1,4,0:0:0:0:
256,128,97368,1,4,0:0:0:0:
256,128,97638,1,8,0:0:0:0:
256,128,97773,1,0,0:0:0:0:
256,128,97908,1,8,0:0:0:0:
256,128,98178,1,4,0:0:0:0:
256,128,98718,1,8,0:0:0:0:
256,128,99258,1,0,0:0:0:0:
255,105,99798,1,0,0:0:0:0:
264,122,100068,1,8,0:0:0:0:
256,128,100338,1,0,0:0:0:0:
256,128,100878,1,8,0:0:0:0:
256,128,101148,1,8,0:0:0:0:
256,128,101418,1,0,0:0:0:0:
256,128,101958,1,0,0:0:0:0:
256,128,102229,1,8,0:0:0:0:
256,128,102364,1,8,0:0:0:0:
256,128,102499,1,0,0:0:0:0:
256,128,102769,1,8,0:0:0:0:
256,128,103174,1,0,0:0:0:0:
256,128,103309,1,8,0:0:0:0:
256,128,103579,1,0,0:0:0:0:
256,128,103849,1,8,0:0:0:0:
256,128,104254,1,0,0:0:0:0:
256,128,104389,1,8,0:0:0:0:
256,128,104659,1,0,0:0:0:0:
256,128,104794,1,0,0:0:0:0:
256,128,104929,1,8,0:0:0:0:
256,128,105199,1,0,0:0:0:0:
256,128,105469,1,8,0:0:0:0:
256,128,105739,1,8,0:0:0:0:
256,128,105874,1,0,0:0:0:0:
256,128,106009,1,8,0:0:0:0:
256,128,106279,1,8,0:0:0:0:
253,123,106414,1,8,0:0:0:0:
256,128,106549,1,8,0:0:0:0:
256,128,106819,1,4,0:0:0:0:
248,128,107899,5,4,0:0:0:0:
248,192,108439,1,8,0:0:0:0:
248,192,108709,1,8,0:0:0:0:
248,192,108844,1,8,0:0:0:0:
248,192,108979,1,0,0:0:0:0:
248,128,109384,1,8,0:0:0:0:
216,96,109519,1,0,0:0:0:0:
214,87,109789,1,8,0:0:0:0:
216,64,110059,1,0,0:0:0:0:
216,64,110599,1,0,0:0:0:0:
216,96,110869,1,8,0:0:0:0:
248,160,111004,1,0,0:0:0:0:
248,128,111139,1,0,0:0:0:0:
245,124,111409,1,8,0:0:0:0:
216,64,111679,1,8,0:0:0:0:
216,96,111814,1,8,0:0:0:0:
216,64,111949,1,0,0:0:0:0:
216,64,112219,1,8,0:0:0:0:
248,128,112759,1,8,0:0:0:0:
248,96,113029,1,0,0:0:0:0:
248,96,113299,1,8,0:0:0:0:
216,32,113434,1,8,0:0:0:0:
248,96,113569,1,0,0:0:0:0:
248,96,113839,1,8,0:0:0:0:
298,172,114109,1,8,0:0:0:0:
248,64,114379,1,0,0:0:0:0:
248,64,114514,1,0,0:0:0:0:
248,64,114649,1,8,0:0:0:0:
216,64,114919,1,0,0:0:0:0:
216,64,115189,1,8,0:0:0:0:
248,64,115459,1,0,0:0:0:0:
220,58,115999,1,8,0:0:0:0:
216,64,116134,1,0,0:0:0:0:
216,64,116269,1,8,0:0:0:0:
216,64,116539,1,4,0:0:0:0:
248,96,117079,1,0,0:0:0:0:
248,96,117349,1,8,0:0:0:0:
248,96,117619,1,0,0:0:0:0:
248,96,117754,1,0,0:0:0:0:
248,96,117889,1,8,0:0:0:0:
248,64,118159,1,0,0:0:0:0:
248,64,118699,1,0,0:0:0:0:
248,64,118969,1,8,0:0:0:0:
248,64,119239,1,0,0:0:0:0:
248,64,119509,1,0,0:0:0:0:
248,64,119779,1,8,0:0:0:0:
248,64,119914,1,8,0:0:0:0:
248,64,120049,1,8,0:0:0:0:
248,64,120319,1,0,0:0:0:0:
248,64,120589,1,8,0:0:0:0:
248,64,120859,1,0,0:0:0:0:
216,64,121669,1,8,0:0:0:0:
248,64,121804,1,8,0:0:0:0:
248,32,121939,1,0,0:0:0:0:
216,64,122209,1,0,0:0:0:0:
216,64,122479,1,8,0:0:0:0:
216,64,123019,1,8,0:0:0:0:
216,64,123289,1,8,0:0:0:0:
216,64,123559,1,0,0:0:0:0:
216,64,123829,1,0,0:0:0:0:
216,64,124099,1,8,0:0:0:0:
216,64,124234,1,0,0:0:0:0:
216,64,124369,1,8,0:0:0:0:
216,32,124639,1,0,0:0:0:0:
216,32,124774,1,0,0:0:0:0:
216,32,124909,1,8,0:0:0:0:
248,128,125179,5,4,0:0:0:0:
248,192,125719,1,8,0:0:0:0:
248,192,125989,1,8,0:0:0:0:
248,192,126124,1,8,0:0:0:0:
248,192,126259,1,0,0:0:0:0:
248,128,126664,1,8,0:0:0:0:
216,96,126799,1,0,0:0:0:0:
214,87,127069,1,8,0:0:0:0:
216,64,127339,1,0,0:0:0:0:
216,64,127879,1,0,0:0:0:0:
216,96,128149,1,8,0:0:0:0:
248,160,128284,1,0,0:0:0:0:
248,128,128419,1,0,0:0:0:0:
245,124,128689,1,8,0:0:0:0:
216,64,128959,1,8,0:0:0:0:
216,96,129094,1,8,0:0:0:0:
216,64,129229,1,0,0:0:0:0:
216,64,129499,1,8,0:0:0:0:
248,128,130039,1,8,0:0:0:0:
248,96,130309,1,0,0:0:0:0:
248,96,130579,1,8,0:0:0:0:
216,32,130714,1,8,0:0:0:0:
248,96,130849,1,0,0:0:0:0:
248,96,131119,1,8,0:0:0:0:
248,96,131389,1,8,0:0:0:0:
248,64,131659,1,0,0:0:0:0:
248,64,131794,1,0,0:0:0:0:
248,64,131929,1,8,0:0:0:0:
216,64,132199,1,0,0:0:0:0:
216,64,132469,1,8,0:0:0:0:
248,64,132739,1,0,0:0:0:0:
220,58,133279,1,8,0:0:0:0:
216,64,133414,1,0,0:0:0:0:
216,64,133549,1,8,0:0:0:0:
216,64,133819,1,4,0:0:0:0:
248,96,134359,1,0,0:0:0:0:
248,96,134629,1,8,0:0:0:0:
248,96,134899,1,0,0:0:0:0:
248,96,135034,1,0,0:0:0:0:
248,96,135169,1,8,0:0:0:0:
248,64,135439,1,0,0:0:0:0:
248,64,135979,1,0,0:0:0:0:
248,64,136249,1,8,0:0:0:0:
248,64,136519,1,0,0:0:0:0:
248,64,136789,1,0,0:0:0:0:
248,64,137059,1,8,0:0:0:0:
248,64,137194,1,8,0:0:0:0:
248,64,137329,1,8,0:0:0:0:
248,64,137599,1,0,0:0:0:0:
248,64,137869,1,8,0:0:0:0:
248,64,138139,1,0,0:0:0:0:
216,64,138949,1,8,0:0:0:0:
248,64,139084,1,8,0:0:0:0:
248,32,139219,1,0,0:0:0:0:
216,64,139489,1,0,0:0:0:0:
216,64,139759,1,8,0:0:0:0:
216,64,140299,1,0,0:0:0:0:
216,64,140569,1,8,0:0:0:0:
216,64,141109,1,8,0:0:0:0:
216,64,141379,1,8,0:0:0:0:
216,64,141514,1,0,0:0:0:0:
216,64,141649,1,8,0:0:0:0:
216,32,141919,1,0,0:0:0:0:
216,32,142054,1,0,0:0:0:0:
216,32,142189,1,8,0:0:0:0:
216,64,142459,5,0,0:0:0:0:
248,128,142999,1,8,0:0:0:0:
248,128,143269,1,8,0:0:0:0:
248,128,143539,1,0,0:0:0:0:
248,128,143809,1,8,0:0:0:0:
248,128,144079,1,8,0:0:0:0:
248,128,144214,1,0,0:0:0:0:
248,128,144349,1,8,0:0:0:0:
248,128,144619,1,0,0:0:0:0:
248,128,145159,1,8,0:0:0:0:
248,128,145429,1,0,0:0:0:0:
248,128,145699,1,8,0:0:0:0:
248,128,145834,1,0,0:0:0:0:
248,128,145969,1,8,0:0:0:0:
248,128,146239,1,8,0:0:0:0:
248,128,146374,5,8,0:0:0:0:
248,128,146509,1,8,0:0:0:0:
248,128,146779,1,4,0:0:0:0:
236,121,147049,1,8,0:0:0:0:
216,64,147589,1,8,0:0:0:0:
196,65,147859,1,0,0:0:0:0:
216,64,148129,1,8,0:0:0:0:
216,64,148669,1,8,0:0:0:0:
216,64,148939,1,4,0:0:0:0:
204,62,149209,1,8,0:0:0:0:
216,64,149749,1,8,0:0:0:0:
197,65,150019,1,0,0:0:0:0:
216,64,150289,1,12,0:0:0:0:
224,64,150559,1,12,0:0:0:0:
224,64,151099,1,4,0:0:0:0:
224,64,151369,1,8,0:0:0:0:
224,64,151909,1,4,0:0:0:0:
224,96,152449,1,12,0:0:0:0:
224,96,152989,1,0,0:0:0:0:
224,96,153259,1,12,0:0:0:0:
224,64,153799,1,12,0:0:0:0:
224,64,154339,1,12,0:0:0:0:
224,64,154609,1,12,0:0:0:0:
224,64,154879,1,12,0:0:0:0:
224,64,155149,1,12,0:0:0:0:
224,96,155419,1,4,0:0:0:0:
216,64,155689,1,8,0:0:0:0:
216,64,156229,1,8,0:0:0:0:
224,64,156499,1,0,0:0:0:0:
216,64,156769,1,8,0:0:0:0:
216,64,157309,1,8,0:0:0:0:
216,64,157579,1,4,0:0:0:0:
216,64,157849,1,8,0:0:0:0:
216,64,158389,1,8,0:0:0:0:
224,64,158659,1,0,0:0:0:0:
216,64,158929,1,12,0:0:0:0:
224,64,159199,1,12,0:0:0:0:
224,64,159739,1,4,0:0:0:0:
224,64,160009,1,8,0:0:0:0:
224,64,160549,1,4,0:0:0:0:
224,96,161089,1,12,0:0:0:0:
224,96,161629,1,0,0:0:0:0:
224,96,161899,1,12,0:0:0:0:
224,64,162439,1,12,0:0:0:0:
224,64,162979,1,12,0:0:0:0:
224,64,163249,1,12,0:0:0:0:
224,64,163519,1,12,0:0:0:0:
224,64,163789,1,8,0:0:0:0:
224,64,163924,1,8,0:0:0:0:
224,96,164059,1,4,0:0:0:0:
224,64,164599,1,8,0:0:0:0:
224,64,164869,1,8,0:0:0:0:
224,64,165004,1,8,0:0:0:0:
224,64,165139,1,0,0:0:0:0:
224,64,165409,1,8,0:0:0:0:
224,64,165949,1,8,0:0:0:0:
224,64,166219,1,0,0:0:0:0:
224,64,166489,1,8,0:0:0:0:
224,64,166759,1,0,0:0:0:0:
224,64,167029,1,0,0:0:0:0:
218,64,167164,1,8,0:0:0:0:
206,56,167434,1,8,0:0:0:0:
224,64,167569,1,0,0:0:0:0:
224,64,167839,1,8,0:0:0:0:
224,64,168379,1,8,0:0:0:0:
224,64,168784,1,8,0:0:0:0:
224,64,168919,1,0,0:0:0:0:
224,64,169189,1,8,0:0:0:0:
224,64,169459,1,0,0:0:0:0:
224,64,169594,1,0,0:0:0:0:
224,64,169729,1,8,0:0:0:0:
224,64,169999,1,8,0:0:0:0:
224,64,170134,1,0,0:0:0:0:
224,64,170269,1,8,0:0:0:0:
224,64,170539,1,0,0:0:0:0:
224,64,170809,1,8,0:0:0:0:
224,64,171349,1,8,0:0:0:0:
224,64,171619,1,0,0:0:0:0:
224,64,171889,1,8,0:0:0:0:
224,64,172159,1,0,0:0:0:0:
224,64,172294,1,0,0:0:0:0:
224,64,172429,1,8,0:0:0:0:
224,64,172699,1,4,0:0:0:0:
224,64,173239,1,8,0:0:0:0:
224,64,173509,1,0,0:0:0:0:
224,64,174049,1,0,0:0:0:0:
224,64,174319,1,8,0:0:0:0:
224,64,174589,1,8,0:0:0:0:
224,64,174724,1,0,0:0:0:0:
224,64,174859,1,0,0:0:0:0:
224,64,175399,1,8,0:0:0:0:
224,64,175669,1,0,0:0:0:0:
224,64,176209,1,8,0:0:0:0:
224,64,176479,1,8,0:0:0:0:
224,64,176749,1,0,0:0:0:0:
224,64,177019,1,8,0:0:0:0:
224,64,177424,1,8,0:0:0:0:
224,64,177829,1,8,0:0:0:0:
224,64,178234,1,8,0:0:0:0:
224,64,178369,1,8,0:0:0:0:
224,64,178639,1,8,0:0:0:0:
224,64,178909,1,0,0:0:0:0:
224,64,179044,1,8,0:0:0:0:
224,64,179179,1,0,0:0:0:0:
224,64,179719,1,8,0:0:0:0:
224,64,179989,1,8,0:0:0:0:
224,64,180124,1,0,0:0:0:0:
224,64,180259,1,8,0:0:0:0:
224,64,180529,1,8,0:0:0:0:
224,64,180799,1,8,0:0:0:0:
224,64,180934,1,8,0:0:0:0:
224,64,181069,1,8,0:0:0:0:
224,64,181339,1,4,0:0:0:0:
224,64,182149,1,8,0:0:0:0:
224,64,182419,1,0,0:0:0:0:
224,64,182689,1,8,0:0:0:0:
224,64,182824,1,0,0:0:0:0:
224,64,182959,1,8,0:0:0:0:
224,64,183229,1,8,0:0:0:0:
224,64,183499,1,0,0:0:0:0:
224,64,183769,1,8,0:0:0:0:
224,64,184309,1,8,0:0:0:0:
224,64,184579,1,0,0:0:0:0:
224,64,184849,1,8,0:0:0:0:
224,64,184984,1,0,0:0:0:0:
224,64,185119,1,0,0:0:0:0:
224,64,185389,1,8,0:0:0:0:
224,64,185659,1,0,0:0:0:0:
224,64,185929,1,8,0:0:0:0:
224,64,186469,1,8,0:0:0:0:
224,64,186739,1,0,0:0:0:0:
224,64,187009,1,8,0:0:0:0:
224,64,187549,1,8,0:0:0:0:
224,64,187819,1,0,0:0:0:0:
224,64,188089,1,8,0:0:0:0:
224,64,188359,1,0,0:0:0:0:
224,64,188494,1,0,0:0:0:0:
224,64,188629,1,8,0:0:0:0:
224,64,188899,1,0,0:0:0:0:
224,64,189169,1,8,0:0:0:0:
224,64,189304,1,0,0:0:0:0:
224,64,189439,1,8,0:0:0:0:
224,64,189709,1,8,0:0:0:0:
224,64,189979,1,4,0:0:0:0:
224,64,190519,1,0,0:0:0:0:
224,64,190789,1,8,0:0:0:0:
224,64,191059,1,0,0:0:0:0:
224,64,191194,1,0,0:0:0:0:
224,64,191329,1,8,0:0:0:0:
224,64,191599,1,8,0:0:0:0:
224,64,191734,1,0,0:0:0:0:
224,64,191869,1,8,0:0:0:0:
224,64,192409,1,8,0:0:0:0:
224,64,192679,1,0,0:0:0:0:
224,64,192949,1,0,0:0:0:0:
224,64,193219,1,8,0:0:0:0:
224,64,193489,1,8,0:0:0:0:
224,64,193759,1,0,0:0:0:0:
224,64,193894,1,0,0:0:0:0:
224,64,194029,1,8,0:0:0:0:
224,64,194569,1,8,0:0:0:0:
224,64,194839,1,0,0:0:0:0:
224,64,195379,1,8,0:0:0:0:
224,64,195649,1,0,0:0:0:0:
224,64,195784,1,0,0:0:0:0:
224,64,195919,1,8,0:0:0:0:
224,64,196189,1,8,0:0:0:0:
224,64,196459,1,0,0:0:0:0:
224,64,196999,1,8,0:0:0:0:
224,64,197269,1,0,0:0:0:0:
224,64,197404,1,0,0:0:0:0:
224,64,197539,1,8,0:0:0:0:
224,64,197809,1,0,0:0:0:0:
224,64,198079,1,8,0:0:0:0:
224,64,198349,1,8,0:0:0:0:
224,64,198484,1,8,0:0:0:0:
224,64,198619,1,0,0:0:0:0:
224,64,199159,1,8,0:0:0:0:
224,64,199429,1,8,0:0:0:0:
224,64,199564,1,0,0:0:0:0:
224,64,199699,1,8,0:0:0:0:
224,64,199969,1,0,0:0:0:0:
224,64,200104,1,0,0:0:0:0:
224,64,200239,1,8,0:0:0:0:
224,64,200509,1,8,0:0:0:0:
224,64,200644,1,8,0:0:0:0:
248,192,200779,5,4,0:0:0:0:
216,192,201859,1,8,0:0:0:0:
195,180,202400,1,8,0:0:0:0:
248,160,202939,1,0,0:0:0:0:
216,192,204019,1,0,0:0:0:0:
216,192,204559,1,8,0:0:0:0:
216,192,204829,1,8,0:0:0:0:
216,192,205099,1,0,0:0:0:0:
216,192,205639,1,8,0:0:0:0:
216,192,206179,1,8,0:0:0:0:
216,192,206449,1,8,0:0:0:0:
216,192,206719,1,0,0:0:0:0:
216,192,206989,1,8,0:0:0:0:
248,192,207259,1,0,0:0:0:0:
248,192,207800,1,8,0:0:0:0:
216,192,208069,1,0,0:0:0:0:
248,192,208339,1,0,0:0:0:0:
248,192,209419,5,4,0:0:0:0:
216,192,210499,1,8,0:0:0:0:
216,192,210769,1,0,0:0:0:0:
216,192,211039,1,8,0:0:0:0:
216,192,211579,1,4,0:0:0:0:
216,192,212659,1,8,0:0:0:0:
216,192,212929,1,8,0:0:0:0:
216,192,213199,1,0,0:0:0:0:
248,192,213739,1,4,0:0:0:0:
248,192,214819,1,4,0:0:0:0:
248,160,215359,1,4,0:0:0:0:
248,192,215899,1,4,0:0:0:0:
248,192,216439,1,4,0:0:0:0:
248,192,216709,1,4,0:0:0:0:
248,192,217249,1,12,0:0:0:0:
248,192,217519,1,12,0:0:0:0:
248,128,218060,5,4,0:0:0:0:
248,192,218600,1,8,0:0:0:0:
248,192,218870,1,8,0:0:0:0:
248,192,219005,1,8,0:0:0:0:
248,192,219140,1,0,0:0:0:0:
243,180,219410,1,0,0:0:0:0:
248,128,219545,1,8,0:0:0:0:
216,96,219680,1,0,0:0:0:0:
214,87,219950,1,8,0:0:0:0:
216,64,220220,1,0,0:0:0:0:
216,64,220760,1,0,0:0:0:0:
216,96,221030,1,8,0:0:0:0:
248,160,221165,1,0,0:0:0:0:
248,128,221300,1,0,0:0:0:0:
245,124,221570,1,8,0:0:0:0:
216,64,221840,1,8,0:0:0:0:
216,96,221975,1,8,0:0:0:0:
216,64,222110,1,0,0:0:0:0:
216,64,222380,1,8,0:0:0:0:
248,128,222920,1,8,0:0:0:0:
248,96,223190,1,0,0:0:0:0:
248,96,223460,1,8,0:0:0:0:
216,32,223595,1,8,0:0:0:0:
248,96,223730,1,0,0:0:0:0:
248,96,224000,1,8,0:0:0:0:
248,96,224270,1,8,0:0:0:0:
248,64,224540,1,0,0:0:0:0:
248,64,224675,1,0,0:0:0:0:
248,64,224810,1,8,0:0:0:0:
216,64,225080,1,0,0:0:0:0:
216,64,225350,1,8,0:0:0:0:
248,64,225620,1,0,0:0:0:0:
220,58,226160,1,8,0:0:0:0:
216,64,226295,1,0,0:0:0:0:
216,64,226430,1,8,0:0:0:0:
216,64,226700,1,4,0:0:0:0:
248,96,227240,1,0,0:0:0:0:
248,96,227510,1,8,0:0:0:0:
248,96,227780,1,0,0:0:0:0:
248,96,227915,1,0,0:0:0:0:
248,96,228050,1,8,0:0:0:0:
248,64,228320,1,0,0:0:0:0:
248,64,228860,1,0,0:0:0:0:
248,64,229130,1,8,0:0:0:0:
248,64,229400,1,0,0:0:0:0:
248,64,229670,1,0,0:0:0:0:
248,64,229940,1,8,0:0:0:0:
248,64,230075,1,8,0:0:0:0:
248,64,230210,1,8,0:0:0:0:
248,64,230480,1,0,0:0:0:0:
248,64,230750,1,8,0:0:0:0:
248,64,231020,1,0,0:0:0:0:
216,64,231830,1,8,0:0:0:0:
248,64,231965,1,8,0:0:0:0:
248,32,232100,1,8,0:0:0:0:
216,64,232370,1,0,0:0:0:0:
216,64,232640,1,8,0:0:0:0:
216,64,233180,1,8,0:0:0:0:
216,64,233450,1,8,0:0:0:0:
216,64,233720,1,0,0:0:0:0:
216,64,233990,1,0,0:0:0:0:
216,64,234260,1,8,0:0:0:0:
216,64,234395,1,0,0:0:0:0:
216,64,234530,1,8,0:0:0:0:
216,32,234800,1,0,0:0:0:0:
216,32,234935,1,0,0:0:0:0:
216,32,235070,1,8,0:0:0:0:
248,128,235340,5,4,0:0:0:0:
248,192,235880,1,8,0:0:0:0:
248,192,236150,1,8,0:0:0:0:
248,192,236285,1,8,0:0:0:0:
248,192,236420,1,0,0:0:0:0:
240,181,236690,1,0,0:0:0:0:
248,128,236825,1,8,0:0:0:0:
216,96,236960,1,0,0:0:0:0:
214,87,237230,1,8,0:0:0:0:
216,64,237500,1,0,0:0:0:0:
216,64,238040,1,0,0:0:0:0:
216,96,238310,1,8,0:0:0:0:
248,160,238445,1,0,0:0:0:0:
248,128,238580,1,0,0:0:0:0:
245,124,238850,1,8,0:0:0:0:
216,64,239120,1,8,0:0:0:0:
216,96,239255,1,8,0:0:0:0:
216,64,239390,1,0,0:0:0:0:
216,64,239660,1,8,0:0:0:0:
248,128,240200,1,8,0:0:0:0:
248,96,240470,1,0,0:0:0:0:
248,96,240740,1,8,0:0:0:0:
216,32,240875,1,8,0:0:0:0:
248,96,241010,1,0,0:0:0:0:
248,96,241280,1,8,0:0:0:0:
248,96,241550,1,8,0:0:0:0:
248,64,241820,1,0,0:0:0:0:
248,64,241955,1,0,0:0:0:0:
248,64,242090,1,8,0:0:0:0:
216,64,242360,1,0,0:0:0:0:
216,64,242630,1,8,0:0:0:0:
248,64,242900,1,0,0:0:0:0:
220,58,243440,1,8,0:0:0:0:
216,64,243575,1,0,0:0:0:0:
216,64,243710,1,8,0:0:0:0:
216,64,243980,1,4,0:0:0:0:
248,96,244520,1,0,0:0:0:0:
248,96,244790,1,8,0:0:0:0:
248,96,245060,1,0,0:0:0:0:
248,96,245195,1,0,0:0:0:0:
248,96,245330,1,8,0:0:0:0:
248,64,245600,1,0,0:0:0:0:
248,64,246140,1,0,0:0:0:0:
248,64,246410,1,8,0:0:0:0:
248,64,246680,1,0,0:0:0:0:
248,64,246950,1,0,0:0:0:0:
248,64,247220,1,8,0:0:0:0:
248,64,247355,1,8,0:0:0:0:
248,64,247490,1,8,0:0:0:0:
248,64,247760,1,0,0:0:0:0:
248,64,248030,1,8,0:0:0:0:
248,64,248300,1,0,0:0:0:0:
216,64,249110,1,8,0:0:0:0:
248,64,249245,1,8,0:0:0:0:
248,32,249380,1,8,0:0:0:0:
216,64,249650,1,0,0:0:0:0:
216,64,249920,1,8,0:0:0:0:
216,64,250460,1,0,0:0:0:0:
216,64,250730,1,8,0:0:0:0:
216,64,251270,1,8,0:0:0:0:
216,64,251540,1,8,0:0:0:0:
216,64,251675,1,0,0:0:0:0:
216,64,251810,1,8,0:0:0:0:
216,32,252080,1,0,0:0:0:0:
216,32,252215,1,0,0:0:0:0:
216,32,252350,1,8,0:0:0:0:
216,64,252620,5,0,0:0:0:0:
248,128,253160,1,8,0:0:0:0:
248,128,253430,1,8,0:0:0:0:
246,121,253565,1,8,0:0:0:0:
248,128,253700,1,0,0:0:0:0:
248,128,253970,1,8,0:0:0:0:
248,128,254240,1,8,0:0:0:0:
248,128,254375,1,0,0:0:0:0:
248,128,254510,1,8,0:0:0:0:
248,128,254780,1,0,0:0:0:0:
248,128,255050,1,0,0:0:0:0:
232,101,255185,1,0,0:0:0:0:
248,128,255320,1,8,0:0:0:0:
248,128,255590,1,0,0:0:0:0:
248,128,255860,1,8,0:0:0:0:
248,128,255995,1,0,0:0:0:0:
248,128,256130,1,8,0:0:0:0:
248,128,256400,1,8,0:0:0:0:
248,128,256535,5,8,0:0:0:0:
248,128,256670,1,8,0:0:0:0:
248,128,256940,1,4,0:0:0:0:
256,192,257075,12,0,261260,0:0:0:0:
