osu file format v14

[General]
AudioFilename: audio.mp3
AudioLeadIn: 0
PreviewTime: 107961
Countdown: 0
SampleSet: Soft
StackLeniency: 0.7
Mode: 3
LetterboxInBreaks: 0
SpecialStyle: 0
WidescreenStoryboard: 1

[Editor]
DistanceSpacing: 0.8
BeatDivisor: 4
GridSize: 8
TimelineZoom: 2.6

[Metadata]
Title:FREEDOM DiVE
TitleUnicode:FREEDOM DiVE↓
Artist:xi
ArtistUnicode:xi
Creator:Touru0711
Version:TWO DiMENSiONS / DenYi's Another
Source:MAXBEAT
Tags:Faputa DenYi Lami- FD Video Game Instrumental Electronic Happy Hardcore Speedcore Piano Long Version Extended BMS WACCA VOEZ Muse Dash SOUND VOLTEX IV HEAVENLY HAVEN 太鼓の達人 Taiko no Tatsujin CHUNITHM PLUS Cytus Parousia Album Featured Artist FA セッションでドドンがドン! くらんて
BeatmapID:3938188
BeatmapSetID:1908399

[Difficulty]
HPDrainRate:7.8
CircleSize:4
OverallDifficulty:7.8
ApproachRate:5
SliderMultiplier:1.4
SliderTickRate:1

[Events]
//Background and Video events
0,0,"BG.jpg",0,0
//Break Periods
//Storyboard Layer 0 (Background)
//Storyboard Layer 1 (Fail)
//Storyboard Layer 2 (Pass)
//Storyboard Layer 3 (Foreground)
//Storyboard Layer 4 (Overlay)
//Storyboard Sound Samples

[TimingPoints]
2120,270.002700027,4,2,1,50,1,0
64760,-100,4,2,1,50,0,1
82040,-100,4,2,1,50,0,0
107961,-100,4,2,1,50,0,1
146841,-100,4,2,1,50,0,0
218122,-100,4,2,1,50,0,1
257002,-100,4,2,1,50,0,0

[HitObjects]
64,192,2120,5,0,0:0:0:0:
448,192,2120,1,0,0:0:0:0:
320,192,2120,1,0,0:0:0:0:
64,192,2322,1,0,0:0:0:0:
192,192,2322,1,0,0:0:0:0:
320,192,2525,1,0,0:0:0:0:
448,192,2525,1,0,0:0:0:0:
64,192,2795,1,0,0:0:0:0:
448,192,2795,1,0,0:0:0:0:
192,192,2930,1,0,0:0:0:0:
320,192,2930,1,0,0:0:0:0:
448,192,3065,1,0,0:0:0:0:
64,192,3065,1,0,0:0:0:0:
64,192,3200,1,0,0:0:0:0:
192,192,3200,1,0,0:0:0:0:
320,192,3402,1,0,0:0:0:0:
448,192,3402,1,0,0:0:0:0:
64,192,3605,1,0,0:0:0:0:
192,192,3605,1,0,0:0:0:0:
320,192,3740,1,0,0:0:0:0:
448,192,3740,1,0,0:0:0:0:
192,192,3875,1,0,0:0:0:0:
320,192,3875,1,0,0:0:0:0:
64,192,4010,1,0,0:0:0:0:
192,192,4010,1,0,0:0:0:0:
64,192,4280,1,0,0:0:0:0:
448,192,4280,1,0,0:0:0:0:
320,192,4280,1,0,0:0:0:0:
64,192,4482,1,0,0:0:0:0:
192,192,4482,1,0,0:0:0:0:
320,192,4685,1,0,0:0:0:0:
448,192,4685,1,0,0:0:0:0:
64,192,4955,1,0,0:0:0:0:
448,192,4955,1,0,0:0:0:0:
192,192,5090,1,0,0:0:0:0:
320,192,5090,1,0,0:0:0:0:
64,192,5225,1,0,0:0:0:0:
448,192,5225,1,0,0:0:0:0:
64,192,5360,1,0,0:0:0:0:
192,192,5360,1,0,0:0:0:0:
320,192,5562,1,0,0:0:0:0:
448,192,5562,1,0,0:0:0:0:
64,192,5765,1,0,0:0:0:0:
192,192,5765,1,0,0:0:0:0:
320,192,5900,1,0,0:0:0:0:
448,192,5900,1,0,0:0:0:0:
64,192,5967,1,0,0:0:0:0:
192,192,6035,1,0,0:0:0:0:
320,192,6102,1,0,0:0:0:0:
64,192,6170,1,0,0:0:0:0:
448,192,6170,1,0,0:0:0:0:
192,192,6305,1,0,0:0:0:0:
320,192,6305,1,0,0:0:0:0:
64,192,6440,1,0,0:0:0:0:
192,192,6440,1,0,0:0:0:0:
448,192,6440,1,0,0:0:0:0:
320,192,6575,1,0,0:0:0:0:
448,192,6575,1,0,0:0:0:0:
192,192,6642,1,0,0:0:0:0:
64,192,6710,1,0,0:0:0:0:
448,192,6777,1,0,0:0:0:0:
192,192,6845,1,0,0:0:0:0:
320,192,6912,1,0,0:0:0:0:
64,192,6980,1,0,0:0:0:0:
192,192,7047,1,0,0:0:0:0:
320,192,7115,1,0,0:0:0:0:
448,192,7182,1,0,0:0:0:0:
64,192,7250,1,0,0:0:0:0:
192,192,7317,1,0,0:0:0:0:
448,192,7385,1,0,0:0:0:0:
320,192,7452,1,0,0:0:0:0:
192,192,7520,1,0,0:0:0:0:
64,192,7587,1,0,0:0:0:0:
320,192,7655,1,0,0:0:0:0:
192,192,7722,1,0,0:0:0:0:
448,192,7790,1,0,0:0:0:0:
320,192,7857,1,0,0:0:0:0:
192,192,7925,1,0,0:0:0:0:
64,192,7992,1,0,0:0:0:0:
320,192,8060,1,0,0:0:0:0:
448,192,8127,1,0,0:0:0:0:
192,192,8195,1,0,0:0:0:0:
320,192,8262,1,0,0:0:0:0:
64,192,8330,1,0,0:0:0:0:
192,192,8397,1,0,0:0:0:0:
320,192,8465,1,0,0:0:0:0:
448,192,8532,1,0,0:0:0:0:
64,192,8600,1,0,0:0:0:0:
192,192,8600,1,0,0:0:0:0:
320,192,8667,1,0,0:0:0:0:
448,192,8735,1,0,0:0:0:0:
192,192,8802,1,0,0:0:0:0:
64,192,8870,1,0,0:0:0:0:
448,192,8937,1,0,0:0:0:0:
320,192,9005,1,0,0:0:0:0:
192,192,9072,1,0,0:0:0:0:
64,192,9140,1,0,0:0:0:0:
448,192,9140,1,0,0:0:0:0:
320,192,9207,1,0,0:0:0:0:
192,192,9275,1,0,0:0:0:0:
448,192,9342,1,0,0:0:0:0:
64,192,9410,1,0,0:0:0:0:
320,192,9477,1,0,0:0:0:0:
192,192,9545,1,0,0:0:0:0:
64,192,9612,1,0,0:0:0:0:
320,192,9680,1,0,0:0:0:0:
448,192,9680,128,0,9815:0:0:0:0:
64,192,9815,1,0,0:0:0:0:
192,192,9860,1,0,0:0:0:0:
320,192,9905,1,0,0:0:0:0:
448,192,9950,1,0,0:0:0:0:
64,192,9950,128,0,10085:0:0:0:0:
448,192,10085,1,0,0:0:0:0:
320,192,10130,1,0,0:0:0:0:
192,192,10175,1,0,0:0:0:0:
64,192,10220,1,0,0:0:0:0:
448,192,10220,1,0,0:0:0:0:
320,192,10287,1,0,0:0:0:0:
192,192,10355,1,0,0:0:0:0:
448,192,10422,1,0,0:0:0:0:
64,192,10490,1,0,0:0:0:0:
192,192,10557,1,0,0:0:0:0:
448,192,10625,1,0,0:0:0:0:
320,192,10692,1,0,0:0:0:0:
64,192,10760,1,0,0:0:0:0:
192,192,10760,1,0,0:0:0:0:
448,192,10760,1,0,0:0:0:0:
320,192,10895,1,0,0:0:0:0:
64,192,11030,1,0,0:0:0:0:
192,192,11030,1,0,0:0:0:0:
448,192,11030,1,0,0:0:0:0:
192,192,11165,1,0,0:0:0:0:
320,192,11300,1,0,0:0:0:0:
448,192,11300,1,0,0:0:0:0:
192,192,11435,1,0,0:0:0:0:
448,192,11570,1,0,0:0:0:0:
320,192,11570,1,0,0:0:0:0:
64,192,11570,1,0,0:0:0:0:
448,192,11705,1,0,0:0:0:0:
64,192,11840,1,0,0:0:0:0:
192,192,11840,1,0,0:0:0:0:
320,192,11975,1,0,0:0:0:0:
64,192,12110,1,0,0:0:0:0:
192,192,12110,1,0,0:0:0:0:
448,192,12110,1,0,0:0:0:0:
64,192,12245,1,0,0:0:0:0:
192,192,12380,1,0,0:0:0:0:
320,192,12380,1,0,0:0:0:0:
448,192,12515,1,0,0:0:0:0:
64,192,12650,1,0,0:0:0:0:
192,192,12650,1,0,0:0:0:0:
320,192,12785,1,0,0:0:0:0:
192,192,12785,1,0,0:0:0:0:
320,192,12920,1,0,0:0:0:0:
448,192,12920,1,0,0:0:0:0:
64,192,12920,1,0,0:0:0:0:
192,192,13055,1,0,0:0:0:0:
320,192,13190,1,0,0:0:0:0:
448,192,13190,1,0,0:0:0:0:
64,192,13190,1,0,0:0:0:0:
448,192,13325,1,0,0:0:0:0:
64,192,13460,1,0,0:0:0:0:
192,192,13460,1,0,0:0:0:0:
320,192,13595,1,0,0:0:0:0:
64,192,13730,1,0,0:0:0:0:
192,192,13730,1,0,0:0:0:0:
448,192,13730,1,0,0:0:0:0:
192,192,13865,1,0,0:0:0:0:
320,192,14000,1,0,0:0:0:0:
448,192,14000,1,0,0:0:0:0:
192,192,14135,1,0,0:0:0:0:
64,192,14270,1,0,0:0:0:0:
320,192,14270,1,0,0:0:0:0:
448,192,14270,1,0,0:0:0:0:
192,192,14405,1,0,0:0:0:0:
64,192,14540,1,0,0:0:0:0:
320,192,14540,1,0,0:0:0:0:
448,192,14540,1,0,0:0:0:0:
64,192,14742,1,0,0:0:0:0:
320,192,14742,1,0,0:0:0:0:
448,192,14742,1,0,0:0:0:0:
192,192,14945,1,0,0:0:0:0:
64,192,14945,1,0,0:0:0:0:
448,192,14945,1,0,0:0:0:0:
64,192,15080,1,0,0:0:0:0:
448,192,15080,1,0,0:0:0:0:
320,192,15080,1,0,0:0:0:0:
192,192,15215,1,0,0:0:0:0:
64,192,15350,1,0,0:0:0:0:
448,192,15350,1,0,0:0:0:0:
320,192,15350,1,0,0:0:0:0:
320,192,15485,1,0,0:0:0:0:
64,192,15620,1,0,0:0:0:0:
192,192,15620,1,0,0:0:0:0:
320,192,15755,1,0,0:0:0:0:
64,192,15890,1,0,0:0:0:0:
192,192,15890,1,0,0:0:0:0:
448,192,15890,1,0,0:0:0:0:
64,192,16025,1,0,0:0:0:0:
448,192,16025,1,0,0:0:0:0:
192,192,16025,1,0,0:0:0:0:
192,192,16295,1,0,0:0:0:0:
320,192,16295,1,0,0:0:0:0:
320,192,16430,1,0,0:0:0:0:
448,192,16430,1,0,0:0:0:0:
64,192,16430,1,0,0:0:0:0:
64,192,16565,1,0,0:0:0:0:
192,192,16565,1,0,0:0:0:0:
320,192,16700,1,0,0:0:0:0:
448,192,16700,1,0,0:0:0:0:
192,192,16835,1,0,0:0:0:0:
64,192,16835,1,0,0:0:0:0:
64,192,16970,1,0,0:0:0:0:
448,192,16970,1,0,0:0:0:0:
320,192,16970,1,0,0:0:0:0:
192,192,17105,1,0,0:0:0:0:
320,192,17172,1,0,0:0:0:0:
448,192,17240,1,0,0:0:0:0:
192,192,17240,1,0,0:0:0:0:
64,192,17240,1,0,0:0:0:0:
320,192,17375,1,0,0:0:0:0:
64,192,17510,1,0,0:0:0:0:
448,192,17510,1,0,0:0:0:0:
192,192,17510,1,0,0:0:0:0:
192,192,17645,1,0,0:0:0:0:
320,192,17645,1,0,0:0:0:0:
320,192,17780,1,0,0:0:0:0:
448,192,17780,1,0,0:0:0:0:
64,192,17780,1,0,0:0:0:0:
192,192,17915,1,0,0:0:0:0:
320,192,18050,1,0,0:0:0:0:
448,192,18050,1,0,0:0:0:0:
64,192,18050,1,0,0:0:0:0:
192,192,18185,1,0,0:0:0:0:
320,192,18252,1,0,0:0:0:0:
64,192,18320,1,0,0:0:0:0:
192,192,18320,1,0,0:0:0:0:
448,192,18320,1,0,0:0:0:0:
448,192,18455,1,0,0:0:0:0:
64,192,18590,1,0,0:0:0:0:
320,192,18590,1,0,0:0:0:0:
192,192,18590,1,0,0:0:0:0:
320,192,18725,1,0,0:0:0:0:
64,192,18860,1,0,0:0:0:0:
192,192,18860,1,0,0:0:0:0:
448,192,18860,1,0,0:0:0:0:
320,192,18995,1,0,0:0:0:0:
64,192,19062,1,0,0:0:0:0:
192,192,19130,1,0,0:0:0:0:
448,192,19130,1,0,0:0:0:0:
320,192,19197,1,0,0:0:0:0:
64,192,19265,1,0,0:0:0:0:
192,192,19332,1,0,0:0:0:0:
448,192,19400,1,0,0:0:0:0:
320,192,19400,1,0,0:0:0:0:
64,192,19400,1,0,0:0:0:0:
192,192,19535,1,0,0:0:0:0:
448,192,19670,1,0,0:0:0:0:
320,192,19670,1,0,0:0:0:0:
64,192,19670,1,0,0:0:0:0:
320,192,19805,1,0,0:0:0:0:
192,192,19940,1,0,0:0:0:0:
64,192,19940,1,0,0:0:0:0:
320,192,20075,1,0,0:0:0:0:
64,192,20210,1,0,0:0:0:0:
192,192,20210,1,0,0:0:0:0:
448,192,20210,1,0,0:0:0:0:
64,192,20345,1,0,0:0:0:0:
448,192,20480,1,0,0:0:0:0:
320,192,20480,1,0,0:0:0:0:
192,192,20615,1,0,0:0:0:0:
448,192,20750,1,0,0:0:0:0:
320,192,20750,1,0,0:0:0:0:
64,192,20750,1,0,0:0:0:0:
448,192,20885,1,0,0:0:0:0:
320,192,21020,1,0,0:0:0:0:
192,192,21020,1,0,0:0:0:0:
64,192,21155,1,0,0:0:0:0:
448,192,21290,1,0,0:0:0:0:
320,192,21290,1,0,0:0:0:0:
192,192,21425,1,0,0:0:0:0:
320,192,21425,1,0,0:0:0:0:
192,192,21560,1,0,0:0:0:0:
64,192,21560,1,0,0:0:0:0:
448,192,21560,1,0,0:0:0:0:
320,192,21695,1,0,0:0:0:0:
192,192,21830,1,0,0:0:0:0:
64,192,21830,1,0,0:0:0:0:
448,192,21830,1,0,0:0:0:0:
64,192,21965,1,0,0:0:0:0:
448,192,22100,1,0,0:0:0:0:
320,192,22100,1,0,0:0:0:0:
192,192,22235,1,0,0:0:0:0:
448,192,22370,1,0,0:0:0:0:
320,192,22370,1,0,0:0:0:0:
64,192,22370,1,0,0:0:0:0:
320,192,22505,1,0,0:0:0:0:
192,192,22640,1,0,0:0:0:0:
64,192,22640,1,0,0:0:0:0:
320,192,22775,1,0,0:0:0:0:
448,192,22910,1,0,0:0:0:0:
192,192,22910,1,0,0:0:0:0:
64,192,22910,1,0,0:0:0:0:
192,192,23045,1,0,0:0:0:0:
448,192,23180,1,0,0:0:0:0:
64,192,23180,1,0,0:0:0:0:
320,192,23180,1,0,0:0:0:0:
448,192,23382,1,0,0:0:0:0:
64,192,23382,1,0,0:0:0:0:
320,192,23382,1,0,0:0:0:0:
320,192,23585,1,0,0:0:0:0:
448,192,23585,1,0,0:0:0:0:
64,192,23585,1,0,0:0:0:0:
448,192,23720,1,0,0:0:0:0:
64,192,23720,1,0,0:0:0:0:
192,192,23720,1,0,0:0:0:0:
320,192,23855,1,0,0:0:0:0:
448,192,23990,1,0,0:0:0:0:
64,192,23990,1,0,0:0:0:0:
192,192,23990,1,0,0:0:0:0:
192,192,24125,1,0,0:0:0:0:
448,192,24260,1,0,0:0:0:0:
320,192,24260,1,0,0:0:0:0:
192,192,24395,1,0,0:0:0:0:
448,192,24530,1,0,0:0:0:0:
320,192,24530,1,0,0:0:0:0:
64,192,24530,1,0,0:0:0:0:
448,192,24665,1,0,0:0:0:0:
64,192,24665,1,0,0:0:0:0:
320,192,24665,1,0,0:0:0:0:
320,192,24935,1,0,0:0:0:0:
192,192,24935,1,0,0:0:0:0:
192,192,25070,1,0,0:0:0:0:
64,192,25070,1,0,0:0:0:0:
448,192,25070,1,0,0:0:0:0:
448,192,25205,1,0,0:0:0:0:
320,192,25205,1,0,0:0:0:0:
192,192,25340,1,0,0:0:0:0:
64,192,25340,1,0,0:0:0:0:
320,192,25475,1,0,0:0:0:0:
448,192,25475,1,0,0:0:0:0:
448,192,25610,1,0,0:0:0:0:
64,192,25610,1,0,0:0:0:0:
192,192,25610,1,0,0:0:0:0:
320,192,25745,1,0,0:0:0:0:
192,192,25812,1,0,0:0:0:0:
448,192,25880,1,0,0:0:0:0:
64,192,25880,1,0,0:0:0:0:
320,192,25880,1,0,0:0:0:0:
192,192,26015,1,0,0:0:0:0:
64,192,26015,1,0,0:0:0:0:
448,192,26150,1,0,0:0:0:0:
320,192,26150,1,0,0:0:0:0:
320,192,26285,1,0,0:0:0:0:
64,192,26285,1,0,0:0:0:0:
448,192,26420,1,0,0:0:0:0:
192,192,26420,1,0,0:0:0:0:
64,192,26420,1,0,0:0:0:0:
192,192,26555,1,0,0:0:0:0:
320,192,26555,1,0,0:0:0:0:
64,192,26690,1,0,0:0:0:0:
448,192,26690,1,0,0:0:0:0:
192,192,26825,1,0,0:0:0:0:
448,192,26825,1,0,0:0:0:0:
192,192,26960,1,0,0:0:0:0:
320,192,26960,1,0,0:0:0:0:
64,192,26960,1,0,0:0:0:0:
64,192,27095,1,0,0:0:0:0:
448,192,27095,1,0,0:0:0:0:
192,192,27230,1,0,0:0:0:0:
448,192,27230,1,0,0:0:0:0:
320,192,27230,1,0,0:0:0:0:
320,192,27365,1,0,0:0:0:0:
64,192,27365,1,0,0:0:0:0:
64,192,27500,1,0,0:0:0:0:
192,192,27500,1,0,0:0:0:0:
448,192,27500,1,0,0:0:0:0:
320,192,27635,1,0,0:0:0:0:
448,192,27635,1,0,0:0:0:0:
64,192,27702,1,0,0:0:0:0:
192,192,27770,1,0,0:0:0:0:
320,192,27770,1,0,0:0:0:0:
448,192,27837,1,0,0:0:0:0:
64,192,27905,1,0,0:0:0:0:
320,192,27972,1,0,0:0:0:0:
64,192,28040,1,0,0:0:0:0:
192,192,28040,1,0,0:0:0:0:
448,192,28040,1,0,0:0:0:0:
320,192,28175,1,0,0:0:0:0:
448,192,28242,1,0,0:0:0:0:
192,192,28310,1,0,0:0:0:0:
320,192,28377,1,0,0:0:0:0:
64,192,28445,1,0,0:0:0:0:
192,192,28512,1,0,0:0:0:0:
448,192,28580,1,0,0:0:0:0:
320,192,28580,1,0,0:0:0:0:
192,192,28850,1,0,0:0:0:0:
320,192,28985,1,0,0:0:0:0:
448,192,29120,1,0,0:0:0:0:
64,192,29120,1,0,0:0:0:0:
192,192,29255,1,0,0:0:0:0:
64,192,29322,1,0,0:0:0:0:
320,192,29390,1,0,0:0:0:0:
192,192,29457,1,0,0:0:0:0:
448,192,29525,1,0,0:0:0:0:
320,192,29592,1,0,0:0:0:0:
192,192,29660,1,0,0:0:0:0:
64,192,29727,1,0,0:0:0:0:
320,192,29795,1,0,0:0:0:0:
192,192,29862,1,0,0:0:0:0:
448,192,29930,1,0,0:0:0:0:
320,192,29997,1,0,0:0:0:0:
192,192,30065,1,0,0:0:0:0:
64,192,30132,1,0,0:0:0:0:
320,192,30200,1,0,0:0:0:0:
448,192,30267,1,0,0:0:0:0:
192,192,30335,1,0,0:0:0:0:
320,192,30402,1,0,0:0:0:0:
64,192,30470,1,0,0:0:0:0:
192,192,30537,1,0,0:0:0:0:
320,192,30605,1,0,0:0:0:0:
448,192,30672,1,0,0:0:0:0:
192,192,30740,1,0,0:0:0:0:
64,192,30807,1,0,0:0:0:0:
320,192,30875,1,0,0:0:0:0:
192,192,30942,1,0,0:0:0:0:
448,192,31010,1,0,0:0:0:0:
320,192,31077,1,0,0:0:0:0:
192,192,31145,1,0,0:0:0:0:
64,192,31212,1,0,0:0:0:0:
320,192,31280,1,0,0:0:0:0:
448,192,31347,1,0,0:0:0:0:
192,192,31415,1,0,0:0:0:0:
64,192,31482,1,0,0:0:0:0:
448,192,31550,1,0,0:0:0:0:
320,192,31617,1,0,0:0:0:0:
64,192,31685,1,0,0:0:0:0:
192,192,31752,1,0,0:0:0:0:
320,192,31820,1,0,0:0:0:0:
448,192,31820,1,0,0:0:0:0:
192,192,31955,1,0,0:0:0:0:
320,192,31955,1,0,0:0:0:0:
64,192,32090,1,0,0:0:0:0:
192,192,32090,1,0,0:0:0:0:
64,192,32225,1,0,0:0:0:0:
448,192,32225,1,0,0:0:0:0:
320,192,32360,1,0,0:0:0:0:
448,192,32360,1,0,0:0:0:0:
64,192,32427,1,0,0:0:0:0:
192,192,32495,1,0,0:0:0:0:
320,192,32562,1,0,0:0:0:0:
448,192,32630,1,0,0:0:0:0:
192,192,32697,1,0,0:0:0:0:
64,192,32765,1,0,0:0:0:0:
320,192,32832,1,0,0:0:0:0:
448,192,32900,1,0,0:0:0:0:
192,192,32967,1,0,0:0:0:0:
320,192,33035,1,0,0:0:0:0:
64,192,33102,1,0,0:0:0:0:
192,192,33170,1,0,0:0:0:0:
448,192,33237,1,0,0:0:0:0:
320,192,33305,1,0,0:0:0:0:
64,192,33372,1,0,0:0:0:0:
192,192,33440,1,0,0:0:0:0:
320,192,33507,1,0,0:0:0:0:
448,192,33575,1,0,0:0:0:0:
64,192,33642,1,0,0:0:0:0:
448,192,33710,1,0,0:0:0:0:
320,192,33777,1,0,0:0:0:0:
192,192,33845,1,0,0:0:0:0:
448,192,33912,1,0,0:0:0:0:
64,192,33980,1,0,0:0:0:0:
192,192,34047,1,0,0:0:0:0:
320,192,34115,1,0,0:0:0:0:
64,192,34182,1,0,0:0:0:0:
448,192,34250,1,0,0:0:0:0:
320,192,34317,1,0,0:0:0:0:
192,192,34385,1,0,0:0:0:0:
64,192,34452,1,0,0:0:0:0:
448,192,34520,1,0,0:0:0:0:
192,192,34587,1,0,0:0:0:0:
320,192,34655,1,0,0:0:0:0:
192,192,34722,1,0,0:0:0:0:
64,192,34790,1,0,0:0:0:0:
320,192,34857,1,0,0:0:0:0:
192,192,34925,1,0,0:0:0:0:
320,192,34992,1,0,0:0:0:0:
448,192,35060,1,0,0:0:0:0:
192,192,35127,1,0,0:0:0:0:
320,192,35195,1,0,0:0:0:0:
192,192,35262,1,0,0:0:0:0:
64,192,35330,1,0,0:0:0:0:
320,192,35397,1,0,0:0:0:0:
192,192,35465,1,0,0:0:0:0:
320,192,35532,1,0,0:0:0:0:
448,192,35600,1,0,0:0:0:0:
64,192,35667,1,0,0:0:0:0:
192,192,35735,1,0,0:0:0:0:
320,192,35802,1,0,0:0:0:0:
448,192,35870,1,0,0:0:0:0:
64,192,35937,1,0,0:0:0:0:
192,192,36005,1,0,0:0:0:0:
320,192,36072,1,0,0:0:0:0:
64,192,36140,1,0,0:0:0:0:
192,192,36207,1,0,0:0:0:0:
320,192,36275,1,0,0:0:0:0:
448,192,36342,1,0,0:0:0:0:
192,192,36410,1,0,0:0:0:0:
320,192,36477,1,0,0:0:0:0:
448,192,36545,1,0,0:0:0:0:
64,192,36545,1,0,0:0:0:0:
192,192,36612,1,0,0:0:0:0:
320,192,36680,1,0,0:0:0:0:
448,192,36680,1,0,0:0:0:0:
320,192,36815,1,0,0:0:0:0:
192,192,36882,1,0,0:0:0:0:
64,192,36950,1,0,0:0:0:0:
448,192,36950,1,0,0:0:0:0:
64,192,37085,1,0,0:0:0:0:
192,192,37152,1,0,0:0:0:0:
320,192,37220,1,0,0:0:0:0:
448,192,37220,1,0,0:0:0:0:
448,192,37355,1,0,0:0:0:0:
320,192,37422,1,0,0:0:0:0:
64,192,37490,1,0,0:0:0:0:
192,192,37490,1,0,0:0:0:0:
192,192,37625,1,0,0:0:0:0:
320,192,37692,1,0,0:0:0:0:
64,192,37760,1,0,0:0:0:0:
448,192,37760,1,0,0:0:0:0:
192,192,37850,1,0,0:0:0:0:
320,192,37940,1,0,0:0:0:0:
64,192,38030,1,0,0:0:0:0:
448,192,38030,1,0,0:0:0:0:
448,192,38165,1,0,0:0:0:0:
320,192,38232,1,0,0:0:0:0:
64,192,38300,1,0,0:0:0:0:
192,192,38300,1,0,0:0:0:0:
192,192,38435,1,0,0:0:0:0:
320,192,38502,1,0,0:0:0:0:
64,192,38570,1,0,0:0:0:0:
448,192,38570,1,0,0:0:0:0:
448,192,38705,1,0,0:0:0:0:
320,192,38772,1,0,0:0:0:0:
64,192,38840,1,0,0:0:0:0:
192,192,38840,1,0,0:0:0:0:
64,192,38975,1,0,0:0:0:0:
192,192,39042,1,0,0:0:0:0:
448,192,39110,1,0,0:0:0:0:
320,192,39110,1,0,0:0:0:0:
320,192,39245,1,0,0:0:0:0:
192,192,39312,1,0,0:0:0:0:
64,192,39380,1,0,0:0:0:0:
448,192,39380,1,0,0:0:0:0:
64,192,39515,1,0,0:0:0:0:
192,192,39582,1,0,0:0:0:0:
320,192,39650,1,0,0:0:0:0:
448,192,39650,1,0,0:0:0:0:
448,192,39785,1,0,0:0:0:0:
320,192,39852,1,0,0:0:0:0:
64,192,39920,1,0,0:0:0:0:
192,192,39920,1,0,0:0:0:0:
448,192,39987,1,0,0:0:0:0:
64,192,40055,1,0,0:0:0:0:
192,192,40122,1,0,0:0:0:0:
448,192,40190,1,0,0:0:0:0:
320,192,40190,1,0,0:0:0:0:
320,192,40325,1,0,0:0:0:0:
192,192,40392,1,0,0:0:0:0:
64,192,40460,1,0,0:0:0:0:
448,192,40460,1,0,0:0:0:0:
448,192,40595,1,0,0:0:0:0:
320,192,40662,1,0,0:0:0:0:
192,192,40730,1,0,0:0:0:0:
64,192,40730,1,0,0:0:0:0:
64,192,40865,1,0,0:0:0:0:
192,192,40932,1,0,0:0:0:0:
320,192,41000,1,0,0:0:0:0:
448,192,41000,1,0,0:0:0:0:
64,192,41000,1,0,0:0:0:0:
320,192,41135,1,0,0:0:0:0:
192,192,41202,1,0,0:0:0:0:
64,192,41270,1,0,0:0:0:0:
448,192,41270,1,0,0:0:0:0:
448,192,41405,1,0,0:0:0:0:
320,192,41472,1,0,0:0:0:0:
192,192,41540,1,0,0:0:0:0:
64,192,41540,1,0,0:0:0:0:
64,192,41675,1,0,0:0:0:0:
192,192,41742,1,0,0:0:0:0:
320,192,41810,1,0,0:0:0:0:
448,192,41810,1,0,0:0:0:0:
64,192,41945,1,0,0:0:0:0:
192,192,41945,1,0,0:0:0:0:
320,192,42012,1,0,0:0:0:0:
448,192,42080,1,0,0:0:0:0:
64,192,42080,1,0,0:0:0:0:
192,192,42080,1,0,0:0:0:0:
448,192,42215,1,0,0:0:0:0:
320,192,42282,1,0,0:0:0:0:
192,192,42350,1,0,0:0:0:0:
64,192,42350,1,0,0:0:0:0:
64,192,42485,1,0,0:0:0:0:
192,192,42552,1,0,0:0:0:0:
448,192,42620,1,0,0:0:0:0:
64,192,42620,1,0,0:0:0:0:
320,192,42620,1,0,0:0:0:0:
320,192,42755,1,0,0:0:0:0:
192,192,42822,1,0,0:0:0:0:
448,192,42890,1,0,0:0:0:0:
64,192,42890,1,0,0:0:0:0:
448,192,43025,1,0,0:0:0:0:
320,192,43092,1,0,0:0:0:0:
192,192,43160,1,0,0:0:0:0:
448,192,43160,1,0,0:0:0:0:
64,192,43160,1,0,0:0:0:0:
320,192,43295,1,0,0:0:0:0:
192,192,43362,1,0,0:0:0:0:
320,192,43430,1,0,0:0:0:0:
448,192,43497,1,0,0:0:0:0:
64,192,43565,1,0,0:0:0:0:
192,192,43632,1,0,0:0:0:0:
320,192,43700,1,0,0:0:0:0:
448,192,43700,1,0,0:0:0:0:
64,192,43767,1,0,0:0:0:0:
448,192,43835,1,0,0:0:0:0:
320,192,43902,1,0,0:0:0:0:
64,192,43970,1,0,0:0:0:0:
192,192,43970,1,0,0:0:0:0:
448,192,44037,1,0,0:0:0:0:
320,192,44105,1,0,0:0:0:0:
192,192,44172,1,0,0:0:0:0:
64,192,44240,128,0,44375:0:0:0:0:
448,192,44240,128,0,44375:0:0:0:0:
64,192,44510,128,0,44645:0:0:0:0:
192,192,44510,128,0,44645:0:0:0:0:
320,192,44780,128,0,44915:0:0:0:0:
192,192,44780,128,0,44915:0:0:0:0:
320,192,45050,128,0,45185:0:0:0:0:
448,192,45050,128,0,45185:0:0:0:0:
64,192,45320,1,0,0:0:0:0:
448,192,45320,1,0,0:0:0:0:
320,192,45320,1,0,0:0:0:0:
64,192,45455,1,0,0:0:0:0:
192,192,45455,1,0,0:0:0:0:
320,192,45590,1,0,0:0:0:0:
448,192,45590,1,0,0:0:0:0:
64,192,45725,1,0,0:0:0:0:
448,192,45725,1,0,0:0:0:0:
192,192,45860,1,0,0:0:0:0:
320,192,45860,1,0,0:0:0:0:
64,192,45860,1,0,0:0:0:0:
448,192,45995,1,0,0:0:0:0:
320,192,45995,1,0,0:0:0:0:
64,192,46130,1,0,0:0:0:0:
192,192,46130,1,0,0:0:0:0:
64,192,46265,1,0,0:0:0:0:
320,192,46265,1,0,0:0:0:0:
192,192,46400,1,0,0:0:0:0:
320,192,46400,1,0,0:0:0:0:
448,192,46400,1,0,0:0:0:0:
192,192,46535,1,0,0:0:0:0:
64,192,46535,1,0,0:0:0:0:
448,192,46602,1,0,0:0:0:0:
64,192,46670,1,0,0:0:0:0:
320,192,46670,1,0,0:0:0:0:
320,192,46805,1,0,0:0:0:0:
448,192,46805,1,0,0:0:0:0:
192,192,46872,1,0,0:0:0:0:
64,192,46940,1,0,0:0:0:0:
448,192,46940,1,0,0:0:0:0:
320,192,47007,1,0,0:0:0:0:
64,192,47075,1,0,0:0:0:0:
192,192,47142,1,0,0:0:0:0:
448,192,47210,1,0,0:0:0:0:
320,192,47210,1,0,0:0:0:0:
64,192,47277,1,0,0:0:0:0:
192,192,47345,1,0,0:0:0:0:
320,192,47345,1,0,0:0:0:0:
448,192,47412,1,0,0:0:0:0:
64,192,47480,1,0,0:0:0:0:
192,192,47480,1,0,0:0:0:0:
320,192,47615,1,0,0:0:0:0:
64,192,47750,1,0,0:0:0:0:
448,192,47750,1,0,0:0:0:0:
192,192,47885,1,0,0:0:0:0:
320,192,48020,1,0,0:0:0:0:
448,192,48020,1,0,0:0:0:0:
64,192,48155,1,0,0:0:0:0:
192,192,48290,1,0,0:0:0:0:
320,192,48290,1,0,0:0:0:0:
448,192,48425,1,0,0:0:0:0:
64,192,48560,1,0,0:0:0:0:
192,192,48560,1,0,0:0:0:0:
320,192,48695,1,0,0:0:0:0:
64,192,48830,1,0,0:0:0:0:
448,192,48830,1,0,0:0:0:0:
192,192,48965,1,0,0:0:0:0:
320,192,49100,1,0,0:0:0:0:
448,192,49100,1,0,0:0:0:0:
192,192,49235,1,0,0:0:0:0:
64,192,49370,1,0,0:0:0:0:
448,192,49370,1,0,0:0:0:0:
192,192,49505,1,0,0:0:0:0:
320,192,49505,1,0,0:0:0:0:
64,192,49640,1,0,0:0:0:0:
448,192,49640,1,0,0:0:0:0:
320,192,49775,1,0,0:0:0:0:
64,192,49910,1,0,0:0:0:0:
192,192,49910,1,0,0:0:0:0:
448,192,50045,1,0,0:0:0:0:
192,192,50180,1,0,0:0:0:0:
320,192,50180,1,0,0:0:0:0:
64,192,50315,1,0,0:0:0:0:
320,192,50450,1,0,0:0:0:0:
448,192,50450,1,0,0:0:0:0:
192,192,50585,1,0,0:0:0:0:
64,192,50720,1,0,0:0:0:0:
448,192,50720,1,0,0:0:0:0:
320,192,50855,1,0,0:0:0:0:
64,192,50990,1,0,0:0:0:0:
192,192,50990,1,0,0:0:0:0:
448,192,51125,1,0,0:0:0:0:
192,192,51260,1,0,0:0:0:0:
320,192,51260,1,0,0:0:0:0:
64,192,51395,1,0,0:0:0:0:
320,192,51530,1,0,0:0:0:0:
448,192,51530,1,0,0:0:0:0:
192,192,51665,1,0,0:0:0:0:
64,192,51665,1,0,0:0:0:0:
448,192,51800,1,0,0:0:0:0:
320,192,51800,1,0,0:0:0:0:
192,192,51935,1,0,0:0:0:0:
64,192,52070,1,0,0:0:0:0:
448,192,52070,1,0,0:0:0:0:
320,192,52205,1,0,0:0:0:0:
64,192,52340,1,0,0:0:0:0:
192,192,52340,1,0,0:0:0:0:
448,192,52475,1,0,0:0:0:0:
320,192,52610,1,0,0:0:0:0:
192,192,52610,1,0,0:0:0:0:
64,192,52745,1,0,0:0:0:0:
320,192,52880,1,0,0:0:0:0:
448,192,52880,1,0,0:0:0:0:
192,192,53015,1,0,0:0:0:0:
64,192,53150,1,0,0:0:0:0:
448,192,53150,1,0,0:0:0:0:
320,192,53285,1,0,0:0:0:0:
64,192,53420,1,0,0:0:0:0:
192,192,53420,1,0,0:0:0:0:
320,192,53555,1,0,0:0:0:0:
448,192,53690,1,0,0:0:0:0:
64,192,53690,1,0,0:0:0:0:
192,192,53825,1,0,0:0:0:0:
320,192,53825,1,0,0:0:0:0:
448,192,53960,1,0,0:0:0:0:
64,192,53960,1,0,0:0:0:0:
192,192,54095,1,0,0:0:0:0:
320,192,54230,1,0,0:0:0:0:
448,192,54230,1,0,0:0:0:0:
64,192,54365,1,0,0:0:0:0:
192,192,54365,1,0,0:0:0:0:
320,192,54500,1,0,0:0:0:0:
448,192,54500,1,0,0:0:0:0:
192,192,54635,1,0,0:0:0:0:
64,192,54770,1,0,0:0:0:0:
448,192,54770,1,0,0:0:0:0:
192,192,54905,1,0,0:0:0:0:
320,192,54905,1,0,0:0:0:0:
64,192,55040,1,0,0:0:0:0:
448,192,55040,1,0,0:0:0:0:
320,192,55175,1,0,0:0:0:0:
192,192,55310,1,0,0:0:0:0:
64,192,55310,1,0,0:0:0:0:
448,192,55310,1,0,0:0:0:0:
192,192,55445,1,0,0:0:0:0:
320,192,55580,1,0,0:0:0:0:
448,192,55580,1,0,0:0:0:0:
64,192,55580,1,0,0:0:0:0:
320,192,55715,1,0,0:0:0:0:
192,192,55783,1,0,0:0:0:0:
64,192,55850,1,0,0:0:0:0:
448,192,55850,1,0,0:0:0:0:
320,192,55850,1,0,0:0:0:0:
192,192,55985,1,0,0:0:0:0:
320,192,56053,1,0,0:0:0:0:
448,192,56120,1,0,0:0:0:0:
64,192,56120,1,0,0:0:0:0:
192,192,56120,1,0,0:0:0:0:
192,192,56255,1,0,0:0:0:0:
448,192,56390,1,0,0:0:0:0:
320,192,56390,1,0,0:0:0:0:
320,192,56525,1,0,0:0:0:0:
192,192,56660,1,0,0:0:0:0:
64,192,56660,1,0,0:0:0:0:
320,192,56795,1,0,0:0:0:0:
64,192,56930,1,0,0:0:0:0:
448,192,56930,1,0,0:0:0:0:
64,192,57065,1,0,0:0:0:0:
192,192,57200,1,0,0:0:0:0:
320,192,57200,1,0,0:0:0:0:
448,192,57335,1,0,0:0:0:0:
64,192,57470,1,0,0:0:0:0:
192,192,57470,1,0,0:0:0:0:
192,192,57605,1,0,0:0:0:0:
320,192,57740,1,0,0:0:0:0:
448,192,57740,1,0,0:0:0:0:
192,192,57875,1,0,0:0:0:0:
448,192,58010,1,0,0:0:0:0:
64,192,58010,1,0,0:0:0:0:
192,192,58145,1,0,0:0:0:0:
320,192,58145,1,0,0:0:0:0:
448,192,58280,1,0,0:0:0:0:
64,192,58280,1,0,0:0:0:0:
320,192,58415,1,0,0:0:0:0:
192,192,58550,1,0,0:0:0:0:
64,192,58550,1,0,0:0:0:0:
64,192,58685,1,0,0:0:0:0:
320,192,58820,1,0,0:0:0:0:
448,192,58820,1,0,0:0:0:0:
192,192,58955,1,0,0:0:0:0:
448,192,59090,1,0,0:0:0:0:
64,192,59090,1,0,0:0:0:0:
448,192,59225,1,0,0:0:0:0:
192,192,59360,1,0,0:0:0:0:
64,192,59360,1,0,0:0:0:0:
320,192,59495,1,0,0:0:0:0:
448,192,59630,1,0,0:0:0:0:
64,192,59630,1,0,0:0:0:0:
64,192,59765,1,0,0:0:0:0:
320,192,59900,1,0,0:0:0:0:
448,192,59900,1,0,0:0:0:0:
192,192,60035,1,0,0:0:0:0:
448,192,60170,1,0,0:0:0:0:
64,192,60170,1,0,0:0:0:0:
192,192,60305,1,0,0:0:0:0:
320,192,60305,1,0,0:0:0:0:
64,192,60440,1,0,0:0:0:0:
448,192,60440,1,0,0:0:0:0:
320,192,60575,1,0,0:0:0:0:
64,192,60710,1,0,0:0:0:0:
192,192,60710,1,0,0:0:0:0:
192,192,60845,1,0,0:0:0:0:
320,192,60980,1,0,0:0:0:0:
448,192,60980,1,0,0:0:0:0:
64,192,61115,1,0,0:0:0:0:
192,192,61250,1,0,0:0:0:0:
320,192,61250,1,0,0:0:0:0:
320,192,61385,1,0,0:0:0:0:
64,192,61520,1,0,0:0:0:0:
448,192,61520,1,0,0:0:0:0:
192,192,61655,1,0,0:0:0:0:
320,192,61790,1,0,0:0:0:0:
448,192,61790,1,0,0:0:0:0:
448,192,61925,1,0,0:0:0:0:
64,192,62060,1,0,0:0:0:0:
192,192,62060,1,0,0:0:0:0:
448,192,62195,1,0,0:0:0:0:
192,192,62330,1,0,0:0:0:0:
320,192,62330,1,0,0:0:0:0:
192,192,62465,1,0,0:0:0:0:
64,192,62600,1,0,0:0:0:0:
448,192,62600,1,0,0:0:0:0:
448,192,62735,1,0,0:0:0:0:
320,192,62735,1,0,0:0:0:0:
64,192,62870,1,0,0:0:0:0:
192,192,62870,1,0,0:0:0:0:
64,192,63005,1,0,0:0:0:0:
448,192,63005,1,0,0:0:0:0:
192,192,63140,1,0,0:0:0:0:
320,192,63140,1,0,0:0:0:0:
64,192,63275,1,0,0:0:0:0:
448,192,63275,1,0,0:0:0:0:
192,192,63343,1,0,0:0:0:0:
448,192,63410,1,0,0:0:0:0:
320,192,63410,1,0,0:0:0:0:
64,192,63545,1,0,0:0:0:0:
192,192,63545,1,0,0:0:0:0:
320,192,63613,1,0,0:0:0:0:
448,192,63680,1,0,0:0:0:0:
64,192,63680,1,0,0:0:0:0:
448,192,63815,1,0,0:0:0:0:
320,192,63815,1,0,0:0:0:0:
192,192,63950,1,0,0:0:0:0:
320,192,63950,1,0,0:0:0:0:
64,192,64085,1,0,0:0:0:0:
192,192,64085,1,0,0:0:0:0:
64,192,64220,1,0,0:0:0:0:
448,192,64220,1,0,0:0:0:0:
320,192,64355,1,0,0:0:0:0:
192,192,64355,1,0,0:0:0:0:
448,192,64423,1,0,0:0:0:0:
64,192,64490,1,0,0:0:0:0:
192,192,64490,1,0,0:0:0:0:
320,192,64558,1,0,0:0:0:0:
448,192,64625,1,0,0:0:0:0:
64,192,64625,1,0,0:0:0:0:
192,192,64693,1,0,0:0:0:0:
320,192,64760,1,0,0:0:0:0:
448,192,64760,1,0,0:0:0:0:
64,192,64760,1,0,0:0:0:0:
320,192,64895,1,0,0:0:0:0:
192,192,64963,1,0,0:0:0:0:
64,192,65030,1,0,0:0:0:0:
448,192,65030,1,0,0:0:0:0:
320,192,65098,1,0,0:0:0:0:
64,192,65165,1,0,0:0:0:0:
192,192,65233,1,0,0:0:0:0:
320,192,65300,1,0,0:0:0:0:
448,192,65300,1,0,0:0:0:0:
64,192,65368,1,0,0:0:0:0:
320,192,65435,1,0,0:0:0:0:
192,192,65503,1,0,0:0:0:0:
64,192,65570,1,0,0:0:0:0:
448,192,65570,1,0,0:0:0:0:
320,192,65638,1,0,0:0:0:0:
192,192,65705,1,0,0:0:0:0:
320,192,65773,1,0,0:0:0:0:
192,192,65840,1,0,0:0:0:0:
64,192,65840,1,0,0:0:0:0:
448,192,65908,1,0,0:0:0:0:
64,192,65975,1,0,0:0:0:0:
192,192,66043,1,0,0:0:0:0:
320,192,66110,1,0,0:0:0:0:
448,192,66110,1,0,0:0:0:0:
64,192,66178,1,0,0:0:0:0:
448,192,66245,1,0,0:0:0:0:
320,192,66313,1,0,0:0:0:0:
64,192,66380,1,0,0:0:0:0:
192,192,66380,1,0,0:0:0:0:
448,192,66448,1,0,0:0:0:0:
192,192,66515,1,0,0:0:0:0:
320,192,66583,1,0,0:0:0:0:
64,192,66650,1,0,0:0:0:0:
448,192,66650,1,0,0:0:0:0:
192,192,66718,1,0,0:0:0:0:
320,192,66785,1,0,0:0:0:0:
192,192,66853,1,0,0:0:0:0:
448,192,66920,1,0,0:0:0:0:
320,192,66920,1,0,0:0:0:0:
64,192,66988,1,0,0:0:0:0:
448,192,67055,1,0,0:0:0:0:
320,192,67123,1,0,0:0:0:0:
192,192,67190,1,0,0:0:0:0:
64,192,67190,1,0,0:0:0:0:
448,192,67258,1,0,0:0:0:0:
64,192,67325,1,0,0:0:0:0:
192,192,67393,1,0,0:0:0:0:
320,192,67460,1,0,0:0:0:0:
448,192,67460,1,0,0:0:0:0:
64,192,67528,1,0,0:0:0:0:
320,192,67595,1,0,0:0:0:0:
192,192,67663,1,0,0:0:0:0:
64,192,67730,1,0,0:0:0:0:
448,192,67730,1,0,0:0:0:0:
320,192,67798,1,0,0:0:0:0:
192,192,67865,1,0,0:0:0:0:
320,192,67933,1,0,0:0:0:0:
64,192,68000,1,0,0:0:0:0:
192,192,68000,1,0,0:0:0:0:
448,192,68068,1,0,0:0:0:0:
320,192,68135,1,0,0:0:0:0:
192,192,68135,1,0,0:0:0:0:
64,192,68203,1,0,0:0:0:0:
320,192,68270,1,0,0:0:0:0:
448,192,68270,1,0,0:0:0:0:
64,192,68338,1,0,0:0:0:0:
192,192,68405,1,0,0:0:0:0:
320,192,68473,1,0,0:0:0:0:
64,192,68540,1,0,0:0:0:0:
448,192,68540,1,0,0:0:0:0:
64,192,68675,1,0,0:0:0:0:
192,192,68675,1,0,0:0:0:0:
320,192,68810,1,0,0:0:0:0:
192,192,68810,1,0,0:0:0:0:
320,192,68945,1,0,0:0:0:0:
448,192,68945,1,0,0:0:0:0:
64,192,69080,1,0,0:0:0:0:
448,192,69080,1,0,0:0:0:0:
192,192,69148,1,0,0:0:0:0:
320,192,69215,1,0,0:0:0:0:
192,192,69283,1,0,0:0:0:0:
64,192,69350,1,0,0:0:0:0:
448,192,69350,1,0,0:0:0:0:
320,192,69418,1,0,0:0:0:0:
64,192,69485,1,0,0:0:0:0:
192,192,69553,1,0,0:0:0:0:
320,192,69620,1,0,0:0:0:0:
448,192,69620,128,0,69688:0:0:0:0:
64,192,69688,1,0,0:0:0:0:
320,192,69755,1,0,0:0:0:0:
192,192,69823,1,0,0:0:0:0:
448,192,69890,1,0,0:0:0:0:
64,192,69890,128,0,69958:0:0:0:0:
320,192,69958,1,0,0:0:0:0:
192,192,70025,1,0,0:0:0:0:
448,192,70093,1,0,0:0:0:0:
64,192,70160,1,0,0:0:0:0:
320,192,70160,128,0,70228:0:0:0:0:
192,192,70228,1,0,0:0:0:0:
448,192,70295,1,0,0:0:0:0:
64,192,70363,1,0,0:0:0:0:
320,192,70430,1,0,0:0:0:0:
192,192,70430,128,0,70498:0:0:0:0:
448,192,70498,1,0,0:0:0:0:
64,192,70565,1,0,0:0:0:0:
320,192,70633,1,0,0:0:0:0:
192,192,70700,1,0,0:0:0:0:
448,192,70700,128,0,70768:0:0:0:0:
64,192,70768,1,0,0:0:0:0:
320,192,70835,1,0,0:0:0:0:
192,192,70903,1,0,0:0:0:0:
448,192,70970,1,0,0:0:0:0:
64,192,70970,128,0,71038:0:0:0:0:
320,192,71038,1,0,0:0:0:0:
192,192,71105,1,0,0:0:0:0:
448,192,71173,1,0,0:0:0:0:
64,192,71240,1,0,0:0:0:0:
320,192,71240,128,0,71308:0:0:0:0:
192,192,71308,1,0,0:0:0:0:
448,192,71375,1,0,0:0:0:0:
64,192,71443,1,0,0:0:0:0:
320,192,71510,1,0,0:0:0:0:
192,192,71510,128,0,71578:0:0:0:0:
448,192,71578,1,0,0:0:0:0:
64,192,71645,1,0,0:0:0:0:
320,192,71713,1,0,0:0:0:0:
192,192,71780,1,0,0:0:0:0:
448,192,71780,128,0,71848:0:0:0:0:
64,192,71848,1,0,0:0:0:0:
320,192,71915,1,0,0:0:0:0:
448,192,71983,1,0,0:0:0:0:
192,192,72050,1,0,0:0:0:0:
64,192,72050,128,0,72118:0:0:0:0:
448,192,72118,1,0,0:0:0:0:
192,192,72185,1,0,0:0:0:0:
320,192,72185,1,0,0:0:0:0:
64,192,72253,1,0,0:0:0:0:
320,192,72320,1,0,0:0:0:0:
448,192,72320,128,0,72388:0:0:0:0:
64,192,72388,1,0,0:0:0:0:
192,192,72455,1,0,0:0:0:0:
320,192,72523,1,0,0:0:0:0:
448,192,72590,1,0,0:0:0:0:
64,192,72590,1,0,0:0:0:0:
192,192,72590,1,0,0:0:0:0:
320,192,72725,1,0,0:0:0:0:
192,192,72793,1,0,0:0:0:0:
448,192,72860,1,0,0:0:0:0:
320,192,72860,1,0,0:0:0:0:
64,192,72928,1,0,0:0:0:0:
320,192,72995,1,0,0:0:0:0:
192,192,72995,1,0,0:0:0:0:
448,192,73063,1,0,0:0:0:0:
192,192,73130,1,0,0:0:0:0:
64,192,73130,1,0,0:0:0:0:
320,192,73198,1,0,0:0:0:0:
192,192,73265,1,0,0:0:0:0:
320,192,73333,1,0,0:0:0:0:
448,192,73400,1,0,0:0:0:0:
64,192,73400,128,0,73468:0:0:0:0:
192,192,73468,1,0,0:0:0:0:
320,192,73535,1,0,0:0:0:0:
64,192,73603,1,0,0:0:0:0:
320,192,73670,1,0,0:0:0:0:
448,192,73670,128,0,73738:0:0:0:0:
192,192,73738,1,0,0:0:0:0:
64,192,73805,1,0,0:0:0:0:
448,192,73873,1,0,0:0:0:0:
64,192,73940,1,0,0:0:0:0:
192,192,73940,128,0,74008:0:0:0:0:
320,192,74008,1,0,0:0:0:0:
448,192,74075,1,0,0:0:0:0:
64,192,74143,1,0,0:0:0:0:
448,192,74210,1,0,0:0:0:0:
320,192,74210,128,0,74278:0:0:0:0:
192,192,74278,1,0,0:0:0:0:
64,192,74345,1,0,0:0:0:0:
448,192,74413,1,0,0:0:0:0:
64,192,74480,1,0,0:0:0:0:
192,192,74480,1,0,0:0:0:0:
320,192,74570,1,0,0:0:0:0:
192,192,74660,1,0,0:0:0:0:
320,192,74750,1,0,0:0:0:0:
448,192,74750,1,0,0:0:0:0:
64,192,74818,1,0,0:0:0:0:
192,192,74885,1,0,0:0:0:0:
320,192,74953,1,0,0:0:0:0:
64,192,75020,1,0,0:0:0:0:
448,192,75020,1,0,0:0:0:0:
192,192,75088,1,0,0:0:0:0:
320,192,75155,1,0,0:0:0:0:
192,192,75223,1,0,0:0:0:0:
64,192,75290,1,0,0:0:0:0:
448,192,75290,1,0,0:0:0:0:
320,192,75425,1,0,0:0:0:0:
192,192,75425,1,0,0:0:0:0:
64,192,75560,1,0,0:0:0:0:
448,192,75560,128,0,75628:0:0:0:0:
320,192,75628,1,0,0:0:0:0:
64,192,75695,1,0,0:0:0:0:
192,192,75763,1,0,0:0:0:0:
448,192,75830,1,0,0:0:0:0:
320,192,75830,128,0,75898:0:0:0:0:
192,192,75898,1,0,0:0:0:0:
64,192,75965,1,0,0:0:0:0:
448,192,76033,1,0,0:0:0:0:
64,192,76100,1,0,0:0:0:0:
192,192,76100,128,0,76168:0:0:0:0:
448,192,76168,1,0,0:0:0:0:
320,192,76235,1,0,0:0:0:0:
192,192,76303,1,0,0:0:0:0:
448,192,76370,1,0,0:0:0:0:
64,192,76370,128,0,76438:0:0:0:0:
320,192,76438,1,0,0:0:0:0:
192,192,76505,1,0,0:0:0:0:
320,192,76573,1,0,0:0:0:0:
64,192,76640,1,0,0:0:0:0:
448,192,76640,128,0,76708:0:0:0:0:
192,192,76708,1,0,0:0:0:0:
320,192,76775,1,0,0:0:0:0:
64,192,76843,1,0,0:0:0:0:
448,192,76910,1,0,0:0:0:0:
192,192,76910,128,0,76978:0:0:0:0:
320,192,76978,1,0,0:0:0:0:
64,192,77045,1,0,0:0:0:0:
448,192,77113,1,0,0:0:0:0:
192,192,77180,1,0,0:0:0:0:
320,192,77180,128,0,77248:0:0:0:0:
64,192,77248,1,0,0:0:0:0:
448,192,77315,1,0,0:0:0:0:
192,192,77383,1,0,0:0:0:0:
320,192,77450,1,0,0:0:0:0:
64,192,77450,128,0,77518:0:0:0:0:
448,192,77518,1,0,0:0:0:0:
192,192,77585,1,0,0:0:0:0:
320,192,77653,1,0,0:0:0:0:
64,192,77720,1,0,0:0:0:0:
448,192,77720,1,0,0:0:0:0:
192,192,77788,1,0,0:0:0:0:
448,192,77855,1,0,0:0:0:0:
320,192,77923,1,0,0:0:0:0:
64,192,77990,1,0,0:0:0:0:
192,192,77990,1,0,0:0:0:0:
448,192,78058,1,0,0:0:0:0:
64,192,78125,1,0,0:0:0:0:
192,192,78193,1,0,0:0:0:0:
320,192,78260,1,0,0:0:0:0:
448,192,78260,1,0,0:0:0:0:
64,192,78328,1,0,0:0:0:0:
320,192,78395,1,0,0:0:0:0:
192,192,78463,1,0,0:0:0:0:
448,192,78530,1,0,0:0:0:0:
64,192,78530,1,0,0:0:0:0:
320,192,78598,1,0,0:0:0:0:
64,192,78665,1,0,0:0:0:0:
192,192,78665,1,0,0:0:0:0:
320,192,78733,1,0,0:0:0:0:
448,192,78800,1,0,0:0:0:0:
64,192,78800,1,0,0:0:0:0:
192,192,78868,1,0,0:0:0:0:
448,192,78935,1,0,0:0:0:0:
320,192,79003,1,0,0:0:0:0:
64,192,79070,1,0,0:0:0:0:
192,192,79070,1,0,0:0:0:0:
448,192,79138,1,0,0:0:0:0:
64,192,79205,1,0,0:0:0:0:
192,192,79273,1,0,0:0:0:0:
320,192,79340,1,0,0:0:0:0:
448,192,79340,1,0,0:0:0:0:
64,192,79408,1,0,0:0:0:0:
448,192,79475,1,0,0:0:0:0:
64,192,79543,1,0,0:0:0:0:
192,192,79543,1,0,0:0:0:0:
448,192,79610,1,0,0:0:0:0:
320,192,79610,1,0,0:0:0:0:
192,192,79678,1,0,0:0:0:0:
64,192,79745,1,0,0:0:0:0:
448,192,79813,1,0,0:0:0:0:
320,192,79880,1,0,0:0:0:0:
192,192,79880,1,0,0:0:0:0:
192,192,80015,1,0,0:0:0:0:
64,192,80015,1,0,0:0:0:0:
448,192,80083,1,0,0:0:0:0:
320,192,80150,1,0,0:0:0:0:
192,192,80150,1,0,0:0:0:0:
320,192,80285,1,0,0:0:0:0:
448,192,80285,1,0,0:0:0:0:
64,192,80353,1,0,0:0:0:0:
192,192,80420,1,0,0:0:0:0:
320,192,80420,1,0,0:0:0:0:
64,192,80555,1,0,0:0:0:0:
192,192,80555,1,0,0:0:0:0:
320,192,80623,1,0,0:0:0:0:
64,192,80690,1,0,0:0:0:0:
448,192,80690,1,0,0:0:0:0:
320,192,80825,1,0,0:0:0:0:
448,192,80825,1,0,0:0:0:0:
192,192,80893,1,0,0:0:0:0:
64,192,80960,1,0,0:0:0:0:
448,192,80960,1,0,0:0:0:0:
320,192,80960,1,0,0:0:0:0:
192,192,81095,1,0,0:0:0:0:
320,192,81163,1,0,0:0:0:0:
448,192,81230,1,0,0:0:0:0:
64,192,81230,1,0,0:0:0:0:
192,192,81230,1,0,0:0:0:0:
320,192,81365,1,0,0:0:0:0:
192,192,81433,1,0,0:0:0:0:
448,192,81500,1,0,0:0:0:0:
320,192,81500,1,0,0:0:0:0:
64,192,81568,1,0,0:0:0:0:
192,192,81635,1,0,0:0:0:0:
320,192,81635,1,0,0:0:0:0:
448,192,81703,1,0,0:0:0:0:
64,192,81770,1,0,0:0:0:0:
192,192,81770,1,0,0:0:0:0:
320,192,81838,1,0,0:0:0:0:
448,192,81905,1,0,0:0:0:0:
64,192,81905,1,0,0:0:0:0:
192,192,81973,1,0,0:0:0:0:
320,192,82040,1,0,0:0:0:0:
448,192,82040,128,0,82175:0:0:0:0:
192,192,82175,128,0,82310:0:0:0:0:
320,192,82310,128,0,82445:0:0:0:0:
64,192,82445,128,0,82580:0:0:0:0:
448,192,82580,128,0,82715:0:0:0:0:
192,192,82715,128,0,82850:0:0:0:0:
320,192,82850,128,0,82985:0:0:0:0:
192,192,82985,128,0,83120:0:0:0:0:
64,192,83120,128,0,83255:0:0:0:0:
448,192,83255,128,0,83390:0:0:0:0:
64,192,83390,128,0,83525:0:0:0:0:
320,192,83525,128,0,83660:0:0:0:0:
192,192,83660,128,0,83795:0:0:0:0:
448,192,83795,128,0,83930:0:0:0:0:
192,192,83930,128,0,84065:0:0:0:0:
64,192,84065,128,0,84200:0:0:0:0:
448,192,84200,128,0,84335:0:0:0:0:
192,192,84335,128,0,84470:0:0:0:0:
320,192,84470,128,0,84605:0:0:0:0:
64,192,84605,128,0,84740:0:0:0:0:
448,192,84740,128,0,84875:0:0:0:0:
320,192,84875,128,0,85010:0:0:0:0:
64,192,85010,128,0,85145:0:0:0:0:
192,192,85145,128,0,85280:0:0:0:0:
448,192,85280,128,0,85415:0:0:0:0:
320,192,85415,128,0,85550:0:0:0:0:
64,192,85550,128,0,85685:0:0:0:0:
192,192,85685,128,0,85820:0:0:0:0:
320,192,85820,128,0,85955:0:0:0:0:
448,192,85955,128,0,86090:0:0:0:0:
320,192,86090,128,0,86225:0:0:0:0:
192,192,86225,128,0,86360:0:0:0:0:
64,192,86360,128,0,86495:0:0:0:0:
448,192,86495,128,0,86630:0:0:0:0:
320,192,86630,128,0,86765:0:0:0:0:
192,192,86765,128,0,86900:0:0:0:0:
64,192,86900,128,0,87035:0:0:0:0:
448,192,87035,128,0,87170:0:0:0:0:
192,192,87170,128,0,87305:0:0:0:0:
320,192,87305,128,0,87440:0:0:0:0:
448,192,87440,128,0,87575:0:0:0:0:
64,192,87575,128,0,87710:0:0:0:0:
448,192,87710,128,0,87845:0:0:0:0:
192,192,87845,128,0,87980:0:0:0:0:
320,192,87980,128,0,88115:0:0:0:0:
64,192,88115,128,0,88250:0:0:0:0:
320,192,88250,128,0,88385:0:0:0:0:
448,192,88385,128,0,88520:0:0:0:0:
192,192,88520,128,0,88655:0:0:0:0:
320,192,88655,128,0,88790:0:0:0:0:
64,192,88790,128,0,88925:0:0:0:0:
192,192,88925,128,0,89060:0:0:0:0:
448,192,89060,128,0,89195:0:0:0:0:
320,192,89195,128,0,89330:0:0:0:0:
192,192,89330,128,0,89465:0:0:0:0:
64,192,89465,128,0,89600:0:0:0:0:
448,192,89600,128,0,89735:0:0:0:0:
192,192,89735,128,0,89870:0:0:0:0:
320,192,89870,128,0,90005:0:0:0:0:
448,192,90005,128,0,90140:0:0:0:0:
192,192,90140,128,0,90275:0:0:0:0:
64,192,90140,128,0,90275:0:0:0:0:
448,192,90410,128,0,90545:0:0:0:0:
320,192,90410,128,0,90545:0:0:0:0:
192,192,90545,1,0,0:0:0:0:
320,192,90613,1,0,0:0:0:0:
64,192,90680,1,0,0:0:0:0:
448,192,90680,1,0,0:0:0:0:
192,192,90680,1,0,0:0:0:0:
64,192,90815,128,0,90950:0:0:0:0:
64,192,91085,128,0,91220:0:0:0:0:
448,192,91355,128,0,91490:0:0:0:0:
448,192,91625,128,0,91760:0:0:0:0:
192,192,91895,128,0,92030:0:0:0:0:
192,192,92165,128,0,92300:0:0:0:0:
320,192,92435,128,0,92570:0:0:0:0:
320,192,92705,128,0,92840:0:0:0:0:
64,192,92840,1,0,0:0:0:0:
192,192,92840,1,0,0:0:0:0:
448,192,92840,1,0,0:0:0:0:
192,192,92975,128,0,93110:0:0:0:0:
192,192,93245,128,0,93380:0:0:0:0:
320,192,93515,128,0,93650:0:0:0:0:
320,192,93785,128,0,93920:0:0:0:0:
64,192,94055,128,0,94190:0:0:0:0:
64,192,94325,128,0,94460:0:0:0:0:
448,192,94595,128,0,94730:0:0:0:0:
448,192,94865,128,0,95000:0:0:0:0:
64,192,95000,1,0,0:0:0:0:
192,192,95000,1,0,0:0:0:0:
320,192,95068,1,0,0:0:0:0:
448,192,95135,1,0,0:0:0:0:
64,192,95203,1,0,0:0:0:0:
192,192,95270,1,0,0:0:0:0:
448,192,95338,1,0,0:0:0:0:
320,192,95405,1,0,0:0:0:0:
192,192,95473,1,0,0:0:0:0:
64,192,95540,1,0,0:0:0:0:
320,192,95608,1,0,0:0:0:0:
448,192,95675,1,0,0:0:0:0:
192,192,95743,1,0,0:0:0:0:
320,192,95810,1,0,0:0:0:0:
64,192,95878,1,0,0:0:0:0:
192,192,95945,1,0,0:0:0:0:
320,192,96013,1,0,0:0:0:0:
64,192,96080,1,0,0:0:0:0:
448,192,96080,1,0,0:0:0:0:
192,192,96148,1,0,0:0:0:0:
320,192,96215,1,0,0:0:0:0:
192,192,96283,1,0,0:0:0:0:
448,192,96350,1,0,0:0:0:0:
64,192,96418,1,0,0:0:0:0:
320,192,96485,1,0,0:0:0:0:
192,192,96553,1,0,0:0:0:0:
448,192,96620,1,0,0:0:0:0:
320,192,96620,1,0,0:0:0:0:
64,192,96688,1,0,0:0:0:0:
192,192,96755,1,0,0:0:0:0:
448,192,96823,1,0,0:0:0:0:
320,192,96890,1,0,0:0:0:0:
64,192,96958,1,0,0:0:0:0:
192,192,97025,1,0,0:0:0:0:
320,192,97025,1,0,0:0:0:0:
448,192,97093,1,0,0:0:0:0:
64,192,97160,1,0,0:0:0:0:
192,192,97160,1,0,0:0:0:0:
320,192,97228,1,0,0:0:0:0:
64,192,97295,1,0,0:0:0:0:
192,192,97363,1,0,0:0:0:0:
320,192,97430,1,0,0:0:0:0:
448,192,97430,1,0,0:0:0:0:
64,192,97498,1,0,0:0:0:0:
448,192,97565,1,0,0:0:0:0:
320,192,97633,1,0,0:0:0:0:
192,192,97700,1,0,0:0:0:0:
64,192,97700,1,0,0:0:0:0:
448,192,97768,1,0,0:0:0:0:
64,192,97835,1,0,0:0:0:0:
192,192,97903,1,0,0:0:0:0:
448,192,97970,1,0,0:0:0:0:
320,192,97970,1,0,0:0:0:0:
64,192,98038,1,0,0:0:0:0:
192,192,98105,1,0,0:0:0:0:
320,192,98105,1,0,0:0:0:0:
448,192,98173,1,0,0:0:0:0:
64,192,98240,1,0,0:0:0:0:
192,192,98240,1,0,0:0:0:0:
448,192,98308,1,0,0:0:0:0:
320,192,98375,1,0,0:0:0:0:
192,192,98443,1,0,0:0:0:0:
448,192,98510,1,0,0:0:0:0:
320,192,98578,1,0,0:0:0:0:
192,192,98645,1,0,0:0:0:0:
64,192,98713,1,0,0:0:0:0:
320,192,98780,1,0,0:0:0:0:
448,192,98848,1,0,0:0:0:0:
192,192,98915,1,0,0:0:0:0:
320,192,98983,1,0,0:0:0:0:
64,192,99050,1,0,0:0:0:0:
192,192,99118,1,0,0:0:0:0:
320,192,99185,1,0,0:0:0:0:
64,192,99253,1,0,0:0:0:0:
192,192,99320,1,0,0:0:0:0:
448,192,99320,1,0,0:0:0:0:
320,192,99388,1,0,0:0:0:0:
192,192,99455,1,0,0:0:0:0:
64,192,99523,1,0,0:0:0:0:
448,192,99590,1,0,0:0:0:0:
320,192,99658,1,0,0:0:0:0:
192,192,99725,1,0,0:0:0:0:
448,192,99793,1,0,0:0:0:0:
64,192,99860,1,0,0:0:0:0:
192,192,99928,1,0,0:0:0:0:
320,192,99995,1,0,0:0:0:0:
448,192,100063,1,0,0:0:0:0:
64,192,100130,1,0,0:0:0:0:
192,192,100198,1,0,0:0:0:0:
320,192,100265,1,0,0:0:0:0:
64,192,100333,1,0,0:0:0:0:
448,192,100400,1,0,0:0:0:0:
192,192,100400,1,0,0:0:0:0:
320,192,100468,1,0,0:0:0:0:
64,192,100535,1,0,0:0:0:0:
192,192,100603,1,0,0:0:0:0:
448,192,100670,1,0,0:0:0:0:
320,192,100738,1,0,0:0:0:0:
192,192,100805,1,0,0:0:0:0:
320,192,100873,1,0,0:0:0:0:
448,192,100940,1,0,0:0:0:0:
64,192,101008,1,0,0:0:0:0:
192,192,101075,1,0,0:0:0:0:
320,192,101143,1,0,0:0:0:0:
64,192,101210,1,0,0:0:0:0:
192,192,101278,1,0,0:0:0:0:
320,192,101345,1,0,0:0:0:0:
192,192,101413,1,0,0:0:0:0:
64,192,101480,1,0,0:0:0:0:
448,192,101480,1,0,0:0:0:0:
320,192,101548,1,0,0:0:0:0:
192,192,101615,1,0,0:0:0:0:
64,192,101683,1,0,0:0:0:0:
320,192,101750,1,0,0:0:0:0:
448,192,101818,1,0,0:0:0:0:
192,192,101885,1,0,0:0:0:0:
320,192,101953,1,0,0:0:0:0:
64,192,102020,1,0,0:0:0:0:
192,192,102088,1,0,0:0:0:0:
448,192,102156,1,0,0:0:0:0:
320,192,102223,1,0,0:0:0:0:
64,192,102291,1,0,0:0:0:0:
192,192,102291,1,0,0:0:0:0:
320,192,102426,1,0,0:0:0:0:
192,192,102426,1,0,0:0:0:0:
320,192,102561,1,0,0:0:0:0:
448,192,102561,1,0,0:0:0:0:
64,192,102628,1,0,0:0:0:0:
192,192,102696,1,0,0:0:0:0:
320,192,102763,1,0,0:0:0:0:
64,192,102831,1,0,0:0:0:0:
448,192,102831,1,0,0:0:0:0:
192,192,102898,1,0,0:0:0:0:
448,192,102966,1,0,0:0:0:0:
320,192,103033,1,0,0:0:0:0:
64,192,103101,1,0,0:0:0:0:
192,192,103101,1,0,0:0:0:0:
448,192,103168,1,0,0:0:0:0:
320,192,103236,1,0,0:0:0:0:
192,192,103303,1,0,0:0:0:0:
64,192,103371,1,0,0:0:0:0:
448,192,103371,1,0,0:0:0:0:
320,192,103438,1,0,0:0:0:0:
192,192,103506,1,0,0:0:0:0:
320,192,103573,1,0,0:0:0:0:
448,192,103641,1,0,0:0:0:0:
64,192,103641,1,0,0:0:0:0:
192,192,103708,1,0,0:0:0:0:
448,192,103776,1,0,0:0:0:0:
320,192,103843,1,0,0:0:0:0:
64,192,103911,1,0,0:0:0:0:
192,192,103911,1,0,0:0:0:0:
448,192,103978,1,0,0:0:0:0:
64,192,104046,1,0,0:0:0:0:
192,192,104113,1,0,0:0:0:0:
448,192,104181,1,0,0:0:0:0:
320,192,104181,1,0,0:0:0:0:
64,192,104248,1,0,0:0:0:0:
320,192,104316,1,0,0:0:0:0:
192,192,104383,1,0,0:0:0:0:
64,192,104451,1,0,0:0:0:0:
448,192,104451,1,0,0:0:0:0:
320,192,104518,1,0,0:0:0:0:
64,192,104586,1,0,0:0:0:0:
192,192,104653,1,0,0:0:0:0:
448,192,104721,1,0,0:0:0:0:
320,192,104721,1,0,0:0:0:0:
64,192,104788,1,0,0:0:0:0:
192,192,104856,1,0,0:0:0:0:
448,192,104856,1,0,0:0:0:0:
320,192,104923,1,0,0:0:0:0:
192,192,104991,1,0,0:0:0:0:
64,192,104991,1,0,0:0:0:0:
448,192,105058,1,0,0:0:0:0:
64,192,105126,1,0,0:0:0:0:
320,192,105126,1,0,0:0:0:0:
192,192,105193,1,0,0:0:0:0:
320,192,105261,1,0,0:0:0:0:
448,192,105261,1,0,0:0:0:0:
192,192,105328,1,0,0:0:0:0:
64,192,105396,1,0,0:0:0:0:
448,192,105396,1,0,0:0:0:0:
320,192,105463,1,0,0:0:0:0:
64,192,105531,1,0,0:0:0:0:
192,192,105531,1,0,0:0:0:0:
320,192,105598,1,0,0:0:0:0:
64,192,105666,1,0,0:0:0:0:
448,192,105666,1,0,0:0:0:0:
192,192,105733,1,0,0:0:0:0:
320,192,105801,1,0,0:0:0:0:
448,192,105801,1,0,0:0:0:0:
64,192,105868,1,0,0:0:0:0:
192,192,105868,1,0,0:0:0:0:
320,192,105936,1,0,0:0:0:0:
448,192,105936,1,0,0:0:0:0:
64,192,106003,1,0,0:0:0:0:
192,192,106071,1,0,0:0:0:0:
320,192,106071,1,0,0:0:0:0:
448,192,106138,1,0,0:0:0:0:
64,192,106206,1,0,0:0:0:0:
192,192,106206,1,0,0:0:0:0:
320,192,106273,1,0,0:0:0:0:
448,192,106341,1,0,0:0:0:0:
64,192,106341,1,0,0:0:0:0:
192,192,106408,1,0,0:0:0:0:
320,192,106408,1,0,0:0:0:0:
64,192,106476,1,0,0:0:0:0:
448,192,106476,1,0,0:0:0:0:
192,192,106543,1,0,0:0:0:0:
320,192,106611,1,0,0:0:0:0:
448,192,106611,1,0,0:0:0:0:
64,192,106678,1,0,0:0:0:0:
192,192,106746,1,0,0:0:0:0:
320,192,106746,1,0,0:0:0:0:
448,192,106813,1,0,0:0:0:0:
64,192,106881,1,0,0:0:0:0:
192,192,106881,128,0,107691:0:0:0:0:
320,192,107691,1,0,0:0:0:0:
448,192,107691,1,0,0:0:0:0:
64,192,107961,1,0,0:0:0:0:
192,192,107961,1,0,0:0:0:0:
448,192,107961,1,0,0:0:0:0:
320,192,108028,1,0,0:0:0:0:
64,192,108096,1,0,0:0:0:0:
192,192,108163,1,0,0:0:0:0:
320,192,108231,1,0,0:0:0:0:
448,192,108231,1,0,0:0:0:0:
64,192,108366,1,0,0:0:0:0:
192,192,108366,1,0,0:0:0:0:
320,192,108433,1,0,0:0:0:0:
192,192,108501,1,0,0:0:0:0:
64,192,108568,1,0,0:0:0:0:
448,192,108568,1,0,0:0:0:0:
320,192,108771,1,0,0:0:0:0:
192,192,108771,1,0,0:0:0:0:
320,192,108906,1,0,0:0:0:0:
192,192,108906,1,0,0:0:0:0:
64,192,109041,1,0,0:0:0:0:
448,192,109041,1,0,0:0:0:0:
192,192,109108,1,0,0:0:0:0:
448,192,109176,1,0,0:0:0:0:
320,192,109243,1,0,0:0:0:0:
192,192,109311,1,0,0:0:0:0:
64,192,109311,1,0,0:0:0:0:
320,192,109446,1,0,0:0:0:0:
448,192,109446,1,0,0:0:0:0:
192,192,109513,1,0,0:0:0:0:
320,192,109581,1,0,0:0:0:0:
448,192,109648,1,0,0:0:0:0:
64,192,109648,1,0,0:0:0:0:
192,192,109851,1,0,0:0:0:0:
320,192,109851,1,0,0:0:0:0:
192,192,109986,1,0,0:0:0:0:
320,192,109986,1,0,0:0:0:0:
64,192,110121,1,0,0:0:0:0:
448,192,110121,1,0,0:0:0:0:
320,192,110188,1,0,0:0:0:0:
192,192,110256,1,0,0:0:0:0:
320,192,110323,1,0,0:0:0:0:
64,192,110391,1,0,0:0:0:0:
448,192,110391,1,0,0:0:0:0:
192,192,110526,1,0,0:0:0:0:
320,192,110526,1,0,0:0:0:0:
448,192,110593,1,0,0:0:0:0:
64,192,110661,1,0,0:0:0:0:
320,192,110728,1,0,0:0:0:0:
448,192,110728,1,0,0:0:0:0:
64,192,110931,1,0,0:0:0:0:
192,192,110931,1,0,0:0:0:0:
64,192,111066,1,0,0:0:0:0:
192,192,111066,1,0,0:0:0:0:
320,192,111201,1,0,0:0:0:0:
448,192,111201,1,0,0:0:0:0:
64,192,111268,1,0,0:0:0:0:
192,192,111336,1,0,0:0:0:0:
320,192,111336,1,0,0:0:0:0:
448,192,111403,1,0,0:0:0:0:
64,192,111471,1,0,0:0:0:0:
192,192,111471,1,0,0:0:0:0:
320,192,111606,1,0,0:0:0:0:
448,192,111606,1,0,0:0:0:0:
192,192,111673,1,0,0:0:0:0:
64,192,111741,1,0,0:0:0:0:
448,192,111741,1,0,0:0:0:0:
64,192,111876,1,0,0:0:0:0:
192,192,111876,1,0,0:0:0:0:
320,192,112011,1,0,0:0:0:0:
192,192,112011,1,0,0:0:0:0:
448,192,112146,1,0,0:0:0:0:
320,192,112146,1,0,0:0:0:0:
64,192,112281,1,0,0:0:0:0:
448,192,112281,1,0,0:0:0:0:
192,192,112348,1,0,0:0:0:0:
320,192,112416,1,0,0:0:0:0:
448,192,112483,1,0,0:0:0:0:
64,192,112551,1,0,0:0:0:0:
192,192,112551,1,0,0:0:0:0:
320,192,112618,1,0,0:0:0:0:
64,192,112686,1,0,0:0:0:0:
192,192,112753,1,0,0:0:0:0:
448,192,112821,1,0,0:0:0:0:
320,192,112821,128,0,112888:0:0:0:0:
64,192,112888,1,0,0:0:0:0:
448,192,112956,1,0,0:0:0:0:
320,192,113023,1,0,0:0:0:0:
192,192,113091,1,0,0:0:0:0:
64,192,113091,128,0,113158:0:0:0:0:
448,192,113158,1,0,0:0:0:0:
192,192,113226,1,0,0:0:0:0:
320,192,113293,1,0,0:0:0:0:
64,192,113361,1,0,0:0:0:0:
448,192,113361,128,0,113428:0:0:0:0:
192,192,113428,1,0,0:0:0:0:
320,192,113496,1,0,0:0:0:0:
64,192,113563,1,0,0:0:0:0:
448,192,113631,1,0,0:0:0:0:
192,192,113631,128,0,113698:0:0:0:0:
320,192,113698,1,0,0:0:0:0:
64,192,113766,1,0,0:0:0:0:
448,192,113833,1,0,0:0:0:0:
192,192,113901,1,0,0:0:0:0:
320,192,113901,128,0,113968:0:0:0:0:
64,192,113968,1,0,0:0:0:0:
448,192,114036,1,0,0:0:0:0:
320,192,114103,1,0,0:0:0:0:
192,192,114171,1,0,0:0:0:0:
64,192,114171,128,0,114238:0:0:0:0:
448,192,114238,1,0,0:0:0:0:
192,192,114306,1,0,0:0:0:0:
320,192,114373,1,0,0:0:0:0:
64,192,114441,1,0,0:0:0:0:
448,192,114441,128,0,114508:0:0:0:0:
192,192,114508,1,0,0:0:0:0:
320,192,114576,1,0,0:0:0:0:
64,192,114643,1,0,0:0:0:0:
448,192,114711,1,0,0:0:0:0:
192,192,114711,128,0,114778:0:0:0:0:
320,192,114778,1,0,0:0:0:0:
64,192,114846,1,0,0:0:0:0:
192,192,114913,1,0,0:0:0:0:
448,192,114981,1,0,0:0:0:0:
320,192,114981,128,0,115048:0:0:0:0:
64,192,115048,1,0,0:0:0:0:
192,192,115116,1,0,0:0:0:0:
448,192,115183,1,0,0:0:0:0:
320,192,115251,1,0,0:0:0:0:
192,192,115251,128,0,115318:0:0:0:0:
64,192,115318,1,0,0:0:0:0:
448,192,115386,1,0,0:0:0:0:
320,192,115453,1,0,0:0:0:0:
192,192,115521,1,0,0:0:0:0:
64,192,115521,128,0,115588:0:0:0:0:
448,192,115588,1,0,0:0:0:0:
192,192,115656,1,0,0:0:0:0:
320,192,115723,1,0,0:0:0:0:
64,192,115791,1,0,0:0:0:0:
448,192,115791,1,0,0:0:0:0:
192,192,115858,1,0,0:0:0:0:
448,192,115926,1,0,0:0:0:0:
320,192,115993,1,0,0:0:0:0:
64,192,116061,1,0,0:0:0:0:
192,192,116061,1,0,0:0:0:0:
448,192,116128,1,0,0:0:0:0:
192,192,116196,1,0,0:0:0:0:
320,192,116196,1,0,0:0:0:0:
64,192,116263,1,0,0:0:0:0:
320,192,116331,1,0,0:0:0:0:
448,192,116331,1,0,0:0:0:0:
192,192,116398,1,0,0:0:0:0:
64,192,116466,1,0,0:0:0:0:
320,192,116533,1,0,0:0:0:0:
448,192,116533,1,0,0:0:0:0:
192,192,116601,1,0,0:0:0:0:
64,192,116601,128,0,116668:0:0:0:0:
448,192,116668,1,0,0:0:0:0:
192,192,116736,1,0,0:0:0:0:
320,192,116803,1,0,0:0:0:0:
64,192,116871,1,0,0:0:0:0:
448,192,116871,128,0,116938:0:0:0:0:
192,192,116938,1,0,0:0:0:0:
448,192,117006,1,0,0:0:0:0:
320,192,117073,1,0,0:0:0:0:
64,192,117141,1,0,0:0:0:0:
192,192,117141,128,0,117208:0:0:0:0:
448,192,117208,1,0,0:0:0:0:
64,192,117276,1,0,0:0:0:0:
192,192,117343,1,0,0:0:0:0:
448,192,117411,1,0,0:0:0:0:
320,192,117411,128,0,117478:0:0:0:0:
64,192,117478,1,0,0:0:0:0:
448,192,117546,1,0,0:0:0:0:
320,192,117613,1,0,0:0:0:0:
64,192,117681,1,0,0:0:0:0:
192,192,117681,1,0,0:0:0:0:
320,192,117771,1,0,0:0:0:0:
192,192,117861,1,0,0:0:0:0:
448,192,117951,1,0,0:0:0:0:
320,192,117951,1,0,0:0:0:0:
64,192,118018,1,0,0:0:0:0:
448,192,118086,1,0,0:0:0:0:
320,192,118153,1,0,0:0:0:0:
64,192,118221,1,0,0:0:0:0:
192,192,118221,1,0,0:0:0:0:
448,192,118288,1,0,0:0:0:0:
64,192,118356,1,0,0:0:0:0:
192,192,118423,1,0,0:0:0:0:
320,192,118491,1,0,0:0:0:0:
448,192,118491,1,0,0:0:0:0:
64,192,118558,1,0,0:0:0:0:
320,192,118626,1,0,0:0:0:0:
192,192,118693,1,0,0:0:0:0:
64,192,118761,1,0,0:0:0:0:
448,192,118761,128,0,118828:0:0:0:0:
320,192,118828,1,0,0:0:0:0:
192,192,118896,1,0,0:0:0:0:
448,192,118963,1,0,0:0:0:0:
320,192,119031,1,0,0:0:0:0:
64,192,119031,128,0,119098:0:0:0:0:
192,192,119098,1,0,0:0:0:0:
448,192,119166,1,0,0:0:0:0:
64,192,119233,1,0,0:0:0:0:
320,192,119301,1,0,0:0:0:0:
192,192,119301,128,0,119368:0:0:0:0:
448,192,119368,1,0,0:0:0:0:
64,192,119436,1,0,0:0:0:0:
192,192,119503,1,0,0:0:0:0:
448,192,119571,1,0,0:0:0:0:
320,192,119571,128,0,119638:0:0:0:0:
64,192,119638,1,0,0:0:0:0:
448,192,119706,1,0,0:0:0:0:
320,192,119773,1,0,0:0:0:0:
192,192,119841,1,0,0:0:0:0:
64,192,119841,128,0,119908:0:0:0:0:
448,192,119908,1,0,0:0:0:0:
64,192,119976,1,0,0:0:0:0:
448,192,120043,1,0,0:0:0:0:
64,192,120111,1,0,0:0:0:0:
192,192,120111,128,0,120178:0:0:0:0:
320,192,120178,1,0,0:0:0:0:
448,192,120246,1,0,0:0:0:0:
64,192,120313,1,0,0:0:0:0:
192,192,120381,1,0,0:0:0:0:
320,192,120381,128,0,120448:0:0:0:0:
448,192,120448,1,0,0:0:0:0:
64,192,120516,1,0,0:0:0:0:
192,192,120583,1,0,0:0:0:0:
320,192,120651,1,0,0:0:0:0:
448,192,120651,128,0,120718:0:0:0:0:
192,192,120718,1,0,0:0:0:0:
320,192,120786,1,0,0:0:0:0:
64,192,120853,1,0,0:0:0:0:
448,192,120921,1,0,0:0:0:0:
192,192,120921,1,0,0:0:0:0:
320,192,120988,1,0,0:0:0:0:
64,192,121056,1,0,0:0:0:0:
192,192,121123,1,0,0:0:0:0:
320,192,121191,1,0,0:0:0:0:
448,192,121191,1,0,0:0:0:0:
64,192,121258,1,0,0:0:0:0:
320,192,121326,1,0,0:0:0:0:
192,192,121393,1,0,0:0:0:0:
64,192,121461,1,0,0:0:0:0:
448,192,121461,1,0,0:0:0:0:
320,192,121528,1,0,0:0:0:0:
192,192,121596,1,0,0:0:0:0:
448,192,121663,1,0,0:0:0:0:
64,192,121731,1,0,0:0:0:0:
320,192,121731,1,0,0:0:0:0:
192,192,121798,1,0,0:0:0:0:
448,192,121866,1,0,0:0:0:0:
64,192,121933,1,0,0:0:0:0:
192,192,122001,1,0,0:0:0:0:
320,192,122001,1,0,0:0:0:0:
448,192,122136,1,0,0:0:0:0:
320,192,122203,1,0,0:0:0:0:
64,192,122271,1,0,0:0:0:0:
192,192,122271,1,0,0:0:0:0:
448,192,122338,1,0,0:0:0:0:
64,192,122406,1,0,0:0:0:0:
192,192,122473,1,0,0:0:0:0:
320,192,122541,1,0,0:0:0:0:
448,192,122541,1,0,0:0:0:0:
64,192,122608,1,0,0:0:0:0:
320,192,122676,1,0,0:0:0:0:
192,192,122743,1,0,0:0:0:0:
448,192,122811,1,0,0:0:0:0:
64,192,122811,1,0,0:0:0:0:
320,192,122878,1,0,0:0:0:0:
192,192,122946,1,0,0:0:0:0:
320,192,123013,1,0,0:0:0:0:
64,192,123081,1,0,0:0:0:0:
448,192,123081,1,0,0:0:0:0:
192,192,123216,1,0,0:0:0:0:
320,192,123216,1,0,0:0:0:0:
64,192,123283,1,0,0:0:0:0:
448,192,123351,1,0,0:0:0:0:
320,192,123351,1,0,0:0:0:0:
192,192,123418,1,0,0:0:0:0:
64,192,123486,1,0,0:0:0:0:
448,192,123553,1,0,0:0:0:0:
192,192,123621,1,0,0:0:0:0:
64,192,123621,1,0,0:0:0:0:
320,192,123756,1,0,0:0:0:0:
448,192,123756,1,0,0:0:0:0:
64,192,123823,1,0,0:0:0:0:
192,192,123891,1,0,0:0:0:0:
320,192,123891,1,0,0:0:0:0:
448,192,123958,1,0,0:0:0:0:
64,192,124026,1,0,0:0:0:0:
192,192,124093,1,0,0:0:0:0:
320,192,124161,1,0,0:0:0:0:
448,192,124161,1,0,0:0:0:0:
64,192,124161,1,0,0:0:0:0:
192,192,124296,1,0,0:0:0:0:
320,192,124363,1,0,0:0:0:0:
64,192,124431,1,0,0:0:0:0:
448,192,124431,1,0,0:0:0:0:
192,192,124431,1,0,0:0:0:0:
320,192,124566,1,0,0:0:0:0:
192,192,124633,1,0,0:0:0:0:
64,192,124701,1,0,0:0:0:0:
320,192,124701,1,0,0:0:0:0:
448,192,124701,1,0,0:0:0:0:
192,192,124836,1,0,0:0:0:0:
320,192,124903,1,0,0:0:0:0:
192,192,124971,1,0,0:0:0:0:
64,192,124971,1,0,0:0:0:0:
448,192,125038,1,0,0:0:0:0:
320,192,125106,1,0,0:0:0:0:
192,192,125173,1,0,0:0:0:0:
448,192,125241,1,0,0:0:0:0:
320,192,125241,1,0,0:0:0:0:
64,192,125241,1,0,0:0:0:0:
192,192,125308,1,0,0:0:0:0:
448,192,125376,1,0,0:0:0:0:
320,192,125443,1,0,0:0:0:0:
192,192,125511,1,0,0:0:0:0:
64,192,125511,1,0,0:0:0:0:
448,192,125646,1,0,0:0:0:0:
320,192,125646,1,0,0:0:0:0:
192,192,125713,1,0,0:0:0:0:
320,192,125781,1,0,0:0:0:0:
448,192,125848,1,0,0:0:0:0:
64,192,125848,1,0,0:0:0:0:
192,192,126051,1,0,0:0:0:0:
320,192,126051,1,0,0:0:0:0:
192,192,126186,1,0,0:0:0:0:
320,192,126186,1,0,0:0:0:0:
448,192,126321,1,0,0:0:0:0:
64,192,126321,1,0,0:0:0:0:
320,192,126388,1,0,0:0:0:0:
64,192,126456,1,0,0:0:0:0:
192,192,126523,1,0,0:0:0:0:
320,192,126591,1,0,0:0:0:0:
448,192,126591,1,0,0:0:0:0:
192,192,126726,1,0,0:0:0:0:
64,192,126726,1,0,0:0:0:0:
320,192,126793,1,0,0:0:0:0:
192,192,126861,1,0,0:0:0:0:
64,192,126928,1,0,0:0:0:0:
448,192,126928,1,0,0:0:0:0:
320,192,127131,1,0,0:0:0:0:
192,192,127131,1,0,0:0:0:0:
320,192,127266,1,0,0:0:0:0:
192,192,127266,1,0,0:0:0:0:
448,192,127401,1,0,0:0:0:0:
64,192,127401,1,0,0:0:0:0:
192,192,127468,1,0,0:0:0:0:
320,192,127536,1,0,0:0:0:0:
192,192,127603,1,0,0:0:0:0:
448,192,127671,1,0,0:0:0:0:
64,192,127671,1,0,0:0:0:0:
320,192,127806,1,0,0:0:0:0:
192,192,127806,1,0,0:0:0:0:
64,192,127873,1,0,0:0:0:0:
448,192,127941,1,0,0:0:0:0:
192,192,128008,1,0,0:0:0:0:
64,192,128008,1,0,0:0:0:0:
448,192,128211,1,0,0:0:0:0:
320,192,128211,1,0,0:0:0:0:
448,192,128346,1,0,0:0:0:0:
320,192,128346,1,0,0:0:0:0:
192,192,128481,1,0,0:0:0:0:
64,192,128481,1,0,0:0:0:0:
448,192,128548,1,0,0:0:0:0:
320,192,128616,1,0,0:0:0:0:
192,192,128616,1,0,0:0:0:0:
64,192,128683,1,0,0:0:0:0:
448,192,128751,1,0,0:0:0:0:
320,192,128751,1,0,0:0:0:0:
192,192,128886,1,0,0:0:0:0:
64,192,128886,1,0,0:0:0:0:
320,192,128953,1,0,0:0:0:0:
448,192,129021,1,0,0:0:0:0:
64,192,129021,1,0,0:0:0:0:
448,192,129156,1,0,0:0:0:0:
320,192,129156,1,0,0:0:0:0:
192,192,129291,1,0,0:0:0:0:
320,192,129291,1,0,0:0:0:0:
64,192,129426,1,0,0:0:0:0:
192,192,129426,1,0,0:0:0:0:
448,192,129561,1,0,0:0:0:0:
64,192,129561,1,0,0:0:0:0:
320,192,129628,1,0,0:0:0:0:
192,192,129696,1,0,0:0:0:0:
64,192,129763,1,0,0:0:0:0:
448,192,129831,1,0,0:0:0:0:
320,192,129831,1,0,0:0:0:0:
192,192,129898,1,0,0:0:0:0:
448,192,129966,1,0,0:0:0:0:
320,192,130033,1,0,0:0:0:0:
64,192,130101,1,0,0:0:0:0:
192,192,130101,128,0,130168:0:0:0:0:
448,192,130168,1,0,0:0:0:0:
64,192,130236,1,0,0:0:0:0:
192,192,130303,1,0,0:0:0:0:
320,192,130371,1,0,0:0:0:0:
448,192,130371,128,0,130438:0:0:0:0:
64,192,130438,1,0,0:0:0:0:
320,192,130506,1,0,0:0:0:0:
192,192,130573,1,0,0:0:0:0:
448,192,130641,1,0,0:0:0:0:
64,192,130641,128,0,130708:0:0:0:0:
320,192,130708,1,0,0:0:0:0:
192,192,130776,1,0,0:0:0:0:
448,192,130843,1,0,0:0:0:0:
64,192,130911,1,0,0:0:0:0:
320,192,130911,128,0,130978:0:0:0:0:
192,192,130978,1,0,0:0:0:0:
448,192,131046,1,0,0:0:0:0:
64,192,131113,1,0,0:0:0:0:
320,192,131181,1,0,0:0:0:0:
192,192,131181,128,0,131248:0:0:0:0:
448,192,131248,1,0,0:0:0:0:
64,192,131316,1,0,0:0:0:0:
192,192,131383,1,0,0:0:0:0:
320,192,131451,1,0,0:0:0:0:
448,192,131451,128,0,131518:0:0:0:0:
64,192,131518,1,0,0:0:0:0:
320,192,131586,1,0,0:0:0:0:
192,192,131653,1,0,0:0:0:0:
448,192,131721,1,0,0:0:0:0:
64,192,131721,128,0,131788:0:0:0:0:
320,192,131788,1,0,0:0:0:0:
192,192,131856,1,0,0:0:0:0:
448,192,131923,1,0,0:0:0:0:
64,192,131991,1,0,0:0:0:0:
320,192,131991,128,0,132058:0:0:0:0:
192,192,132058,1,0,0:0:0:0:
448,192,132126,1,0,0:0:0:0:
320,192,132193,1,0,0:0:0:0:
64,192,132261,1,0,0:0:0:0:
192,192,132261,128,0,132328:0:0:0:0:
448,192,132328,1,0,0:0:0:0:
320,192,132396,1,0,0:0:0:0:
64,192,132463,1,0,0:0:0:0:
192,192,132531,1,0,0:0:0:0:
320,192,132531,128,0,132598:0:0:0:0:
448,192,132598,1,0,0:0:0:0:
64,192,132666,1,0,0:0:0:0:
192,192,132733,1,0,0:0:0:0:
320,192,132801,1,0,0:0:0:0:
448,192,132801,128,0,132868:0:0:0:0:
64,192,132868,1,0,0:0:0:0:
320,192,132936,1,0,0:0:0:0:
192,192,133003,1,0,0:0:0:0:
448,192,133071,1,0,0:0:0:0:
64,192,133071,1,0,0:0:0:0:
320,192,133138,1,0,0:0:0:0:
64,192,133206,1,0,0:0:0:0:
192,192,133273,1,0,0:0:0:0:
448,192,133341,1,0,0:0:0:0:
320,192,133341,1,0,0:0:0:0:
64,192,133408,1,0,0:0:0:0:
320,192,133476,1,0,0:0:0:0:
192,192,133476,1,0,0:0:0:0:
448,192,133543,1,0,0:0:0:0:
192,192,133611,1,0,0:0:0:0:
64,192,133611,1,0,0:0:0:0:
320,192,133678,1,0,0:0:0:0:
448,192,133746,1,0,0:0:0:0:
192,192,133813,1,0,0:0:0:0:
64,192,133813,1,0,0:0:0:0:
320,192,133881,1,0,0:0:0:0:
448,192,133881,128,0,133948:0:0:0:0:
64,192,133948,1,0,0:0:0:0:
320,192,134016,1,0,0:0:0:0:
192,192,134083,1,0,0:0:0:0:
448,192,134151,1,0,0:0:0:0:
64,192,134151,128,0,134218:0:0:0:0:
320,192,134218,1,0,0:0:0:0:
64,192,134286,1,0,0:0:0:0:
192,192,134353,1,0,0:0:0:0:
448,192,134421,1,0,0:0:0:0:
320,192,134421,128,0,134488:0:0:0:0:
64,192,134488,1,0,0:0:0:0:
448,192,134556,1,0,0:0:0:0:
320,192,134623,1,0,0:0:0:0:
64,192,134691,1,0,0:0:0:0:
192,192,134691,128,0,134758:0:0:0:0:
448,192,134758,1,0,0:0:0:0:
64,192,134826,1,0,0:0:0:0:
192,192,134893,1,0,0:0:0:0:
448,192,134961,1,0,0:0:0:0:
320,192,134961,1,0,0:0:0:0:
192,192,135051,1,0,0:0:0:0:
320,192,135141,1,0,0:0:0:0:
64,192,135231,1,0,0:0:0:0:
192,192,135231,1,0,0:0:0:0:
448,192,135298,1,0,0:0:0:0:
64,192,135366,1,0,0:0:0:0:
192,192,135433,1,0,0:0:0:0:
448,192,135501,1,0,0:0:0:0:
320,192,135501,1,0,0:0:0:0:
64,192,135568,1,0,0:0:0:0:
448,192,135636,1,0,0:0:0:0:
320,192,135703,1,0,0:0:0:0:
192,192,135771,1,0,0:0:0:0:
64,192,135771,1,0,0:0:0:0:
448,192,135838,1,0,0:0:0:0:
192,192,135906,1,0,0:0:0:0:
320,192,135973,1,0,0:0:0:0:
448,192,136041,1,0,0:0:0:0:
64,192,136041,128,0,136108:0:0:0:0:
192,192,136108,1,0,0:0:0:0:
320,192,136176,1,0,0:0:0:0:
64,192,136243,1,0,0:0:0:0:
192,192,136311,1,0,0:0:0:0:
448,192,136311,128,0,136378:0:0:0:0:
320,192,136378,1,0,0:0:0:0:
64,192,136446,1,0,0:0:0:0:
448,192,136513,1,0,0:0:0:0:
192,192,136581,1,0,0:0:0:0:
320,192,136581,128,0,136648:0:0:0:0:
64,192,136648,1,0,0:0:0:0:
448,192,136716,1,0,0:0:0:0:
320,192,136783,1,0,0:0:0:0:
64,192,136851,1,0,0:0:0:0:
192,192,136851,128,0,136918:0:0:0:0:
448,192,136918,1,0,0:0:0:0:
64,192,136986,1,0,0:0:0:0:
192,192,137053,1,0,0:0:0:0:
448,192,137121,1,0,0:0:0:0:
320,192,137121,128,0,137188:0:0:0:0:
64,192,137188,1,0,0:0:0:0:
448,192,137256,1,0,0:0:0:0:
64,192,137323,1,0,0:0:0:0:
320,192,137391,1,0,0:0:0:0:
448,192,137391,128,0,137458:0:0:0:0:
192,192,137458,1,0,0:0:0:0:
64,192,137526,1,0,0:0:0:0:
448,192,137593,1,0,0:0:0:0:
320,192,137661,1,0,0:0:0:0:
192,192,137661,128,0,137728:0:0:0:0:
64,192,137728,1,0,0:0:0:0:
448,192,137796,1,0,0:0:0:0:
320,192,137863,1,0,0:0:0:0:
192,192,137931,1,0,0:0:0:0:
64,192,137931,128,0,137998:0:0:0:0:
320,192,137998,1,0,0:0:0:0:
192,192,138066,1,0,0:0:0:0:
448,192,138133,1,0,0:0:0:0:
64,192,138201,1,0,0:0:0:0:
320,192,138201,1,0,0:0:0:0:
192,192,138268,1,0,0:0:0:0:
448,192,138336,1,0,0:0:0:0:
320,192,138403,1,0,0:0:0:0:
192,192,138471,1,0,0:0:0:0:
64,192,138471,1,0,0:0:0:0:
448,192,138538,1,0,0:0:0:0:
192,192,138606,1,0,0:0:0:0:
320,192,138673,1,0,0:0:0:0:
448,192,138741,1,0,0:0:0:0:
64,192,138741,1,0,0:0:0:0:
192,192,138808,1,0,0:0:0:0:
320,192,138876,1,0,0:0:0:0:
64,192,138943,1,0,0:0:0:0:
448,192,139011,1,0,0:0:0:0:
192,192,139011,1,0,0:0:0:0:
320,192,139078,1,0,0:0:0:0:
64,192,139146,1,0,0:0:0:0:
448,192,139213,1,0,0:0:0:0:
320,192,139281,1,0,0:0:0:0:
192,192,139281,1,0,0:0:0:0:
64,192,139416,1,0,0:0:0:0:
192,192,139483,1,0,0:0:0:0:
448,192,139551,1,0,0:0:0:0:
320,192,139551,1,0,0:0:0:0:
64,192,139618,1,0,0:0:0:0:
448,192,139686,1,0,0:0:0:0:
320,192,139753,1,0,0:0:0:0:
192,192,139821,1,0,0:0:0:0:
64,192,139821,1,0,0:0:0:0:
448,192,139888,1,0,0:0:0:0:
192,192,139956,1,0,0:0:0:0:
320,192,140023,1,0,0:0:0:0:
64,192,140091,1,0,0:0:0:0:
448,192,140091,1,0,0:0:0:0:
192,192,140158,1,0,0:0:0:0:
320,192,140226,1,0,0:0:0:0:
192,192,140293,1,0,0:0:0:0:
448,192,140361,1,0,0:0:0:0:
64,192,140361,1,0,0:0:0:0:
320,192,140496,1,0,0:0:0:0:
64,192,140631,1,0,0:0:0:0:
192,192,140631,1,0,0:0:0:0:
192,192,140766,1,0,0:0:0:0:
320,192,140901,1,0,0:0:0:0:
64,192,141036,1,0,0:0:0:0:
448,192,141036,1,0,0:0:0:0:
192,192,141171,1,0,0:0:0:0:
320,192,141171,1,0,0:0:0:0:
320,192,141306,1,0,0:0:0:0:
192,192,141441,1,0,0:0:0:0:
64,192,141441,1,0,0:0:0:0:
448,192,141441,1,0,0:0:0:0:
320,192,141576,1,0,0:0:0:0:
192,192,141643,1,0,0:0:0:0:
448,192,141711,1,0,0:0:0:0:
64,192,141711,1,0,0:0:0:0:
320,192,141711,1,0,0:0:0:0:
192,192,141846,1,0,0:0:0:0:
320,192,141913,1,0,0:0:0:0:
448,192,141981,1,0,0:0:0:0:
192,192,141981,1,0,0:0:0:0:
64,192,141981,1,0,0:0:0:0:
320,192,142116,1,0,0:0:0:0:
192,192,142183,1,0,0:0:0:0:
320,192,142251,1,0,0:0:0:0:
448,192,142251,1,0,0:0:0:0:
64,192,142318,1,0,0:0:0:0:
192,192,142386,1,0,0:0:0:0:
320,192,142453,1,0,0:0:0:0:
64,192,142521,1,0,0:0:0:0:
448,192,142521,1,0,0:0:0:0:
192,192,142521,1,0,0:0:0:0:
448,192,142656,1,0,0:0:0:0:
320,192,142656,1,0,0:0:0:0:
192,192,142791,1,0,0:0:0:0:
64,192,142791,1,0,0:0:0:0:
448,192,142926,1,0,0:0:0:0:
64,192,142926,1,0,0:0:0:0:
320,192,143061,1,0,0:0:0:0:
192,192,143061,1,0,0:0:0:0:
448,192,143061,1,0,0:0:0:0:
64,192,143196,1,0,0:0:0:0:
192,192,143196,1,0,0:0:0:0:
448,192,143331,1,0,0:0:0:0:
320,192,143331,1,0,0:0:0:0:
448,192,143466,1,0,0:0:0:0:
192,192,143466,1,0,0:0:0:0:
320,192,143601,1,0,0:0:0:0:
192,192,143601,1,0,0:0:0:0:
64,192,143601,1,0,0:0:0:0:
64,192,143736,1,0,0:0:0:0:
448,192,143736,1,0,0:0:0:0:
192,192,143803,1,0,0:0:0:0:
448,192,143871,1,0,0:0:0:0:
320,192,143871,1,0,0:0:0:0:
192,192,144006,1,0,0:0:0:0:
64,192,144006,1,0,0:0:0:0:
320,192,144073,1,0,0:0:0:0:
448,192,144141,1,0,0:0:0:0:
64,192,144141,1,0,0:0:0:0:
192,192,144208,1,0,0:0:0:0:
448,192,144276,1,0,0:0:0:0:
320,192,144343,1,0,0:0:0:0:
64,192,144411,1,0,0:0:0:0:
192,192,144411,1,0,0:0:0:0:
448,192,144478,1,0,0:0:0:0:
320,192,144546,1,0,0:0:0:0:
192,192,144613,1,0,0:0:0:0:
448,192,144681,1,0,0:0:0:0:
64,192,144681,1,0,0:0:0:0:
320,192,144748,1,0,0:0:0:0:
192,192,144816,1,0,0:0:0:0:
448,192,144883,1,0,0:0:0:0:
64,192,144951,1,0,0:0:0:0:
320,192,144951,1,0,0:0:0:0:
192,192,145018,1,0,0:0:0:0:
448,192,145086,1,0,0:0:0:0:
64,192,145153,1,0,0:0:0:0:
192,192,145221,1,0,0:0:0:0:
320,192,145221,1,0,0:0:0:0:
448,192,145288,1,0,0:0:0:0:
64,192,145356,1,0,0:0:0:0:
192,192,145423,1,0,0:0:0:0:
448,192,145491,1,0,0:0:0:0:
320,192,145491,1,0,0:0:0:0:
64,192,145558,1,0,0:0:0:0:
320,192,145626,1,0,0:0:0:0:
192,192,145693,1,0,0:0:0:0:
448,192,145761,1,0,0:0:0:0:
64,192,145761,1,0,0:0:0:0:
320,192,145828,1,0,0:0:0:0:
64,192,145896,1,0,0:0:0:0:
192,192,145896,1,0,0:0:0:0:
448,192,145963,1,0,0:0:0:0:
192,192,146031,1,0,0:0:0:0:
320,192,146031,1,0,0:0:0:0:
64,192,146098,1,0,0:0:0:0:
320,192,146166,1,0,0:0:0:0:
448,192,146166,1,0,0:0:0:0:
192,192,146233,1,0,0:0:0:0:
64,192,146301,1,0,0:0:0:0:
448,192,146301,1,0,0:0:0:0:
320,192,146368,1,0,0:0:0:0:
64,192,146436,1,0,0:0:0:0:
192,192,146436,1,0,0:0:0:0:
320,192,146503,1,0,0:0:0:0:
448,192,146571,1,0,0:0:0:0:
64,192,146571,1,0,0:0:0:0:
192,192,146638,1,0,0:0:0:0:
320,192,146706,1,0,0:0:0:0:
448,192,146706,1,0,0:0:0:0:
192,192,146773,1,0,0:0:0:0:
64,192,146841,1,0,0:0:0:0:
448,192,146841,1,0,0:0:0:0:
320,192,146976,1,0,0:0:0:0:
64,192,147111,1,0,0:0:0:0:
192,192,147111,1,0,0:0:0:0:
448,192,147111,1,0,0:0:0:0:
192,192,147246,1,0,0:0:0:0:
320,192,147381,1,0,0:0:0:0:
448,192,147381,1,0,0:0:0:0:
192,192,147516,1,0,0:0:0:0:
448,192,147651,1,0,0:0:0:0:
320,192,147651,1,0,0:0:0:0:
64,192,147651,1,0,0:0:0:0:
448,192,147786,1,0,0:0:0:0:
64,192,147921,1,0,0:0:0:0:
192,192,147921,1,0,0:0:0:0:
320,192,148056,1,0,0:0:0:0:
64,192,148191,1,0,0:0:0:0:
192,192,148191,1,0,0:0:0:0:
448,192,148191,1,0,0:0:0:0:
64,192,148326,1,0,0:0:0:0:
192,192,148461,1,0,0:0:0:0:
320,192,148461,1,0,0:0:0:0:
448,192,148596,1,0,0:0:0:0:
64,192,148731,1,0,0:0:0:0:
320,192,148731,1,0,0:0:0:0:
320,192,148866,1,0,0:0:0:0:
192,192,148866,1,0,0:0:0:0:
192,192,149001,1,0,0:0:0:0:
448,192,149001,1,0,0:0:0:0:
64,192,149001,1,0,0:0:0:0:
320,192,149136,1,0,0:0:0:0:
192,192,149271,1,0,0:0:0:0:
64,192,149271,1,0,0:0:0:0:
448,192,149271,1,0,0:0:0:0:
64,192,149406,1,0,0:0:0:0:
448,192,149541,1,0,0:0:0:0:
320,192,149541,1,0,0:0:0:0:
192,192,149676,1,0,0:0:0:0:
448,192,149811,1,0,0:0:0:0:
320,192,149811,1,0,0:0:0:0:
64,192,149811,1,0,0:0:0:0:
320,192,149946,1,0,0:0:0:0:
192,192,149946,1,0,0:0:0:0:
192,192,150081,1,0,0:0:0:0:
64,192,150081,1,0,0:0:0:0:
320,192,150216,1,0,0:0:0:0:
448,192,150351,1,0,0:0:0:0:
192,192,150351,1,0,0:0:0:0:
64,192,150351,1,0,0:0:0:0:
448,192,150486,1,0,0:0:0:0:
320,192,150621,1,0,0:0:0:0:
192,192,150621,1,0,0:0:0:0:
64,192,150621,1,0,0:0:0:0:
320,192,150823,1,0,0:0:0:0:
192,192,150823,1,0,0:0:0:0:
64,192,150823,1,0,0:0:0:0:
320,192,151026,1,0,0:0:0:0:
64,192,151026,1,0,0:0:0:0:
192,192,151026,1,0,0:0:0:0:
64,192,151161,1,0,0:0:0:0:
320,192,151161,1,0,0:0:0:0:
448,192,151161,1,0,0:0:0:0:
192,192,151296,1,0,0:0:0:0:
64,192,151431,1,0,0:0:0:0:
448,192,151431,1,0,0:0:0:0:
320,192,151431,1,0,0:0:0:0:
320,192,151566,1,0,0:0:0:0:
64,192,151701,1,0,0:0:0:0:
192,192,151701,1,0,0:0:0:0:
320,192,151836,1,0,0:0:0:0:
64,192,151971,1,0,0:0:0:0:
192,192,151971,1,0,0:0:0:0:
448,192,151971,1,0,0:0:0:0:
64,192,152106,1,0,0:0:0:0:
448,192,152106,1,0,0:0:0:0:
192,192,152106,1,0,0:0:0:0:
192,192,152376,1,0,0:0:0:0:
320,192,152376,1,0,0:0:0:0:
192,192,152511,1,0,0:0:0:0:
64,192,152511,1,0,0:0:0:0:
448,192,152511,1,0,0:0:0:0:
448,192,152646,1,0,0:0:0:0:
320,192,152646,1,0,0:0:0:0:
192,192,152781,1,0,0:0:0:0:
64,192,152781,1,0,0:0:0:0:
320,192,152916,1,0,0:0:0:0:
448,192,152916,1,0,0:0:0:0:
448,192,153051,1,0,0:0:0:0:
64,192,153051,1,0,0:0:0:0:
192,192,153051,1,0,0:0:0:0:
320,192,153186,1,0,0:0:0:0:
192,192,153254,1,0,0:0:0:0:
64,192,153321,1,0,0:0:0:0:
320,192,153321,1,0,0:0:0:0:
448,192,153321,1,0,0:0:0:0:
192,192,153456,1,0,0:0:0:0:
448,192,153591,1,0,0:0:0:0:
64,192,153591,1,0,0:0:0:0:
320,192,153591,1,0,0:0:0:0:
320,192,153726,1,0,0:0:0:0:
192,192,153726,1,0,0:0:0:0:
192,192,153861,1,0,0:0:0:0:
64,192,153861,1,0,0:0:0:0:
448,192,153861,1,0,0:0:0:0:
320,192,153996,1,0,0:0:0:0:
192,192,154131,1,0,0:0:0:0:
64,192,154131,1,0,0:0:0:0:
448,192,154131,1,0,0:0:0:0:
192,192,154266,1,0,0:0:0:0:
320,192,154266,1,0,0:0:0:0:
448,192,154401,1,0,0:0:0:0:
320,192,154401,1,0,0:0:0:0:
64,192,154401,1,0,0:0:0:0:
64,192,154536,1,0,0:0:0:0:
448,192,154671,1,0,0:0:0:0:
192,192,154671,1,0,0:0:0:0:
320,192,154671,1,0,0:0:0:0:
192,192,154806,1,0,0:0:0:0:
448,192,154941,1,0,0:0:0:0:
320,192,154941,1,0,0:0:0:0:
64,192,154941,1,0,0:0:0:0:
192,192,155076,1,0,0:0:0:0:
448,192,155144,1,0,0:0:0:0:
320,192,155211,1,0,0:0:0:0:
64,192,155211,1,0,0:0:0:0:
192,192,155279,1,0,0:0:0:0:
448,192,155346,1,0,0:0:0:0:
320,192,155414,1,0,0:0:0:0:
64,192,155481,1,0,0:0:0:0:
192,192,155481,1,0,0:0:0:0:
448,192,155481,1,0,0:0:0:0:
320,192,155616,1,0,0:0:0:0:
64,192,155751,1,0,0:0:0:0:
192,192,155751,1,0,0:0:0:0:
448,192,155751,1,0,0:0:0:0:
192,192,155886,1,0,0:0:0:0:
320,192,156021,1,0,0:0:0:0:
448,192,156021,1,0,0:0:0:0:
192,192,156156,1,0,0:0:0:0:
448,192,156291,1,0,0:0:0:0:
320,192,156291,1,0,0:0:0:0:
64,192,156291,1,0,0:0:0:0:
448,192,156426,1,0,0:0:0:0:
64,192,156561,1,0,0:0:0:0:
192,192,156561,1,0,0:0:0:0:
320,192,156696,1,0,0:0:0:0:
64,192,156831,1,0,0:0:0:0:
192,192,156831,1,0,0:0:0:0:
448,192,156831,1,0,0:0:0:0:
64,192,156966,1,0,0:0:0:0:
192,192,157101,1,0,0:0:0:0:
320,192,157101,1,0,0:0:0:0:
448,192,157236,1,0,0:0:0:0:
64,192,157371,1,0,0:0:0:0:
192,192,157371,1,0,0:0:0:0:
320,192,157506,1,0,0:0:0:0:
192,192,157506,1,0,0:0:0:0:
320,192,157641,1,0,0:0:0:0:
448,192,157641,1,0,0:0:0:0:
64,192,157641,1,0,0:0:0:0:
192,192,157776,1,0,0:0:0:0:
320,192,157911,1,0,0:0:0:0:
448,192,157911,1,0,0:0:0:0:
64,192,157911,1,0,0:0:0:0:
448,192,158046,1,0,0:0:0:0:
64,192,158181,1,0,0:0:0:0:
192,192,158181,1,0,0:0:0:0:
320,192,158316,1,0,0:0:0:0:
64,192,158451,1,0,0:0:0:0:
192,192,158451,1,0,0:0:0:0:
448,192,158451,1,0,0:0:0:0:
192,192,158586,1,0,0:0:0:0:
320,192,158721,1,0,0:0:0:0:
448,192,158721,1,0,0:0:0:0:
192,192,158856,1,0,0:0:0:0:
64,192,158991,1,0,0:0:0:0:
320,192,158991,1,0,0:0:0:0:
448,192,158991,1,0,0:0:0:0:
320,192,159126,1,0,0:0:0:0:
64,192,159261,1,0,0:0:0:0:
448,192,159261,1,0,0:0:0:0:
192,192,159261,1,0,0:0:0:0:
64,192,159464,1,0,0:0:0:0:
448,192,159464,1,0,0:0:0:0:
192,192,159464,1,0,0:0:0:0:
192,192,159666,1,0,0:0:0:0:
64,192,159666,1,0,0:0:0:0:
448,192,159666,1,0,0:0:0:0:
64,192,159801,1,0,0:0:0:0:
448,192,159801,1,0,0:0:0:0:
320,192,159801,1,0,0:0:0:0:
192,192,159936,1,0,0:0:0:0:
64,192,160071,1,0,0:0:0:0:
448,192,160071,1,0,0:0:0:0:
320,192,160071,1,0,0:0:0:0:
320,192,160206,1,0,0:0:0:0:
64,192,160341,1,0,0:0:0:0:
192,192,160341,1,0,0:0:0:0:
320,192,160476,1,0,0:0:0:0:
64,192,160611,1,0,0:0:0:0:
192,192,160611,1,0,0:0:0:0:
448,192,160611,1,0,0:0:0:0:
64,192,160746,1,0,0:0:0:0:
448,192,160746,1,0,0:0:0:0:
192,192,160746,1,0,0:0:0:0:
192,192,161016,1,0,0:0:0:0:
320,192,161016,1,0,0:0:0:0:
320,192,161151,1,0,0:0:0:0:
448,192,161151,1,0,0:0:0:0:
64,192,161151,1,0,0:0:0:0:
64,192,161286,1,0,0:0:0:0:
192,192,161286,1,0,0:0:0:0:
320,192,161421,1,0,0:0:0:0:
448,192,161421,1,0,0:0:0:0:
192,192,161556,1,0,0:0:0:0:
64,192,161556,1,0,0:0:0:0:
64,192,161691,1,0,0:0:0:0:
448,192,161691,1,0,0:0:0:0:
320,192,161691,1,0,0:0:0:0:
192,192,161826,1,0,0:0:0:0:
320,192,161894,1,0,0:0:0:0:
448,192,161961,1,0,0:0:0:0:
192,192,161961,1,0,0:0:0:0:
64,192,161961,1,0,0:0:0:0:
64,192,162096,1,0,0:0:0:0:
192,192,162164,1,0,0:0:0:0:
448,192,162231,1,0,0:0:0:0:
320,192,162299,1,0,0:0:0:0:
192,192,162366,1,0,0:0:0:0:
64,192,162434,1,0,0:0:0:0:
448,192,162501,1,0,0:0:0:0:
320,192,162501,1,0,0:0:0:0:
192,192,162569,1,0,0:0:0:0:
320,192,162636,1,0,0:0:0:0:
64,192,162704,1,0,0:0:0:0:
192,192,162771,1,0,0:0:0:0:
320,192,162839,1,0,0:0:0:0:
448,192,162906,1,0,0:0:0:0:
192,192,162974,1,0,0:0:0:0:
64,192,163041,1,0,0:0:0:0:
320,192,163041,1,0,0:0:0:0:
448,192,163109,1,0,0:0:0:0:
192,192,163176,1,0,0:0:0:0:
320,192,163244,1,0,0:0:0:0:
192,192,163311,1,0,0:0:0:0:
64,192,163311,1,0,0:0:0:0:
448,192,163379,1,0,0:0:0:0:
320,192,163446,1,0,0:0:0:0:
192,192,163514,1,0,0:0:0:0:
448,192,163581,1,0,0:0:0:0:
64,192,163581,1,0,0:0:0:0:
320,192,163649,1,0,0:0:0:0:
192,192,163716,1,0,0:0:0:0:
320,192,163784,1,0,0:0:0:0:
448,192,163851,1,0,0:0:0:0:
64,192,163851,1,0,0:0:0:0:
192,192,163919,1,0,0:0:0:0:
320,192,163986,1,0,0:0:0:0:
448,192,163986,1,0,0:0:0:0:
192,192,164054,1,0,0:0:0:0:
64,192,164121,1,0,0:0:0:0:
448,192,164121,1,0,0:0:0:0:
320,192,164256,1,0,0:0:0:0:
192,192,164324,1,0,0:0:0:0:
320,192,164391,1,0,0:0:0:0:
448,192,164391,1,0,0:0:0:0:
64,192,164459,1,0,0:0:0:0:
192,192,164526,1,0,0:0:0:0:
320,192,164594,1,0,0:0:0:0:
192,192,164661,1,0,0:0:0:0:
320,192,164729,1,0,0:0:0:0:
448,192,164796,1,0,0:0:0:0:
320,192,164864,1,0,0:0:0:0:
64,192,164931,1,0,0:0:0:0:
192,192,164931,1,0,0:0:0:0:
448,192,164999,1,0,0:0:0:0:
64,192,165066,1,0,0:0:0:0:
320,192,165134,1,0,0:0:0:0:
192,192,165201,1,0,0:0:0:0:
320,192,165269,1,0,0:0:0:0:
448,192,165269,1,0,0:0:0:0:
64,192,165471,1,0,0:0:0:0:
192,192,165471,1,0,0:0:0:0:
192,192,165674,1,0,0:0:0:0:
320,192,165674,1,0,0:0:0:0:
320,192,165876,1,0,0:0:0:0:
448,192,165876,1,0,0:0:0:0:
192,192,166079,1,0,0:0:0:0:
64,192,166079,1,0,0:0:0:0:
448,192,166281,1,0,0:0:0:0:
320,192,166281,1,0,0:0:0:0:
192,192,166349,1,0,0:0:0:0:
320,192,166416,1,0,0:0:0:0:
64,192,166484,1,0,0:0:0:0:
192,192,166551,1,0,0:0:0:0:
448,192,166551,1,0,0:0:0:0:
64,192,166619,1,0,0:0:0:0:
320,192,166686,1,0,0:0:0:0:
192,192,166754,1,0,0:0:0:0:
448,192,166821,1,0,0:0:0:0:
64,192,166889,1,0,0:0:0:0:
448,192,166956,1,0,0:0:0:0:
64,192,167024,1,0,0:0:0:0:
320,192,167091,1,0,0:0:0:0:
448,192,167091,1,0,0:0:0:0:
64,192,167159,1,0,0:0:0:0:
192,192,167226,1,0,0:0:0:0:
320,192,167294,1,0,0:0:0:0:
448,192,167361,1,0,0:0:0:0:
64,192,167496,1,0,0:0:0:0:
192,192,167496,1,0,0:0:0:0:
64,192,167631,1,0,0:0:0:0:
448,192,167631,1,0,0:0:0:0:
320,192,167901,1,0,0:0:0:0:
448,192,167901,1,0,0:0:0:0:
192,192,168104,1,0,0:0:0:0:
320,192,168104,1,0,0:0:0:0:
64,192,168171,1,0,0:0:0:0:
448,192,168171,1,0,0:0:0:0:
64,192,168306,1,0,0:0:0:0:
192,192,168306,1,0,0:0:0:0:
320,192,168441,1,0,0:0:0:0:
448,192,168441,1,0,0:0:0:0:
192,192,168576,1,0,0:0:0:0:
64,192,168711,1,0,0:0:0:0:
448,192,168711,1,0,0:0:0:0:
320,192,168779,1,0,0:0:0:0:
192,192,168846,1,0,0:0:0:0:
64,192,168914,1,0,0:0:0:0:
448,192,168981,1,0,0:0:0:0:
320,192,169049,1,0,0:0:0:0:
64,192,169116,1,0,0:0:0:0:
192,192,169184,1,0,0:0:0:0:
320,192,169251,1,0,0:0:0:0:
448,192,169251,1,0,0:0:0:0:
64,192,169319,1,0,0:0:0:0:
448,192,169386,1,0,0:0:0:0:
64,192,169454,1,0,0:0:0:0:
448,192,169521,1,0,0:0:0:0:
192,192,169589,1,0,0:0:0:0:
320,192,169656,1,0,0:0:0:0:
192,192,169724,1,0,0:0:0:0:
448,192,169791,1,0,0:0:0:0:
320,192,169791,1,0,0:0:0:0:
64,192,169859,1,0,0:0:0:0:
448,192,169926,1,0,0:0:0:0:
192,192,169994,1,0,0:0:0:0:
320,192,170061,1,0,0:0:0:0:
64,192,170129,1,0,0:0:0:0:
192,192,170196,1,0,0:0:0:0:
448,192,170264,1,0,0:0:0:0:
320,192,170331,1,0,0:0:0:0:
64,192,170331,1,0,0:0:0:0:
448,192,170466,1,0,0:0:0:0:
192,192,170466,1,0,0:0:0:0:
64,192,170601,1,0,0:0:0:0:
320,192,170601,1,0,0:0:0:0:
448,192,170669,1,0,0:0:0:0:
192,192,170736,1,0,0:0:0:0:
320,192,170804,1,0,0:0:0:0:
64,192,170871,1,0,0:0:0:0:
192,192,170939,1,0,0:0:0:0:
448,192,171006,1,0,0:0:0:0:
320,192,171074,1,0,0:0:0:0:
64,192,171141,1,0,0:0:0:0:
192,192,171141,1,0,0:0:0:0:
192,192,171344,1,0,0:0:0:0:
320,192,171344,1,0,0:0:0:0:
448,192,171546,1,0,0:0:0:0:
320,192,171546,1,0,0:0:0:0:
64,192,171614,1,0,0:0:0:0:
448,192,171681,1,0,0:0:0:0:
320,192,171749,1,0,0:0:0:0:
192,192,171749,1,0,0:0:0:0:
64,192,171816,1,0,0:0:0:0:
320,192,171884,1,0,0:0:0:0:
192,192,171951,1,0,0:0:0:0:
64,192,171951,1,0,0:0:0:0:
448,192,171951,1,0,0:0:0:0:
320,192,172019,1,0,0:0:0:0:
192,192,172086,1,0,0:0:0:0:
448,192,172154,1,0,0:0:0:0:
64,192,172154,1,0,0:0:0:0:
320,192,172221,1,0,0:0:0:0:
192,192,172289,1,0,0:0:0:0:
448,192,172356,1,0,0:0:0:0:
320,192,172356,1,0,0:0:0:0:
64,192,172424,1,0,0:0:0:0:
448,192,172491,1,0,0:0:0:0:
64,192,172559,1,0,0:0:0:0:
192,192,172559,1,0,0:0:0:0:
320,192,172626,1,0,0:0:0:0:
192,192,172694,1,0,0:0:0:0:
64,192,172761,1,0,0:0:0:0:
448,192,172761,1,0,0:0:0:0:
320,192,172896,1,0,0:0:0:0:
192,192,172964,1,0,0:0:0:0:
448,192,173031,1,0,0:0:0:0:
64,192,173031,1,0,0:0:0:0:
320,192,173099,1,0,0:0:0:0:
192,192,173166,1,0,0:0:0:0:
448,192,173234,1,0,0:0:0:0:
64,192,173301,1,0,0:0:0:0:
192,192,173369,1,0,0:0:0:0:
448,192,173436,1,0,0:0:0:0:
320,192,173504,1,0,0:0:0:0:
64,192,173571,1,0,0:0:0:0:
192,192,173571,1,0,0:0:0:0:
448,192,173706,1,0,0:0:0:0:
64,192,173706,1,0,0:0:0:0:
320,192,173774,1,0,0:0:0:0:
192,192,173841,1,0,0:0:0:0:
448,192,173909,1,0,0:0:0:0:
64,192,173976,1,0,0:0:0:0:
192,192,174044,1,0,0:0:0:0:
320,192,174111,1,0,0:0:0:0:
448,192,174111,1,0,0:0:0:0:
64,192,174179,1,0,0:0:0:0:
448,192,174246,1,0,0:0:0:0:
320,192,174314,1,0,0:0:0:0:
64,192,174381,1,0,0:0:0:0:
192,192,174449,1,0,0:0:0:0:
448,192,174516,1,0,0:0:0:0:
320,192,174584,1,0,0:0:0:0:
64,192,174651,1,0,0:0:0:0:
192,192,174651,1,0,0:0:0:0:
320,192,174786,1,0,0:0:0:0:
192,192,174786,1,0,0:0:0:0:
320,192,174921,1,0,0:0:0:0:
448,192,174921,1,0,0:0:0:0:
64,192,174989,1,0,0:0:0:0:
448,192,175056,1,0,0:0:0:0:
320,192,175124,1,0,0:0:0:0:
64,192,175191,1,0,0:0:0:0:
192,192,175191,1,0,0:0:0:0:
448,192,175259,1,0,0:0:0:0:
64,192,175326,1,0,0:0:0:0:
320,192,175394,1,0,0:0:0:0:
192,192,175461,1,0,0:0:0:0:
448,192,175529,1,0,0:0:0:0:
320,192,175596,1,0,0:0:0:0:
192,192,175664,1,0,0:0:0:0:
64,192,175731,1,0,0:0:0:0:
448,192,175731,1,0,0:0:0:0:
320,192,175866,1,0,0:0:0:0:
448,192,175866,1,0,0:0:0:0:
192,192,175934,1,0,0:0:0:0:
64,192,176001,1,0,0:0:0:0:
448,192,176069,1,0,0:0:0:0:
192,192,176136,1,0,0:0:0:0:
320,192,176204,1,0,0:0:0:0:
448,192,176271,1,0,0:0:0:0:
64,192,176271,1,0,0:0:0:0:
192,192,176339,1,0,0:0:0:0:
320,192,176406,1,0,0:0:0:0:
192,192,176474,1,0,0:0:0:0:
448,192,176541,1,0,0:0:0:0:
64,192,176609,1,0,0:0:0:0:
320,192,176676,1,0,0:0:0:0:
192,192,176744,1,0,0:0:0:0:
64,192,176811,1,0,0:0:0:0:
448,192,176811,1,0,0:0:0:0:
192,192,176946,1,0,0:0:0:0:
320,192,176946,1,0,0:0:0:0:
448,192,177081,1,0,0:0:0:0:
64,192,177081,1,0,0:0:0:0:
192,192,177149,1,0,0:0:0:0:
320,192,177216,1,0,0:0:0:0:
448,192,177284,1,0,0:0:0:0:
64,192,177351,1,0,0:0:0:0:
192,192,177351,1,0,0:0:0:0:
64,192,177486,1,0,0:0:0:0:
448,192,177486,1,0,0:0:0:0:
320,192,177554,1,0,0:0:0:0:
192,192,177621,1,0,0:0:0:0:
64,192,177689,1,0,0:0:0:0:
448,192,177756,1,0,0:0:0:0:
64,192,177891,1,0,0:0:0:0:
448,192,177891,1,0,0:0:0:0:
192,192,177959,1,0,0:0:0:0:
320,192,178026,1,0,0:0:0:0:
448,192,178094,1,0,0:0:0:0:
64,192,178161,1,0,0:0:0:0:
448,192,178296,1,0,0:0:0:0:
64,192,178296,1,0,0:0:0:0:
192,192,178364,1,0,0:0:0:0:
320,192,178431,1,0,0:0:0:0:
448,192,178431,1,0,0:0:0:0:
192,192,178499,1,0,0:0:0:0:
320,192,178566,1,0,0:0:0:0:
64,192,178701,1,0,0:0:0:0:
192,192,178701,1,0,0:0:0:0:
320,192,178769,1,0,0:0:0:0:
192,192,178836,1,0,0:0:0:0:
64,192,178904,1,0,0:0:0:0:
320,192,178971,1,0,0:0:0:0:
448,192,178971,1,0,0:0:0:0:
320,192,179106,1,0,0:0:0:0:
192,192,179106,1,0,0:0:0:0:
64,192,179241,1,0,0:0:0:0:
192,192,179241,1,0,0:0:0:0:
320,192,179376,1,0,0:0:0:0:
192,192,179444,1,0,0:0:0:0:
64,192,179511,1,0,0:0:0:0:
448,192,179511,1,0,0:0:0:0:
320,192,179579,1,0,0:0:0:0:
64,192,179646,1,0,0:0:0:0:
192,192,179714,1,0,0:0:0:0:
320,192,179781,1,0,0:0:0:0:
448,192,179781,1,0,0:0:0:0:
64,192,179849,1,0,0:0:0:0:
320,192,179916,1,0,0:0:0:0:
192,192,179984,1,0,0:0:0:0:
64,192,180051,1,0,0:0:0:0:
448,192,180051,1,0,0:0:0:0:
320,192,180119,1,0,0:0:0:0:
192,192,180186,1,0,0:0:0:0:
448,192,180254,1,0,0:0:0:0:
320,192,180321,1,0,0:0:0:0:
64,192,180321,1,0,0:0:0:0:
192,192,180321,1,0,0:0:0:0:
320,192,180456,1,0,0:0:0:0:
192,192,180591,1,0,0:0:0:0:
448,192,180591,1,0,0:0:0:0:
64,192,180591,1,0,0:0:0:0:
192,192,180726,1,0,0:0:0:0:
320,192,180861,1,0,0:0:0:0:
448,192,180861,1,0,0:0:0:0:
64,192,180929,1,0,0:0:0:0:
448,192,180996,1,0,0:0:0:0:
64,192,181064,1,0,0:0:0:0:
320,192,181131,1,0,0:0:0:0:
448,192,181131,1,0,0:0:0:0:
192,192,181199,1,0,0:0:0:0:
320,192,181266,1,0,0:0:0:0:
192,192,181334,1,0,0:0:0:0:
448,192,181401,1,0,0:0:0:0:
64,192,181401,1,0,0:0:0:0:
320,192,181469,1,0,0:0:0:0:
192,192,181536,1,0,0:0:0:0:
320,192,181604,1,0,0:0:0:0:
64,192,181671,1,0,0:0:0:0:
448,192,181671,1,0,0:0:0:0:
192,192,181806,1,0,0:0:0:0:
320,192,181874,1,0,0:0:0:0:
448,192,181941,1,0,0:0:0:0:
64,192,181941,1,0,0:0:0:0:
64,192,182076,1,0,0:0:0:0:
192,192,182076,1,0,0:0:0:0:
320,192,182211,1,0,0:0:0:0:
192,192,182211,1,0,0:0:0:0:
448,192,182346,1,0,0:0:0:0:
320,192,182346,1,0,0:0:0:0:
64,192,182481,1,0,0:0:0:0:
448,192,182481,1,0,0:0:0:0:
192,192,182549,1,0,0:0:0:0:
320,192,182616,1,0,0:0:0:0:
192,192,182684,1,0,0:0:0:0:
64,192,182751,1,0,0:0:0:0:
448,192,182751,1,0,0:0:0:0:
320,192,182819,1,0,0:0:0:0:
192,192,182886,1,0,0:0:0:0:
448,192,182954,1,0,0:0:0:0:
64,192,183021,1,0,0:0:0:0:
320,192,183089,1,0,0:0:0:0:
192,192,183156,1,0,0:0:0:0:
320,192,183224,1,0,0:0:0:0:
64,192,183291,1,0,0:0:0:0:
448,192,183291,1,0,0:0:0:0:
320,192,183426,1,0,0:0:0:0:
192,192,183426,1,0,0:0:0:0:
64,192,183561,1,0,0:0:0:0:
448,192,183561,1,0,0:0:0:0:
192,192,183629,1,0,0:0:0:0:
320,192,183696,1,0,0:0:0:0:
448,192,183764,1,0,0:0:0:0:
64,192,183831,1,0,0:0:0:0:
192,192,183831,1,0,0:0:0:0:
320,192,183966,1,0,0:0:0:0:
192,192,184034,1,0,0:0:0:0:
448,192,184101,1,0,0:0:0:0:
320,192,184101,1,0,0:0:0:0:
64,192,184236,1,0,0:0:0:0:
448,192,184236,1,0,0:0:0:0:
192,192,184371,1,0,0:0:0:0:
320,192,184371,1,0,0:0:0:0:
64,192,184506,1,0,0:0:0:0:
192,192,184506,1,0,0:0:0:0:
320,192,184641,1,0,0:0:0:0:
448,192,184641,1,0,0:0:0:0:
64,192,184709,1,0,0:0:0:0:
192,192,184776,1,0,0:0:0:0:
320,192,184844,1,0,0:0:0:0:
448,192,184911,1,0,0:0:0:0:
64,192,184911,1,0,0:0:0:0:
192,192,184979,1,0,0:0:0:0:
320,192,185046,1,0,0:0:0:0:
64,192,185114,1,0,0:0:0:0:
448,192,185181,1,0,0:0:0:0:
192,192,185249,1,0,0:0:0:0:
320,192,185316,1,0,0:0:0:0:
192,192,185384,1,0,0:0:0:0:
448,192,185451,1,0,0:0:0:0:
64,192,185451,1,0,0:0:0:0:
192,192,185586,1,0,0:0:0:0:
320,192,185586,1,0,0:0:0:0:
64,192,185721,1,0,0:0:0:0:
448,192,185721,1,0,0:0:0:0:
320,192,185789,1,0,0:0:0:0:
192,192,185856,1,0,0:0:0:0:
320,192,185924,1,0,0:0:0:0:
64,192,185991,1,0,0:0:0:0:
448,192,185991,1,0,0:0:0:0:
192,192,186126,1,0,0:0:0:0:
320,192,186194,1,0,0:0:0:0:
448,192,186261,1,0,0:0:0:0:
64,192,186261,1,0,0:0:0:0:
64,192,186396,1,0,0:0:0:0:
192,192,186396,1,0,0:0:0:0:
320,192,186464,1,0,0:0:0:0:
448,192,186464,1,0,0:0:0:0:
192,192,186666,1,0,0:0:0:0:
320,192,186666,1,0,0:0:0:0:
448,192,186869,1,0,0:0:0:0:
64,192,186869,1,0,0:0:0:0:
64,192,187071,1,0,0:0:0:0:
192,192,187071,1,0,0:0:0:0:
320,192,187274,1,0,0:0:0:0:
192,192,187274,1,0,0:0:0:0:
320,192,187476,1,0,0:0:0:0:
448,192,187476,1,0,0:0:0:0:
64,192,187611,1,0,0:0:0:0:
448,192,187611,1,0,0:0:0:0:
192,192,187679,1,0,0:0:0:0:
320,192,187746,1,0,0:0:0:0:
192,192,187814,1,0,0:0:0:0:
64,192,187881,1,0,0:0:0:0:
448,192,187881,1,0,0:0:0:0:
320,192,187949,1,0,0:0:0:0:
192,192,188016,1,0,0:0:0:0:
320,192,188084,1,0,0:0:0:0:
64,192,188151,1,0,0:0:0:0:
448,192,188151,1,0,0:0:0:0:
192,192,188219,1,0,0:0:0:0:
320,192,188286,1,0,0:0:0:0:
64,192,188354,1,0,0:0:0:0:
192,192,188421,1,0,0:0:0:0:
448,192,188421,1,0,0:0:0:0:
320,192,188489,1,0,0:0:0:0:
64,192,188556,1,0,0:0:0:0:
448,192,188624,1,0,0:0:0:0:
64,192,188691,1,0,0:0:0:0:
192,192,188691,1,0,0:0:0:0:
320,192,188826,1,0,0:0:0:0:
448,192,188826,1,0,0:0:0:0:
192,192,188894,1,0,0:0:0:0:
64,192,188961,1,0,0:0:0:0:
448,192,188961,1,0,0:0:0:0:
192,192,189096,1,0,0:0:0:0:
320,192,189096,1,0,0:0:0:0:
64,192,189231,1,0,0:0:0:0:
448,192,189231,1,0,0:0:0:0:
320,192,189231,1,0,0:0:0:0:
192,192,189366,1,0,0:0:0:0:
320,192,189434,1,0,0:0:0:0:
448,192,189501,1,0,0:0:0:0:
64,192,189501,1,0,0:0:0:0:
192,192,189569,1,0,0:0:0:0:
448,192,189636,1,0,0:0:0:0:
320,192,189704,1,0,0:0:0:0:
64,192,189771,1,0,0:0:0:0:
192,192,189771,1,0,0:0:0:0:
448,192,189839,1,0,0:0:0:0:
192,192,189906,1,0,0:0:0:0:
320,192,189906,1,0,0:0:0:0:
64,192,189974,1,0,0:0:0:0:
320,192,190041,1,0,0:0:0:0:
448,192,190041,1,0,0:0:0:0:
192,192,190176,1,0,0:0:0:0:
320,192,190244,1,0,0:0:0:0:
64,192,190311,1,0,0:0:0:0:
448,192,190311,1,0,0:0:0:0:
192,192,190379,1,0,0:0:0:0:
448,192,190446,1,0,0:0:0:0:
320,192,190514,1,0,0:0:0:0:
192,192,190581,1,0,0:0:0:0:
64,192,190649,1,0,0:0:0:0:
320,192,190716,1,0,0:0:0:0:
448,192,190784,1,0,0:0:0:0:
64,192,190851,1,0,0:0:0:0:
192,192,190851,1,0,0:0:0:0:
320,192,190919,1,0,0:0:0:0:
192,192,190986,1,0,0:0:0:0:
320,192,191054,1,0,0:0:0:0:
64,192,191121,1,0,0:0:0:0:
448,192,191121,1,0,0:0:0:0:
192,192,191256,1,0,0:0:0:0:
320,192,191256,1,0,0:0:0:0:
64,192,191324,1,0,0:0:0:0:
320,192,191391,1,0,0:0:0:0:
448,192,191391,1,0,0:0:0:0:
64,192,191526,1,0,0:0:0:0:
192,192,191526,1,0,0:0:0:0:
320,192,191594,1,0,0:0:0:0:
64,192,191661,1,0,0:0:0:0:
448,192,191661,1,0,0:0:0:0:
192,192,191796,1,0,0:0:0:0:
320,192,191796,1,0,0:0:0:0:
448,192,191864,1,0,0:0:0:0:
64,192,191931,1,0,0:0:0:0:
192,192,191931,1,0,0:0:0:0:
320,192,191999,1,0,0:0:0:0:
64,192,192066,1,0,0:0:0:0:
192,192,192134,1,0,0:0:0:0:
320,192,192201,1,0,0:0:0:0:
448,192,192201,1,0,0:0:0:0:
64,192,192336,1,0,0:0:0:0:
448,192,192336,1,0,0:0:0:0:
64,192,192471,1,0,0:0:0:0:
192,192,192471,1,0,0:0:0:0:
320,192,192741,1,0,0:0:0:0:
448,192,192741,1,0,0:0:0:0:
320,192,192944,1,0,0:0:0:0:
192,192,192944,1,0,0:0:0:0:
64,192,193146,1,0,0:0:0:0:
192,192,193146,1,0,0:0:0:0:
64,192,193281,1,0,0:0:0:0:
448,192,193281,1,0,0:0:0:0:
320,192,193349,1,0,0:0:0:0:
64,192,193416,1,0,0:0:0:0:
192,192,193484,1,0,0:0:0:0:
320,192,193551,1,0,0:0:0:0:
448,192,193551,1,0,0:0:0:0:
64,192,193619,1,0,0:0:0:0:
448,192,193686,1,0,0:0:0:0:
320,192,193754,1,0,0:0:0:0:
192,192,193821,1,0,0:0:0:0:
64,192,193821,1,0,0:0:0:0:
448,192,193889,1,0,0:0:0:0:
192,192,193956,1,0,0:0:0:0:
320,192,194024,1,0,0:0:0:0:
64,192,194091,1,0,0:0:0:0:
448,192,194091,1,0,0:0:0:0:
192,192,194226,1,0,0:0:0:0:
320,192,194226,1,0,0:0:0:0:
64,192,194361,1,0,0:0:0:0:
448,192,194361,1,0,0:0:0:0:
192,192,194429,1,0,0:0:0:0:
320,192,194496,1,0,0:0:0:0:
448,192,194564,1,0,0:0:0:0:
64,192,194631,1,0,0:0:0:0:
320,192,194699,1,0,0:0:0:0:
192,192,194766,1,0,0:0:0:0:
448,192,194834,1,0,0:0:0:0:
64,192,194901,1,0,0:0:0:0:
192,192,194969,1,0,0:0:0:0:
448,192,195036,1,0,0:0:0:0:
320,192,195104,1,0,0:0:0:0:
192,192,195171,1,0,0:0:0:0:
64,192,195239,1,0,0:0:0:0:
448,192,195306,1,0,0:0:0:0:
320,192,195374,1,0,0:0:0:0:
192,192,195441,1,0,0:0:0:0:
64,192,195441,1,0,0:0:0:0:
448,192,195441,1,0,0:0:0:0:
320,192,195576,1,0,0:0:0:0:
192,192,195644,1,0,0:0:0:0:
448,192,195711,1,0,0:0:0:0:
64,192,195779,1,0,0:0:0:0:
320,192,195846,1,0,0:0:0:0:
192,192,195914,1,0,0:0:0:0:
64,192,195981,1,0,0:0:0:0:
448,192,195981,1,0,0:0:0:0:
320,192,195981,1,0,0:0:0:0:
192,192,196116,1,0,0:0:0:0:
320,192,196184,1,0,0:0:0:0:
64,192,196251,1,0,0:0:0:0:
448,192,196251,1,0,0:0:0:0:
192,192,196319,1,0,0:0:0:0:
320,192,196386,1,0,0:0:0:0:
192,192,196454,1,0,0:0:0:0:
64,192,196521,1,0,0:0:0:0:
448,192,196521,1,0,0:0:0:0:
448,192,196656,1,0,0:0:0:0:
320,192,196656,1,0,0:0:0:0:
64,192,196724,1,0,0:0:0:0:
192,192,196791,1,0,0:0:0:0:
320,192,196791,1,0,0:0:0:0:
64,192,196926,1,0,0:0:0:0:
192,192,196926,1,0,0:0:0:0:
448,192,196994,1,0,0:0:0:0:
192,192,197061,1,0,0:0:0:0:
320,192,197061,1,0,0:0:0:0:
320,192,197196,1,0,0:0:0:0:
448,192,197196,1,0,0:0:0:0:
192,192,197264,1,0,0:0:0:0:
64,192,197331,1,0,0:0:0:0:
448,192,197331,1,0,0:0:0:0:
64,192,197466,1,0,0:0:0:0:
320,192,197466,1,0,0:0:0:0:
192,192,197534,1,0,0:0:0:0:
320,192,197601,1,0,0:0:0:0:
448,192,197601,1,0,0:0:0:0:
64,192,197736,1,0,0:0:0:0:
192,192,197736,1,0,0:0:0:0:
448,192,197804,1,0,0:0:0:0:
320,192,197871,1,0,0:0:0:0:
192,192,197871,1,0,0:0:0:0:
448,192,198006,1,0,0:0:0:0:
320,192,198006,1,0,0:0:0:0:
64,192,198074,1,0,0:0:0:0:
320,192,198141,1,0,0:0:0:0:
192,192,198141,1,0,0:0:0:0:
192,192,198276,1,0,0:0:0:0:
64,192,198276,1,0,0:0:0:0:
320,192,198344,1,0,0:0:0:0:
448,192,198411,1,0,0:0:0:0:
64,192,198411,1,0,0:0:0:0:
192,192,198479,1,0,0:0:0:0:
448,192,198546,1,0,0:0:0:0:
320,192,198546,1,0,0:0:0:0:
192,192,198614,1,0,0:0:0:0:
64,192,198681,1,0,0:0:0:0:
448,192,198681,1,0,0:0:0:0:
320,192,198749,1,0,0:0:0:0:
64,192,198816,1,0,0:0:0:0:
192,192,198884,1,0,0:0:0:0:
448,192,198951,1,0,0:0:0:0:
320,192,198951,1,0,0:0:0:0:
64,192,199019,1,0,0:0:0:0:
448,192,199086,1,0,0:0:0:0:
320,192,199154,1,0,0:0:0:0:
192,192,199221,1,0,0:0:0:0:
64,192,199221,1,0,0:0:0:0:
448,192,199289,1,0,0:0:0:0:
192,192,199356,1,0,0:0:0:0:
320,192,199424,1,0,0:0:0:0:
64,192,199491,1,0,0:0:0:0:
448,192,199491,1,0,0:0:0:0:
192,192,199559,1,0,0:0:0:0:
448,192,199626,1,0,0:0:0:0:
320,192,199694,1,0,0:0:0:0:
192,192,199761,1,0,0:0:0:0:
64,192,199761,1,0,0:0:0:0:
448,192,199829,1,0,0:0:0:0:
64,192,199896,1,0,0:0:0:0:
192,192,199964,1,0,0:0:0:0:
320,192,200031,1,0,0:0:0:0:
448,192,200031,1,0,0:0:0:0:
192,192,200099,1,0,0:0:0:0:
64,192,200166,1,0,0:0:0:0:
448,192,200166,1,0,0:0:0:0:
320,192,200234,1,0,0:0:0:0:
192,192,200301,1,0,0:0:0:0:
64,192,200301,1,0,0:0:0:0:
448,192,200369,1,0,0:0:0:0:
192,192,200436,1,0,0:0:0:0:
320,192,200504,1,0,0:0:0:0:
448,192,200571,1,0,0:0:0:0:
64,192,200571,1,0,0:0:0:0:
192,192,200639,1,0,0:0:0:0:
320,192,200706,1,0,0:0:0:0:
448,192,200706,1,0,0:0:0:0:
192,192,200774,1,0,0:0:0:0:
448,192,200841,1,0,0:0:0:0:
64,192,200841,1,0,0:0:0:0:
320,192,201044,1,0,0:0:0:0:
320,192,201246,1,0,0:0:0:0:
64,192,201381,1,0,0:0:0:0:
192,192,201449,1,0,0:0:0:0:
448,192,201651,1,0,0:0:0:0:
64,192,201786,1,0,0:0:0:0:
320,192,201921,1,0,0:0:0:0:
192,192,202124,1,0,0:0:0:0:
192,192,202327,1,0,0:0:0:0:
448,192,202462,1,0,0:0:0:0:
320,192,202529,1,0,0:0:0:0:
64,192,202732,1,0,0:0:0:0:
448,192,202867,1,0,0:0:0:0:
192,192,203002,1,0,0:0:0:0:
320,192,203204,1,0,0:0:0:0:
320,192,203407,1,0,0:0:0:0:
64,192,203542,1,0,0:0:0:0:
192,192,203609,1,0,0:0:0:0:
448,192,203812,1,0,0:0:0:0:
64,192,203947,1,0,0:0:0:0:
320,192,204082,1,0,0:0:0:0:
192,192,204284,1,0,0:0:0:0:
448,192,204487,1,0,0:0:0:0:
320,192,204622,1,0,0:0:0:0:
192,192,204757,1,0,0:0:0:0:
64,192,204892,1,0,0:0:0:0:
448,192,205027,1,0,0:0:0:0:
64,192,205162,1,0,0:0:0:0:
192,192,205162,1,0,0:0:0:0:
320,192,205364,1,0,0:0:0:0:
320,192,205567,1,0,0:0:0:0:
64,192,205702,1,0,0:0:0:0:
192,192,205769,1,0,0:0:0:0:
320,192,205837,1,0,0:0:0:0:
448,192,205972,1,0,0:0:0:0:
320,192,206039,1,0,0:0:0:0:
192,192,206107,1,0,0:0:0:0:
64,192,206242,1,0,0:0:0:0:
320,192,206309,1,0,0:0:0:0:
192,192,206377,1,0,0:0:0:0:
448,192,206512,1,0,0:0:0:0:
192,192,206579,1,0,0:0:0:0:
320,192,206647,1,0,0:0:0:0:
64,192,206782,1,0,0:0:0:0:
448,192,206849,1,0,0:0:0:0:
64,192,206917,1,0,0:0:0:0:
320,192,207052,1,0,0:0:0:0:
192,192,207119,1,0,0:0:0:0:
320,192,207187,1,0,0:0:0:0:
64,192,207322,1,0,0:0:0:0:
448,192,207389,1,0,0:0:0:0:
192,192,207457,1,0,0:0:0:0:
448,192,207592,1,0,0:0:0:0:
64,192,207659,1,0,0:0:0:0:
320,192,207727,1,0,0:0:0:0:
192,192,207862,1,0,0:0:0:0:
320,192,207929,1,0,0:0:0:0:
448,192,207997,1,0,0:0:0:0:
320,192,208132,1,0,0:0:0:0:
192,192,208199,1,0,0:0:0:0:
64,192,208267,1,0,0:0:0:0:
448,192,208402,1,0,0:0:0:0:
192,192,208469,1,0,0:0:0:0:
320,192,208537,1,0,0:0:0:0:
64,192,208604,1,0,0:0:0:0:
320,192,208807,1,0,0:0:0:0:
64,192,208942,1,0,0:0:0:0:
448,192,209009,1,0,0:0:0:0:
192,192,209212,1,0,0:0:0:0:
320,192,209347,1,0,0:0:0:0:
192,192,209414,1,0,0:0:0:0:
64,192,209482,1,0,0:0:0:0:
448,192,209482,1,0,0:0:0:0:
320,192,209549,1,0,0:0:0:0:
192,192,209617,1,0,0:0:0:0:
64,192,209752,1,0,0:0:0:0:
192,192,209819,1,0,0:0:0:0:
320,192,209887,1,0,0:0:0:0:
448,192,210022,1,0,0:0:0:0:
64,192,210089,1,0,0:0:0:0:
448,192,210157,1,0,0:0:0:0:
192,192,210292,1,0,0:0:0:0:
320,192,210359,1,0,0:0:0:0:
192,192,210427,1,0,0:0:0:0:
448,192,210562,1,0,0:0:0:0:
64,192,210652,1,0,0:0:0:0:
448,192,210742,1,0,0:0:0:0:
64,192,210832,1,0,0:0:0:0:
320,192,210899,1,0,0:0:0:0:
192,192,210967,1,0,0:0:0:0:
448,192,211102,1,0,0:0:0:0:
320,192,211169,1,0,0:0:0:0:
192,192,211237,1,0,0:0:0:0:
64,192,211372,1,0,0:0:0:0:
192,192,211439,1,0,0:0:0:0:
320,192,211507,1,0,0:0:0:0:
64,192,211642,1,0,0:0:0:0:
448,192,211642,1,0,0:0:0:0:
192,192,211709,1,0,0:0:0:0:
320,192,211777,1,0,0:0:0:0:
448,192,211912,1,0,0:0:0:0:
64,192,211979,1,0,0:0:0:0:
320,192,212047,1,0,0:0:0:0:
64,192,212182,1,0,0:0:0:0:
448,192,212249,1,0,0:0:0:0:
192,192,212317,1,0,0:0:0:0:
448,192,212452,1,0,0:0:0:0:
320,192,212519,1,0,0:0:0:0:
192,192,212587,1,0,0:0:0:0:
64,192,212722,1,0,0:0:0:0:
448,192,212789,1,0,0:0:0:0:
64,192,212857,1,0,0:0:0:0:
192,192,212992,1,0,0:0:0:0:
320,192,213059,1,0,0:0:0:0:
192,192,213127,1,0,0:0:0:0:
448,192,213262,1,0,0:0:0:0:
320,192,213329,1,0,0:0:0:0:
192,192,213397,1,0,0:0:0:0:
64,192,213532,1,0,0:0:0:0:
192,192,213599,1,0,0:0:0:0:
320,192,213667,1,0,0:0:0:0:
64,192,213802,1,0,0:0:0:0:
448,192,213802,1,0,0:0:0:0:
192,192,213869,1,0,0:0:0:0:
448,192,213937,1,0,0:0:0:0:
320,192,214004,1,0,0:0:0:0:
192,192,214072,1,0,0:0:0:0:
64,192,214139,1,0,0:0:0:0:
320,192,214207,1,0,0:0:0:0:
448,192,214274,1,0,0:0:0:0:
64,192,214342,1,0,0:0:0:0:
192,192,214409,1,0,0:0:0:0:
448,192,214477,1,0,0:0:0:0:
320,192,214544,1,0,0:0:0:0:
64,192,214612,1,0,0:0:0:0:
192,192,214679,1,0,0:0:0:0:
320,192,214747,1,0,0:0:0:0:
448,192,214747,1,0,0:0:0:0:
192,192,214814,1,0,0:0:0:0:
448,192,214882,1,0,0:0:0:0:
64,192,214882,1,0,0:0:0:0:
320,192,214949,1,0,0:0:0:0:
192,192,215017,1,0,0:0:0:0:
448,192,215084,1,0,0:0:0:0:
64,192,215152,1,0,0:0:0:0:
192,192,215219,1,0,0:0:0:0:
448,192,215287,1,0,0:0:0:0:
320,192,215354,1,0,0:0:0:0:
64,192,215422,1,0,0:0:0:0:
192,192,215422,1,0,0:0:0:0:
448,192,215489,1,0,0:0:0:0:
64,192,215557,1,0,0:0:0:0:
192,192,215624,1,0,0:0:0:0:
448,192,215692,1,0,0:0:0:0:
320,192,215759,1,0,0:0:0:0:
192,192,215827,1,0,0:0:0:0:
64,192,215894,1,0,0:0:0:0:
448,192,215962,1,0,0:0:0:0:
320,192,215962,1,0,0:0:0:0:
64,192,216029,1,0,0:0:0:0:
448,192,216097,1,0,0:0:0:0:
192,192,216164,1,0,0:0:0:0:
64,192,216232,1,0,0:0:0:0:
320,192,216299,1,0,0:0:0:0:
192,192,216367,1,0,0:0:0:0:
448,192,216434,1,0,0:0:0:0:
192,192,216502,1,0,0:0:0:0:
320,192,216502,1,0,0:0:0:0:
64,192,216569,1,0,0:0:0:0:
448,192,216637,1,0,0:0:0:0:
320,192,216704,1,0,0:0:0:0:
192,192,216772,1,0,0:0:0:0:
64,192,216772,1,0,0:0:0:0:
448,192,216839,1,0,0:0:0:0:
64,192,216907,1,0,0:0:0:0:
192,192,216974,5,0,0:0:0:0:
448,192,217042,1,0,0:0:0:0:
320,192,217042,1,0,0:0:0:0:
320,192,217177,1,0,0:0:0:0:
64,192,217312,1,0,0:0:0:0:
192,192,217312,1,0,0:0:0:0:
448,192,217312,1,0,0:0:0:0:
192,192,217447,1,0,0:0:0:0:
320,192,217582,1,0,0:0:0:0:
448,192,217582,1,0,0:0:0:0:
64,192,217582,1,0,0:0:0:0:
320,192,217717,1,0,0:0:0:0:
192,192,217852,1,0,0:0:0:0:
448,192,217852,1,0,0:0:0:0:
64,192,217919,1,0,0:0:0:0:
320,192,217987,1,0,0:0:0:0:
192,192,218054,1,0,0:0:0:0:
448,192,218122,5,0,0:0:0:0:
320,192,218122,1,0,0:0:0:0:
64,192,218122,1,0,0:0:0:0:
192,192,218189,1,0,0:0:0:0:
448,192,218257,1,0,0:0:0:0:
320,192,218324,1,0,0:0:0:0:
192,192,218392,1,0,0:0:0:0:
64,192,218392,1,0,0:0:0:0:
448,192,218527,1,0,0:0:0:0:
320,192,218527,1,0,0:0:0:0:
192,192,218594,1,0,0:0:0:0:
320,192,218662,1,0,0:0:0:0:
448,192,218729,1,0,0:0:0:0:
64,192,218729,1,0,0:0:0:0:
192,192,218932,1,0,0:0:0:0:
320,192,218932,1,0,0:0:0:0:
192,192,219067,1,0,0:0:0:0:
320,192,219067,1,0,0:0:0:0:
448,192,219202,1,0,0:0:0:0:
64,192,219202,1,0,0:0:0:0:
320,192,219269,1,0,0:0:0:0:
64,192,219337,1,0,0:0:0:0:
192,192,219404,1,0,0:0:0:0:
320,192,219472,1,0,0:0:0:0:
448,192,219472,1,0,0:0:0:0:
192,192,219607,1,0,0:0:0:0:
64,192,219607,1,0,0:0:0:0:
320,192,219674,1,0,0:0:0:0:
192,192,219742,1,0,0:0:0:0:
64,192,219809,1,0,0:0:0:0:
448,192,219809,1,0,0:0:0:0:
320,192,220012,1,0,0:0:0:0:
192,192,220012,1,0,0:0:0:0:
320,192,220147,1,0,0:0:0:0:
192,192,220147,1,0,0:0:0:0:
448,192,220282,1,0,0:0:0:0:
64,192,220282,1,0,0:0:0:0:
192,192,220349,1,0,0:0:0:0:
320,192,220417,1,0,0:0:0:0:
192,192,220484,1,0,0:0:0:0:
448,192,220552,1,0,0:0:0:0:
64,192,220552,1,0,0:0:0:0:
320,192,220687,1,0,0:0:0:0:
192,192,220687,1,0,0:0:0:0:
64,192,220754,1,0,0:0:0:0:
448,192,220822,1,0,0:0:0:0:
192,192,220889,1,0,0:0:0:0:
64,192,220889,1,0,0:0:0:0:
448,192,221092,1,0,0:0:0:0:
320,192,221092,1,0,0:0:0:0:
448,192,221227,1,0,0:0:0:0:
320,192,221227,1,0,0:0:0:0:
192,192,221362,1,0,0:0:0:0:
64,192,221362,1,0,0:0:0:0:
448,192,221429,1,0,0:0:0:0:
320,192,221497,1,0,0:0:0:0:
192,192,221497,1,0,0:0:0:0:
64,192,221564,1,0,0:0:0:0:
448,192,221632,1,0,0:0:0:0:
320,192,221632,1,0,0:0:0:0:
192,192,221767,1,0,0:0:0:0:
64,192,221767,1,0,0:0:0:0:
320,192,221834,1,0,0:0:0:0:
448,192,221902,1,0,0:0:0:0:
64,192,221902,1,0,0:0:0:0:
448,192,222037,1,0,0:0:0:0:
192,192,222037,1,0,0:0:0:0:
192,192,222172,1,0,0:0:0:0:
320,192,222172,1,0,0:0:0:0:
64,192,222307,1,0,0:0:0:0:
320,192,222307,1,0,0:0:0:0:
448,192,222442,1,0,0:0:0:0:
64,192,222442,1,0,0:0:0:0:
320,192,222509,1,0,0:0:0:0:
192,192,222577,1,0,0:0:0:0:
64,192,222644,1,0,0:0:0:0:
448,192,222712,1,0,0:0:0:0:
320,192,222712,1,0,0:0:0:0:
192,192,222779,1,0,0:0:0:0:
448,192,222847,1,0,0:0:0:0:
320,192,222914,1,0,0:0:0:0:
64,192,222982,1,0,0:0:0:0:
192,192,222982,128,0,223049:0:0:0:0:
448,192,223049,1,0,0:0:0:0:
64,192,223117,1,0,0:0:0:0:
192,192,223184,1,0,0:0:0:0:
320,192,223252,1,0,0:0:0:0:
448,192,223252,128,0,223319:0:0:0:0:
64,192,223319,1,0,0:0:0:0:
320,192,223387,1,0,0:0:0:0:
192,192,223454,1,0,0:0:0:0:
448,192,223522,1,0,0:0:0:0:
64,192,223522,128,0,223589:0:0:0:0:
320,192,223589,1,0,0:0:0:0:
192,192,223657,1,0,0:0:0:0:
448,192,223724,1,0,0:0:0:0:
64,192,223792,1,0,0:0:0:0:
320,192,223792,128,0,223859:0:0:0:0:
192,192,223859,1,0,0:0:0:0:
448,192,223927,1,0,0:0:0:0:
64,192,223994,1,0,0:0:0:0:
320,192,224062,1,0,0:0:0:0:
192,192,224062,128,0,224129:0:0:0:0:
448,192,224129,1,0,0:0:0:0:
64,192,224197,1,0,0:0:0:0:
192,192,224264,1,0,0:0:0:0:
320,192,224332,1,0,0:0:0:0:
448,192,224332,128,0,224399:0:0:0:0:
64,192,224399,1,0,0:0:0:0:
320,192,224467,1,0,0:0:0:0:
192,192,224534,1,0,0:0:0:0:
448,192,224602,1,0,0:0:0:0:
64,192,224602,128,0,224669:0:0:0:0:
320,192,224669,1,0,0:0:0:0:
192,192,224737,1,0,0:0:0:0:
448,192,224804,1,0,0:0:0:0:
64,192,224872,1,0,0:0:0:0:
320,192,224872,128,0,224939:0:0:0:0:
192,192,224939,1,0,0:0:0:0:
448,192,225007,1,0,0:0:0:0:
320,192,225074,1,0,0:0:0:0:
64,192,225142,1,0,0:0:0:0:
192,192,225142,128,0,225209:0:0:0:0:
448,192,225209,1,0,0:0:0:0:
320,192,225277,1,0,0:0:0:0:
64,192,225344,1,0,0:0:0:0:
192,192,225412,1,0,0:0:0:0:
320,192,225412,128,0,225479:0:0:0:0:
448,192,225479,1,0,0:0:0:0:
64,192,225547,1,0,0:0:0:0:
192,192,225614,1,0,0:0:0:0:
320,192,225682,1,0,0:0:0:0:
448,192,225682,128,0,225749:0:0:0:0:
64,192,225749,1,0,0:0:0:0:
320,192,225817,1,0,0:0:0:0:
192,192,225884,1,0,0:0:0:0:
448,192,225952,1,0,0:0:0:0:
64,192,225952,1,0,0:0:0:0:
320,192,226019,1,0,0:0:0:0:
64,192,226087,1,0,0:0:0:0:
192,192,226154,1,0,0:0:0:0:
448,192,226222,1,0,0:0:0:0:
320,192,226222,1,0,0:0:0:0:
64,192,226289,1,0,0:0:0:0:
320,192,226357,1,0,0:0:0:0:
192,192,226357,1,0,0:0:0:0:
448,192,226424,1,0,0:0:0:0:
192,192,226492,1,0,0:0:0:0:
64,192,226492,1,0,0:0:0:0:
320,192,226559,1,0,0:0:0:0:
448,192,226627,1,0,0:0:0:0:
192,192,226694,1,0,0:0:0:0:
64,192,226694,1,0,0:0:0:0:
320,192,226762,1,0,0:0:0:0:
448,192,226762,128,0,226829:0:0:0:0:
64,192,226829,1,0,0:0:0:0:
320,192,226897,1,0,0:0:0:0:
192,192,226964,1,0,0:0:0:0:
448,192,227032,1,0,0:0:0:0:
64,192,227032,128,0,227099:0:0:0:0:
320,192,227099,1,0,0:0:0:0:
64,192,227167,1,0,0:0:0:0:
192,192,227234,1,0,0:0:0:0:
448,192,227302,1,0,0:0:0:0:
320,192,227302,128,0,227369:0:0:0:0:
64,192,227369,1,0,0:0:0:0:
448,192,227437,1,0,0:0:0:0:
320,192,227504,1,0,0:0:0:0:
64,192,227572,1,0,0:0:0:0:
192,192,227572,128,0,227639:0:0:0:0:
448,192,227639,1,0,0:0:0:0:
64,192,227707,1,0,0:0:0:0:
192,192,227774,1,0,0:0:0:0:
448,192,227842,1,0,0:0:0:0:
320,192,227842,1,0,0:0:0:0:
192,192,227932,1,0,0:0:0:0:
320,192,228022,1,0,0:0:0:0:
64,192,228112,1,0,0:0:0:0:
192,192,228112,1,0,0:0:0:0:
448,192,228179,1,0,0:0:0:0:
64,192,228247,1,0,0:0:0:0:
192,192,228314,1,0,0:0:0:0:
448,192,228382,1,0,0:0:0:0:
320,192,228382,1,0,0:0:0:0:
64,192,228449,1,0,0:0:0:0:
448,192,228517,1,0,0:0:0:0:
320,192,228584,1,0,0:0:0:0:
192,192,228652,1,0,0:0:0:0:
64,192,228652,1,0,0:0:0:0:
448,192,228719,1,0,0:0:0:0:
192,192,228787,1,0,0:0:0:0:
320,192,228854,1,0,0:0:0:0:
448,192,228922,1,0,0:0:0:0:
64,192,228922,128,0,228989:0:0:0:0:
192,192,228989,1,0,0:0:0:0:
320,192,229057,1,0,0:0:0:0:
64,192,229124,1,0,0:0:0:0:
192,192,229192,1,0,0:0:0:0:
448,192,229192,128,0,229259:0:0:0:0:
320,192,229259,1,0,0:0:0:0:
64,192,229327,1,0,0:0:0:0:
448,192,229394,1,0,0:0:0:0:
192,192,229462,1,0,0:0:0:0:
320,192,229462,128,0,229529:0:0:0:0:
64,192,229529,1,0,0:0:0:0:
448,192,229597,1,0,0:0:0:0:
320,192,229664,1,0,0:0:0:0:
64,192,229732,1,0,0:0:0:0:
192,192,229732,128,0,229799:0:0:0:0:
448,192,229799,1,0,0:0:0:0:
64,192,229867,1,0,0:0:0:0:
192,192,229934,1,0,0:0:0:0:
320,192,230002,1,0,0:0:0:0:
448,192,230002,128,0,230069:0:0:0:0:
64,192,230069,1,0,0:0:0:0:
448,192,230137,1,0,0:0:0:0:
64,192,230204,1,0,0:0:0:0:
448,192,230272,1,0,0:0:0:0:
320,192,230272,128,0,230339:0:0:0:0:
192,192,230339,1,0,0:0:0:0:
64,192,230407,1,0,0:0:0:0:
448,192,230474,1,0,0:0:0:0:
320,192,230542,1,0,0:0:0:0:
192,192,230542,128,0,230609:0:0:0:0:
64,192,230609,1,0,0:0:0:0:
448,192,230677,1,0,0:0:0:0:
320,192,230744,1,0,0:0:0:0:
192,192,230812,1,0,0:0:0:0:
64,192,230812,128,0,230879:0:0:0:0:
320,192,230879,1,0,0:0:0:0:
192,192,230947,1,0,0:0:0:0:
448,192,231014,1,0,0:0:0:0:
64,192,231082,1,0,0:0:0:0:
320,192,231082,1,0,0:0:0:0:
192,192,231149,1,0,0:0:0:0:
448,192,231217,1,0,0:0:0:0:
320,192,231284,1,0,0:0:0:0:
192,192,231352,1,0,0:0:0:0:
64,192,231352,1,0,0:0:0:0:
448,192,231419,1,0,0:0:0:0:
192,192,231487,1,0,0:0:0:0:
320,192,231554,1,0,0:0:0:0:
448,192,231622,1,0,0:0:0:0:
64,192,231622,1,0,0:0:0:0:
192,192,231689,1,0,0:0:0:0:
320,192,231757,1,0,0:0:0:0:
64,192,231824,1,0,0:0:0:0:
448,192,231892,1,0,0:0:0:0:
192,192,231892,1,0,0:0:0:0:
320,192,231959,1,0,0:0:0:0:
64,192,232027,1,0,0:0:0:0:
448,192,232094,1,0,0:0:0:0:
320,192,232162,1,0,0:0:0:0:
192,192,232162,1,0,0:0:0:0:
64,192,232297,1,0,0:0:0:0:
192,192,232364,1,0,0:0:0:0:
448,192,232432,1,0,0:0:0:0:
320,192,232432,1,0,0:0:0:0:
64,192,232499,1,0,0:0:0:0:
448,192,232567,1,0,0:0:0:0:
320,192,232634,1,0,0:0:0:0:
192,192,232702,1,0,0:0:0:0:
64,192,232702,1,0,0:0:0:0:
448,192,232769,1,0,0:0:0:0:
192,192,232837,1,0,0:0:0:0:
320,192,232904,1,0,0:0:0:0:
64,192,232972,1,0,0:0:0:0:
448,192,232972,1,0,0:0:0:0:
192,192,233039,1,0,0:0:0:0:
320,192,233107,1,0,0:0:0:0:
192,192,233174,1,0,0:0:0:0:
448,192,233242,1,0,0:0:0:0:
64,192,233242,1,0,0:0:0:0:
320,192,233377,1,0,0:0:0:0:
192,192,233377,1,0,0:0:0:0:
448,192,233444,1,0,0:0:0:0:
64,192,233512,1,0,0:0:0:0:
192,192,233512,1,0,0:0:0:0:
320,192,233579,1,0,0:0:0:0:
448,192,233647,1,0,0:0:0:0:
64,192,233714,1,0,0:0:0:0:
320,192,233782,1,0,0:0:0:0:
448,192,233782,1,0,0:0:0:0:
192,192,233917,1,0,0:0:0:0:
64,192,233917,1,0,0:0:0:0:
448,192,233984,1,0,0:0:0:0:
320,192,234052,1,0,0:0:0:0:
192,192,234052,1,0,0:0:0:0:
64,192,234119,1,0,0:0:0:0:
448,192,234187,1,0,0:0:0:0:
320,192,234254,1,0,0:0:0:0:
192,192,234322,1,0,0:0:0:0:
64,192,234322,1,0,0:0:0:0:
448,192,234322,1,0,0:0:0:0:
320,192,234457,1,0,0:0:0:0:
192,192,234524,1,0,0:0:0:0:
448,192,234592,1,0,0:0:0:0:
64,192,234592,1,0,0:0:0:0:
320,192,234592,1,0,0:0:0:0:
192,192,234727,1,0,0:0:0:0:
320,192,234794,1,0,0:0:0:0:
448,192,234862,1,0,0:0:0:0:
192,192,234862,1,0,0:0:0:0:
64,192,234862,1,0,0:0:0:0:
320,192,234997,1,0,0:0:0:0:
192,192,235064,1,0,0:0:0:0:
320,192,235132,1,0,0:0:0:0:
448,192,235132,1,0,0:0:0:0:
64,192,235199,1,0,0:0:0:0:
192,192,235267,1,0,0:0:0:0:
320,192,235334,1,0,0:0:0:0:
64,192,235402,1,0,0:0:0:0:
192,192,235402,1,0,0:0:0:0:
448,192,235402,1,0,0:0:0:0:
320,192,235469,1,0,0:0:0:0:
64,192,235537,1,0,0:0:0:0:
192,192,235604,1,0,0:0:0:0:
320,192,235672,1,0,0:0:0:0:
448,192,235672,1,0,0:0:0:0:
64,192,235807,1,0,0:0:0:0:
192,192,235807,1,0,0:0:0:0:
320,192,235874,1,0,0:0:0:0:
192,192,235942,1,0,0:0:0:0:
64,192,236009,1,0,0:0:0:0:
448,192,236009,1,0,0:0:0:0:
320,192,236212,1,0,0:0:0:0:
192,192,236212,1,0,0:0:0:0:
320,192,236347,1,0,0:0:0:0:
192,192,236347,1,0,0:0:0:0:
64,192,236482,1,0,0:0:0:0:
448,192,236482,1,0,0:0:0:0:
192,192,236549,1,0,0:0:0:0:
448,192,236617,1,0,0:0:0:0:
320,192,236684,1,0,0:0:0:0:
192,192,236752,1,0,0:0:0:0:
64,192,236752,1,0,0:0:0:0:
320,192,236887,1,0,0:0:0:0:
448,192,236887,1,0,0:0:0:0:
192,192,236954,1,0,0:0:0:0:
320,192,237022,1,0,0:0:0:0:
448,192,237089,1,0,0:0:0:0:
64,192,237089,1,0,0:0:0:0:
192,192,237292,1,0,0:0:0:0:
320,192,237292,1,0,0:0:0:0:
192,192,237427,1,0,0:0:0:0:
320,192,237427,1,0,0:0:0:0:
64,192,237562,1,0,0:0:0:0:
448,192,237562,1,0,0:0:0:0:
320,192,237629,1,0,0:0:0:0:
192,192,237697,1,0,0:0:0:0:
320,192,237764,1,0,0:0:0:0:
64,192,237832,1,0,0:0:0:0:
448,192,237832,1,0,0:0:0:0:
192,192,237967,1,0,0:0:0:0:
320,192,237967,1,0,0:0:0:0:
448,192,238034,1,0,0:0:0:0:
64,192,238102,1,0,0:0:0:0:
320,192,238169,1,0,0:0:0:0:
448,192,238169,1,0,0:0:0:0:
64,192,238372,1,0,0:0:0:0:
192,192,238372,1,0,0:0:0:0:
64,192,238507,1,0,0:0:0:0:
192,192,238507,1,0,0:0:0:0:
320,192,238642,1,0,0:0:0:0:
448,192,238642,1,0,0:0:0:0:
64,192,238709,1,0,0:0:0:0:
192,192,238777,1,0,0:0:0:0:
320,192,238777,1,0,0:0:0:0:
448,192,238844,1,0,0:0:0:0:
64,192,238912,1,0,0:0:0:0:
192,192,238912,1,0,0:0:0:0:
320,192,239047,1,0,0:0:0:0:
448,192,239047,1,0,0:0:0:0:
192,192,239114,1,0,0:0:0:0:
64,192,239182,1,0,0:0:0:0:
448,192,239182,1,0,0:0:0:0:
64,192,239317,1,0,0:0:0:0:
320,192,239317,1,0,0:0:0:0:
320,192,239452,1,0,0:0:0:0:
192,192,239452,1,0,0:0:0:0:
448,192,239587,1,0,0:0:0:0:
192,192,239587,1,0,0:0:0:0:
64,192,239722,1,0,0:0:0:0:
448,192,239722,1,0,0:0:0:0:
192,192,239789,1,0,0:0:0:0:
320,192,239857,1,0,0:0:0:0:
448,192,239924,1,0,0:0:0:0:
64,192,239992,1,0,0:0:0:0:
192,192,239992,1,0,0:0:0:0:
320,192,240059,1,0,0:0:0:0:
64,192,240127,1,0,0:0:0:0:
192,192,240194,1,0,0:0:0:0:
448,192,240262,1,0,0:0:0:0:
320,192,240262,128,0,240329:0:0:0:0:
64,192,240329,1,0,0:0:0:0:
448,192,240397,1,0,0:0:0:0:
320,192,240464,1,0,0:0:0:0:
192,192,240532,1,0,0:0:0:0:
64,192,240532,128,0,240599:0:0:0:0:
448,192,240599,1,0,0:0:0:0:
192,192,240667,1,0,0:0:0:0:
320,192,240734,1,0,0:0:0:0:
64,192,240802,1,0,0:0:0:0:
448,192,240802,128,0,240869:0:0:0:0:
192,192,240869,1,0,0:0:0:0:
320,192,240937,1,0,0:0:0:0:
64,192,241004,1,0,0:0:0:0:
448,192,241072,1,0,0:0:0:0:
192,192,241072,128,0,241139:0:0:0:0:
320,192,241139,1,0,0:0:0:0:
64,192,241207,1,0,0:0:0:0:
448,192,241274,1,0,0:0:0:0:
192,192,241342,1,0,0:0:0:0:
320,192,241342,128,0,241409:0:0:0:0:
64,192,241409,1,0,0:0:0:0:
448,192,241477,1,0,0:0:0:0:
320,192,241544,1,0,0:0:0:0:
192,192,241612,1,0,0:0:0:0:
64,192,241612,128,0,241679:0:0:0:0:
448,192,241679,1,0,0:0:0:0:
192,192,241747,1,0,0:0:0:0:
320,192,241814,1,0,0:0:0:0:
64,192,241882,1,0,0:0:0:0:
448,192,241882,128,0,241949:0:0:0:0:
192,192,241949,1,0,0:0:0:0:
320,192,242017,1,0,0:0:0:0:
64,192,242084,1,0,0:0:0:0:
448,192,242152,1,0,0:0:0:0:
192,192,242152,128,0,242219:0:0:0:0:
320,192,242219,1,0,0:0:0:0:
64,192,242287,1,0,0:0:0:0:
192,192,242354,1,0,0:0:0:0:
448,192,242422,1,0,0:0:0:0:
320,192,242422,128,0,242489:0:0:0:0:
64,192,242489,1,0,0:0:0:0:
192,192,242557,1,0,0:0:0:0:
448,192,242624,1,0,0:0:0:0:
320,192,242692,1,0,0:0:0:0:
192,192,242692,128,0,242759:0:0:0:0:
64,192,242759,1,0,0:0:0:0:
448,192,242827,1,0,0:0:0:0:
320,192,242894,1,0,0:0:0:0:
192,192,242962,1,0,0:0:0:0:
64,192,242962,128,0,243029:0:0:0:0:
448,192,243029,1,0,0:0:0:0:
192,192,243097,1,0,0:0:0:0:
320,192,243164,1,0,0:0:0:0:
64,192,243232,1,0,0:0:0:0:
448,192,243232,1,0,0:0:0:0:
192,192,243299,1,0,0:0:0:0:
448,192,243367,1,0,0:0:0:0:
320,192,243434,1,0,0:0:0:0:
64,192,243502,1,0,0:0:0:0:
192,192,243502,1,0,0:0:0:0:
448,192,243569,1,0,0:0:0:0:
192,192,243637,1,0,0:0:0:0:
320,192,243637,1,0,0:0:0:0:
64,192,243704,1,0,0:0:0:0:
320,192,243772,1,0,0:0:0:0:
448,192,243772,1,0,0:0:0:0:
192,192,243839,1,0,0:0:0:0:
64,192,243907,1,0,0:0:0:0:
320,192,243974,1,0,0:0:0:0:
448,192,243974,1,0,0:0:0:0:
192,192,244042,1,0,0:0:0:0:
64,192,244042,128,0,244109:0:0:0:0:
448,192,244109,1,0,0:0:0:0:
192,192,244177,1,0,0:0:0:0:
320,192,244244,1,0,0:0:0:0:
64,192,244312,1,0,0:0:0:0:
448,192,244312,128,0,244379:0:0:0:0:
192,192,244379,1,0,0:0:0:0:
448,192,244447,1,0,0:0:0:0:
320,192,244514,1,0,0:0:0:0:
64,192,244582,1,0,0:0:0:0:
192,192,244582,128,0,244649:0:0:0:0:
448,192,244649,1,0,0:0:0:0:
64,192,244717,1,0,0:0:0:0:
192,192,244784,1,0,0:0:0:0:
448,192,244852,1,0,0:0:0:0:
320,192,244852,128,0,244919:0:0:0:0:
64,192,244919,1,0,0:0:0:0:
448,192,244987,1,0,0:0:0:0:
320,192,245054,1,0,0:0:0:0:
64,192,245122,1,0,0:0:0:0:
192,192,245122,1,0,0:0:0:0:
320,192,245212,1,0,0:0:0:0:
192,192,245302,1,0,0:0:0:0:
448,192,245392,1,0,0:0:0:0:
320,192,245392,1,0,0:0:0:0:
64,192,245459,1,0,0:0:0:0:
448,192,245527,1,0,0:0:0:0:
320,192,245594,1,0,0:0:0:0:
64,192,245662,1,0,0:0:0:0:
192,192,245662,1,0,0:0:0:0:
448,192,245729,1,0,0:0:0:0:
64,192,245797,1,0,0:0:0:0:
192,192,245864,1,0,0:0:0:0:
320,192,245932,1,0,0:0:0:0:
448,192,245932,1,0,0:0:0:0:
64,192,245999,1,0,0:0:0:0:
320,192,246067,1,0,0:0:0:0:
192,192,246134,1,0,0:0:0:0:
64,192,246202,1,0,0:0:0:0:
448,192,246202,128,0,246269:0:0:0:0:
320,192,246269,1,0,0:0:0:0:
192,192,246337,1,0,0:0:0:0:
448,192,246404,1,0,0:0:0:0:
320,192,246472,1,0,0:0:0:0:
64,192,246472,128,0,246539:0:0:0:0:
192,192,246539,1,0,0:0:0:0:
448,192,246607,1,0,0:0:0:0:
64,192,246674,1,0,0:0:0:0:
320,192,246742,1,0,0:0:0:0:
192,192,246742,128,0,246809:0:0:0:0:
448,192,246809,1,0,0:0:0:0:
64,192,246877,1,0,0:0:0:0:
192,192,246944,1,0,0:0:0:0:
448,192,247012,1,0,0:0:0:0:
320,192,247012,128,0,247079:0:0:0:0:
64,192,247079,1,0,0:0:0:0:
448,192,247147,1,0,0:0:0:0:
320,192,247214,1,0,0:0:0:0:
64,192,247282,1,0,0:0:0:0:
192,192,247282,128,0,247349:0:0:0:0:
448,192,247349,1,0,0:0:0:0:
64,192,247417,1,0,0:0:0:0:
448,192,247484,1,0,0:0:0:0:
192,192,247552,1,0,0:0:0:0:
64,192,247552,128,0,247619:0:0:0:0:
320,192,247619,1,0,0:0:0:0:
448,192,247687,1,0,0:0:0:0:
64,192,247754,1,0,0:0:0:0:
192,192,247822,1,0,0:0:0:0:
320,192,247822,128,0,247889:0:0:0:0:
448,192,247889,1,0,0:0:0:0:
64,192,247957,1,0,0:0:0:0:
192,192,248024,1,0,0:0:0:0:
320,192,248092,1,0,0:0:0:0:
448,192,248092,128,0,248159:0:0:0:0:
192,192,248159,1,0,0:0:0:0:
320,192,248227,1,0,0:0:0:0:
64,192,248294,1,0,0:0:0:0:
448,192,248362,1,0,0:0:0:0:
192,192,248362,1,0,0:0:0:0:
320,192,248429,1,0,0:0:0:0:
64,192,248497,1,0,0:0:0:0:
192,192,248564,1,0,0:0:0:0:
320,192,248632,1,0,0:0:0:0:
448,192,248632,1,0,0:0:0:0:
64,192,248699,1,0,0:0:0:0:
320,192,248767,1,0,0:0:0:0:
192,192,248834,1,0,0:0:0:0:
64,192,248902,1,0,0:0:0:0:
448,192,248902,1,0,0:0:0:0:
320,192,248969,1,0,0:0:0:0:
192,192,249037,1,0,0:0:0:0:
448,192,249104,1,0,0:0:0:0:
64,192,249172,1,0,0:0:0:0:
320,192,249172,1,0,0:0:0:0:
192,192,249239,1,0,0:0:0:0:
448,192,249307,1,0,0:0:0:0:
64,192,249374,1,0,0:0:0:0:
192,192,249442,1,0,0:0:0:0:
320,192,249442,1,0,0:0:0:0:
448,192,249509,1,0,0:0:0:0:
192,192,249577,1,0,0:0:0:0:
320,192,249644,1,0,0:0:0:0:
64,192,249712,1,0,0:0:0:0:
448,192,249712,1,0,0:0:0:0:
192,192,249779,1,0,0:0:0:0:
320,192,249847,1,0,0:0:0:0:
64,192,249914,1,0,0:0:0:0:
320,192,249982,1,0,0:0:0:0:
448,192,249982,1,0,0:0:0:0:
192,192,250049,1,0,0:0:0:0:
448,192,250117,1,0,0:0:0:0:
64,192,250184,1,0,0:0:0:0:
320,192,250252,1,0,0:0:0:0:
192,192,250252,1,0,0:0:0:0:
448,192,250319,1,0,0:0:0:0:
192,192,250387,1,0,0:0:0:0:
320,192,250454,1,0,0:0:0:0:
64,192,250522,1,0,0:0:0:0:
448,192,250522,1,0,0:0:0:0:
192,192,250657,1,0,0:0:0:0:
448,192,250792,1,0,0:0:0:0:
320,192,250792,1,0,0:0:0:0:
320,192,250927,1,0,0:0:0:0:
192,192,251062,1,0,0:0:0:0:
448,192,251197,1,0,0:0:0:0:
64,192,251197,1,0,0:0:0:0:
320,192,251332,1,0,0:0:0:0:
192,192,251332,1,0,0:0:0:0:
192,192,251467,1,0,0:0:0:0:
320,192,251602,1,0,0:0:0:0:
448,192,251602,1,0,0:0:0:0:
64,192,251602,1,0,0:0:0:0:
192,192,251737,1,0,0:0:0:0:
320,192,251804,1,0,0:0:0:0:
64,192,251872,1,0,0:0:0:0:
448,192,251872,1,0,0:0:0:0:
192,192,251872,1,0,0:0:0:0:
320,192,252007,1,0,0:0:0:0:
192,192,252074,1,0,0:0:0:0:
64,192,252142,1,0,0:0:0:0:
320,192,252142,1,0,0:0:0:0:
448,192,252142,1,0,0:0:0:0:
192,192,252277,1,0,0:0:0:0:
320,192,252345,1,0,0:0:0:0:
192,192,252412,1,0,0:0:0:0:
64,192,252412,1,0,0:0:0:0:
448,192,252480,1,0,0:0:0:0:
320,192,252547,1,0,0:0:0:0:
192,192,252615,1,0,0:0:0:0:
448,192,252682,1,0,0:0:0:0:
64,192,252682,1,0,0:0:0:0:
320,192,252682,1,0,0:0:0:0:
64,192,252817,1,0,0:0:0:0:
192,192,252817,1,0,0:0:0:0:
320,192,252952,1,0,0:0:0:0:
448,192,252952,1,0,0:0:0:0:
64,192,253087,1,0,0:0:0:0:
448,192,253087,1,0,0:0:0:0:
192,192,253222,1,0,0:0:0:0:
320,192,253222,1,0,0:0:0:0:
64,192,253222,1,0,0:0:0:0:
320,192,253357,1,0,0:0:0:0:
448,192,253357,1,0,0:0:0:0:
64,192,253492,1,0,0:0:0:0:
192,192,253492,1,0,0:0:0:0:
64,192,253627,1,0,0:0:0:0:
448,192,253627,1,0,0:0:0:0:
320,192,253762,1,0,0:0:0:0:
448,192,253762,1,0,0:0:0:0:
192,192,253830,1,0,0:0:0:0:
64,192,253897,1,0,0:0:0:0:
448,192,253965,1,0,0:0:0:0:
192,192,254032,1,0,0:0:0:0:
320,192,254032,1,0,0:0:0:0:
64,192,254100,1,0,0:0:0:0:
448,192,254167,1,0,0:0:0:0:
320,192,254235,1,0,0:0:0:0:
64,192,254302,1,0,0:0:0:0:
192,192,254302,1,0,0:0:0:0:
448,192,254370,1,0,0:0:0:0:
64,192,254437,1,0,0:0:0:0:
192,192,254505,1,0,0:0:0:0:
448,192,254572,1,0,0:0:0:0:
320,192,254572,1,0,0:0:0:0:
64,192,254640,1,0,0:0:0:0:
192,192,254707,1,0,0:0:0:0:
320,192,254775,1,0,0:0:0:0:
64,192,254842,1,0,0:0:0:0:
448,192,254842,1,0,0:0:0:0:
192,192,254910,1,0,0:0:0:0:
320,192,254977,1,0,0:0:0:0:
64,192,255045,1,0,0:0:0:0:
448,192,255112,1,0,0:0:0:0:
192,192,255112,1,0,0:0:0:0:
320,192,255180,1,0,0:0:0:0:
64,192,255247,1,0,0:0:0:0:
448,192,255315,1,0,0:0:0:0:
320,192,255382,1,0,0:0:0:0:
192,192,255382,1,0,0:0:0:0:
64,192,255450,1,0,0:0:0:0:
448,192,255517,1,0,0:0:0:0:
320,192,255585,1,0,0:0:0:0:
64,192,255652,1,0,0:0:0:0:
192,192,255652,1,0,0:0:0:0:
448,192,255720,1,0,0:0:0:0:
192,192,255787,1,0,0:0:0:0:
320,192,255855,1,0,0:0:0:0:
64,192,255922,1,0,0:0:0:0:
448,192,255922,1,0,0:0:0:0:
192,192,255990,1,0,0:0:0:0:
448,192,256057,1,0,0:0:0:0:
320,192,256057,1,0,0:0:0:0:
64,192,256125,1,0,0:0:0:0:
320,192,256192,1,0,0:0:0:0:
192,192,256192,1,0,0:0:0:0:
448,192,256260,1,0,0:0:0:0:
192,192,256327,1,0,0:0:0:0:
64,192,256327,1,0,0:0:0:0:
320,192,256395,1,0,0:0:0:0:
448,192,256462,1,0,0:0:0:0:
64,192,256462,1,0,0:0:0:0:
192,192,256530,1,0,0:0:0:0:
448,192,256597,1,0,0:0:0:0:
320,192,256597,1,0,0:0:0:0:
192,192,256665,1,0,0:0:0:0:
64,192,256732,1,0,0:0:0:0:
448,192,256732,1,0,0:0:0:0:
320,192,256800,1,0,0:0:0:0:
192,192,256867,1,0,0:0:0:0:
64,192,256867,1,0,0:0:0:0:
320,192,256935,1,0,0:0:0:0:
64,192,257002,128,0,261322:0:0:0:0:
448,192,257002,128,0,261322:0:0:0:0:
