osu file format v14

[General]
AudioFilename: Freedom Dive.mp3
AudioLeadIn: 0
PreviewTime: 218135
Countdown: 0
SampleSet: Normal
StackLeniency: 0.7
Mode: 0
LetterboxInBreaks: 1
WidescreenStoryboard: 0

[Editor]
Bookmarks: 101493
DistanceSpacing: 0.9
BeatDivisor: 4
GridSize: 4
TimelineZoom: 1.6

[Metadata]
Title:FREEDOM DiVE
TitleUnicode:FREEDOM DiVE↓
Artist:xi
ArtistUnicode:xi
Creator:Pikastar
Version:Moon
Source:BMS
Tags:Cytus chapter X 10 parousia happy hardcore
BeatmapID:428275
BeatmapSetID:147210

[Difficulty]
HPDrainRate:3
CircleSize:4
OverallDifficulty:5
ApproachRate:5
SliderMultiplier:0.8
SliderTickRate:1

[Events]
//Background and Video events
0,0,"FREEDOM_DIVE.jpg",0,0
//Break Periods
2,82253,89493
2,147054,160774
2,201054,208295
//Storyboard Layer 0 (Background)
//Storyboard Layer 1 (Fail)
//Storyboard Layer 2 (Pass)
//Storyboard Layer 3 (Foreground)
//Storyboard Sound Samples

[TimingPoints]
2133,270.002700027,4,2,3,55,1,0
10773,-100,4,2,2,55,0,0
36693,-100,4,2,1,60,0,0
45333,-100,4,1,1,60,0,0
64773,-100,4,1,1,60,0,1
82053,-100,4,1,1,60,0,0
107974,-100,4,1,1,60,0,1
142534,-100,4,1,1,60,0,0
164134,-100,4,2,3,60,0,0
196534,-100,4,1,1,60,0,0
218135,-100,4,1,1,60,0,1
252695,-100,4,1,1,60,0,0

[Colours]
Combo1 : 255,192,0
Combo2 : 0,202,0
Combo3 : 18,124,255
Combo4 : 242,24,57

[HitObjects]
56,296,2133,6,2,P|144:320|200:280,1,160,6|2,0:0|0:0,0:0:0:0:
268,272,2943,1,0,0:0:0:0:
304,208,3213,2,2,P|372:172|452:212,1,160,0|2,0:0|0:0,0:0:0:0:
432,60,4293,6,2,P|344:64|264:100,1,160,6|2,0:0|0:0,0:0:0:0:
208,72,5103,1,0,0:0:0:0:
136,56,5373,2,2,P|72:92|68:188,1,160,0|2,0:0|0:0,0:0:0:0:
204,192,6453,6,2,P|244:236|344:240,1,160,6|2,0:0|0:0,0:0:0:0:
400,280,7263,1,0,0:0:0:0:
400,208,7533,2,0,P|436:144|420:56,1,160,0|2,0:0|0:0,0:0:0:0:
280,44,8613,5,4,0:0:0:0:
136,32,9153,1,4,0:0:0:0:
196,164,9693,1,4,0:0:0:0:
108,280,10233,1,4,0:0:0:0:
244,328,10773,6,0,P|256:288|288:264,2,80,2|10|2,0:0|0:0|0:0,0:0:0:0:
316,332,11583,1,10,0:0:0:0:
388,332,11853,2,0,L|428:168,1,160,2|8,0:0|0:0,0:0:0:0:
332,64,12933,6,0,P|296:44|248:36,2,80,2|8|2,0:0|0:0|0:0,0:0:0:0:
340,136,13743,1,8,0:0:0:0:
292,192,14013,2,0,B|292:272|292:272|228:324,1,160,2|8,0:0|0:0,0:0:0:0:
80,324,15093,5,2,0:0:0:0:
48,260,15363,2,0,P|44:204|56:172,1,80,10|2,0:0|0:0,0:0:0:0:
76,116,15903,2,0,L|104:32,1,80,10|0,0:0|0:0,0:0:0:0:
168,64,16443,2,0,P|232:52|332:84,1,160,10|10,0:0|0:0,0:0:0:0:
388,108,17253,6,0,P|432:88|452:52,2,80,2|8|2,0:0|0:0|0:0,0:0:0:0:
328,152,18063,1,10,0:0:0:0:
308,220,18333,2,0,L|308:304,1,80,2|8,0:0|0:0,0:0:0:0:
236,328,18873,1,10,0:0:0:0:
236,328,19143,1,10,0:0:0:0:
164,336,19413,6,0,P|128:320|104:268,1,80,2|10,0:0|0:0,0:0:0:0:
48,248,19953,2,0,P|80:220|128:220,1,80,2|10,0:0|0:0,0:0:0:0:
184,192,20493,2,0,P|160:160|120:144,1,80,2|10,0:0|0:0,0:0:0:0:
56,124,21033,1,2,0:0:0:0:
56,124,21303,1,10,0:0:0:0:
48,52,21573,6,0,P|88:36|128:32,1,80,2|10,0:0|0:0,0:0:0:0:
188,84,22113,1,2,0:0:0:0:
268,76,22383,1,10,0:0:0:0:
340,68,22653,2,0,P|380:56|428:76,1,80,2|10,0:0|0:0,0:0:0:0:
380,128,23193,2,0,L|380:224,1,80,10|10,0:0|0:0,0:0:0:0:
376,280,23733,6,0,P|312:320|224:296,1,160,2|10,0:0|0:0,0:0:0:0:
160,292,24543,1,2,0:0:0:0:
104,244,24813,2,0,P|84:204|84:160,1,80,2|10,0:0|0:0,0:0:0:0:
100,100,25353,2,0,P|132:68|176:56,1,80,2|10,0:0|0:0,0:0:0:0:
256,192,25893,12,4,28053,0:1:0:0:
256,192,29133,5,2,0:0:0:0:
256,192,30213,2,2,P|248:240|152:280,1,160
140,136,31293,5,2,0:0:0:0:
252,44,31833,1,2,0:0:0:0:
376,112,32373,6,2,P|404:180|384:276,1,160
328,300,33183,1,2,0:0:0:0:
256,288,33453,2,2,P|176:284|108:332,1,160
108,184,34533,5,2,0:0:0:0:
256,192,35073,1,0,0:0:0:0:
404,184,35613,1,2,0:0:0:0:
256,64,36693,5,6,0:0:0:0:
464,264,37773,2,2,P|408:332|328:328,1,160
196,336,38853,6,2,P|118:329|73:266,1,160,6|2,0:0|0:0,0:0:0:0:
40,128,39933,1,2,0:0:0:0:
180,88,40473,1,2,0:0:0:0:
216,228,41013,5,6,0:0:0:0:
328,132,42093,1,6,0:0:0:0:
348,280,42633,1,6,0:0:0:0:
216,228,43173,5,6,0:0:0:0:
84,172,43713,1,6,0:0:0:0:
192,80,44253,2,2,P|244:64|284:72,2,80,6|2|2,0:0|0:0|0:0,0:0:0:0:
152,140,45063,1,2,0:0:0:0:
144,212,45333,6,0,P|152:264|176:292,1,80
224,332,45873,2,0,P|268:340|312:320,1,80
368,300,46413,2,0,P|404:320|448:312,2,80
312,252,47223,1,0,0:0:0:0:
380,228,47493,6,0,P|408:200|368:92,1,160,4|8,0:0|0:0,0:0:0:0:
312,64,48303,1,0,0:0:0:0:
240,52,48573,2,0,P|164:72|76:44,1,160,0|8,0:0|0:0,0:0:0:0:
52,112,49383,1,0,0:0:0:0:
88,172,49653,6,0,P|48:192|32:224,2,80,0|0|8,0:0|0:0|0:0,0:0:0:0:
148,216,50463,1,0,0:0:0:0:
200,268,50733,2,8,P|237:288|284:276,2,80,0|0|8,0:0|0:0|0:0,0:0:0:0:
248,216,51543,1,0,0:0:0:0:
320,200,51813,6,0,B|352:176|384:184|384:184|428:144|392:96,1,160,0|8,0:0|0:0,0:0:0:0:
348,48,52623,1,0,0:0:0:0:
280,80,52893,2,0,P|268:52|224:16,2,80,0|0|8,0:0|0:0|0:0,0:0:0:0:
228,132,53703,1,0,0:0:0:0:
156,132,53973,6,0,P|104:168|96:272,1,160,0|8,0:0|0:0,0:0:0:0:
148,300,54783,1,0,0:0:0:0:
208,336,55053,2,0,L|296:336,1,80
360,336,55593,2,0,L|452:336,1,80,8|0,0:0|0:0,0:0:0:0:
440,264,56133,6,0,P|424:184|440:104,1,160,4|8,0:0|0:0,0:0:0:0:
380,64,56943,1,0,0:0:0:0:
312,40,57213,2,0,P|272:32|224:48,1,80
164,56,57753,1,8,0:0:0:0:
148,200,58293,6,0,P|108:201|74:183,2,80,0|0|8,0:0|0:0|0:0,0:0:0:0:
208,160,59103,1,0,0:0:0:0:
276,136,59373,2,0,P|324:152|396:240,1,160,0|8,0:0|0:0,0:0:0:0:
420,300,60183,1,0,0:0:0:0:
348,296,60453,6,0,P|276:340|192:332,1,160,0|8,0:0|0:0,0:0:0:0:
132,344,61263,1,0,0:0:0:0:
80,296,61533,2,0,P|56:260|52:216,1,80
76,156,62073,1,8,0:0:0:0:
180,64,62613,6,0,P|219:56|258:64,1,80
336,56,63153,1,8,0:0:0:0:
412,76,63423,1,0,0:0:0:0:
356,132,63693,2,0,P|320:176|316:208,1,80
320,268,64233,2,0,L|340:320,2,40,8|0|0,0:0|0:0|0:0,0:0:0:0:
248,260,64773,6,0,P|208:200|116:188,1,160,4|8,0:0|0:0,0:0:0:0:
64,152,65583,1,0,0:0:0:0:
124,108,65853,2,0,P|124:68|152:28,2,80,0|0|8,0:0|0:0|0:0,0:0:0:0:
264,76,66933,6,0,P|316:40|400:84,1,160,0|8,0:0|0:0,0:0:0:0:
464,108,67743,1,0,0:0:0:0:
408,152,68013,2,0,P|408:184|432:232,1,80
448,296,68553,1,8,0:0:0:0:
376,280,68823,2,0,L|324:264,1,40
304,260,69093,6,0,P|232:288|168:232,1,160,4|8,0:0|0:0,0:0:0:0:
136,180,69903,1,0,0:0:0:0:
66,151,70173,2,0,P|90:119|128:104,1,80
196,132,70713,2,0,P|244:124|268:96,1,80,8|0,0:0|0:0,0:0:0:0:
320,56,71253,5,4,0:0:0:0:
392,40,71523,1,0,0:0:0:0:
436,96,71793,2,0,P|440:140|420:184,1,80,8|0,0:0|0:0,0:0:0:0:
388,232,72333,2,0,P|412:264|420:312,1,80
348,324,72873,1,8,0:0:0:0:
276,304,73143,6,0,L|276:248,2,40,0|0|4,0:0|0:0|0:0,0:0:0:0:
208,336,73683,1,0,0:0:0:0:
140,312,73953,2,0,P|104:292|88:256,1,80,8|0,0:0|0:0,0:0:0:0:
76,184,74493,2,0,P|108:116|188:80,1,160,0|8,0:0|0:0,0:0:0:0:
248,48,75303,1,0,0:0:0:0:
316,68,75573,6,0,P|352:100|348:212,1,160,4|8,0:0|0:0,0:0:0:0:
320,272,76383,1,0,0:0:0:0:
280,208,76653,2,0,P|236:204|196:220,1,80
160,272,77193,2,0,P|191:299|236:304,1,80,8|0,0:0|0:0,0:0:0:0:
292,340,77733,6,0,P|376:320|392:252,1,160,4|8,0:0|0:0,0:0:0:0:
456,208,78543,1,0,0:0:0:0:
384,176,78813,2,0,L|352:92,1,80,4|0,0:0|0:0,0:0:0:0:
304,48,79353,2,0,L|220:84,1,80,8|0,0:0|0:0,0:0:0:0:
168,116,79893,6,0,P|128:184|160:260,1,160,4|8,0:0|0:0,0:0:0:0:
212,296,80703,1,0,0:0:0:0:
284,280,80973,2,0,P|304:252|312:204,2,80,4|0|8,0:0|0:0|0:0,0:0:0:0:
212,296,81783,1,0,0:0:0:0:
148,332,82053,5,4,0:0:0:0:
256,192,90693,5,4,0:0:0:0:
256,192,92853,5,4,0:0:0:0:
256,192,95013,5,4,0:0:0:0:
256,92,96093,5,4,0:0:0:0:
400,92,96633,1,4,0:0:0:0:
416,236,97173,2,0,P|388:280|360:296,1,80,4|0,0:0|0:0,0:0:0:0:
292,292,97713,2,0,P|259:268|240:233,1,80,4|0,0:0|0:0,0:0:0:0:
168,232,98253,6,0,P|128:200|104:92,1,160,4|0,0:0|0:0,0:0:0:0:
228,28,99333,2,0,P|268:60|292:168,1,160
260,308,100413,6,0,P|344:332|400:272,1,160
448,156,101493,2,0,P|364:132|308:192,1,160
168,172,102574,6,0,P|140:104|64:64,1,160,4|0,0:0|0:0,0:0:0:0:
48,208,103654,2,0,P|76:276|152:316,1,160,4|0,0:0|0:0,0:0:0:0:
280,252,104734,6,0,P|324:296|424:316,1,160,4|0,0:0|0:0,0:0:0:0:
396,176,105814,2,0,P|432:180|476:156,2,80,4|0|0,0:0|0:0|0:0,0:0:0:0:
420,108,106624,1,0,0:0:0:0:
368,60,106894,6,0,P|252:28|152:92,1,240,4|0,0:0|0:0,0:0:0:0:
112,144,107974,6,0,P|88:212|132:296,1,160,4|8,0:0|0:0,0:0:0:0:
188,324,108784,1,0,0:0:0:0:
256,304,109054,2,0,P|288:288|308:236,2,80,0|0|8,0:0|0:0|0:0,0:0:0:0:
196,172,110134,6,0,P|252:132|352:136,1,160,0|8,0:0|0:0,0:0:0:0:
384,188,110944,1,0,0:0:0:0:
440,140,111214,2,0,P|440:108|416:60,2,80,0|0|8,0:0|0:0|0:0,0:0:0:0:
448,212,112024,2,0,L|452:268,1,40
448,288,112294,6,0,P|380:324|292:288,1,160,4|8,0:0|0:0,0:0:0:0:
236,276,113104,1,0,0:0:0:0:
164,288,113374,2,0,P|132:280|100:232,1,80
100,172,113914,2,0,P|104:132|136:92,1,80,8|0,0:0|0:0,0:0:0:0:
180,52,114454,6,0,P|228:36|264:40,2,80,4|0|8,0:0|0:0|0:0,0:0:0:0:
200,120,115264,1,0,0:0:0:0:
252,168,115534,2,0,L|252:248,2,80,4|0|8,0:0|0:0|0:0,0:0:0:0:
304,120,116344,6,0,L|304:64,2,40,0|0|4,0:0|0:0|0:0,0:0:0:0:
372,140,116884,1,0,0:0:0:0:
408,204,117154,2,0,P|404:272|396:288,1,80,8|0,0:0|0:0,0:0:0:0:
348,332,117694,2,0,P|260:332|200:276,1,160,0|8,0:0|0:0,0:0:0:0:
180,220,118504,1,0,0:0:0:0:
136,280,118774,6,0,P|104:208|160:148,1,160,4|8,0:0|0:0,0:0:0:0:
184,88,119584,1,0,0:0:0:0:
252,108,119854,2,0,P|280:96|304:48,1,80
372,36,120394,2,0,P|380:76|368:128,1,80,8|0,0:0|0:0,0:0:0:0:
344,180,120934,6,0,P|268:216|248:296,1,160,4|8,0:0|0:0,0:0:0:0:
288,340,121744,1,0,0:0:0:0:
352,312,122014,2,0,P|376:284|384:236,1,80,4|0,0:0|0:0,0:0:0:0:
344,180,122554,2,0,L|300:96,1,80,12|0,0:0|0:0,0:0:0:0:
240,84,123094,6,0,P|172:44|96:76,1,160,4|8,0:0|0:0,0:0:0:0:
56,128,123904,1,0,0:0:0:0:
68,200,124174,2,0,P|56:240|64:288,2,80,4|0|8,0:0|0:0|0:0,0:0:0:0:
124,156,124984,2,0,L|176:144,2,40,0|0|4,0:0|0:0|0:0,0:0:0:0:
136,228,125524,5,0,0:0:0:0:
200,260,125794,1,8,0:0:0:0:
268,288,126064,1,0,0:0:0:0:
340,280,126334,2,0,P|352:320|392:348,2,80,0|0|8,0:0|0:0|0:0,0:0:0:0:
440,176,127414,6,0,P|384:136|292:136,1,160,4|8,0:0|0:0,0:0:0:0:
232,168,128224,1,0,0:0:0:0:
164,148,128494,6,0,P|128:144|72:156,1,80
28,196,129034,1,8,0:0:0:0:
80,244,129304,2,0,L|120:280,1,40
136,296,129574,6,0,P|200:336|288:316,1,160,4|8,0:0|0:0,0:0:0:0:
348,296,130384,1,0,0:0:0:0:
416,276,130654,2,0,P|424:232|416:196,1,80
424,128,131194,2,0,P|376:136|352:164,1,80,8|0,0:0|0:0,0:0:0:0:
300,204,131734,5,4,0:0:0:0:
232,224,132004,1,0,0:0:0:0:
160,212,132274,2,0,P|116:200|92:160,1,80,8|0,0:0|0:0,0:0:0:0:
108,104,132814,2,0,P|80:72|32:68,2,80,4|0|8,0:0|0:0|0:0,0:0:0:0:
176,84,133624,2,0,L|220:60,1,40
244,48,133894,6,0,P|324:52|400:100,1,160,4|8,0:0|0:0,0:0:0:0:
436,148,134704,1,0,0:0:0:0:
432,220,134974,2,0,P|428:284|352:352,1,160,0|8,0:0|0:0,0:0:0:0:
300,312,135784,1,0,0:0:0:0:
236,344,136054,6,0,P|188:283|200:206,1,160,4|8,0:0|0:0,0:0:0:0:
236,144,136864,1,0,0:0:0:0:
164,140,137134,2,0,P|136:128|112:80,1,80
164,36,137674,2,0,P|204:28|256:40,1,80,8|0,0:0|0:0,0:0:0:0:
316,36,138214,6,0,P|400:56|424:124,1,160,4|8,0:0|0:0,0:0:0:0:
464,180,139024,1,0,0:0:0:0:
444,248,139294,2,0,P|431:293|400:320,1,80
340,336,139834,2,0,L|252:308,1,80,8|0,0:0|0:0,0:0:0:0:
200,280,140374,6,0,P|160:212|192:136,1,160,4|8,0:0|0:0,0:0:0:0:
252,108,141184,1,0,0:0:0:0:
316,140,141454,2,0,P|336:168|344:216,2,80,0|0|8,0:0|0:0|0:0,0:0:0:0:
252,108,142264,1,0,0:0:0:0:
200,56,142534,6,0,P|112:64|68:128,1,160,4|0,0:0|0:0,0:0:0:0:
70,267,143614,2,0,P|122:325|200:328,1,160,4|0,0:0|0:0,0:0:0:0:
344,328,144694,6,0,P|421:325|473:267,1,160,4|0,0:0|0:0,0:0:0:0:
472,116,145774,2,0,P|420:58|343:55,1,160,4|0,0:0|0:0,0:0:0:0:
276,100,146584,1,0,0:0:0:0:
200,80,146854,5,4,0:0:0:0:
256,192,161974,12,4,164134,0:0:0:0:
144,224,165214,6,2,P|208:260|292:240,1,160
364,228,166024,1,2,0:0:0:0:
396,160,166294,6,2,P|436:120|444:84,2,80
368,92,167104,2,2,P|288:64|204:88,1,160
152,48,167914,2,2,P|120:84|112:124,1,80
120,184,168454,6,2,P|80:232|64:300,2,120
188,208,169534,2,2,P|228:216|260:248,1,80
316,280,170074,1,2,0:0:0:0:
384,256,170344,2,2,L|416:216,1,40
432,196,170614,6,2,P|440:156|416:108,1,80
368,76,171154,2,2,P|268:40|188:44,2,180
380,184,172774,6,2,P|320:208|256:280,1,160
188,300,173584,2,2,L|100:320,1,80
68,260,174124,2,2,P|68:200|128:116,1,160
192,108,174934,6,2,P|252:84|360:84,1,160
416,100,175744,2,2,L|460:112,1,40
436,216,176284,2,2,P|440:288|396:368,1,160
328,348,177094,6,2,P|276:340|204:360,2,120
276,252,178309,2,2,P|212:264|160:288,1,120
108,332,178984,1,2,0:0:0:0:
64,276,179254,6,2,L|64:184,1,80
64,124,179794,2,2,L|64:32,1,80
136,44,180334,2,2,P|176:76|212:80,1,80
276,80,180874,6,2,L|360:72,2,80
416,120,181954,1,0,0:0:0:0:
460,260,182494,6,2,P|412:300|324:252,1,160
272,132,183574,2,2,P|220:116|148:136,2,120
256,204,184654,6,2,P|236:260|308:332,1,160
440,320,185734,1,2,0:0:0:0:
396,184,186274,6,2,P|436:136|444:72,2,120
328,204,187354,2,2,P|284:208|248:176,1,80
220,128,187894,6,2,P|188:112|136:104,1,80
80,72,188434,2,2,P|52:112|48:160,1,80
68,212,188974,2,2,P|100:292|252:308,1,240
312,328,190054,6,2,P|368:328|444:252,1,160,6|2,0:0|0:0,0:0:0:0:
452,188,190864,1,0,0:0:0:0:
416,124,191134,6,2,P|400:88|360:52,1,80
308,28,191674,1,2,0:0:0:0:
240,52,191944,2,2,P|196:48|116:128,1,160
76,184,192754,1,2,0:0:0:0:
88,256,193024,1,2,0:0:0:0:
144,304,193294,6,2,P|180:344|216:348,2,80
212,276,194104,1,0,0:0:0:0:
280,248,194374,6,2,P|336:248|384:292,2,120
212,276,195454,2,2,P|168:248|148:212,1,80
90,185,195994,2,2,P|117:157|156:152,1,80
224,132,196534,6,0,P|264:144|312:144,1,80,4|0,0:0|0:0,0:0:0:0:
364,108,197074,2,0,L|372:68,2,40
428,136,197614,2,0,L|464:116,2,40
416,208,198154,2,0,P|432:256|420:292,1,80
256,192,198694,12,4,200854,0:0:0:0:
256,192,209495,5,4,0:0:0:0:
372,192,210575,1,0,0:0:0:0:
140,192,211655,5,4,0:0:0:0:
256,84,212735,1,0,0:0:0:0:
256,300,213815,5,4,0:0:0:0:
256,192,214895,1,4,0:0:0:0:
400,192,215435,1,4,0:0:0:0:
348,324,215975,6,0,P|288:296|196:292,1,160,4|0,0:0|0:0,0:0:0:0:
124,312,216785,1,0,0:0:0:0:
80,252,217055,2,0,P|52:220|48:176,2,80,4|0|0,0:0|0:0|0:0,0:0:0:0:
120,192,217865,1,0,0:0:0:0:
192,176,218135,6,0,P|248:148|348:152,1,160,4|8,0:0|0:0,0:0:0:0:
396,204,218945,1,0,0:0:0:0:
332,240,219215,2,0,P|300:256|280:308,2,80,0|0|8,0:0|0:0|0:0,0:0:0:0:
192,280,220295,6,0,P|116:280|52:212,1,160,0|8,0:0|0:0,0:0:0:0:
48,152,221105,1,0,0:0:0:0:
64,80,221375,2,0,P|92:60|144:52,1,80
204,72,221915,1,8,0:0:0:0:
272,96,222185,2,0,L|324:88,1,40
348,84,222455,6,0,P|416:128|412:208,1,160,0|8,0:0|0:0,0:0:0:0:
380,264,223265,1,0,0:0:0:0:
336,324,223535,2,0,P|304:316|272:268,1,80
244,216,224075,2,0,P|196:224|172:252,1,80,8|0,0:0|0:0,0:0:0:0:
132,304,224615,5,4,0:0:0:0:
68,272,224885,1,0,0:0:0:0:
48,204,225155,2,0,P|36:156|52:120,1,80,8|0,0:0|0:0,0:0:0:0:
104,88,225695,2,0,P|132:56|180:52,2,80,4|0|8,0:0|0:0|0:0,0:0:0:0:
136,152,226505,1,0,0:0:0:0:
136,152,226775,6,0,P|184:152|216:136,1,80,4|0,0:0|0:0,0:0:0:0:
280,112,227315,1,8,0:0:0:0:
348,140,227585,1,0,0:0:0:0:
396,192,227855,2,0,P|392:256|316:324,1,160,0|8,0:0|0:0,0:0:0:0:
264,288,228665,1,0,0:0:0:0:
212,336,228935,6,0,P|128:308|112:232,1,160,4|8,0:0|0:0,0:0:0:0:
84,176,229745,1,0,0:0:0:0:
156,188,230015,2,0,P|184:176|208:128,1,80
168,72,230555,2,0,P|204:60|248:72,1,80,8|0,0:0|0:0,0:0:0:0:
312,96,231095,6,0,P|396:80|444:136,1,160,4|8,0:0|0:0,0:0:0:0:
416,196,231905,1,0,0:0:0:0:
448,260,232175,2,0,P|435:305|404:332,1,80
340,336,232715,2,0,L|252:308,1,80,8|0,0:0|0:0,0:0:0:0:
196,332,233255,6,0,P|120:304|88:232,1,160,4|8,0:0|0:0,0:0:0:0:
144,192,234065,1,0,0:0:0:0:
76,164,234335,2,0,P|48:136|48:88,2,80,0|0|8,0:0|0:0|0:0,0:0:0:0:
116,104,235145,1,0,0:0:0:0:
188,88,235415,6,0,P|260:104|344:56,1,160,4|8,0:0|0:0,0:0:0:0:
400,100,236225,1,0,0:0:0:0:
448,156,236495,2,0,P|444:244|392:292,1,160,0|8,0:0|0:0,0:0:0:0:
324,288,237305,1,0,0:0:0:0:
272,340,237575,6,0,P|196:340|132:272,1,160,4|8,0:0|0:0,0:0:0:0:
84,236,238385,1,0,0:0:0:0:
44,176,238655,2,0,P|48:136|72:92,1,80
128,64,239195,1,8,0:0:0:0:
192,96,239465,2,0,L|228:64,1,40
252,48,239735,6,0,P|328:44|404:96,1,160,4|8,0:0|0:0,0:0:0:0:
456,128,240545,1,0,0:0:0:0:
432,196,240815,2,0,P|452:236|444:284,1,80
380,248,241355,2,0,P|332:256|308:284,1,80,8|0,0:0|0:0,0:0:0:0:
248,316,241895,5,4,0:0:0:0:
184,280,242165,1,0,0:0:0:0:
116,308,242435,2,0,P|100:268|108:220,1,80,8|0,0:0|0:0,0:0:0:0:
96,160,242975,5,4,0:0:0:0:
68,92,243245,1,0,0:0:0:0:
136,64,243515,1,8,0:0:0:0:
168,128,243785,2,0,L|216:104,1,40
236,96,244055,6,0,L|320:56,1,80,4|0,0:0|0:0,0:0:0:0:
372,32,244595,1,8,0:0:0:0:
444,32,244865,1,0,0:0:0:0:
444,104,245135,2,0,P|440:168|364:236,1,160,0|8,0:0|0:0,0:0:0:0:
328,288,245945,1,0,0:0:0:0:
256,276,246215,6,0,P|208:268|168:292,1,80,4|0,0:0|0:0,0:0:0:0:
112,300,246755,1,8,0:0:0:0:
64,244,247025,1,0,0:0:0:0:
76,172,247295,2,0,P|104:160|128:112,1,80
92,56,247835,2,0,P|128:44|168:60,1,80,8|0,0:0|0:0,0:0:0:0:
200,120,248375,6,0,P|232:189|308:202,1,160,4|8,0:0|0:0,0:0:0:0:
368,160,249185,1,0,0:0:0:0:
416,216,249455,6,0,P|406:254|379:283,1,80
312,304,249995,2,0,L|235:328,1,80,8|0,0:0|0:0,0:0:0:0:
168,352,250535,6,0,P|128:284|160:208,1,160,4|8,0:0|0:0,0:0:0:0:
220,184,251345,1,0,0:0:0:0:
292,196,251615,2,0,P|312:224|320:272,2,80,8|0|0,0:0|0:0|0:0,0:0:0:0:
220,184,252425,1,0,0:0:0:0:
176,128,252695,6,0,P|133:113|92:120,1,80,4|0,0:0|0:0,0:0:0:0:
72,184,253235,2,0,L|40:276,1,80
76,324,253775,6,0,P|128:340|164:344,1,80,4|0,0:0|0:0,0:0:0:0:
224,348,254315,2,0,P|272:348|312:336,1,80
376,348,254855,6,0,P|400:304|408:268,1,80,4|0,0:0|0:0,0:0:0:0:
404,204,255395,2,0,P|392:160|372:120,1,80,4|0,0:0|0:0,0:0:0:0:
328,76,255935,6,0,P|284:56|248:48,1,80,4|0,0:0|0:0,0:0:0:0:
180,44,256475,2,0,P|132:48|96:72,1,80,4|0,0:0|0:0,0:0:0:0:
68,124,257015,5,4,0:0:0:0:
256,192,257150,12,4,261335,0:0:0:0:
