osu file format v14

[General]
AudioFilename: audio.mp3
AudioLeadIn: 0
PreviewTime: 164126
Countdown: 0
SampleSet: Soft
StackLeniency: 0.7
Mode: 0
LetterboxInBreaks: 0
WidescreenStoryboard: 0

[Editor]
Bookmarks: 28053,47493,64773,82053,98253,107974,125254,142534,146854,164134,200854,209495,218135,235415,244055,257015,261335
DistanceSpacing: 0.9
BeatDivisor: 4
GridSize: 32
TimelineZoom: 2.5

[Metadata]
Title:FREEDOM DiVE
TitleUnicode:FREEDOM DiVE↓
Artist:xi
ArtistUnicode:xi
Creator:FrenZ396
Version:Extreme
Source:Cytus
Tags:VOEZ muse dash SOUND VOLTEX IV HEAVENLY HAVEN 太鼓の達人 CHUNITHM parousia cytus II WACCA BMS Taiko no Tatsujin deathstreams RSI piano happy hardcore full version video game instrumental
BeatmapID:2271070
BeatmapSetID:1074758

[Difficulty]
HPDrainRate:5.5
CircleSize:4
OverallDifficulty:9.2
ApproachRate:9.6
SliderMultiplier:1.8
SliderTickRate:1

[Events]
//Background and Video events
0,0,"freedom dive 2x.jpg",0,0
//Break Periods
2,82253,89133
2,147054,160414
2,201054,207800
//Storyboard Layer 0 (Background)
//Storyboard Layer 1 (Fail)
//Storyboard Layer 2 (Pass)
//Storyboard Layer 3 (Foreground)
//Storyboard Layer 4 (Overlay)
//Storyboard Sound Samples

[TimingPoints]
2133,270.002700027,4,2,22,65,1,0
2133,-100,4,2,22,70,0,0
28053,-166.666666666667,4,2,22,50,0,0
32103,-125,4,2,22,70,0,0
32913,-166.666666666667,4,2,22,70,0,0
33453,-111.111111111111,4,2,22,70,0,0
33993,-133.333333333333,4,2,22,70,0,0
34533,-166.666666666667,4,2,22,70,0,0
35073,-222.222222222222,4,2,22,70,0,0
35613,-166.666666666667,4,2,22,70,0,0
36963,-133.333333333333,4,2,22,70,0,0
37233,-111.111111111111,4,2,22,70,0,0
37503,-95.2380952380952,4,2,22,70,0,0
38043,-133.333333333333,4,2,22,70,0,0
39123,-111.111111111111,4,2,22,70,0,0
39393,-95.2380952380952,4,2,22,70,0,0
40203,-111.111111111111,4,2,22,70,0,0
40473,-133.333333333333,4,2,22,70,0,0
40743,-166.666666666667,4,2,22,70,0,0
41013,-125,4,2,22,70,0,0
44253,-83.3333333333333,4,2,22,70,0,0
44455,-83.3333333333333,4,2,22,5,0,0
44523,-83.3333333333333,4,2,22,70,0,0
44725,-83.3333333333333,4,2,22,5,0,0
44793,-83.3333333333333,4,2,22,70,0,0
44995,-83.3333333333333,4,2,22,5,0,0
45063,-83.3333333333333,4,2,22,70,0,0
45333,-111.111111111111,4,2,22,70,0,0
47493,-100,4,2,22,65,0,0
64773,-83.3333333333333,4,2,22,85,0,1
82053,-83.3333333333333,4,2,22,70,0,0
90693,-133.333333333333,4,2,22,50,0,0
95013,-133.333333333333,4,2,22,65,0,0
98253,-100,4,2,22,50,0,0
102574,-100,4,2,22,60,0,0
103654,-100,4,2,22,67,0,0
104734,-100,4,2,22,74,0,0
105814,-100,4,2,22,81,0,0
106354,-100,4,2,22,88,0,0
106894,-100,4,2,22,95,0,0
107704,-100,4,2,22,85,0,0
107974,-76.9230769230769,4,2,22,70,0,1
140374,-125,4,2,22,70,0,1
142534,-76.9230769230769,4,2,22,70,0,1
146854,-76.9230769230769,4,2,22,70,0,0
163864,-83.3333333333333,4,2,22,70,0,0
164134,-100,4,2,22,70,0,0
165282,-66.6666666666667,4,2,22,70,0,0
165484,-71.4285714285714,4,2,22,70,0,0
165687,-76.9230769230769,4,2,22,70,0,0
165889,-83.3333333333333,4,2,22,70,0,0
166092,-90.9090909090909,4,2,22,70,0,0
166294,-83.3333333333333,4,2,22,70,0,0
170884,-71.4285714285714,4,2,22,70,0,0
171764,-71.4285714285714,4,2,22,70,0,0
171897,-71.4285714285714,4,2,22,5,0,0
171964,-76.9230769230769,4,2,22,70,0,0
172099,-76.9230769230769,4,2,22,5,0,0
172167,-83.3333333333333,4,2,22,70,0,0
172302,-83.3333333333333,4,2,22,5,0,0
172369,-90.9090909090909,4,2,22,70,0,0
172504,-90.9090909090909,4,2,22,5,0,0
172572,-100,4,2,22,70,0,0
172707,-100,4,2,22,5,0,0
172774,-83.3333333333333,4,2,22,70,0,0
186274,-90.9090909090909,4,2,22,70,0,0
186409,-90.9090909090909,4,2,22,5,0,0
186477,-83.3333333333333,4,2,22,70,0,0
186612,-83.3333333333333,4,2,22,5,0,0
186679,-76.9230769230769,4,2,22,70,0,0
186814,-76.9230769230769,4,2,22,5,0,0
186882,-71.4285714285714,4,2,22,70,0,0
187017,-71.4285714285714,4,2,22,5,0,0
187084,-66.6666666666667,4,2,22,70,0,0
187219,-66.6666666666667,4,2,22,5,0,0
187287,-62.5,4,2,22,70,0,0
187422,-62.5,4,2,22,5,0,0
187489,-62.5,4,2,22,70,0,0
187624,-83.3333333333333,4,2,22,70,0,0
196534,-83.3333333333333,4,2,22,75,0,0
197614,-83.3333333333333,4,2,22,80,0,0
198694,-83.3333333333333,4,2,22,85,0,0
199774,-83.3333333333333,4,2,22,90,0,0
209360,-100,4,2,22,75,0,0
215975,-100,4,2,22,80,0,0
217055,-66.6666666666667,4,2,22,80,0,0
218135,-71.4285714285714,4,2,22,85,0,1
235415,-66.6666666666667,4,2,22,90,0,1
240275,-66.6666666666667,4,2,22,100,0,1
244055,-71.4285714285714,4,2,22,90,0,1
252695,-90.9090909090909,4,2,22,60,0,1
253235,-90.9090909090909,4,2,22,65,0,1
253775,-80,4,2,22,70,0,1
254315,-80,4,2,22,75,0,1
254855,-71.4285714285714,4,2,22,80,0,1
255395,-71.4285714285714,4,2,22,85,0,1
255935,-64.5161290322581,4,2,22,90,0,1
256475,-64.5161290322581,4,2,22,95,0,1
257015,-64.5161290322581,4,2,22,100,0,1
257083,-64.5161290322581,4,2,22,60,0,0

[Colours]
Combo1 : 132,193,255
Combo2 : 192,238,100
Combo3 : 255,177,100
Combo4 : 252,225,143

[HitObjects]
81,361,2133,6,0,P|91:289|68:214,2,135,6|0|0,1:0|1:0|1:0,0:0:0:0:
122,154,2808,1,0,1:0:0:0:
33,155,2943,1,0,1:0:0:0:
0,73,3078,1,0,1:0:0:0:
77,16,3213,6,0,P|123:26|230:-11,2,135,0|0|0,1:0|1:0|1:0,0:0:0:0:
0,73,3753,1,0,1:0:0:0:
33,155,3888,1,0,1:0:0:0:
122,154,4023,1,0,1:0:0:0:
277,245,4293,6,0,L|265:387,2,135,6|0|0,1:0|1:0|1:0,0:0:0:0:
446,262,4968,1,0,1:0:0:0:
378,316,5103,1,0,1:0:0:0:
460,345,5238,1,0,1:0:0:0:
441,243,5373,2,0,P|459:180|516:133,2,135,0|0|0,1:0|1:0|1:0,0:0:0:0:
297,237,5913,1,0,1:0:0:0:
297,237,5980,1,0,1:0:0:0:
297,237,6048,2,0,L|288:175,1,45,0|0,1:0|1:0,0:0:0:0:
235,138,6183,1,0,1:0:0:0:
235,138,6250,1,0,1:0:0:0:
235,138,6318,2,0,L|244:76,1,45,0|0,1:0|1:0,0:0:0:0:
301,34,6453,6,0,L|448:25,2,135,6|0|0,1:0|1:0|1:0,0:0:0:0:
171,21,7128,1,0,1:0:0:0:
125,91,7263,1,0,1:0:0:0:
157,168,7398,1,0,1:0:0:0:
85,230,7533,2,0,P|94:295|62:367,2,135,0|0|0,1:0|1:0|1:0,0:0:0:0:
14,167,8073,1,0,1:0:0:0:
46,90,8208,1,0,1:0:0:0:
0,20,8343,1,0,1:0:0:0:
157,168,8613,6,0,L|308:157,2,135,6|0|0,1:0|1:0|1:0,0:0:0:0:
355,241,9153,2,0,L|396:162,1,90,6|0,1:0|1:0,0:0:0:0:
250,258,9423,2,0,L|297:333,1,90,0|0,1:0|1:0,0:0:0:0:
454,377,9693,2,0,P|485:366|501:351,3,45,6|0|0|0,1:0|1:0|1:0|1:0,0:0:0:0:
473,272,9963,2,0,P|478:239|473:218,3,45,6|0|0|0,1:0|1:0|1:0|1:0,0:0:0:0:
396,161,10233,1,14,1:2:0:0:
388,139,10300,1,8,1:2:0:0:
376,120,10368,1,8,1:2:0:0:
360,104,10435,1,8,1:2:0:0:
342,91,10503,1,14,1:2:0:0:
322,82,10570,1,8,1:2:0:0:
300,77,10638,1,8,1:2:0:0:
277,76,10705,1,8,1:2:0:0:
254,78,10773,6,0,P|182:71|138:30,1,135,14|0,1:2|0:0,0:0:0:0:
128,2,11043,2,0,P|84:7|38:39,1,90,10|0,0:0|0:0,0:0:0:0:
43,142,11313,2,0,P|69:177|120:201,1,90,0|0,1:0|0:0,0:0:0:0:
213,177,11583,1,10,0:0:0:0:
317,233,11718,1,0,0:0:0:0:
307,344,11853,6,0,L|127:328,1,180,0|10,1:0|0:0,0:0:0:0:
12,366,12258,1,0,0:0:0:0:
146,316,12393,2,0,L|291:330,1,135,0|0,1:0|0:0,0:0:0:0:
307,344,12663,1,10,0:0:0:0:
445,384,12798,1,0,1:0:0:0:
506,263,12933,6,0,P|507:200|453:142,1,135,6|0,1:0|0:0,0:0:0:0:
427,144,13203,2,0,L|324:150,1,90,10|0,0:0|0:0,0:0:0:0:
213,102,13473,2,0,L|219:-1,1,90,0|0,1:0|0:0,0:0:0:0:
361,37,13743,1,10,0:0:0:0:
331,165,13878,1,0,0:0:0:0:
194,106,14013,6,0,P|126:111|84:178,1,135,0|0,1:0|0:0,0:0:0:0:
61,171,14283,2,0,P|54:219|63:268,1,90,14|0,0:0|0:0,0:0:0:0:
284,373,14553,2,0,B|292:327|292:327|282:278,1,90,14|0,0:0|0:0,0:0:0:0:
272,251,14755,2,0,B|226:243|226:243|177:253,1,90,14|0,0:0|0:0,0:0:0:0:
161,277,14958,1,14,0:0:0:0:
407,370,15093,6,0,L|423:172,1,180,6|10,1:0|1:2,0:0:0:0:
478,75,15498,1,0,0:0:0:0:
370,22,15633,2,0,P|310:28|272:55,1,90,0|0,1:0|0:0,0:0:0:0:
250,161,15903,1,10,0:0:0:0:
83,56,16038,1,4,1:0:0:0:
8,230,16308,5,0,1:0:0:0:
27,225,16375,1,0,1:0:0:0:
46,214,16443,2,0,P|51:170|43:109,1,90,14|0,0:0|1:0,0:0:0:0:
0,0,16713,1,4,1:0:0:0:
200,60,16848,1,0,1:0:0:0:
181,65,16915,1,0,1:0:0:0:
162,76,16983,2,0,P|157:120|165:181,1,90,14|0,0:0|1:0,0:0:0:0:
204,292,17253,6,0,L|321:305,1,90,6|0,1:0|0:0,0:0:0:0:
73,354,17523,1,8,0:0:0:0:
8,230,17658,1,0,1:0:0:0:
27,225,17725,1,0,1:0:0:0:
46,214,17793,2,0,P|51:170|43:109,1,90,6|0,0:0|0:0,0:0:0:0:
0,0,18063,2,0,P|35:26|92:49,1,90,10|0,0:0|1:0,0:0:0:0:
200,60,18333,6,0,L|254:55,3,45,4|0|0|0,1:0|1:0|1:0|1:0,0:0:0:0:
327,7,18603,2,0,L|381:12,3,45,12|0|0|0,1:2|1:0|1:0|1:0,0:0:0:0:
476,23,18873,1,12,1:2:0:0:
460,39,18940,1,8,1:2:0:0:
449,58,19008,1,8,1:2:0:0:
442,79,19075,1,8,1:2:0:0:
440,102,19143,1,12,1:2:0:0:
443,124,19210,1,8,1:2:0:0:
450,145,19278,1,8,1:2:0:0:
463,164,19345,1,8,1:2:0:0:
479,180,19413,6,0,P|453:234|466:337,1,135,12|0,1:2|0:0,0:0:0:0:
473,349,19683,2,0,P|429:344|384:370,1,90,10|0,0:0|0:0,0:0:0:0:
264,344,19953,2,0,P|266:299|287:260,1,90,0|0,1:0|0:0,0:0:0:0:
321,155,20223,1,10,0:0:0:0:
205,111,20358,1,0,0:0:0:0:
100,179,20493,6,0,L|84:359,1,180,0|10,1:0|0:0,0:0:0:0:
0,252,20898,1,0,0:0:0:0:
109,272,21033,2,0,L|125:92,1,180,0|10,1:0|0:0,0:0:0:0:
28,20,21438,1,0,1:0:0:0:
100,179,21573,6,0,P|163:165|206:110,1,135,6|0,1:0|0:0,0:0:0:0:
222,77,21843,2,0,L|311:71,1,90,10|0,0:0|0:0,0:0:0:0:
404,224,22113,2,0,L|410:121,1,90,0|0,1:0|0:0,0:0:0:0:
460,22,22383,1,10,0:0:0:0:
328,80,22518,1,0,0:0:0:0:
496,114,22653,6,0,L|488:255,1,135,0|0,1:0|0:0,0:0:0:0:
480,285,22923,2,0,P|449:310|383:317,1,90,14|0,0:0|0:0,0:0:0:0:
273,376,23193,2,0,B|281:330|281:330|271:281,1,90,14|0,0:0|0:0,0:0:0:0:
261,254,23395,2,0,B|215:246|215:246|166:256,1,90,14|0,0:0|0:0,0:0:0:0:
150,280,23598,1,14,0:0:0:0:
30,369,23733,6,0,P|63:276|24:178,1,180,6|10,1:0|1:2,0:0:0:0:
2,90,24138,1,0,0:0:0:0:
120,112,24273,2,0,P|180:106|218:79,1,90,0|0,1:0|0:0,0:0:0:0:
300,15,24543,1,10,0:0:0:0:
336,184,24678,1,4,1:0:0:0:
135,28,24948,5,0,1:0:0:0:
135,28,25015,1,0,1:0:0:0:
135,28,25083,1,14,0:0:0:0:
287,30,25218,1,0,1:0:0:0:
316,175,25353,1,4,1:0:0:0:
297,185,25420,1,0,1:0:0:0:
279,196,25488,1,0,1:0:0:0:
259,207,25555,1,0,1:0:0:0:
240,220,25623,2,0,L|231:312,1,90,14|0,0:0|1:0,0:0:0:0:
338,376,25893,5,6,1:0:0:0:
419,259,26028,1,0,1:0:0:0:
504,377,26163,1,8,0:0:0:0:
354,303,26298,1,0,1:0:0:0:
354,303,26365,1,0,1:0:0:0:
354,303,26433,1,6,1:0:0:0:
495,237,26568,1,0,1:0:0:0:
338,167,26703,1,10,0:0:0:0:
488,110,26838,1,0,1:0:0:0:
287,30,26973,6,0,L|279:90,3,45,4|0|0|0,1:0|1:0|1:0|1:0,0:0:0:0:
195,123,27243,2,0,L|189:78,3,45,12|0|0|0,1:2|1:0|1:0|1:0,0:0:0:0:
106,25,27513,1,12,1:2:0:0:
78,25,27580,1,8,1:2:0:0:
52,35,27648,1,8,1:2:0:0:
32,55,27715,1,8,1:2:0:0:
20,80,27783,1,12,1:2:0:0:
39,99,27850,1,8,1:2:0:0:
51,125,27918,1,8,1:2:0:0:
51,153,27985,1,8,1:2:0:0:
41,179,28053,6,0,B|32:219|32:219|41:274,2,80.9999975280763,12|0|0,1:2|0:0|0:0,0:0:0:0:
202,227,28593,2,0,B|162:218|162:218|107:227,2,80.9999975280763,2|0|0,0:0|0:0|0:0,0:0:0:0:
161,379,29133,2,0,B|170:339|170:339|161:284,2,80.9999975280763,2|0|0,0:0|0:0|0:0,0:0:0:0:
0,335,29673,2,0,B|40:344|40:344|95:335,2,80.9999975280763,2|0|0,0:0|0:0|0:0,0:0:0:0:
122,224,30213,6,0,L|129:149,1,53.9999983520508,2|0,0:0|0:0,0:0:0:0:
110,141,30415,2,0,L|167:92,1,53.9999983520508,0|0,0:0|0:0,0:0:0:0:
161,79,30618,1,0,0:0:0:0:
256,155,30753,2,0,L|331:148,1,53.9999983520508,2|0,0:0|0:0,0:0:0:0:
339,167,30955,2,0,L|387:109,1,53.9999983520508,0|0,0:0|0:0,0:0:0:0:
401,116,31158,1,0,0:0:0:0:
447,24,31293,6,0,P|391:14|348:27,2,80.9999975280763,2|2|2,0:0|0:0|0:0,0:0:0:0:
512,104,31833,1,2,0:0:0:0:
507,177,31968,1,2,0:0:0:0:
410,206,32103,1,2,0:0:0:0:
421,283,32238,1,2,0:0:0:0:
500,364,32373,6,0,P|453:355|414:365,1,72,2|0,0:0|0:0,0:0:0:0:
401,371,32575,1,2,0:0:0:0:
401,371,32643,2,0,P|350:375|316:368,1,72,0|2,0:0|0:0,0:0:0:0:
231,289,32913,2,0,L|239:219,1,53.9999983520508,2|0,0:0|0:0,0:0:0:0:
97,231,33183,2,0,L|89:161,1,53.9999983520508,2|0,0:0|0:0,0:0:0:0:
215,223,33453,6,0,L|205:303,1,80.9999975280763,2|0,0:0|0:0,0:0:0:0:
72,241,33723,2,0,L|63:161,1,80.9999975280763,2|0,0:0|0:0,0:0:0:0:
204,303,33993,2,0,L|195:369,1,67.5000025749208,2|0,0:0|0:0,0:0:0:0:
79,308,34263,2,0,L|72:241,1,67.5000025749208,2|0,0:0|0:0,0:0:0:0:
168,155,34533,6,0,P|172:110|184:86,1,53.9999983520508,2|0,0:0|0:0,0:0:0:0:
75,74,34803,2,0,P|71:29|59:5,1,53.9999983520508,2|0,0:0|0:0,0:0:0:0:
274,163,35073,2,0,P|277:127|286:107,1,40.4999987640381,2|0,0:0|0:0,0:0:0:0:
196,85,35343,2,0,P|192:49|183:29,1,40.4999987640381,2|0,0:0|0:0,0:0:0:0:
329,25,35613,6,0,P|367:18|417:31,2,80.9999975280763,2|2|2,0:0|0:0|0:0,0:0:0:0:
482,64,36153,2,0,L|486:129,2,53.9999983520508,2|0|0,0:0|0:0|0:0,0:0:0:0:
393,142,36558,1,2,1:0:0:0:
393,142,36625,1,0,1:0:0:0:
393,142,36693,6,0,L|345:202,1,53.9999983520508,6|0,1:0|0:0,0:0:0:0:
442,302,36963,2,0,L|511:247,1,67.5000025749208,2|0,0:0|0:0,0:0:0:0:
279,215,37233,2,0,L|191:239,1,80.9999975280763,2|0,0:0|0:0,0:0:0:0:
273,363,37503,2,0,L|373:353,1,94.499997116089,2|0,0:0|0:0,0:0:0:0:
129,308,37773,5,2,0:0:0:0:
127,323,37863,1,2,0:0:0:0:
133,337,37953,1,2,0:0:0:0:
130,354,38043,2,0,L|47:345,1,67.5000025749208,2|0,0:0|0:0,0:0:0:0:
13,255,38313,2,0,P|23:194|6:149,2,101.250003862381,2|2|2,0:0|0:0|1:0,0:0:0:0:
132,194,38853,6,0,P|146:159|140:112,1,67.5000025749208,6|0,1:0|0:0,0:0:0:0:
12,54,39123,2,0,P|35:83|79:101,1,80.9999975280763,2|0,0:0|0:0,0:0:0:0:
202,6,39393,2,0,P|203:66|322:49,1,188.999994232178,2|0,0:0|0:0,0:0:0:0:
401,13,39798,1,0,0:0:0:0:
401,13,39865,1,0,0:0:0:0:
401,13,39933,6,0,L|499:56,1,94.499997116089,2|0,0:0|0:0,0:0:0:0:
475,130,40203,2,0,L|400:162,1,80.9999975280763,2|0,0:0|0:0,0:0:0:0:
411,242,40473,2,0,L|472:269,1,67.5000025749208,2|0,0:0|0:0,0:0:0:0:
472,347,40743,2,0,L|422:368,1,53.9999983520508,2|0,0:0|0:0,0:0:0:0:
288,374,41013,6,0,P|282:325|293:292,1,72,6|0,1:0|0:0,0:0:0:0:
303,273,41215,1,2,0:0:0:0:
303,273,41283,2,0,P|310:227|301:191,1,72,0|2,0:0|0:0,0:0:0:0:
232,112,41553,2,0,P|179:97|117:167,1,144,2|2,0:0|0:0,0:0:0:0:
143,279,41958,1,2,1:0:0:0:
143,279,42025,1,0,1:0:0:0:
143,279,42093,6,0,L|60:273,1,72,6|0,1:0|0:0,0:0:0:0:
233,207,42363,2,0,L|316:201,1,72,2|0,0:0|0:0,0:0:0:0:
150,359,42633,2,0,L|26:351,2,108,6|2|2,1:0|0:0|0:0,0:0:0:0:
295,342,43173,5,6,1:0:0:0:
310,332,43240,1,0,1:0:0:0:
326,325,43308,1,0,1:0:0:0:
344,322,43375,1,0,1:0:0:0:
362,322,43443,1,0,1:0:0:0:
380,326,43510,1,0,1:0:0:0:
396,332,43578,1,0,1:0:0:0:
411,342,43645,1,0,1:0:0:0:
426,357,43713,2,0,P|449:366|471:365,3,36,12|0|0|0,1:2|1:0|1:0|1:0,0:0:0:0:
477,278,43983,2,0,P|496:262|506:243,3,36,12|0|0|0,1:2|1:0|1:0|1:0,0:0:0:0:
443,178,44253,6,0,L|452:7,1,161.999995056153,8|0,1:2|0:0,0:0:0:0:
431,23,44523,2,0,L|422:184,1,161.999995056153,8|0,1:2|0:0,0:0:0:0:
403,190,44793,2,0,L|412:29,1,161.999995056153,8|0,1:2|0:0,0:0:0:0:
395,33,45063,2,0,L|386:194,1,161.999995056153,8|0,1:2|1:0,0:0:0:0:
296,248,45333,5,2,1:0:0:0:
186,263,45468,1,0,1:0:0:0:
111,164,45603,1,8,0:0:0:0:
287,100,45738,1,0,1:0:0:0:
287,100,45805,1,0,1:0:0:0:
287,100,45873,2,0,P|238:94|182:110,1,80.9999975280763,2|0,1:0|1:0,0:0:0:0:
105,244,46143,2,0,L|111:163,1,80.9999975280763,10|0,0:0|1:0,0:0:0:0:
11,7,46413,6,0,L|15:48,3,40.4999987640381,6|0|0|0,1:0|1:0|1:0|1:0,0:0:0:0:
129,77,46683,2,0,L|139:37,3,40.4999987640381,14|0|0|0,1:2|1:0|1:0|1:0,0:0:0:0:
26,192,46953,1,14,1:2:0:0:
10,217,47020,1,8,1:2:0:0:
4,247,47088,1,8,1:2:0:0:
7,277,47155,1,8,1:2:0:0:
20,304,47223,1,14,1:2:0:0:
42,326,47290,1,8,1:2:0:0:
69,339,47358,1,8,1:2:0:0:
99,343,47425,1,8,1:2:0:0:
128,337,47493,6,0,P|227:321|310:352,1,180,14|8,1:2|0:0,0:0:0:0:
426,381,47898,1,0,0:0:0:0:
413,201,48033,2,0,L|426:383,1,180,0|8,1:0|0:0,0:0:0:0:
226,210,48438,1,0,1:0:0:0:
226,210,48505,1,0,1:0:0:0:
226,210,48573,6,0,P|271:209|323:179,1,90,0|0,1:0|0:0,0:0:0:0:
221,32,48843,2,0,P|222:77|252:129,1,90,8|0,0:0|0:0,0:0:0:0:
407,23,49113,2,0,P|362:24|310:54,1,90,0|0,1:0|0:0,0:0:0:0:
413,201,49383,2,0,P|412:156|382:104,1,90,8|0,0:0|0:0,0:0:0:0:
213,22,49653,6,0,L|90:12,1,90,0|0,1:0|0:0,0:0:0:0:
8,148,49923,2,0,L|120:139,1,90,8|0,0:0|0:0,0:0:0:0:
233,222,50193,2,0,P|194:312|114:319,1,180,0|8,1:0|0:0,0:0:0:0:
8,148,50598,1,0,1:0:0:0:
8,148,50665,1,0,1:0:0:0:
8,148,50733,6,0,L|120:139,1,90,0|0,1:0|0:0,0:0:0:0:
123,14,51003,2,0,L|213:22,1,90,8|0,0:0|0:0,0:0:0:0:
257,149,51273,2,0,L|369:140,1,90,0|0,1:0|0:0,0:0:0:0:
372,15,51543,2,0,L|461:22,1,90,8|0,0:0|0:0,0:0:0:0:
466,165,51813,6,0,P|458:223|472:272,1,90,0|0,1:0|0:0,0:0:0:0:
507,372,52083,2,0,P|459:362|399:375,1,90,8|0,0:0|0:0,0:0:0:0:
291,348,52353,2,0,P|303:271|199:254,1,180,0|8,1:0|0:0,0:0:0:0:
130,376,52758,1,0,1:0:0:0:
130,376,52826,1,0,1:0:0:0:
130,376,52893,6,0,L|123:272,1,90,0|0,1:0|0:0,0:0:0:0:
19,165,53163,2,0,L|123:172,1,90,8|0,0:0|0:0,0:0:0:0:
40,349,53433,2,0,L|33:245,1,90,0|0,1:0|0:0,0:0:0:0:
73,91,53703,2,0,L|177:98,1,90,8|0,0:0|0:0,0:0:0:0:
290,206,53973,6,0,L|280:27,1,180,0|8,1:0|0:0,0:0:0:0:
410,0,54378,1,0,1:0:0:0:
375,139,54513,2,0,L|385:318,1,180,0|8,1:0|0:0,0:0:0:0:
511,350,54918,1,0,1:0:0:0:
470,199,55053,6,0,L|466:142,3,45,0|0|0|0,1:0|1:0|1:0|1:0,0:0:0:0:
375,139,55323,2,0,L|371:94,3,45,12|0|0|0,1:2|1:0|1:0|1:0,0:0:0:0:
290,206,55593,1,12,1:2:0:0:
258,191,55661,1,8,1:2:0:0:
223,192,55728,1,8,1:2:0:0:
192,209,55796,1,8,1:2:0:0:
172,239,55863,1,12,1:2:0:0:
168,274,55931,1,8,1:2:0:0:
180,307,55998,1,8,1:2:0:0:
206,331,56066,1,8,1:2:0:0:
240,340,56133,6,0,L|57:332,1,180,12|8,1:2|0:0,0:0:0:0:
15,213,56538,1,0,0:0:0:0:
65,101,56673,2,0,P|137:58|226:84,1,180,0|8,1:0|0:0,0:0:0:0:
369,132,57078,1,0,1:0:0:0:
369,132,57146,1,0,1:0:0:0:
369,132,57213,6,0,L|360:26,1,90,0|0,1:0|0:0,0:0:0:0:
475,171,57483,2,0,L|466:65,1,90,8|0,0:0|0:0,0:0:0:0:
292,284,57753,2,0,L|299:194,1,90,0|0,1:0|0:0,0:0:0:0:
396,339,58023,2,0,L|403:249,1,90,8|0,0:0|0:0,0:0:0:0:
218,346,58293,6,0,P|168:339|115:353,1,90,0|0,1:0|0:0,0:0:0:0:
0,302,58563,2,0,P|17:345|45:379,1,90,8|0,0:0|0:0,0:0:0:0:
186,247,58833,2,0,P|191:171|90:167,1,180,0|8,1:0|0:0,0:0:0:0:
0,302,59238,1,0,1:0:0:0:
0,302,59306,1,0,1:0:0:0:
0,302,59373,6,0,P|1:256|22:211,1,90,0|0,1:0|0:0,0:0:0:0:
0,39,59643,2,0,P|1:85|22:130,1,90,8|0,0:0|0:0,0:0:0:0:
102,274,59913,2,0,P|142:251|191:247,1,90,0|0,1:0|0:0,0:0:0:0:
100,72,60183,2,0,P|140:94|189:98,1,90,8|0,0:0|0:0,0:0:0:0:
304,25,60453,6,0,L|322:214,1,180,0|8,1:0|0:0,0:0:0:0:
206,265,60858,1,0,0:0:0:0:
339,372,60993,2,0,L|347:191,1,180,0|8,1:0|0:0,0:0:0:0:
465,85,61398,1,0,1:0:0:0:
465,85,61466,1,0,1:0:0:0:
465,85,61533,6,0,P|471:37|494:-1,1,90,0|0,1:0|0:0,0:0:0:0:
425,189,61803,2,0,P|472:179|515:190,1,90,8|0,0:0|0:0,0:0:0:0:
391,297,62073,2,0,P|414:339|418:383,1,90,0|0,1:0|0:0,0:0:0:0:
267,328,62343,2,0,P|233:363|192:380,1,90,8|0,0:0|0:0,0:0:0:0:
50,342,62613,5,0,1:0:0:0:
43,325,62748,1,0,1:0:0:0:
172,226,62883,1,8,1:2:0:0:
188,215,63018,1,0,1:0:0:0:
37,142,63153,5,0,1:0:0:0:
94,266,63288,1,0,1:0:0:0:
167,142,63423,1,8,1:2:0:0:
22,131,63558,1,0,1:0:0:0:
145,28,63693,6,0,L|50:22,1,90,0|0,1:0|1:0,0:0:0:0:
251,174,63963,2,0,L|346:168,1,90,12|0,1:2|1:0,0:0:0:0:
473,28,64233,1,12,1:2:0:0:
490,56,64301,1,8,1:2:0:0:
497,89,64368,1,8,1:2:0:0:
492,122,64436,1,8,1:2:0:0:
477,152,64503,1,12,1:2:0:0:
470,185,64571,1,8,1:2:0:0:
475,218,64638,1,8,1:2:0:0:
490,248,64706,1,8,1:2:0:0:
509,268,64773,6,0,P|468:314|416:329,1,107.999996704102,12|0,1:2|0:0,0:0:0:0:
350,269,64976,2,0,P|396:310|411:362,1,107.999996704102,2|0,0:0|0:0,0:0:0:0:
286,382,65178,1,2,0:0:0:0:
132,350,65313,2,0,L|142:228,1,107.999996704102,2|0,1:0|0:0,0:0:0:0:
129,210,65516,1,2,0:0:0:0:
129,210,65583,1,10,0:0:0:0:
264,259,65718,1,2,0:0:0:0:
377,132,65853,6,0,P|386:79|366:30,1,107.999996704102,2|0,1:0|0:0,0:0:0:0:
334,10,66056,2,0,P|281:0|232:20,1,107.999996704102,2|0,0:0|0:0,0:0:0:0:
170,103,66258,1,2,0:0:0:0:
30,10,66393,2,0,P|1:88|31:157,1,161.999995056153,2|2,1:0|0:0,0:0:0:0:
51,151,66663,1,10,0:0:0:0:
23,266,66798,1,2,0:0:0:0:
0,384,66933,6,0,P|59:382|110:352,1,107.999996704102,2|0,1:0|0:0,0:0:0:0:
113,287,67136,2,0,P|144:337|195:366,1,107.999996704102,2|0,0:0|0:0,0:0:0:0:
264,340,67338,1,2,0:0:0:0:
374,251,67473,1,2,1:0:0:0:
397,267,67541,2,0,L|411:378,1,107.999996704102,0|2,0:0|0:0,0:0:0:0:
489,351,67743,2,0,L|475:243,1,107.999996704102,10|2,0:0|0:0,0:0:0:0:
402,98,68013,5,2,1:0:0:0:
274,172,68148,1,0,1:0:0:0:
274,172,68216,1,0,1:0:0:0:
274,172,68283,1,10,0:0:0:0:
179,47,68418,1,2,1:0:0:0:
304,15,68553,1,2,1:0:0:0:
417,90,68688,1,2,1:0:0:0:
374,251,68823,1,10,0:0:0:0:
192,262,68958,1,2,1:0:0:0:
169,31,69093,6,0,P|150:89|94:122,1,107.999996704102,2|0,1:0|0:0,0:0:0:0:
82,130,69296,1,2,0:0:0:0:
82,130,69363,2,0,P|44:175|41:233,1,107.999996704102,10|2,0:0|0:0,0:0:0:0:
139,349,69633,6,0,L|9:339,1,107.999996704102,2|0,1:0|0:0,0:0:0:0:
266,259,69903,2,0,L|396:249,1,107.999996704102,10|0,0:0|0:0,0:0:0:0:
130,369,70173,2,0,L|0:359,1,107.999996704102,2|0,1:0|0:0,0:0:0:0:
290,174,70443,2,0,L|420:164,1,107.999996704102,10|0,0:0|0:0,0:0:0:0:
512,345,70713,1,2,1:0:0:0:
434,376,70848,1,2,0:0:0:0:
361,332,70983,1,10,0:0:0:0:
373,250,71118,1,2,0:0:0:0:
484,254,71253,6,0,L|488:194,2,53.9999983520508,6|0|0,1:0|0:0|0:0,0:0:0:0:
397,165,71523,5,10,0:0:0:0:
398,138,71591,1,0,0:0:0:0:
399,111,71658,1,0,0:0:0:0:
290,174,71793,6,0,L|286:114,2,53.9999983520508,6|0|0,1:0|0:0|0:0,0:0:0:0:
203,263,72063,5,8,0:0:0:0:
201,236,72131,1,0,0:0:0:0:
199,209,72198,1,0,0:0:0:0:
176,74,72333,5,4,1:0:0:0:
152,49,72401,1,0,1:0:0:0:
121,36,72468,1,0,1:0:0:0:
88,36,72536,1,0,1:0:0:0:
57,49,72603,1,12,1:2:0:0:
33,73,72671,1,0,1:0:0:0:
21,104,72738,1,0,1:0:0:0:
21,137,72806,1,0,1:0:0:0:
35,168,72873,2,0,P|53:186|81:198,3,53.9999983520508,12|8|8|8,1:2|1:2|1:2|1:2,0:0:0:0:
199,209,73143,1,12,1:2:0:0:
201,236,73211,1,8,1:2:0:0:
203,263,73278,1,8,1:2:0:0:
205,290,73346,1,8,1:2:0:0:
207,317,73413,6,0,L|85:305,1,107.999996704102,12|2,1:2|0:0,0:0:0:0:
315,371,73683,2,0,L|437:359,1,107.999996704102,8|2,0:0|0:0,0:0:0:0:
501,231,73953,2,0,P|460:175|367:205,1,161.999995056153,2|0,1:0|0:0,0:0:0:0:
358,213,74223,2,0,P|343:153|353:100,1,107.999996704102,8|0,0:0|0:0,0:0:0:0:
497,16,74493,5,2,1:0:0:0:
425,21,74583,1,2,0:0:0:0:
353,25,74673,1,2,0:0:0:0:
278,9,74763,2,0,P|257:56|248:137,1,107.999996704102,10|0,0:0|0:0,0:0:0:0:
208,290,75033,2,0,P|177:248|112:200,1,107.999996704102,2|0,1:0|0:0,0:0:0:0:
71,175,75236,2,0,P|122:169|196:136,1,107.999996704102,2|0,0:0|0:0,0:0:0:0:
247,111,75438,1,2,0:0:0:0:
55,26,75573,6,0,L|46:136,1,107.999996704102,2|0,1:0|0:0,0:0:0:0:
71,175,75776,1,2,0:0:0:0:
71,175,75843,1,10,0:0:0:0:
10,309,75978,1,2,0:0:0:0:
157,353,76113,2,0,P|218:347|239:214,1,215.999993408203,2|8,1:0|0:0,0:0:0:0:
241,216,76518,1,0,1:0:0:0:
389,297,76653,6,0,L|335:291,3,53.9999983520508,2|0|2|0,1:0|0:0|0:0|0:0,0:0:0:0:
459,378,76923,2,0,L|512:372,3,53.9999983520508,10|0|2|0,0:0|0:0|0:0|0:0,0:0:0:0:
330,376,77193,1,2,1:0:0:0:
330,376,77261,1,0,0:0:0:0:
330,376,77328,2,0,L|334:307,1,53.9999983520508,0|0,0:0|0:0,0:0:0:0:
395,219,77463,1,8,0:0:0:0:
395,219,77531,1,0,0:0:0:0:
395,219,77598,2,0,L|326:215,1,53.9999983520508,0|0,0:0|0:0,0:0:0:0:
239,125,77733,6,0,P|235:63|254:10,1,107.999996704102,2|0,1:0|0:0,0:0:0:0:
278,9,77936,2,0,P|333:36|370:79,1,107.999996704102,2|0,0:0|0:0,0:0:0:0:
408,139,78138,1,2,0:0:0:0:
221,144,78273,2,0,L|98:137,1,107.999996704102,2|0,1:0|0:0,0:0:0:0:
15,19,78543,1,10,0:0:0:0:
153,57,78678,1,2,0:0:0:0:
22,174,78813,6,0,L|31:300,1,107.999996704102,2|0,1:0|0:0,0:0:0:0:
170,380,79083,2,0,L|177:272,1,107.999996704102,10|0,0:0|0:0,0:0:0:0:
341,215,79353,2,0,P|350:277|333:328,1,107.999996704102,2|0,1:0|0:0,0:0:0:0:
320,350,79556,2,0,P|382:341|433:358,1,107.999996704102,2|0,0:0|0:0,0:0:0:0:
508,384,79758,1,2,0:0:0:0:
477,231,79893,5,2,1:0:0:0:
328,203,80028,1,0,1:0:0:0:
328,203,80096,1,2,1:0:0:0:
328,203,80163,1,10,0:0:0:0:
468,79,80298,1,2,1:0:0:0:
294,57,80433,2,0,P|238:33|205:0,1,107.999996704102,2|0,1:0|1:0,0:0:0:0:
176,271,80703,2,0,P|188:219|181:166,1,107.999996704102,10|2,0:0|1:0,0:0:0:0:
75,16,80973,5,6,1:0:0:0:
51,28,81041,1,0,1:0:0:0:
32,47,81108,1,0,1:0:0:0:
19,71,81176,1,0,1:0:0:0:
14,98,81243,1,12,1:2:0:0:
17,124,81311,1,0,1:2:0:0:
28,149,81378,1,0,1:0:0:0:
45,170,81446,1,0,1:0:0:0:
68,184,81513,1,12,1:2:0:0:
85,205,81581,1,8,1:2:0:0:
96,230,81648,1,8,1:2:0:0:
99,256,81716,1,8,1:2:0:0:
94,283,81783,1,12,1:2:0:0:
81,307,81851,1,8,1:2:0:0:
62,326,81918,1,8,1:2:0:0:
38,338,81986,1,8,1:2:0:0:
11,343,82053,5,12,0:0:0:0:
30,338,90693,5,4,1:0:0:0:
124,364,90828,2,0,L|113:222,3,135.000005149842,0|0|0|0,1:0|1:0|1:0|1:0,0:0:0:0:
31,184,91773,2,0,P|35:142|53:101,1,67.5000025749208,2|0,0:0|0:0,0:0:0:0:
103,59,92043,2,0,P|141:41|185:36,1,67.5000025749208,2|0,0:0|0:0,0:0:0:0:
252,47,92313,2,0,P|286:71|312:107,1,67.5000025749208,2|0,0:0|0:0,0:0:0:0:
340,167,92583,1,2,0:0:0:0:
455,91,92718,1,0,1:0:0:0:
455,91,92786,1,0,1:0:0:0:
455,91,92853,5,4,1:0:0:0:
508,166,92988,2,0,L|498:322,3,135.000005149842,0|0|0|0,1:0|1:0|1:0|1:0,0:0:0:0:
426,364,93933,2,0,L|342:356,1,67.5000025749208,2|0,0:0|0:0,0:0:0:0:
286,269,94203,2,0,L|202:261,1,67.5000025749208,2|0,0:0|0:0,0:0:0:0:
58,365,94473,2,0,L|142:357,1,67.5000025749208,2|0,0:0|0:0,0:0:0:0:
218,262,94743,1,2,0:0:0:0:
70,212,94878,1,0,1:0:0:0:
70,212,94946,1,0,1:0:0:0:
70,212,95013,6,0,P|73:175|66:129,1,67.5000025749208,6|2,1:0|0:0,0:0:0:0:
48,24,95283,2,0,P|78:45|121:62,1,67.5000025749208,2|2,0:0|0:0,0:0:0:0:
210,60,95553,1,2,0:0:0:0:
218,44,95688,1,2,0:0:0:0:
315,52,95823,1,2,0:0:0:0:
323,36,95958,1,2,0:0:0:0:
434,52,96093,6,0,L|441:134,1,67.5000025749208,6|2,1:0|0:0,0:0:0:0:
344,169,96363,1,2,0:0:0:0:
329,155,96498,1,2,0:0:0:0:
484,195,96633,2,0,L|491:277,1,67.5000025749208,6|2,1:0|0:0,0:0:0:0:
386,324,96903,1,2,0:0:0:0:
293,242,97038,1,2,1:0:0:0:
293,242,97106,1,0,1:0:0:0:
293,242,97173,6,0,P|252:237|212:248,1,67.5000025749208,6|2,1:0|1:0,0:0:0:0:
106,357,97443,2,0,P|147:362|187:351,1,67.5000025749208,2|2,1:0|1:0,0:0:0:0:
144,208,97713,2,0,P|139:249|150:289,1,67.5000025749208,6|2,1:0|1:0,0:0:0:0:
260,370,97983,2,0,P|261:353|258:341,4,16.8750006437302,2|2|2|2|2,1:0|1:0|1:0|1:0|1:0,0:0:0:0:
58,284,98253,6,0,L|-3:290,3,45,6|0|0|0,1:0|0:0|0:0|0:0,0:0:0:0:
44,191,98523,2,0,L|-17:186,3,45,8|0|0|0,0:2|0:0|0:0|0:0,0:0:0:0:
65,99,98793,2,0,L|5:83,3,45,0|0|0|0,1:0|0:0|0:0|0:0,0:0:0:0:
117,22,99063,2,0,L|61:-3,3,45,8|0|0|0,0:2|0:0|0:0|0:0,0:0:0:0:
209,49,99333,6,0,B|236:48|236:48|270:35,11,45,0|0|0|0|8|0|0|0|0|0|0|0,1:0|0:0|0:0|0:0|0:2|0:0|0:0|0:0|1:0|0:0|0:0|0:0,0:0:0:0:
201,126,100143,2,0,B|247:126|247:126|293:109,1,90,8|0,0:2|0:0,0:0:0:0:
390,28,100413,5,0,1:0:0:0:
402,33,100481,1,0,0:0:0:0:
414,38,100548,1,0,0:0:0:0:
426,43,100616,1,0,0:0:0:0:
438,48,100683,2,0,P|442:75|435:107,3,45,8|0|0|0,0:2|0:0|0:0|0:0,0:0:0:0:
401,166,100953,5,0,1:0:0:0:
389,171,101021,1,0,0:0:0:0:
377,176,101088,1,0,0:0:0:0:
365,181,101156,1,0,0:0:0:0:
353,186,101223,2,0,P|349:213|356:245,3,45,8|0|0|0,0:2|0:0|0:0|0:0,0:0:0:0:
453,290,101493,6,0,B|456:264|456:264|445:230,11,45,0|0|0|0|8|0|0|0|0|0|0|0,1:0|0:0|0:0|0:0|0:2|0:0|0:0|0:0|1:0|0:0|0:0|0:0,0:0:0:0:
467,374,102304,2,0,L|530:380,1,45,8|0,0:2|0:0,0:0:0:0:
364,310,102439,2,0,L|301:316,1,45,0|0,1:0|0:0,0:0:0:0:
210,373,102574,5,0,1:0:0:0:
183,380,102641,1,0,1:0:0:0:
155,378,102709,1,0,1:0:0:0:
130,365,102776,1,0,1:0:0:0:
111,345,102844,1,8,1:2:0:0:
101,319,102911,1,0,1:0:0:0:
101,291,102979,1,0,1:0:0:0:
111,265,103046,1,0,1:0:0:0:
130,244,103114,2,0,P|155:233|176:232,3,45,0|0|0|0,1:0|1:0|1:2|1:0,0:0:0:0:
209,152,103384,2,0,P|231:167|242:185,3,45,8|0|0|0,1:2|1:0|1:0|1:0,0:0:0:0:
178,74,103654,5,0,1:0:0:0:
145,82,103721,1,0,1:0:0:0:
112,90,103789,1,0,1:0:0:0:
79,99,103856,1,0,1:0:0:0:
47,107,103924,6,0,L|56:49,1,45,8|0,1:2|1:0,0:0:0:0:
24,117,104059,2,0,L|33:59,1,45,0|0,1:0|1:0,0:0:0:0:
123,200,104194,2,0,L|129:244,1,45,0|0,1:0|1:0,0:0:0:0:
146,210,104329,2,0,L|152:254,1,45,0|0,1:0|1:0,0:0:0:0:
178,74,104464,2,0,L|184:29,1,45,8|0,1:2|1:0,0:0:0:0:
201,64,104599,2,0,L|207:19,1,45,0|0,1:0|1:0,0:0:0:0:
316,156,104734,6,0,L|381:149,1,45,8|0,1:2|1:0,0:0:0:0:
512,86,104869,2,0,L|447:79,1,45,0|0,1:0|1:0,0:0:0:0:
318,189,105004,2,0,L|377:215,1,45,8|0,1:2|1:0,0:0:0:0:
505,140,105139,2,0,L|452:101,1,45,0|0,1:0|1:0,0:0:0:0:
321,223,105274,2,0,L|359:275,1,45,8|0,1:2|1:0,0:0:0:0:
490,189,105409,2,0,L|463:129,1,45,0|0,1:0|1:0,0:0:0:0:
324,256,105544,2,0,L|331:321,1,45,8|0,1:2|1:0,0:0:0:0:
470,225,105679,2,0,L|476:159,1,45,0|0,1:0|1:0,0:0:0:0:
317,50,105814,5,8,1:2:0:0:
281,32,105881,1,0,1:0:0:0:
242,31,105949,1,8,1:2:0:0:
205,45,106016,1,0,1:0:0:0:
178,74,106084,1,8,1:2:0:0:
163,109,106151,1,0,1:0:0:0:
164,148,106219,1,8,1:2:0:0:
180,184,106286,1,0,1:0:0:0:
210,210,106354,1,8,1:2:0:0:
226,245,106421,1,8,1:2:0:0:
227,284,106489,1,8,1:2:0:0:
212,320,106556,1,8,1:2:0:0:
185,348,106624,1,8,1:2:0:0:
148,362,106691,1,8,1:2:0:0:
109,361,106759,1,8,1:2:0:0:
73,344,106826,1,8,1:2:0:0:
49,313,106894,5,12,1:2:0:0:
423,360,107704,1,8,1:2:0:0:
423,360,107974,6,0,L|436:167,1,175.499991966248,4|2,1:2|0:0,0:0:0:0:
437,153,108244,2,0,P|430:88|399:44,1,116.999994644165,10|2,0:0|0:0,0:0:0:0:
233,14,108514,2,0,L|240:135,1,116.999994644165,2|0,1:0|0:0,0:0:0:0:
261,153,108716,1,2,0:0:0:0:
286,173,108784,1,10,0:0:0:0:
401,46,108919,1,2,0:0:0:0:
233,14,109054,5,2,1:0:0:0:
233,14,109121,1,0,0:0:0:0:
147,89,109256,1,2,0:0:0:0:
147,89,109324,1,10,0:0:0:0:
194,198,109459,1,2,0:0:0:0:
105,309,109594,2,0,P|38:283|43:184,1,175.499991966248,2|2,1:0|0:0,0:0:0:0:
54,171,109864,1,10,0:0:0:0:
205,216,109999,1,2,0:0:0:0:
221,379,110134,6,0,L|343:369,1,116.999994644165,2|0,1:0|0:0,0:0:0:0:
372,384,110336,2,0,L|382:262,1,116.999994644165,2|0,0:0|0:0,0:0:0:0:
441,192,110539,1,2,0:0:0:0:
332,71,110674,2,0,P|263:69|215:101,1,116.999994644165,2|0,1:0|0:0,0:0:0:0:
199,112,110876,1,2,0:0:0:0:
182,135,110944,1,10,0:0:0:0:
287,254,111079,1,2,0:0:0:0:
144,374,111214,5,2,1:0:0:0:
205,216,111349,1,0,1:0:0:0:
205,216,111416,1,0,1:0:0:0:
205,216,111484,1,10,0:0:0:0:
59,167,111619,1,2,1:0:0:0:
1,314,111754,1,2,1:0:0:0:
177,296,111889,1,2,1:0:0:0:
182,135,112024,1,10,0:0:0:0:
4,84,112159,1,2,1:0:0:0:
205,216,112294,6,0,P|260:196|294:147,1,116.999994644165,2|0,1:0|0:0,0:0:0:0:
316,111,112496,1,2,0:0:0:0:
316,111,112564,2,0,P|367:68|425:71,1,116.999994644165,10|2,0:0|0:0,0:0:0:0:
502,289,112834,2,0,L|511:160,1,116.999994644165,2|0,1:0|0:0,0:0:0:0:
170,121,113104,2,0,L|161:-8,1,116.999994644165,10|0,0:0|0:0,0:0:0:0:
410,337,113374,5,2,1:0:0:0:
436,144,113509,1,2,0:0:0:0:
324,347,113644,1,10,0:0:0:0:
346,198,113779,1,2,0:0:0:0:
238,357,113914,1,2,1:0:0:0:
252,241,114049,1,2,0:0:0:0:
152,367,114184,1,10,0:0:0:0:
163,282,114319,1,2,0:0:0:0:
60,289,114454,6,4,L|1:282,2,58.4999973220826,6|0|0,1:0|1:0|1:0,0:0:0:0:
73,185,114724,5,10,1:2:0:0:
44,182,114791,1,0,1:0:0:0:
15,179,114859,1,0,1:0:0:0:
179,132,114994,6,0,L|238:125,2,58.4999973220826,6|0|0,1:0|1:0|1:0,0:0:0:0:
165,28,115264,5,8,1:2:0:0:
195,25,115331,1,0,1:0:0:0:
224,22,115399,1,0,1:0:0:0:
54,22,115534,5,4,1:0:0:0:
44,49,115601,1,0,1:0:0:0:
43,78,115669,1,0,1:0:0:0:
53,105,115736,1,0,1:0:0:0:
71,128,115804,1,12,1:2:0:0:
96,143,115871,1,0,1:0:0:0:
125,149,115939,1,0,1:0:0:0:
153,145,116006,1,0,1:0:0:0:
179,132,116074,1,12,1:2:0:0:
207,128,116141,1,8,1:2:0:0:
236,134,116209,1,8,1:2:0:0:
261,149,116276,1,8,1:2:0:0:
279,172,116344,1,12,1:2:0:0:
289,199,116411,1,8,1:2:0:0:
288,228,116479,1,8,1:2:0:0:
278,255,116546,1,8,1:2:0:0:
263,276,116614,6,0,L|387:267,1,116.999994644165,12|2,1:2|0:0,0:0:0:0:
141,376,116884,1,8,0:0:0:0:
78,245,117019,1,2,0:0:0:0:
210,208,117154,2,0,P|284:145|284:60,1,175.499991966248,2|0,1:0|0:0,0:0:0:0:
225,31,117424,2,0,L|341:22,1,116.999994644165,8|0,0:0|0:0,0:0:0:0:
505,12,117694,5,2,1:0:0:0:
500,84,117784,1,2,0:0:0:0:
496,156,117874,1,2,0:0:0:0:
512,231,117964,2,0,P|498:291|460:342,1,116.999994644165,10|0,0:0|0:0,0:0:0:0:
308,380,118234,2,0,P|295:323|262:275,1,116.999994644165,2|0,1:0|0:0,0:0:0:0:
209,207,118436,2,0,P|177:256|130:289,1,116.999994644165,2|0,0:0|0:0,0:0:0:0:
30,335,118639,1,2,0:0:0:0:
5,205,118774,6,0,L|15:85,1,116.999994644165,2|0,1:0|0:0,0:0:0:0:
19,52,118976,1,2,0:0:0:0:
19,52,119044,1,10,0:0:0:0:
175,0,119179,1,2,0:0:0:0:
277,149,119314,2,0,P|338:143|355:-1,1,233.999989288331,2|8,1:0|0:0,0:0:0:0:
356,0,119719,1,0,1:0:0:0:
195,81,119854,6,0,L|202:141,3,58.4999973220826,2|0|0|0,1:0|0:0|0:0|0:0,0:0:0:0:
97,153,120124,2,0,L|90:211,3,58.4999973220826,10|0|0|0,0:0|0:0|0:0|0:0,0:0:0:0:
161,286,120394,1,2,1:0:0:0:
190,284,120461,1,0,1:0:0:0:
219,282,120529,1,0,1:0:0:0:
248,280,120596,1,0,1:0:0:0:
277,278,120664,1,8,1:2:0:0:
306,276,120731,1,0,1:0:0:0:
336,274,120799,1,0,1:0:0:0:
365,273,120866,1,0,1:0:0:0:
394,271,120934,6,0,P|390:333|415:387,1,116.999994644165,2|0,1:0|0:0,0:0:0:0:
495,383,121136,2,0,P|517:329|512:271,1,116.999994644165,2|0,0:0|0:0,0:0:0:0:
452,180,121339,1,2,0:0:0:0:
306,276,121474,2,0,L|299:154,1,116.999994644165,2|0,1:0|0:0,0:0:0:0:
249,35,121744,1,10,0:0:0:0:
425,13,121879,1,2,0:0:0:0:
287,169,122014,6,0,L|159:158,1,116.999994644165,2|0,1:0|0:0,0:0:0:0:
121,22,122284,2,0,L|-7:34,1,116.999994644165,10|0,0:0|0:0,0:0:0:0:
0,239,122554,2,0,P|62:246|107:280,1,116.999994644165,2|0,1:0|0:0,0:0:0:0:
68,384,122756,2,0,P|75:321|108:274,1,116.999994644165,2|0,0:0|0:0,0:0:0:0:
199,255,122959,1,2,0:0:0:0:
391,380,123094,5,2,1:0:0:0:
315,221,123229,1,0,1:0:0:0:
301,195,123296,1,2,1:0:0:0:
287,169,123364,1,10,0:0:0:0:
490,266,123499,1,2,1:0:0:0:
273,144,123634,2,0,P|297:88|338:51,1,116.999994644165,2|0,1:0|1:0,0:0:0:0:
511,0,123904,2,0,L|501:129,1,116.999994644165,10|2,0:0|1:0,0:0:0:0:
490,266,124174,5,6,1:0:0:0:
481,281,124241,1,0,1:0:0:0:
468,297,124309,1,0,1:0:0:0:
452,308,124376,1,0,1:0:0:0:
433,313,124444,1,12,1:2:0:0:
414,313,124511,1,0,1:2:0:0:
395,307,124579,1,0,1:0:0:0:
380,296,124646,1,0,1:0:0:0:
365,280,124714,5,12,1:2:0:0:
332,241,124781,1,8,1:2:0:0:
288,215,124849,1,8,1:2:0:0:
238,205,124916,1,8,1:2:0:0:
187,212,124984,1,12,1:2:0:0:
142,235,125051,1,8,1:2:0:0:
107,272,125119,1,8,1:2:0:0:
86,319,125186,1,8,1:2:0:0:
82,369,125254,6,0,L|70:190,1,175.499991966248,12|2,0:0|0:0,0:0:0:0:
8,141,125524,2,0,P|45:92|96:63,1,116.999994644165,10|2,0:0|0:0,0:0:0:0:
264,6,125794,2,0,L|271:127,1,116.999994644165,2|0,1:0|0:0,0:0:0:0:
295,133,125996,1,2,0:0:0:0:
320,147,126064,1,10,0:0:0:0:
398,26,126199,1,2,0:0:0:0:
512,125,126334,5,2,1:0:0:0:
512,125,126401,1,2,0:0:0:0:
489,255,126536,1,2,0:0:0:0:
489,255,126604,1,10,0:0:0:0:
463,379,126739,1,0,0:0:0:0:
301,356,126874,2,0,P|365:351|360:252,1,175.499991966248,2|2,1:0|0:0,0:0:0:0:
348,243,127144,1,10,0:0:0:0:
201,189,127279,1,2,0:0:0:0:
180,333,127414,5,2,1:0:0:0:
180,333,127481,1,2,0:0:0:0:
56,377,127616,1,2,0:0:0:0:
56,377,127684,1,10,0:0:0:0:
0,255,127819,1,2,0:0:0:0:
51,125,127954,2,0,P|120:123|168:155,1,116.999994644165,2|0,1:0|0:0,0:0:0:0:
184,166,128156,1,2,0:0:0:0:
201,189,128224,1,10,0:0:0:0:
88,290,128359,1,2,0:0:0:0:
37,115,128494,5,2,1:0:0:0:
217,60,128629,1,0,1:0:0:0:
217,60,128696,1,0,1:0:0:0:
217,60,128764,1,10,0:0:0:0:
323,194,128899,1,2,1:0:0:0:
419,47,129034,1,2,1:0:0:0:
197,49,129169,1,2,1:0:0:0:
323,206,129304,1,10,0:0:0:0:
508,110,129439,1,2,1:0:0:0:
445,338,129574,6,0,L|321:348,1,116.999994644165,2|0,1:0|0:0,0:0:0:0:
301,321,129776,1,2,0:0:0:0:
301,321,129844,2,0,L|169:307,1,116.999994644165,10|0,0:0|0:0,0:0:0:0:
37,115,130114,2,0,P|27:63|43:-9,1,116.999994644165,2|0,1:0|0:0,0:0:0:0:
164,202,130384,2,0,P|123:236|53:258,1,116.999994644165,10|0,0:0|0:0,0:0:0:0:
144,30,130654,5,2,1:0:0:0:
342,53,130789,1,2,0:0:0:0:
154,116,130924,1,10,0:0:0:0:
306,134,131059,1,2,0:0:0:0:
164,202,131194,1,2,1:0:0:0:
279,217,131329,1,2,0:0:0:0:
174,288,131464,1,10,0:0:0:0:
257,297,131599,1,2,0:0:0:0:
118,362,131734,5,6,1:0:0:0:
88,358,131801,1,0,1:0:0:0:
59,355,131869,1,0,1:0:0:0:
64,257,132004,5,10,1:2:0:0:
35,254,132071,1,0,1:0:0:0:
6,251,132139,1,0,1:0:0:0:
65,147,132274,5,6,1:0:0:0:
36,150,132341,1,0,1:0:0:0:
7,153,132409,1,0,1:0:0:0:
119,42,132544,5,10,1:2:0:0:
89,45,132611,1,0,1:0:0:0:
60,48,132679,1,0,1:0:0:0:
258,15,132814,5,4,1:0:0:0:
285,5,132881,1,0,1:0:0:0:
314,4,132949,1,0,1:0:0:0:
341,14,133016,1,0,1:0:0:0:
364,32,133084,1,12,1:2:0:0:
379,57,133151,1,0,1:0:0:0:
385,86,133219,1,0,1:0:0:0:
381,114,133286,1,0,1:0:0:0:
368,140,133354,1,12,1:2:0:0:
364,168,133421,1,8,1:2:0:0:
370,197,133489,1,8,1:2:0:0:
385,222,133556,1,8,1:2:0:0:
408,240,133624,1,12,1:2:0:0:
435,250,133691,1,8,1:2:0:0:
464,249,133759,1,8,1:2:0:0:
491,239,133826,1,8,1:2:0:0:
512,224,133894,6,0,L|503:348,1,116.999994644165,12|2,1:2|0:0,0:0:0:0:
298,89,134164,1,8,0:0:0:0:
453,153,134299,1,2,0:0:0:0:
346,319,134434,2,0,P|256:272|189:312,1,175.499991966248,2|0,1:0|0:0,0:0:0:0:
169,332,134704,2,0,P|176:275|160:216,1,116.999994644165,8|0,0:0|0:0,0:0:0:0:
100,82,134974,5,2,1:0:0:0:
25,102,135064,1,2,0:0:0:0:
0,175,135154,1,2,0:0:0:0:
11,249,135244,2,0,L|1:376,1,116.999994644165,10|0,0:0|0:0,0:0:0:0:
169,332,135514,2,0,P|176:275|160:216,1,116.999994644165,2|0,1:0|0:0,0:0:0:0:
100,173,135716,2,0,P|157:180|216:164,1,116.999994644165,2|0,0:0|0:0,0:0:0:0:
275,98,135919,1,2,0:0:0:0:
354,233,136054,6,0,P|417:238|474:223,1,116.999994644165,2|0,1:0|0:0,0:0:0:0:
501,212,136256,1,2,0:0:0:0:
501,212,136324,1,10,0:0:0:0:
387,80,136459,1,2,0:0:0:0:
339,249,136594,2,0,P|330:318|463:364,1,233.999989288331,2|8,1:0|1:2,0:0:0:0:
461,365,136999,1,0,1:0:0:0:
501,212,137134,6,0,L|494:153,3,58.4999973220826,2|0|0|0,1:0|0:0|0:0|0:0,0:0:0:0:
387,80,137404,2,0,L|394:22,3,58.4999973220826,10|0|0|0,0:0|0:0|0:0|0:0,0:0:0:0:
285,131,137674,1,2,1:0:0:0:
256,129,137741,1,0,1:0:0:0:
227,127,137809,1,0,1:0:0:0:
198,125,137876,1,0,1:0:0:0:
169,123,137944,1,8,1:2:0:0:
140,121,138011,1,0,1:0:0:0:
110,119,138079,1,0,1:0:0:0:
81,118,138146,1,0,1:0:0:0:
52,116,138214,6,0,P|56:178|31:232,1,116.999994644165,2|0,1:0|0:0,0:0:0:0:
0,293,138416,2,0,P|51:258|110:253,1,116.999994644165,2|0,0:0|0:0,0:0:0:0:
196,274,138619,1,2,0:0:0:0:
20,375,138754,2,0,P|78:367|126:335,1,116.999994644165,2|0,1:0|0:0,0:0:0:0:
253,212,139024,1,8,0:0:0:0:
357,353,139159,1,2,0:0:0:0:
466,229,139294,6,0,L|477:101,1,116.999994644165,2|0,1:0|0:0,0:0:0:0:
245,129,139564,2,0,L|234:1,1,116.999994644165,10|0,0:0|0:0,0:0:0:0:
494,28,139834,2,0,P|432:37|380:16,1,116.999994644165,2|0,1:0|0:0,0:0:0:0:
351,0,140036,2,0,P|360:62|340:116,1,116.999994644165,2|0,0:0|0:0,0:0:0:0:
245,129,140239,1,2,0:0:0:0:
466,229,140374,5,2,1:0:0:0:
371,265,140509,1,0,1:0:0:0:
371,265,140576,1,2,1:0:0:0:
371,265,140644,1,10,0:0:0:0:
268,294,140779,1,0,0:0:0:0:
190,371,140914,2,0,L|87:365,1,72,2|0,1:0|0:0,0:0:0:0:
0,284,141184,2,0,L|103:276,1,72,10|0,0:0|0:0,0:0:0:0:
198,279,141454,5,6,1:0:0:0:
231,294,141521,1,0,1:0:0:0:
268,295,141589,1,0,1:0:0:0:
301,279,141656,1,0,1:0:0:0:
325,250,141724,1,12,1:2:0:0:
334,215,141791,1,0,1:2:0:0:
327,178,141859,1,0,1:0:0:0:
305,149,141926,1,0,1:0:0:0:
272,131,141994,1,12,1:2:0:0:
235,129,142061,1,8,1:2:0:0:
201,143,142129,1,8,0:0:0:0:
176,171,142196,1,8,1:2:0:0:
145,189,142264,1,12,1:2:0:0:
109,193,142331,1,8,1:2:0:0:
74,181,142399,1,8,1:2:0:0:
48,155,142466,1,8,1:2:0:0:
35,121,142534,6,0,L|30:57,3,58.4999973220826,12|0|0|0,1:2|1:0|1:0|1:0,0:0:0:0:
144,72,142804,2,0,L|149:8,3,58.4999973220826,8|0|0|0,1:2|1:0|1:0|1:0,0:0:0:0:
272,131,143074,2,0,L|267:67,3,58.4999973220826,4|0|0|0,1:0|1:0|1:0|1:0,0:0:0:0:
381,82,143344,2,0,L|386:18,3,58.4999973220826,8|0|0|0,1:2|1:0|1:0|1:0,0:0:0:0:
470,166,143614,5,12,1:2:0:0:
472,195,143681,1,0,1:0:0:0:
475,224,143749,1,0,1:0:0:0:
478,253,143816,1,0,1:0:0:0:
481,282,143884,2,0,P|492:318|510:340,3,58.4999973220826,8|0|0|0,1:2|1:0|1:0|1:0,0:0:0:0:
399,375,144154,5,12,1:2:0:0:
370,373,144221,1,0,1:0:0:0:
341,370,144289,1,0,1:0:0:0:
312,367,144356,1,0,1:0:0:0:
283,364,144424,2,0,P|247:353|225:335,3,58.4999973220826,8|0|0|0,1:2|1:0|1:0|1:0,0:0:0:0:
165,262,144694,5,12,1:2:0:0:
143,242,144761,1,0,1:0:0:0:
117,229,144829,1,8,1:2:0:0:
88,226,144896,1,0,1:0:0:0:
59,232,144964,1,8,1:2:0:0:
34,247,145031,1,0,1:0:0:0:
15,269,145099,1,8,1:2:0:0:
4,296,145166,1,0,1:0:0:0:
2,323,145234,2,0,L|8:388,3,58.4999973220826,12|0|8|0,1:2|1:0|1:2|1:0,0:0:0:0:
111,288,145504,2,0,L|116:229,3,58.4999973220826,8|0|8|0,1:2|1:0|1:2|1:0,0:0:0:0:
47,151,145774,5,12,1:2:0:0:
29,114,145841,1,8,1:2:0:0:
29,74,145909,1,8,1:2:0:0:
47,37,145976,1,8,1:2:0:0:
77,11,146044,1,12,1:2:0:0:
116,1,146111,1,8,1:2:0:0:
158,9,146179,1,8,1:2:0:0:
190,32,146246,1,8,1:2:0:0:
208,69,146314,1,12,1:2:0:0:
240,92,146381,1,8,1:2:0:0:
282,100,146449,1,8,1:2:0:0:
320,90,146516,1,8,1:2:0:0:
351,64,146584,1,12,1:2:0:0:
390,50,146651,1,8,1:2:0:0:
432,53,146719,1,8,1:2:0:0:
469,70,146786,1,8,1:2:0:0:
498,101,146854,5,12,1:2:0:0:
256,192,161974,12,0,163594,0:0:0:0:
29,353,163864,6,0,L|38:285,1,53.9999983520508,2|0,0:0|0:0,0:0:0:0:
0,213,163999,2,0,L|57:205,1,53.9999983520508,2|0,0:0|0:0,0:0:0:0:
114,134,164134,5,6,1:2:0:0:
138,123,164202,1,0,0:0:0:0:
165,122,164269,1,0,0:0:0:0:
190,131,164337,1,0,0:0:0:0:
210,149,164404,1,8,0:0:0:0:
224,172,164472,1,0,0:0:0:0:
227,198,164539,1,0,0:0:0:0:
222,225,164607,1,0,0:0:0:0:
206,247,164674,1,0,1:0:0:0:
201,273,164742,1,0,0:0:0:0:
204,300,164809,1,0,0:0:0:0:
218,323,164877,1,0,0:0:0:0:
238,341,164944,1,8,0:0:0:0:
263,349,165012,1,0,0:0:0:0:
290,349,165079,1,0,0:0:0:0:
314,338,165147,1,0,0:0:0:0:
331,311,165214,5,2,0:0:0:0:
331,311,165282,2,0,L|340:165,1,135.000005149842,2|0,0:0|0:0,0:0:0:0:
373,111,165484,2,0,L|381:245,1,125.999996154785,2|0,0:0|0:0,0:0:0:0:
418,298,165687,2,0,L|425:172,1,116.999994644165,2|0,0:0|0:0,0:0:0:0:
461,117,165889,2,0,L|468:233,1,107.999996704102,2|0,0:0|0:0,0:0:0:0:
504,289,166092,2,0,L|510:181,1,99.0000030212403,2|0,0:0|0:0,0:0:0:0:
496,37,166294,5,0,1:0:0:0:
469,35,166362,1,0,0:0:0:0:
442,33,166429,1,0,0:0:0:0:
415,31,166497,1,0,0:0:0:0:
388,30,166564,1,8,0:0:0:0:
361,28,166632,1,0,0:0:0:0:
334,26,166699,1,0,0:0:0:0:
307,25,166767,1,0,0:0:0:0:
280,23,166834,2,0,P|248:34|223:56,1,53.9999983520508,0|0,1:0|0:0,0:0:0:0:
122,57,166969,2,0,P|148:78|164:107,1,53.9999983520508,0|0,0:0|0:0,0:0:0:0:
241,130,167104,2,0,P|222:158|217:191,1,53.9999983520508,8|0,0:0|0:0,0:0:0:0:
149,223,167239,2,0,P|155:256|149:289,1,53.9999983520508,0|0,0:0|0:0,0:0:0:0:
183,366,167374,5,2,1:0:0:0:
17,304,167509,1,2,0:0:0:0:
168,382,167644,1,10,0:0:0:0:
278,235,167779,1,2,0:0:0:0:
76,170,167914,2,0,P|29:209|25:320,2,161.999995056153,2|2|2,1:0|0:0|0:0,0:0:0:0:
291,222,168454,6,0,L|422:217,1,107.999996704102,2|0,1:0|0:0,0:0:0:0:
484,85,168724,1,8,0:0:0:0:
509,276,168859,2,0,P|432:373|362:328,1,215.999993408203,2|0,0:0|0:0,0:0:0:0:
233,297,169264,1,10,0:0:0:0:
233,297,169332,1,0,0:0:0:0:
233,297,169399,2,0,L|207:357,1,53.9999983520508,0|0,0:0|0:0,0:0:0:0:
107,374,169534,5,2,1:0:0:0:
80,372,169602,1,0,0:0:0:0:
53,370,169669,2,0,L|-12:365,1,53.9999983520508,0|0,0:0|0:0,0:0:0:0:
114,255,169804,5,10,0:0:0:0:
89,243,169872,1,0,0:0:0:0:
64,232,169939,2,0,L|4:205,1,53.9999983520508,0|0,0:0|0:0,0:0:0:0:
184,132,170074,5,2,1:0:0:0:
224,124,170142,1,0,0:0:0:0:
265,119,170209,1,0,0:0:0:0:
305,112,170277,1,0,0:0:0:0:
345,107,170344,1,10,0:0:0:0:
384,101,170412,1,0,0:0:0:0:
425,94,170479,1,0,0:0:0:0:
464,89,170547,1,0,0:0:0:0:
504,82,170614,5,2,1:0:0:0:
484,32,170682,1,0,0:0:0:0:
440,3,170749,1,0,0:0:0:0:
387,3,170817,1,0,0:0:0:0:
344,32,170884,2,0,L|144:16,1,188.999994232178,10|0,0:0|0:0,0:0:0:0:
37,11,171154,2,0,P|21:65|38:135,1,125.999996154785,2|0,1:0|0:0,0:0:0:0:
136,189,171357,2,0,P|81:202|29:251,1,125.999996154785,2|0,0:0|0:0,0:0:0:0:
8,345,171559,1,2,0:0:0:0:
155,356,171694,5,10,1:2:0:0:
155,356,171762,2,0,L|289:348,1,125.999996154785,2|0,1:0|0:0,0:0:0:0:
276,332,171964,2,0,L|160:339,1,116.999994644165,2|0,1:2|0:0,0:0:0:0:
166,324,172167,2,0,L|288:317,1,107.999996704102,2|0,1:0|0:0,0:0:0:0:
269,306,172369,2,0,L|171:312,1,99.0000030212403,2|2,1:0|0:2,0:0:0:0:
176,298,172572,2,0,L|298:291,1,90,2|0,1:0|0:0,0:0:0:0:
370,213,172774,5,14,1:2:0:0:
395,202,172842,1,0,0:0:0:0:
422,197,172909,1,0,0:0:0:0:
448,200,172977,1,0,0:0:0:0:
474,210,173044,2,0,P|503:231|516:256,3,53.9999983520508,8|0|0|0,0:0|0:0|0:0|0:0,0:0:0:0:
512,362,173314,1,0,1:0:0:0:
487,373,173382,1,0,0:0:0:0:
460,378,173449,1,0,0:0:0:0:
434,375,173517,1,0,0:0:0:0:
408,365,173584,2,0,P|379:344|366:319,1,53.9999983520508,8|0,0:0|0:0,0:0:0:0:
291,208,173719,2,0,P|243:171|182:168,1,107.999996704102,0|0,0:0|1:0,0:0:0:0:
98,260,173989,5,2,0:0:0:0:
60,78,174124,1,10,0:0:0:0:
206,153,174259,1,2,0:0:0:0:
23,167,174394,1,2,1:0:0:0:
20,193,174462,1,0,0:0:0:0:
17,220,174529,1,0,0:0:0:0:
14,247,174597,1,0,0:0:0:0:
11,274,174664,1,8,0:0:0:0:
9,301,174732,1,0,0:0:0:0:
6,328,174799,1,0,0:0:0:0:
3,354,174867,1,0,0:0:0:0:
2,380,174934,5,0,1:0:0:0:
29,350,175002,1,0,0:0:0:0:
66,334,175069,1,0,0:0:0:0:
106,334,175137,1,0,0:0:0:0:
143,351,175204,1,8,0:0:0:0:
183,351,175272,1,0,0:0:0:0:
220,335,175339,1,0,0:0:0:0:
247,305,175407,1,0,0:0:0:0:
259,266,175474,1,0,1:0:0:0:
253,226,175542,1,0,0:0:0:0:
231,192,175609,1,0,0:0:0:0:
223,153,175677,1,0,0:0:0:0:
231,114,175744,2,0,P|249:88|279:67,1,53.9999983520508,8|0,0:0|0:0,0:0:0:0:
384,28,175879,2,0,L|508:42,1,107.999996704102,0|0,0:0|1:0,0:0:0:0:
509,178,176149,5,2,0:0:0:0:
395,275,176284,1,10,0:0:0:0:
310,152,176419,1,2,0:0:0:0:
160,260,176554,2,0,L|45:247,1,107.999996704102,2|0,1:0|0:0,0:0:0:0:
0,44,176824,1,8,0:0:0:0:
40,38,176892,1,0,0:0:0:0:
80,33,176959,1,0,0:0:0:0:
121,28,177027,1,0,0:0:0:0:
162,24,177094,6,0,L|154:96,1,53.9999983520508,2|0,1:0|0:0,0:0:0:0:
90,123,177229,2,0,L|82:195,1,53.9999983520508,2|0,0:0|0:0,0:0:0:0:
33,244,177364,1,10,0:0:0:0:
238,53,177499,6,0,L|246:125,1,53.9999983520508,2|0,0:0|0:0,0:0:0:0:
310,152,177634,2,0,L|318:224,1,53.9999983520508,2|0,1:0|0:0,0:0:0:0:
367,273,177769,1,2,0:0:0:0:
180,159,177904,6,0,L|172:231,1,53.9999983520508,8|0,0:0|0:0,0:0:0:0:
108,258,178039,2,0,L|100:330,1,53.9999983520508,2|0,0:0|0:0,0:0:0:0:
51,379,178174,1,2,1:0:0:0:
295,291,178309,6,0,L|348:285,1,53.9999983520508,2|0,0:0|0:0,0:0:0:0:
488,253,178444,1,10,0:0:0:0:
488,253,178512,1,0,0:0:0:0:
488,253,178579,1,0,0:0:0:0:
488,253,178647,1,0,0:0:0:0:
488,253,178714,2,0,L|479:372,1,107.999996704102,2|0,1:0|0:0,0:0:0:0:
265,365,178984,2,0,P|266:336|272:312,1,53.9999983520508,10|0,0:0|0:0,0:0:0:0:
174,212,179119,2,0,P|189:187|206:169,1,53.9999983520508,2|0,1:2|0:0,0:0:0:0:
324,58,179254,5,2,1:0:0:0:
337,34,179322,1,0,1:0:0:0:
356,16,179389,1,0,1:0:0:0:
381,5,179457,1,0,1:0:0:0:
408,2,179524,1,10,1:2:0:0:
434,8,179592,1,0,1:0:0:0:
457,22,179659,1,0,1:0:0:0:
474,42,179727,1,0,1:0:0:0:
484,67,179794,1,2,1:0:0:0:
486,94,179862,1,0,1:0:0:0:
479,120,179929,1,0,1:0:0:0:
465,142,179997,1,0,1:0:0:0:
443,159,180064,1,10,1:2:0:0:
418,168,180132,1,0,1:0:0:0:
391,169,180199,1,0,1:0:0:0:
366,161,180267,1,0,1:0:0:0:
344,146,180334,5,14,1:2:0:0:
311,169,180402,1,0,1:0:0:0:
271,173,180469,1,0,1:0:0:0:
234,157,180537,1,0,1:0:0:0:
209,126,180604,1,14,1:2:0:0:
171,110,180672,1,0,1:0:0:0:
132,114,180739,1,0,1:0:0:0:
99,137,180807,1,0,1:0:0:0:
81,170,180874,5,14,1:2:0:0:
119,207,180942,1,10,1:2:0:0:
157,245,181009,1,10,1:2:0:0:
196,283,181077,1,10,1:2:0:0:
234,321,181144,5,14,1:2:0:0:
181,335,181212,1,10,1:2:0:0:
129,349,181279,1,10,1:2:0:0:
77,363,181347,1,10,1:2:0:0:
25,378,181414,6,0,L|40:320,1,53.9999983520508,14|0,1:2|0:0,0:0:0:0:
73,197,181549,2,0,L|111:234,1,53.9999983520508,2|0,0:0|0:0,0:0:0:0:
181,335,181684,2,0,P|260:366|335:262,1,215.999993408203,10|0,0:0|1:0,0:0:0:0:
457,243,182089,1,2,0:0:0:0:
457,243,182157,1,2,0:0:0:0:
457,243,182224,2,0,L|470:363,1,107.999996704102,10|2,0:0|0:0,0:0:0:0:
345,187,182494,5,2,1:0:0:0:
346,159,182562,1,0,0:0:0:0:
348,133,182629,1,0,0:0:0:0:
351,106,182697,1,0,0:0:0:0:
353,80,182764,2,0,L|358:21,1,53.9999983520508,8|0,0:0|0:0,0:0:0:0:
198,10,182899,2,0,L|204:64,1,53.9999983520508,0|0,0:0|0:0,0:0:0:0:
236,193,183034,5,0,1:0:0:0:
195,190,183102,1,0,0:0:0:0:
155,187,183169,1,0,0:0:0:0:
114,183,183237,1,0,0:0:0:0:
74,180,183304,2,0,L|7:173,1,53.9999983520508,8|0,0:0|0:0,0:0:0:0:
121,17,183439,2,0,L|127:83,1,53.9999983520508,0|0,0:0|0:0,0:0:0:0:
155,187,183574,6,0,P|156:214|148:248,1,53.9999983520508,2|0,1:0|0:0,0:0:0:0:
50,350,183709,2,0,P|83:342|111:343,1,53.9999983520508,2|0,0:0|0:0,0:0:0:0:
249,382,183844,2,0,P|335:362|315:257,1,215.999993408203,10|0,0:0|1:0,0:0:0:0:
288,99,184249,1,2,0:0:0:0:
288,99,184317,1,2,0:0:0:0:
288,99,184384,2,0,P|289:68|295:32,1,53.9999983520508,10|0,0:0|0:0,0:0:0:0:
398,14,184519,2,0,P|427:28|452:53,1,53.9999983520508,2|0,0:0|0:0,0:0:0:0:
500,159,184654,5,0,1:0:0:0:
472,160,184722,1,0,0:0:0:0:
446,162,184789,1,0,0:0:0:0:
419,165,184857,1,0,0:0:0:0:
393,167,184924,2,0,L|335:170,1,53.9999983520508,8|0,0:0|0:0,0:0:0:0:
154,112,185059,2,0,L|221:119,1,53.9999983520508,0|0,0:0|0:0,0:0:0:0:
315,257,185194,5,0,1:0:0:0:
274,260,185262,1,0,0:0:0:0:
234,263,185329,1,0,0:0:0:0:
193,267,185397,1,0,0:0:0:0:
153,270,185464,2,0,L|86:277,1,53.9999983520508,8|0,0:0|0:0,0:0:0:0:
47,144,185599,2,0,L|40:211,1,53.9999983520508,0|0,0:0|0:0,0:0:0:0:
20,367,185734,6,0,P|50:363|80:368,1,53.9999983520508,2|0,1:0|0:0,0:0:0:0:
153,270,185869,2,0,P|171:293|182:322,1,53.9999983520508,2|0,0:0|0:0,0:0:0:0:
284,367,186004,2,0,P|368:376|438:327,1,161.999995056153,10|0,0:0|0:0,0:0:0:0:
475,212,186274,6,0,L|480:113,1,99.0000030212403,2|0,1:0|0:0,0:0:0:0:
432,40,186477,2,0,L|438:147,1,107.999996704102,2|0,0:0|0:0,0:0:0:0:
389,221,186679,2,0,L|395:104,1,116.999994644165,2|0,0:0|0:0,0:0:0:0:
344,34,186882,2,0,L|351:159,1,125.999996154785,2|0,0:0|0:0,0:0:0:0:
302,234,187084,2,0,L|310:99,1,135.000005149842,2|0,0:0|0:0,0:0:0:0:
261,18,187287,2,0,L|270:170,1,144,2|0,0:0|0:0,0:0:0:0:
206,294,187489,1,2,0:0:0:0:
28,230,187624,1,10,0:0:0:0:
24,176,187692,1,2,0:0:0:0:
20,122,187759,1,2,0:0:0:0:
16,68,187827,1,2,0:0:0:0:
12,14,187894,5,2,1:0:0:0:
50,5,187962,1,0,0:0:0:0:
90,11,188029,1,0,0:0:0:0:
126,31,188097,1,0,0:0:0:0:
152,61,188164,1,8,0:0:0:0:
166,100,188232,1,0,0:0:0:0:
166,140,188299,1,0,0:0:0:0:
153,177,188367,1,0,0:0:0:0:
128,209,188434,1,0,1:0:0:0:
115,246,188502,1,0,0:0:0:0:
115,286,188569,1,0,0:0:0:0:
129,325,188637,1,0,0:0:0:0:
156,355,188704,1,8,0:0:0:0:
191,375,188772,1,0,0:0:0:0:
231,381,188839,1,0,0:0:0:0:
270,372,188907,1,0,0:0:0:0:
299,343,188974,6,0,P|309:292|299:222,1,107.999996704102,0|0,1:0|1:0,0:0:0:0:
384,18,189244,2,0,P|374:69|384:139,1,107.999996704102,12|0,1:2|1:0,0:0:0:0:
497,222,189514,1,12,1:2:0:0:
497,222,189582,1,0,1:0:0:0:
497,222,189649,2,0,L|500:168,1,53.9999983520508,0|0,1:0|1:0,0:0:0:0:
404,281,189784,1,12,1:2:0:0:
404,281,189852,1,0,1:0:0:0:
404,281,189919,2,0,L|408:335,1,53.9999983520508,0|0,1:0|1:0,0:0:0:0:
512,384,190054,5,12,1:2:0:0:
303,236,190189,1,0,0:0:0:0:
276,234,190257,1,0,0:0:0:0:
249,233,190324,1,8,0:0:0:0:
222,231,190392,1,0,0:0:0:0:
195,230,190459,1,0,0:0:0:0:
168,228,190527,1,0,0:0:0:0:
141,227,190594,6,0,P|147:167|169:118,1,107.999996704102,0|0,1:0|0:0,0:0:0:0:
196,96,190797,1,0,0:0:0:0:
225,73,190864,1,8,0:0:0:0:
65,18,190999,5,2,0:0:0:0:
45,37,191067,1,2,0:0:0:0:
26,56,191134,1,2,1:0:0:0:
64,144,191269,5,2,0:0:0:0:
44,163,191337,1,2,0:0:0:0:
25,182,191404,1,10,0:0:0:0:
66,275,191539,5,2,0:0:0:0:
46,294,191607,1,2,0:0:0:0:
27,313,191674,1,2,1:0:0:0:
193,357,191809,1,2,0:0:0:0:
235,370,191877,1,2,0:0:0:0:
279,363,191944,1,10,0:0:0:0:
316,338,192012,1,2,0:0:0:0:
338,300,192079,1,2,0:0:0:0:
342,255,192147,1,2,0:0:0:0:
325,214,192214,6,0,P|317:159|330:86,1,107.999996704102,2|2,1:0|0:0,0:0:0:0:
465,20,192484,1,10,0:0:0:0:
486,35,192754,6,0,L|482:159,1,107.999996704102,2|0,1:0|0:0,0:0:0:0:
463,159,192957,2,0,B|418:133|418:133|437:245,1,161.999995056153,2|0,0:0|0:0,0:0:0:0:
512,369,193294,5,2,1:0:0:0:
466,365,193362,1,0,0:0:0:0:
420,361,193429,2,0,L|351:355,1,53.9999983520508,0|0,0:0|0:0,0:0:0:0:
316,289,193564,1,10,0:0:0:0:
270,293,193632,1,0,0:0:0:0:
223,296,193699,2,0,L|169:300,1,53.9999983520508,0|0,0:0|0:0,0:0:0:0:
73,364,193834,1,2,1:0:0:0:
77,318,193902,1,0,0:0:0:0:
80,271,193969,2,0,L|84:217,1,53.9999983520508,0|0,0:0|0:0,0:0:0:0:
22,153,194104,1,10,0:0:0:0:
18,107,194172,1,0,0:0:0:0:
15,60,194239,2,0,L|10:6,1,53.9999983520508,0|0,0:0|0:0,0:0:0:0:
164,47,194374,6,0,P|194:42|227:47,1,53.9999983520508,2|0,1:0|0:0,0:0:0:0:
308,151,194509,2,0,P|288:127|276:96,1,53.9999983520508,2|0,0:0|0:0,0:0:0:0:
321,5,194644,1,10,0:0:0:0:
152,59,194779,6,0,P|182:54|215:59,1,53.9999983520508,2|0,0:0|0:0,0:0:0:0:
296,163,194914,2,0,P|276:139|264:108,1,53.9999983520508,2|0,1:0|0:0,0:0:0:0:
309,17,195049,1,2,0:0:0:0:
480,21,195184,5,10,0:0:0:0:
482,61,195252,1,0,0:0:0:0:
485,101,195319,1,0,0:0:0:0:
488,142,195387,1,0,0:0:0:0:
491,182,195454,2,0,L|428:171,7,53.9999983520508,6|0|0|0|10|0|0|0,1:0|0:0|0:0|0:0|0:0|0:0|0:0|0:0,0:0:0:0:
360,237,195994,1,6,1:0:0:0:
360,237,196062,1,0,0:0:0:0:
360,237,196129,2,0,L|306:246,1,53.9999983520508
304,341,196264,1,10,0:0:0:0:
304,341,196332,1,2,0:0:0:0:
304,341,196399,2,0,L|257:368,1,53.9999983520508,2|2,0:0|0:0,0:0:0:0:
471,382,196534,5,6,1:0:0:0:
476,355,196602,1,0,1:0:0:0:
475,328,196669,1,0,1:0:0:0:
467,302,196737,1,0,1:0:0:0:
454,279,196804,1,10,1:2:0:0:
435,260,196872,1,0,1:0:0:0:
412,246,196939,1,0,1:0:0:0:
386,238,197007,1,0,1:0:0:0:
360,237,197074,2,0,L|306:246,3,53.9999983520508,4|0|0|0,1:0|1:0|1:0|1:0,0:0:0:0:
304,341,197344,2,0,L|257:368,3,53.9999983520508,10|0|0|0,1:2|1:0|1:0|1:0,0:0:0:0:
143,343,197614,5,14,1:2:0:0:
116,347,197682,1,0,1:0:0:0:
89,343,197749,1,0,1:0:0:0:
65,331,197817,1,0,1:0:0:0:
46,313,197884,1,10,1:2:0:0:
33,289,197952,1,0,1:0:0:0:
29,263,198019,1,0,1:0:0:0:
32,236,198087,1,0,1:0:0:0:
44,212,198154,2,0,P|53:178|51:156,3,53.9999983520508,14|0|0|0,1:2|1:0|1:0|1:0,1:1:0:0:
145,111,198424,2,0,P|122:98|104:79,3,53.9999983520508,10|0|0|0,1:2|1:0|1:0|1:0,0:0:0:0:
225,242,198694,5,14,1:2:0:0:
204,214,198762,1,0,1:0:0:0:
176,195,198829,1,10,1:2:0:0:
144,186,198897,1,0,1:0:0:0:
111,187,198964,1,10,1:2:0:0:
78,179,199032,1,0,1:0:0:0:
51,159,199099,1,10,1:2:0:0:
30,132,199167,1,0,1:0:0:0:
20,100,199234,1,14,1:2:0:0:
22,66,199302,1,0,1:0:0:0:
37,36,199369,1,10,1:2:0:0:
61,13,199437,1,0,1:0:0:0:
91,0,199504,1,10,1:2:0:0:
125,0,199572,1,0,1:0:0:0:
156,10,199639,1,10,1:2:0:0:
182,31,199707,1,0,1:0:0:0:
198,60,199774,5,14,1:2:0:0:
228,28,199842,1,10,1:2:0:0:
270,13,199909,1,10,1:2:0:0:
313,18,199977,1,10,1:2:0:0:
351,41,200044,1,14,1:2:0:0:
375,78,200112,1,10,1:2:0:0:
380,122,200179,1,10,1:2:0:0:
366,163,200247,1,10,1:2:0:0:
335,194,200314,1,14,1:2:0:0:
321,236,200382,1,10,1:2:0:0:
326,279,200449,1,10,1:2:0:0:
350,316,200517,1,10,1:2:0:0:
387,339,200584,1,14,1:2:0:0:
431,344,200652,1,10,1:2:0:0:
472,329,200719,1,10,1:2:0:0:
503,298,200787,1,10,1:2:0:0:
512,256,200854,5,14,1:2:0:0:
445,98,209360,5,2,1:0:0:0:
445,98,209427,1,0,1:0:0:0:
445,98,209495,2,0,L|437:205,1,90,6|0,1:0|0:0,0:0:0:0:
357,35,209765,2,0,L|267:41,1,90,2|0,0:0|0:0,0:0:0:0:
282,131,210035,2,0,L|274:238,1,90,2|0,0:0|0:0,0:0:0:0:
186,53,210305,2,0,L|96:59,1,90,2|0,0:0|0:0,0:0:0:0:
10,225,210575,6,0,P|44:220|71:201,1,60,2|2,0:0|0:0,0:0:0:0:
134,145,210755,1,2,0:0:0:0:
161,158,210845,2,0,L|151:260,1,90,2|0,0:0|0:0,0:0:0:0:
136,364,211115,2,0,P|65:353|-13:392,2,135,2|2|2,0:0|0:0|1:0,0:0:0:0:
168,352,211587,1,0,1:0:0:0:
201,342,211655,6,0,P|247:339|300:359,1,90,6|0,1:0|0:0,0:0:0:0:
366,269,211925,2,0,P|391:307|400:363,1,90,2|0,0:0|0:0,0:0:0:0:
501,371,212195,2,0,L|513:168,1,180,2|0,0:0|0:0,0:0:0:0:
511,191,212600,1,0,0:0:0:0:
367,182,212735,6,0,P|342:144|333:88,1,90,2|0,0:0|0:0,0:0:0:0:
482,29,213005,2,0,P|461:69|417:105,1,90,2|0,0:0|0:0,0:0:0:0:
290,17,213275,1,2,0:0:0:0:
238,133,213410,1,0,0:0:0:0:
156,60,213545,2,0,L|46:56,1,90,2|0,0:0|0:0,0:0:0:0:
10,178,213815,6,0,P|3:231|9:272,1,90,6|0,1:0|0:0,0:0:0:0:
23,309,214017,2,0,P|72:288|104:262,1,90,2|0,0:0|0:0,0:0:0:0:
127,239,214220,1,2,0:0:0:0:
242,356,214355,2,0,P|253:308|249:257,1,90,2|0,0:0|0:0,0:0:0:0:
234,158,214625,1,2,0:0:0:0:
383,227,214760,1,2,1:0:0:0:
383,227,214827,1,0,1:0:0:0:
383,227,214895,6,0,L|481:219,1,90,6|0,1:0|0:0,0:0:0:0:
512,375,215165,2,0,L|414:367,1,90,2|0,0:0|0:0,0:0:0:0:
242,356,215435,2,0,P|253:308|249:257,1,90,2|0,1:2|0:0,0:0:0:0:
217,242,215637,2,0,P|169:256|127:285,1,90,2|0,0:0|0:0,0:0:0:0:
118,312,215840,1,2,0:0:0:0:
12,380,215975,6,0,P|1:315|21:253,1,90,6|0,1:0|1:0,0:0:0:0:
20,258,216177,1,0,1:0:0:0:
20,258,216245,2,0,P|30:215|27:170,1,90,8|0,1:2|1:0,0:0:0:0:
84,50,216515,1,4,1:0:0:0:
106,47,216582,1,0,1:0:0:0:
128,44,216650,1,0,1:0:0:0:
150,41,216717,1,0,1:0:0:0:
173,38,216785,1,12,1:2:0:0:
195,35,216852,1,0,1:0:0:0:
217,32,216920,1,0,1:0:0:0:
240,30,216987,1,0,1:0:0:0:
263,28,217055,6,0,P|326:17|416:108,1,202.500007724762,14|0,1:2|0:0,0:0:0:0:
494,128,217325,2,0,P|431:117|341:208,1,202.500007724762,14|0,1:2|0:0,0:0:0:0:
263,240,217595,2,0,P|326:229|416:320,1,202.500007724762,14|0,1:2|0:0,0:0:0:0:
495,348,217865,1,14,1:2:0:0:
444,345,217932,1,8,1:2:0:0:
393,343,218000,1,8,1:2:0:0:
343,340,218067,1,8,1:2:0:0:
292,338,218135,6,0,B|214:332|214:332|161:326|101:365,1,188.999994232178,12|2,1:2|0:0,0:0:0:0:
23,380,218405,2,0,P|30:323|-2:248,1,125.999996154785,10|0,0:0|0:0,0:0:0:0:
43,94,218675,2,0,L|172:101,1,125.999996154785,2|0,1:0|0:0,0:0:0:0:
198,125,218877,1,2,0:0:0:0:
227,150,218945,1,10,0:0:0:0:
87,202,219080,1,2,0:0:0:0:
37,16,219215,5,2,1:0:0:0:
58,17,219282,1,0,0:0:0:0:
176,25,219417,1,2,0:0:0:0:
197,26,219485,1,10,0:0:0:0:
330,34,219620,1,2,0:0:0:0:
405,257,219755,2,0,P|338:231|342:122,1,188.999994232178,2|2,1:0|0:0,0:0:0:0:
366,111,220025,1,10,0:0:0:0:
511,247,220160,1,2,0:0:0:0:
450,36,220295,6,0,L|460:171,1,125.999996154785,2|0,1:0|0:0,0:0:0:0:
408,236,220497,2,0,L|397:368,1,125.999996154785,2|0,0:0|0:0,0:0:0:0:
489,384,220700,1,2,0:0:0:0:
296,300,220835,2,0,P|231:274|172:289,1,125.999996154785,2|0,1:0|0:0,0:0:0:0:
144,300,221037,1,2,0:0:0:0:
113,317,221105,1,10,0:0:0:0:
10,195,221240,1,2,0:0:0:0:
0,384,221375,5,2,1:0:0:0:
112,217,221510,1,0,1:0:0:0:
112,217,221577,1,0,1:0:0:0:
112,217,221645,1,10,0:0:0:0:
230,361,221780,1,2,1:0:0:0:
304,192,221915,1,2,1:0:0:0:
113,317,222050,1,2,1:0:0:0:
320,301,222185,1,10,0:0:0:0:
290,98,222320,1,2,1:0:0:0:
10,195,222455,6,0,P|26:134|14:68,1,125.999996154785,2|0,1:0|0:0,0:0:0:0:
7,40,222657,1,2,0:0:0:0:
0,5,222725,2,0,P|62:16|127:-7,1,125.999996154785,10|2,0:0|0:0,0:0:0:0:
207,271,222995,2,0,L|217:139,1,125.999996154785,2|0,1:0|0:0,0:0:0:0:
447,134,223265,2,0,L|437:9,1,125.999996154785,10|0,0:0|0:0,0:0:0:0:
289,288,223535,5,2,1:0:0:0:
368,192,223670,1,0,0:0:0:0:
439,300,223805,1,10,0:0:0:0:
512,200,223940,1,0,0:0:0:0:
440,375,224075,5,2,1:0:0:0:
365,266,224210,1,0,0:0:0:0:
287,383,224345,1,8,0:0:0:0:
207,271,224480,1,0,0:0:0:0:
93,370,224615,5,6,1:0:0:0:
63,366,224682,1,0,1:0:0:0:
34,363,224750,1,0,1:0:0:0:
149,277,224885,5,10,1:2:0:0:
178,274,224952,1,0,1:0:0:0:
207,271,225020,1,0,1:0:0:0:
29,262,225155,5,6,1:0:0:0:
33,232,225222,1,0,1:0:0:0:
36,203,225290,1,0,1:0:0:0:
147,149,225425,5,10,1:2:0:0:
144,120,225492,1,0,1:0:0:0:
141,91,225560,1,0,1:0:0:0:
16,18,225695,5,4,1:0:0:0:
20,46,225762,1,0,1:0:0:0:
33,71,225830,1,0,1:0:0:0:
55,89,225897,1,0,1:0:0:0:
83,100,225965,1,12,1:2:0:0:
112,100,226032,1,0,1:0:0:0:
141,91,226100,1,0,1:0:0:0:
162,73,226167,1,0,1:0:0:0:
179,50,226235,1,12,1:2:0:0:
201,32,226302,1,8,1:2:0:0:
228,23,226370,1,8,1:2:0:0:
258,24,226437,1,8,1:2:0:0:
285,34,226505,1,12,1:2:0:0:
307,52,226572,1,8,1:2:0:0:
321,79,226640,1,8,1:2:0:0:
326,107,226707,1,8,1:2:0:0:
321,135,226775,5,14,1:2:0:0:
481,82,226910,1,2,0:0:0:0:
389,204,227045,1,10,0:0:0:0:
237,108,227180,1,2,0:0:0:0:
473,169,227315,2,0,P|520:259|466:332,1,188.999994232178,2|0,1:0|0:0,0:0:0:0:
401,357,227585,2,0,L|253:372,1,125.999996154785,8|0,0:0|0:0,0:0:0:0:
59,381,227855,5,2,0:0:0:0:
13,321,227945,1,2,0:0:0:0:
28,248,228035,1,2,0:0:0:0:
100,225,228125,2,0,L|226:237,1,125.999996154785,10|0,0:0|0:0,0:0:0:0:
377,191,228395,2,0,P|390:134|372:69,1,125.999996154785,2|0,1:0|0:0,0:0:0:0:
357,37,228597,1,2,0:0:0:0:
332,9,228665,1,10,0:0:0:0:
184,93,228800,1,2,0:0:0:0:
25,5,228935,5,2,1:0:0:0:
43,174,229070,1,2,0:0:0:0:
115,27,229205,1,10,0:0:0:0:
28,248,229340,1,2,0:0:0:0:
248,154,229475,2,0,P|309:160|317:321,1,251.999992309571,2|8,1:0|0:0,0:0:0:0:
323,316,229880,1,0,1:0:0:0:
505,379,230015,5,6,1:0:0:0:
505,379,230082,1,0,1:0:0:0:
505,379,230150,2,0,L|511:316,1,62.9999980773926,0|0,1:0|1:0,0:0:0:0:
442,244,230285,1,10,1:2:0:0:
442,244,230352,1,0,1:0:0:0:
442,244,230420,2,0,L|436:181,1,62.9999980773926,0|0,1:0|1:0,0:0:0:0:
501,98,230555,1,6,1:0:0:0:
481,73,230622,1,0,1:0:0:0:
457,53,230690,1,0,1:0:0:0:
429,38,230757,1,0,1:0:0:0:
399,29,230825,1,10,1:2:0:0:
367,27,230892,1,0,1:0:0:0:
336,31,230960,1,0,1:0:0:0:
306,41,231027,1,0,1:0:0:0:
279,56,231095,6,0,P|225:78|158:69,1,125.999996154785,6|0,1:0|0:0,0:0:0:0:
122,4,231297,2,0,L|108:155,1,125.999996154785,2|0,0:0|0:0,0:0:0:0:
58,213,231500,1,2,0:0:0:0:
0,6,231635,2,0,L|14:157,1,125.999996154785,2|0,1:0|0:0,0:0:0:0:
154,218,231905,1,10,0:0:0:0:
20,337,232040,1,2,0:0:0:0:
243,371,232175,6,0,L|233:228,1,125.999996154785,2|0,1:0|0:0,0:0:0:0:
324,131,232445,1,10,0:0:0:0:
492,207,232580,1,0,0:0:0:0:
363,372,232715,2,0,P|344:310|359:242,1,125.999996154785,2|0,1:0|0:0,0:0:0:0:
398,177,232917,1,2,0:0:0:0:
415,145,232985,2,0,P|411:104|398:75,1,62.9999980773926,10|0,0:0|0:0,0:0:0:0:
276,5,233120,2,0,P|313:22|345:25,1,62.9999980773926,2|0,0:0|0:0,0:0:0:0:
472,2,233255,5,2,1:0:0:0:
324,131,233390,1,0,1:0:0:0:
291,149,233457,1,2,1:0:0:0:
259,168,233525,1,10,1:2:0:0:
172,6,233660,1,2,1:0:0:0:
8,73,233795,1,2,1:0:0:0:
30,107,233862,1,0,1:0:0:0:
39,147,233930,1,0,1:0:0:0:
34,188,233997,1,0,1:0:0:0:
15,224,234065,1,10,1:2:0:0:
3,262,234132,1,0,1:0:0:0:
8,303,234200,1,2,1:0:0:0:
27,339,234267,1,0,1:0:0:0:
66,351,234335,6,0,L|135:357,3,62.9999980773926,14|0|0|0,1:2|1:0|1:0|1:0,0:0:0:0:
150,230,234605,2,0,L|206:269,3,62.9999980773926,12|0|0|0,1:2|1:2|1:0|1:0,0:0:0:0:
294,177,234875,2,0,L|323:239,3,62.9999980773926,12|0|0|0,1:2|1:2|1:2|1:2,0:0:0:0:
397,343,235145,5,12,1:2:0:0:
453,365,235212,1,8,1:2:0:0:
506,335,235280,1,8,1:2:0:0:
512,275,235347,1,8,1:2:0:0:
473,230,235415,6,0,P|437:169|436:102,1,135.000005149842,12|0,0:0|0:0,0:0:0:0:
450,66,235617,1,2,0:0:0:0:
472,23,235685,2,0,P|446:8|389:4,1,67.5000025749208,10|0,0:0|0:0,0:0:0:0:
310,22,235820,2,0,P|284:37|252:84,1,67.5000025749208,2|0,0:0|0:0,0:0:0:0:
194,160,235955,1,2,1:0:0:0:
163,158,236022,1,0,0:0:0:0:
13,175,236157,1,2,0:0:0:0:
11,144,236225,1,10,0:0:0:0:
2,0,236360,1,2,0:0:0:0:
184,25,236495,6,0,L|195:177,1,135.000005149842,2|0,1:0|0:0,0:0:0:0:
274,177,236697,2,0,L|263:329,1,135.000005149842,2|0,0:0|0:0,0:0:0:0:
226,384,236900,1,2,0:0:0:0:
45,300,237035,1,2,1:0:0:0:
20,278,237102,2,0,L|10:130,1,135.000005149842,0|2,0:0|0:0,0:0:0:0:
69,71,237305,1,10,0:0:0:0:
159,255,237440,1,2,0:0:0:0:
265,17,237575,5,2,1:0:0:0:
287,13,237642,1,0,0:0:0:0:
355,134,237777,1,2,0:0:0:0:
361,112,237845,1,10,0:0:0:0:
460,19,237980,1,2,0:0:0:0:
505,141,238115,1,2,1:0:0:0:
500,163,238182,2,0,P|491:228|517:305,1,135.000005149842,2|2,0:0|0:0,0:0:0:0:
512,382,238385,2,0,L|368:369,1,135.000005149842,10|2,0:0|0:0,0:0:0:0:
170,291,238655,5,2,1:0:0:0:
258,122,238790,1,0,1:0:0:0:
258,122,238857,1,0,1:0:0:0:
258,122,238925,1,10,0:0:0:0:
68,20,239060,1,2,1:0:0:0:
256,221,239195,1,2,1:0:0:0:
68,311,239330,1,2,1:0:0:0:
170,37,239465,1,10,0:0:0:0:
254,355,239600,1,2,1:0:0:0:
20,111,239735,6,0,P|99:115|144:173,1,135.000005149842,2|0,1:0|0:0,0:0:0:0:
68,311,239937,1,2,0:0:0:0:
68,311,240005,2,0,P|45:239|64:174,1,135.000005149842,10|0,0:0|0:0,0:0:0:0:
258,52,240275,1,2,1:0:0:0:
299,56,240342,1,0,1:0:0:0:
338,73,240410,1,0,1:0:0:0:
368,102,240477,1,0,1:0:0:0:
389,138,240545,1,10,1:2:0:0:
397,180,240612,1,0,1:0:0:0:
391,221,240680,1,0,1:0:0:0:
373,259,240747,1,0,1:0:0:0:
344,290,240815,5,14,1:2:0:0:
318,242,240882,1,0,1:0:0:0:
269,217,240950,1,0,1:0:0:0:
216,227,241017,1,0,1:0:0:0:
178,264,241085,1,10,1:2:0:0:
169,318,241152,1,0,1:0:0:0:
133,359,241220,1,0,1:0:0:0:
81,373,241287,1,0,1:0:0:0:
29,354,241355,1,10,1:2:0:0:
0,309,241422,1,0,1:0:0:0:
2,254,241490,1,0,1:2:0:0:
37,211,241557,1,0,1:0:0:0:
89,197,241625,1,10,1:2:0:0:
141,216,241692,1,0,1:0:0:0:
170,263,241760,1,0,1:2:0:0:
199,308,241827,1,0,1:0:0:0:
251,327,241895,6,0,P|285:319|320:297,3,67.5000025749208,14|0|10|0,1:2|1:0|1:2|1:0,0:0:0:0:
433,323,242165,2,0,P|443:289|441:248,3,67.5000025749208,10|0|10|0,1:2|1:0|1:2|1:0,0:0:0:0:
512,148,242435,2,0,P|488:122|451:103,3,67.5000025749208,14|0|10|0,1:2|1:0|1:2|1:0,0:0:0:0:
384,7,242705,2,0,P|350:15|315:36,3,67.5000025749208,10|0|10|0,1:2|1:0|1:2|1:0,0:0:0:0:
263,180,242975,5,14,1:2:0:0:
244,230,243042,1,10,1:2:0:0:
207,268,243110,1,10,1:2:0:0:
157,290,243177,1,10,1:2:0:0:
104,289,243245,1,14,1:2:0:0:
54,268,243312,1,10,1:2:0:0:
17,229,243380,1,10,1:2:0:0:
0,179,243447,1,10,1:2:0:0:
1,126,243515,1,14,1:2:0:0:
25,77,243582,1,10,1:2:0:0:
65,42,243650,1,10,1:2:0:0:
118,33,243717,1,10,1:2:0:0:
168,51,243785,1,14,1:2:0:0:
203,91,243852,1,10,1:2:0:0:
208,144,243919,1,10,1:2:0:0:
180,189,243987,1,10,1:2:0:0:
131,210,244055,6,0,P|86:178|112:107,1,125.999996154785,14|0,1:2|0:0,0:0:0:0:
336,243,244325,2,0,P|311:324|212:346,1,188.999994232178,10|0,1:2|0:0,0:0:0:0:
157,290,244595,1,2,1:0:0:0:
283,179,244730,1,0,0:0:0:0:
439,358,244865,2,0,L|427:232,1,125.999996154785,8|0,0:0|0:0,0:0:0:0:
505,44,245135,5,2,1:0:0:0:
441,3,245225,1,2,0:0:0:0:
365,1,245315,1,2,0:0:0:0:
304,46,245405,2,0,L|292:172,1,125.999996154785,10|0,0:0|0:0,0:0:0:0:
170,336,245675,2,0,P|109:329|58:292,1,125.999996154785,2|0,1:0|0:0,0:0:0:0:
23,189,245877,2,0,P|48:247|41:309,1,125.999996154785,2|0,0:0|0:0,0:0:0:0:
0,384,246080,1,2,0:0:0:0:
141,242,246215,6,0,L|131:102,1,125.999996154785,2|0,1:0|0:0,0:0:0:0:
128,83,246417,1,2,0:0:0:0:
124,45,246485,1,10,0:0:0:0:
0,0,246620,1,2,0:0:0:0:
23,189,246755,1,2,1:0:0:0:
216,0,246890,2,0,L|226:142,1,125.999996154785,2|8,0:0|0:0,0:0:0:0:
342,237,247160,1,0,1:0:0:0:
342,237,247227,1,0,1:0:0:0:
342,237,247295,6,0,L|336:300,1,62.9999980773926,6|0,1:0|0:0,0:0:0:0:
210,291,247430,2,0,L|204:354,1,62.9999980773926,2|0,0:0|0:0,0:0:0:0:
325,224,247565,2,0,L|319:287,1,62.9999980773926,10|0,0:0|0:0,0:0:0:0:
193,278,247700,2,0,L|187:341,1,62.9999980773926,2|0,0:0|0:0,0:0:0:0:
440,194,247835,1,6,1:0:0:0:
416,164,247902,1,0,1:0:0:0:
387,140,247970,1,0,1:0:0:0:
353,122,248037,1,0,1:0:0:0:
317,111,248105,1,10,1:2:0:0:
279,108,248172,1,0,1:0:0:0:
242,113,248240,1,0,1:0:0:0:
206,125,248307,1,0,1:0:0:0:
173,143,248375,6,0,L|31:135,1,125.999996154785,6|0,1:0|0:0,0:0:0:0:
0,38,248577,2,0,L|142:30,1,125.999996154785,2|0,0:0|0:0,0:0:0:0:
239,22,248780,1,2,0:0:0:0:
212,228,248915,2,0,L|203:353,1,125.999996154785,2|0,1:0|0:0,0:0:0:0:
47,135,249185,1,10,0:0:0:0:
83,353,249320,1,2,0:0:0:0:
325,224,249455,6,0,L|315:356,1,125.999996154785,2|0,1:0|0:0,0:0:0:0:
173,143,249725,1,10,0:0:0:0:
381,104,249860,1,0,0:0:0:0:
437,343,249995,2,0,L|448:206,1,125.999996154785,2|0,1:0|0:0,0:0:0:0:
420,130,250197,1,2,0:0:0:0:
381,104,250265,2,0,P|320:114|264:169,1,125.999996154785,10|2,0:0|0:0,0:0:0:0:
83,353,250535,5,6,1:0:0:0:
129,239,250670,1,0,1:0:0:0:
129,239,250737,1,2,1:0:0:0:
129,239,250805,1,8,1:2:0:0:
11,197,250940,1,2,1:0:0:0:
171,69,251075,2,0,L|233:62,3,62.9999980773926,6|0|0|0,1:0|1:0|1:0|1:0,0:0:0:0:
87,24,251345,2,0,L|7:14,3,62.9999980773926,8|0|2|0,1:2|1:0|1:0|1:0,1:1:0:0:
125,148,251615,5,14,1:2:0:0:
129,194,251682,1,0,1:0:0:0:
133,240,251750,2,0,L|140:317,1,62.9999980773926,0|0,1:0|1:0,0:0:0:0:
245,363,251885,1,14,1:2:0:0:
249,317,251952,1,0,1:2:0:0:
253,271,252020,2,0,L|260:194,1,62.9999980773926,0|0,1:0|1:0,0:0:0:0:
378,138,252155,1,14,1:2:0:0:
382,185,252223,1,0,1:0:0:0:
386,231,252290,2,0,L|393:308,1,62.9999980773926,0|0,1:0|1:0,0:0:0:0:
498,354,252425,1,14,1:2:0:0:
502,308,252493,1,8,1:2:0:0:
506,262,252560,2,0,L|513:185,1,62.9999980773926,8|8,1:2|1:2,0:0:0:0:
497,53,252695,5,14,1:2:0:0:
476,39,252763,1,0,1:0:0:0:
453,30,252830,1,0,1:0:0:0:
429,25,252898,1,0,1:0:0:0:
404,24,252965,1,10,1:2:0:0:
379,27,253033,1,0,1:0:0:0:
356,35,253100,1,0,1:0:0:0:
334,46,253168,1,0,1:0:0:0:
315,64,253235,2,0,P|300:100|300:123,1,49.5000015106202,10|0,1:2|1:0,0:0:0:0:
266,189,253370,2,0,P|230:174|207:174,1,49.5000015106202,0|0,1:0|1:0,0:0:0:0:
196,61,253505,2,0,P|159:75|143:92,1,49.5000015106202,10|0,1:2|1:0,0:0:0:0:
71,151,253640,2,0,P|56:114|39:98,1,49.5000015106202,0|0,1:0|1:0,0:0:0:0:
0,0,253775,5,14,1:2:0:0:
2,35,253843,1,0,1:0:0:0:
5,70,253910,1,0,1:0:0:0:
8,105,253978,1,0,1:0:0:0:
11,140,254045,1,10,1:2:0:0:
14,175,254113,1,0,1:0:0:0:
17,210,254180,1,0,1:0:0:0:
20,245,254248,1,0,1:0:0:0:
23,280,254315,2,0,L|89:290,1,56.25,10|0,1:2|1:0,0:0:0:0:
148,208,254450,2,0,L|214:218,1,56.25,0|0,1:0|1:0,0:0:0:0:
168,350,254585,2,0,L|234:360,1,56.25,10|0,1:2|1:0,0:0:0:0:
293,278,254720,2,0,L|359:288,1,56.25,0|0,1:0|1:0,0:0:0:0:
512,384,254855,5,14,1:2:0:0:
465,372,254923,1,0,1:0:0:0:
433,339,254990,1,10,1:2:0:0:
424,293,255058,1,0,1:0:0:0:
441,250,255125,1,10,1:2:0:0:
471,214,255193,1,0,1:0:0:0:
479,167,255260,1,10,1:2:0:0:
463,123,255328,1,0,1:0:0:0:
427,94,255395,1,14,1:2:0:0:
380,87,255463,1,0,1:0:0:0:
337,105,255530,1,10,1:2:0:0:
308,143,255598,1,0,1:0:0:0:
303,189,255665,1,10,1:2:0:0:
316,232,255733,1,0,1:0:0:0:
302,277,255800,1,10,1:2:0:0:
267,308,255868,1,0,1:0:0:0:
222,315,255935,6,0,L|147:307,1,69.7500005321503,14|10,1:2|1:2,0:0:0:0:
9,254,256070,2,0,L|83:246,1,69.7500005321503,10|10,1:2|1:2,0:0:0:0:
205,173,256205,2,0,L|130:165,1,69.7500005321503,14|10,1:2|1:2,0:0:0:0:
0,101,256340,2,0,L|74:93,1,69.7500005321503,10|10,1:2|1:2,0:0:0:0:
192,30,256475,1,14,1:2:0:0:
255,4,256542,1,10,1:2:0:0:
317,30,256610,1,10,1:2:0:0:
345,91,256677,1,10,1:2:0:0:
324,155,256745,1,14,1:2:0:0:
352,217,256813,1,10,1:2:0:0:
415,243,256881,1,10,1:2:0:0:
478,217,256948,1,10,1:2:0:0:
504,153,257015,5,14,1:2:0:0:
256,192,257083,12,2,261335,0:0:0:0:
