osu file format v14

[General]
AudioFilename: audio.mp3
AudioLeadIn: 0
PreviewTime: 164126
Countdown: 0
SampleSet: Soft
StackLeniency: 0.4
Mode: 0
LetterboxInBreaks: 0
WidescreenStoryboard: 0

[Editor]
Bookmarks: 28053,47493,64773,82053,98253,107974,125254,146854,164134,200854,209495,218135,235415,244055,257015,261335
DistanceSpacing: 0.8
BeatDivisor: 4
GridSize: 32
TimelineZoom: 2.399999

[Metadata]
Title:FREEDOM DiVE
TitleUnicode:FREEDOM DiVE↓
Artist:xi
ArtistUnicode:xi
Creator:FrenZ396
Version:ENDLESS DiMENSiONS
Source:Cytus
Tags:VOEZ muse dash SOUND VOLTEX IV HEAVENLY HAVEN 太鼓の達人 CHUNITHM parousia cytus II WACCA BMS Taiko no Tatsujin deathstreams RSI piano happy hardcore full version video game instrumental
BeatmapID:2249059
BeatmapSetID:1074758

[Difficulty]
HPDrainRate:6
CircleSize:4
OverallDifficulty:9.6
ApproachRate:9.8
SliderMultiplier:1.9
SliderTickRate:1

[Events]
//Background and Video events
0,0,"freedom dive 2x.jpg",0,0
//Break Periods
//Storyboard Layer 0 (Background)
//Storyboard Layer 1 (Fail)
//Storyboard Layer 2 (Pass)
//Storyboard Layer 3 (Foreground)
//Storyboard Layer 4 (Overlay)
//Storyboard Sound Samples

[TimingPoints]
2133,270.002700027,4,2,22,65,1,0
2133,-100,4,2,22,70,0,0
28053,-166.666666666667,4,2,22,55,0,0
33453,-125,4,2,22,55,0,0
33993,-166.666666666667,4,2,22,55,0,0
35073,-250,4,2,22,55,0,0
35613,-166.666666666667,4,2,22,55,0,0
36963,-142.857142857143,4,2,22,55,0,0
37233,-125,4,2,22,55,0,0
37503,-111.111111111111,4,2,22,55,0,0
37773,-125,4,2,22,55,0,0
38853,-142.857142857143,4,2,22,55,0,0
39123,-117.647058823529,4,2,22,55,0,0
39393,-100,4,2,22,55,0,0
39933,-117.647058823529,4,2,22,55,0,0
44253,-90.9090909090909,4,2,22,55,0,0
44455,-90.9090909090909,4,2,22,5,0,0
44523,-90.9090909090909,4,2,22,55,0,0
44725,-90.9090909090909,4,2,22,5,0,0
44793,-151.515151515152,4,2,22,55,0,0
44995,-151.515151515152,4,2,22,5,0,0
45063,-151.515151515152,4,2,22,55,0,0
45333,-100,4,2,22,55,0,0
47493,-100,4,2,22,65,0,0
64773,-83.3333333333333,4,2,22,85,0,1
82053,-166.666666666667,4,2,22,70,0,0
90693,-125,4,2,22,50,0,0
95013,-125,4,2,22,65,0,0
98253,-125,4,2,22,50,0,0
102304,-100,4,2,22,70,0,0
102574,-100,4,2,22,60,0,0
103654,-100,4,2,22,67,0,0
104734,-100,4,2,22,74,0,0
105814,-100,4,2,22,81,0,0
106354,-100,4,2,22,88,0,0
106894,-100,4,2,22,95,0,0
107704,-100,4,2,22,85,0,0
107974,-76.9230769230769,4,2,22,85,0,1
140374,-125,4,2,22,85,0,1
141454,-76.9230769230769,4,2,22,85,0,1
142534,-76.9230769230769,4,2,22,85,0,1
146854,-100,4,2,22,65,0,0
163864,-76.9230769230769,4,2,22,85,0,0
164134,-83.3333333333333,4,2,22,70,0,0
165214,-62.5,4,2,22,70,0,0
165417,-62.5,4,2,22,5,0,0
165484,-71.4285714285714,4,2,22,70,0,0
165619,-71.4285714285714,4,2,22,5,0,0
165687,-83.3333333333333,4,2,22,70,0,0
165822,-83.3333333333333,4,2,22,5,0,0
165889,-100,4,2,22,70,0,0
166024,-100,4,2,22,5,0,0
166092,-125,4,2,22,70,0,0
166227,-125,4,2,22,5,0,0
166294,-83.3333333333333,4,2,22,70,0,0
170884,-66.6666666666667,4,2,22,70,0,0
171694,-83.3333333333333,4,2,22,70,0,0
186274,-100,4,2,22,70,0,0
186409,-100,4,2,22,5,0,0
186477,-86.9565217391304,4,2,22,70,0,0
186612,-86.9565217391304,4,2,22,5,0,0
186679,-76.9230769230769,4,2,22,70,0,0
186814,-76.9230769230769,4,2,22,5,0,0
186882,-68.9655172413793,4,2,22,70,0,0
187017,-68.9655172413793,4,2,22,5,0,0
187084,-62.5,4,2,22,70,0,0
187219,-62.5,4,2,22,5,0,0
187287,-57.1428571428571,4,2,22,70,0,0
187422,-57.1428571428571,4,2,22,5,0,0
187489,-57.1428571428571,4,2,22,70,0,0
187624,-74.0740740740741,4,2,22,70,0,0
196534,-100,4,2,22,75,0,0
197614,-100,4,2,22,80,0,0
198694,-100,4,2,22,85,0,0
199774,-100,4,2,22,90,0,0
200854,-125,4,2,22,90,0,0
200922,-125,4,2,22,75,0,0
206255,-100,4,2,22,75,0,0
206795,-125,4,2,22,75,0,0
207335,-166.666666666667,4,2,22,75,0,0
207875,-250,4,2,22,75,0,0
208415,-125,4,2,22,75,0,0
209495,-100,4,2,22,75,0,0
215975,-100,4,2,22,80,0,0
217055,-66.6666666666667,4,2,22,70,0,0
217257,-66.6666666666667,4,2,22,5,0,0
217325,-66.6666666666667,4,2,22,70,0,0
217527,-66.6666666666667,4,2,22,5,0,0
217595,-66.6666666666667,4,2,22,70,0,0
217797,-66.6666666666667,4,2,22,5,0,0
217865,-66.6666666666667,4,2,22,70,0,0
218135,-66.6666666666667,4,2,22,85,0,1
224885,-76.9230769230769,4,2,22,85,0,1
225155,-90.9090909090909,4,2,22,85,0,1
225425,-111.111111111111,4,2,22,85,0,1
225695,-66.6666666666667,4,2,22,85,0,1
235415,-60.6060606060606,4,2,22,90,0,1
240275,-64.5161290322581,4,2,22,100,0,1
240815,-60.6060606060606,4,2,22,100,0,1
244055,-66.6666666666667,4,2,22,90,0,1
252695,-100,4,2,22,60,0,1
253235,-100,4,2,22,65,0,1
253775,-100,4,2,22,70,0,1
254315,-100,4,2,22,75,0,1
254855,-100,4,2,22,80,0,1
255395,-100,4,2,22,85,0,1
255935,-100,4,2,22,90,0,1
256475,-100,4,2,22,95,0,1
257015,-200,4,2,22,100,0,1
257083,-200,4,2,22,60,0,0

[Colours]
Combo1 : 132,193,255
Combo2 : 192,238,100
Combo3 : 255,177,100
Combo4 : 252,225,143

[HitObjects]
483,179,2133,6,0,L|495:37,2,142.5,6|0|0,1:0|1:0|1:0,0:0:0:0:
400,347,2808,1,0,1:0:0:0:
482,305,2943,1,0,1:0:0:0:
409,257,3078,1,0,1:0:0:0:
380,360,3213,2,0,P|309:370|239:359,2,142.5,0|0|0,1:0|1:0|1:0,0:0:0:0:
392,242,3753,1,0,1:0:0:0:
296,187,3888,1,0,1:0:0:0:
206,246,4023,1,0,1:0:0:0:
179,91,4293,6,0,L|187:233,2,142.5,6|0|0,1:0|1:0|1:0,0:0:0:0:
22,28,4968,1,0,1:0:0:0:
85,101,5103,1,0,1:0:0:0:
112,14,5238,1,0,1:0:0:0:
0,35,5373,2,0,P|-8:110|19:189,2,142.5,0|0|0,1:0|1:0|1:0,0:0:0:0:
132,15,5913,1,0,1:0:0:0:
162,18,5980,1,0,1:0:0:0:
191,21,6048,2,0,L|227:23,2,23.75,0|0|0,1:0|1:0|1:0,0:0:0:0:
193,105,6183,1,0,1:0:0:0:
228,108,6250,1,0,1:0:0:0:
261,97,6318,1,0,1:0:0:0:
289,74,6385,1,0,1:0:0:0:
305,43,6453,6,0,P|383:33|461:77,2,142.5,6|0|0,1:0|1:0|1:0,0:0:0:0:
361,195,7128,1,0,1:0:0:0:
456,178,7263,1,0,1:0:0:0:
423,273,7398,1,0,1:0:0:0:
345,181,7533,2,0,L|329:344,2,142.5,0|0|0,1:0|1:0|1:0,0:0:0:0:
247,184,8073,1,0,1:0:0:0:
156,190,8208,1,0,1:0:0:0:
59,198,8343,1,0,1:0:0:0:
41,189,8613,6,0,B|26:117|26:117|54:34,2,142.5,6|0|0,1:0|1:0|1:0,0:0:0:0:
140,179,9153,2,0,B|130:130|130:130|150:66,1,95,6|0,1:0|1:0,0:0:0:0:
107,272,9423,2,0,B|120:314|120:314|110:363,1,95,0|0,1:0|1:0,0:0:0:0:
247,364,9693,5,6,1:0:0:0:
247,364,9760,1,0,1:0:0:0:
247,364,9828,2,0,L|309:359,1,47.5,0|0,1:0|1:0,0:0:0:0:
339,282,9963,1,6,1:0:0:0:
339,282,10030,1,0,1:0:0:0:
339,282,10098,2,0,L|386:322,1,47.5,0|0,1:0|1:0,0:0:0:0:
460,365,10233,5,14,1:2:0:0:
480,333,10300,1,8,1:2:0:0:
487,296,10368,1,8,1:2:0:0:
478,259,10435,1,8,1:2:0:0:
455,229,10503,1,14,1:2:0:0:
433,198,10570,1,8,1:2:0:0:
427,161,10638,1,8,1:2:0:0:
436,124,10705,1,8,1:2:0:0:
459,94,10773,6,0,P|407:88|324:142,1,142.5,14|0,1:2|0:0,0:0:0:0:
305,154,11043,2,0,P|311:102|291:33,1,95,10|0,0:0|0:0,0:0:0:0:
183,17,11313,2,0,P|174:63|181:110,1,95,0|0,1:0|0:0,0:0:0:0:
97,205,11583,1,10,0:0:0:0:
0,106,11718,1,0,0:0:0:0:
99,24,11853,6,0,L|113:232,1,190,0|10,1:0|0:0,0:0:0:0:
153,375,12258,1,0,0:0:0:0:
11,378,12393,2,0,P|4:334|16:274,1,95,0|0,1:0|0:0,0:0:0:0:
131,223,12663,2,0,P|172:238|218:279,1,95,10|0,0:0|1:0,0:0:0:0:
342,355,12933,6,0,P|404:364|466:285,1,142.5,6|0,1:0|0:0,0:0:0:0:
472,287,13203,2,0,L|480:182,1,95,10|0,0:0|0:0,0:0:0:0:
310,122,13473,2,0,L|404:114,1,95,0|0,1:0|0:0,0:0:0:0:
503,11,13743,1,10,0:0:0:0:
412,133,13878,1,0,0:0:0:0:
314,18,14013,6,0,P|252:17|204:112,1,142.5,0|0,1:0|0:0,0:0:0:0:
204,100,14283,2,0,P|157:89|88:103,1,95,14|0,0:0|0:0,0:0:0:0:
21,25,14553,2,0,L|10:119,1,95,14|0,0:0|0:0,0:0:0:0:
34,143,14755,2,0,L|44:237,1,95,14|0,0:0|0:0,0:0:0:0:
0,307,14958,1,14,0:0:0:0:
175,372,15093,6,0,P|198:304|167:221,1,142.5,6|0,1:0|0:0,0:0:0:0:
157,210,15363,2,0,L|270:199,1,95,10|0,1:2|0:0,0:0:0:0:
314,323,15633,2,0,L|427:334,1,95,0|0,1:0|0:0,0:0:0:0:
495,220,15903,1,10,0:0:0:0:
347,80,16038,1,4,1:0:0:0:
364,88,16308,5,0,1:0:0:0:
380,98,16375,1,0,1:0:0:0:
395,106,16443,2,0,P|386:157|395:204,1,95,14|0,0:0|1:0,0:0:0:0:
507,233,16713,1,4,1:0:0:0:
494,96,16848,1,0,1:0:0:0:
487,78,16915,1,0,1:0:0:0:
477,60,16983,2,0,P|437:26|392:11,1,95,14|0,0:0|1:0,0:0:0:0:
260,60,17253,6,0,P|192:62|111:5,1,142.5,6|0,0:0|0:0,0:0:0:0:
95,7,17523,1,8,0:0:0:0:
23,165,17658,1,0,1:0:0:0:
23,165,17725,1,0,1:0:0:0:
23,165,17793,2,0,L|13:274,1,95,6|0,1:0|0:0,0:0:0:0:
133,360,18063,2,0,L|126:255,1,95,10|0,0:0|1:0,0:0:0:0:
244,165,18333,5,4,1:0:0:0:
243,183,18400,1,0,1:0:0:0:
242,202,18468,1,0,1:0:0:0:
241,221,18535,1,0,1:0:0:0:
240,240,18603,1,12,1:2:0:0:
239,259,18670,1,0,1:0:0:0:
238,278,18738,1,0,1:0:0:0:
237,297,18805,1,0,1:0:0:0:
236,316,18873,5,12,1:2:0:0:
268,296,18940,1,8,1:2:0:0:
305,289,19008,1,8,1:2:0:0:
342,298,19075,1,8,1:2:0:0:
372,321,19143,1,12,1:2:0:0:
403,343,19210,1,8,1:2:0:0:
440,349,19278,1,8,1:2:0:0:
477,340,19345,1,8,1:2:0:0:
507,317,19413,6,0,P|487:252|498:178,1,142.5,12|0,1:2|0:0,0:0:0:0:
486,144,19683,2,0,P|438:152|370:131,1,95,10|0,0:0|0:0,0:0:0:0:
312,13,19953,2,0,P|360:5|428:26,1,95,0|0,1:0|0:0,0:0:0:0:
377,157,20223,1,10,0:0:0:0:
295,28,20358,1,0,0:0:0:0:
216,172,20493,6,0,L|8:160,1,190,0|10,1:0|0:0,0:0:0:0:
54,7,20898,1,0,0:0:0:0:
190,63,21033,2,0,L|198:174,1,95,0|0,1:0|0:0,0:0:0:0:
207,293,21303,1,10,0:0:0:0:
10,268,21438,1,0,1:0:0:0:
121,380,21573,6,0,P|109:324|176:276,1,142.5,6|0,1:0|0:0,0:0:0:0:
207,293,21843,2,0,P|256:300|316:287,1,95,10|0,0:0|0:0,0:0:0:0:
410,363,22113,2,0,P|402:316|409:269,1,95,0|0,1:0|0:0,0:0:0:0:
487,186,22383,1,10,0:0:0:0:
357,57,22518,1,0,0:0:0:0:
201,205,22653,6,0,L|188:41,1,142.5,0|0,1:0|0:0,0:0:0:0:
187,29,22923,2,0,L|293:37,1,95,14|0,0:0|0:0,0:0:0:0:
427,13,23193,2,0,P|435:59|426:105,1,95,14|0,0:0|0:0,0:0:0:0:
413,133,23395,2,0,P|404:179|413:225,1,95,14|0,0:0|0:0,0:0:0:0:
485,315,23598,1,14,0:0:0:0:
293,377,23733,6,0,P|230:355|139:384,1,142.5,6|0,1:0|0:0,0:0:0:0:
120,356,24003,2,0,P|130:305|118:252,1,95,10|0,1:2|0:0,0:0:0:0:
75,157,24273,2,0,P|65:106|77:53,1,95,0|0,1:0|0:0,0:0:0:0:
187,25,24543,1,10,0:0:0:0:
57,173,24678,1,4,1:0:0:0:
40,189,24948,5,0,1:0:0:0:
22,205,25015,1,0,1:0:0:0:
5,221,25083,2,0,L|12:332,1,95,14|0,0:0|1:0,0:0:0:0:
120,382,25353,1,4,1:0:0:0:
172,267,25488,1,0,1:0:0:0:
172,267,25555,1,0,1:0:0:0:
172,267,25623,2,0,L|236:274,1,47.5,12|0,1:2|1:0,0:0:0:0:
325,384,25758,1,0,1:0:0:0:
325,384,25825,1,0,1:0:0:0:
325,384,25893,5,4,1:0:0:0:
476,319,26028,1,0,1:0:0:0:
346,221,26163,1,8,1:2:0:0:
498,46,26298,1,0,1:0:0:0:
498,46,26365,1,0,1:0:0:0:
498,46,26433,1,4,1:0:0:0:
347,110,26568,1,0,1:0:0:0:
477,209,26703,1,8,1:2:0:0:
402,31,26838,1,0,1:0:0:0:
245,123,26973,5,4,1:0:0:0:
233,136,27040,1,0,1:0:0:0:
223,151,27108,1,0,1:0:0:0:
215,166,27175,1,0,1:0:0:0:
208,183,27243,1,12,1:2:0:0:
204,200,27310,1,0,1:0:0:0:
201,218,27378,1,0,1:0:0:0:
201,236,27445,1,0,1:0:0:0:
204,254,27513,5,12,1:2:0:0:
206,300,27580,1,8,1:2:0:0:
184,342,27648,1,8,1:2:0:0:
144,368,27715,1,8,1:2:0:0:
98,371,27783,1,12,1:2:0:0:
55,349,27850,1,8,1:2:0:0:
29,311,27918,1,8,1:2:0:0:
26,263,27985,1,8,1:2:0:0:
47,221,28053,6,0,P|56:187|55:131,2,85.4999973907472,12|0|0,1:2|0:0|0:0,0:0:0:0:
135,50,28593,2,0,P|106:23|63:0,2,85.4999973907472,2|0|0,0:0|0:0|0:0,0:0:0:0:
305,89,29133,6,0,P|318:134|308:185,1,85.4999973907472,2|0,0:0|0:0,0:0:0:0:
303,196,29403,2,0,P|296:237|308:271,1,56.9999982604981,0|0,0:0|0:0,0:0:0:0:
359,365,29673,2,0,P|314:352|263:362,1,85.4999973907472,2|0,0:0|0:0,0:0:0:0:
252,367,29943,2,0,P|211:374|177:362,1,56.9999982604981,2|0,0:0|0:0,0:0:0:0:
74,319,30213,6,0,L|81:251,1,56.9999982604981,2|0,0:0|0:0,0:0:0:0:
83,229,30415,2,0,L|7:234,1,56.9999982604981,0|0,0:0|0:0,0:0:0:0:
4,209,30618,1,0,0:0:0:0:
106,115,30753,6,0,P|134:113|163:102,1,56.9999982604981,2|0,0:0|0:0,0:0:0:0:
196,91,30955,2,0,L|189:35,1,56.9999982604981,0|0,0:0|0:0,0:0:0:0:
159,7,31158,1,0,0:0:0:0:
305,89,31293,5,2,0:0:0:0:
425,25,31428,1,2,0:0:0:0:
425,25,31495,1,2,0:0:0:0:
425,25,31563,2,0,P|464:37|489:57,1,56.9999982604981,2|2,0:0|0:0,0:0:0:0:
493,148,31833,1,2,0:0:0:0:
435,223,31968,1,2,0:0:0:0:
331,174,32103,1,2,0:0:0:0:
263,264,32238,1,2,0:0:0:0:
115,130,32373,5,2,0:0:0:0:
176,229,32508,1,0,0:0:0:0:
176,229,32575,1,2,0:0:0:0:
176,229,32643,2,0,L|170:299,1,56.9999982604981
24,148,32913,6,0,P|27:181|22:216,1,56.9999982604981,2|0,0:0|0:0,0:0:0:0:
75,362,33183,2,0,P|72:333|75:305,1,56.9999982604981,2|0,0:0|0:0,0:0:0:0:
6,133,33453,2,0,P|9:166|2:215,1,76,2|0,0:0|0:0,0:0:0:0:
56,371,33723,2,0,P|53:342|59:292,1,76,2|0,0:0|0:0,0:0:0:0:
24,148,33993,2,0,P|27:181|22:216,1,56.9999982604981,2|0,0:0|0:0,0:0:0:0:
75,362,34263,2,0,P|72:333|75:305,1,56.9999982604981,2|0,0:0|0:0,0:0:0:0:
202,183,34533,6,0,L|274:187,1,56.9999982604981,2|0,0:0|0:0,0:0:0:0:
251,288,34803,2,0,L|319:310,1,56.9999982604981,2|0,0:0|0:0,0:0:0:0:
368,217,35073,2,0,L|412:246,1,38,2|0,0:0|0:0,0:0:0:0:
404,340,35343,2,0,L|439:380,1,38,2|0,0:0|0:0,0:0:0:0:
512,309,35613,5,2,0:0:0:0:
497,192,35815,1,2,0:0:0:0:
481,79,36018,1,2,0:0:0:0:
384,40,36153,2,0,P|379:72|389:118,1,56.9999982604981,2|0,0:0|0:0,0:0:0:0:
478,181,36423,1,0,0:0:0:0:
284,17,36558,1,2,1:0:0:0:
279,34,36625,1,0,1:0:0:0:
276,51,36693,6,0,L|273:129,1,56.9999982604981,6|0,1:0|0:0,0:0:0:0:
181,155,36963,2,0,L|177:86,1,66.4999979705811,2|0,0:0|0:0,0:0:0:0:
276,213,37233,2,0,L|270:296,1,76,2|0,0:0|0:0,0:0:0:0:
126,342,37503,2,0,L|120:257,1,85.4999973907472,2|0,0:0|0:0,0:0:0:0:
11,121,37773,5,2,0:0:0:0:
22,64,37863,1,2,0:0:0:0:
67,29,37953,1,2,0:0:0:0:
124,36,38043,2,0,P|155:55|179:97,1,76,2|0,0:0|0:0,0:0:0:0:
26,218,38313,1,2,0:0:0:0:
126,342,38515,1,2,0:0:0:0:
286,187,38718,1,2,1:0:0:0:
311,192,38785,1,0,1:0:0:0:
334,197,38853,6,0,P|343:157|370:117,1,66.4999979705811,6|0,1:0|0:0,0:0:0:0:
472,64,39123,2,0,P|468:98|481:149,1,80.750001540184,2|0,0:0|0:0,0:0:0:0:
507,280,39393,2,0,P|484:347|376:345,1,190,2|0,0:0|0:0,0:0:0:0:
262,261,39798,1,0,0:0:0:0:
234,257,39865,1,0,0:0:0:0:
202,251,39933,6,0,P|159:249|96:268,1,80.750001540184,2|0,0:0|0:0,0:0:0:0:
0,266,40203,2,0,P|12:230|37:195,1,80.750001540184,2|0,0:0|0:0,0:0:0:0:
165,92,40473,2,0,P|143:124|129:163,1,80.750001540184,2|0,0:0|0:0,0:0:0:0:
115,384,40743,2,0,P|91:354|72:316,1,80.750001540184,2|0,0:0|0:0,0:0:0:0:
17,63,41013,6,0,L|148:70,1,121.125002310276,6|2,1:0|0:0,0:0:0:0:
165,92,41283,2,0,P|141:124|127:175,1,80.750001540184,0|2,0:0|0:0,0:0:0:0:
353,103,41553,2,0,P|417:97|463:6,1,161.500003080368,2|2,0:0|0:0,0:0:0:0:
245,14,41958,1,2,1:0:0:0:
251,47,42025,1,0,1:0:0:0:
258,83,42093,6,0,P|262:134|249:184,1,80.750001540184,6|0,1:0|0:0,0:0:0:0:
224,267,42363,2,0,P|275:263|324:275,1,80.750001540184,2|0,0:0|0:0,0:0:0:0:
406,186,42633,1,6,1:0:0:0:
471,319,42835,2,0,P|432:365|356:364,1,121.125002310276,2|2,0:0|0:0,0:0:0:0:
241,355,43173,5,6,1:0:0:0:
222,356,43240,1,0,1:0:0:0:
203,357,43308,1,0,1:0:0:0:
184,359,43375,1,0,1:0:0:0:
165,360,43443,1,0,1:0:0:0:
146,361,43510,1,0,1:0:0:0:
127,363,43578,1,0,1:0:0:0:
108,364,43645,1,0,1:0:0:0:
90,365,43713,2,0,L|43:354,3,40.375000770092,12|0|0|0,1:2|1:0|1:0|1:0,0:0:0:0:
67,263,43983,2,0,L|29:227,3,40.375000770092,12|0|0|0,1:2|1:0|1:0|1:0,0:0:0:0:
232,203,44253,6,0,L|220:47,1,156.750004783631,8|0,1:2|0:0,0:0:0:0:
192,21,44523,2,0,P|114:8|39:37,1,156.750004783631,8|0,1:2|0:0,0:0:0:0:
149,230,44793,2,0,L|141:127,1,94.0499997129822,8|0,1:2|0:0,0:0:0:0:
107,109,45063,2,0,P|66:114|21:145,1,94.0499997129822,8|0,1:2|0:0,0:0:0:0:
67,263,45333,5,2,1:0:0:0:
232,203,45468,1,0,1:0:0:0:
199,366,45603,1,8,0:0:0:0:
149,230,45738,1,0,1:0:0:0:
149,230,45805,1,0,1:0:0:0:
149,230,45873,2,0,L|140:117,1,95,2|0,1:0|1:0,0:0:0:0:
309,124,46143,2,0,L|320:19,1,95,10|0,0:0|1:0,0:0:0:0:
410,253,46413,5,6,1:0:0:0:
416,286,46480,1,0,1:0:0:0:
405,320,46548,1,0,1:0:0:0:
380,344,46615,1,0,1:0:0:0:
345,352,46683,1,14,1:2:0:0:
312,343,46750,1,0,1:0:0:0:
286,318,46818,1,0,1:0:0:0:
278,284,46885,1,0,1:0:0:0:
287,249,46953,1,14,1:2:0:0:
279,215,47020,1,8,1:2:0:0:
253,190,47088,1,8,1:2:0:0:
220,181,47155,1,8,1:2:0:0:
185,189,47223,1,14,1:2:0:0:
160,213,47290,1,8,1:2:0:0:
149,247,47358,1,8,1:2:0:0:
155,280,47425,1,8,1:2:0:0:
175,309,47493,6,0,L|159:114,1,190,14|8,1:2|0:0,0:0:0:0:
48,1,47898,1,0,0:0:0:0:
0,132,48033,2,0,L|15:321,1,190,0|8,1:0|0:0,0:0:0:0:
145,384,48438,1,0,1:0:0:0:
145,384,48505,1,0,1:0:0:0:
145,384,48573,6,0,P|190:383|248:348,1,95,0|0,1:0|0:0,0:0:0:0:
414,298,48843,2,0,P|369:297|311:262,1,95,8|0,0:0|0:0,0:0:0:0:
160,177,49113,2,0,P|205:176|263:141,1,95,0|0,1:0|0:0,0:0:0:0:
432,83,49383,2,0,P|387:82|329:47,1,95,8|0,0:0|0:0,0:0:0:0:
199,0,49653,6,0,L|190:121,1,95,0|0,1:0|0:0,0:0:0:0:
174,255,49923,2,0,P|219:254|277:219,1,95,8|0,0:0|0:0,0:0:0:0:
342,60,50193,2,0,P|439:96|435:197,1,190,0|8,1:0|0:0,0:0:0:0:
440,379,50598,1,0,1:0:0:0:
440,379,50665,1,0,1:0:0:0:
440,379,50733,6,0,L|431:285,1,95,0|0,1:0|0:0,0:0:0:0:
297,357,51003,2,0,L|307:263,1,95,8|0,0:0|0:0,0:0:0:0:
179,381,51273,2,0,L|170:287,1,95,0|0,1:0|0:0,0:0:0:0:
46,352,51543,2,0,L|53:258,1,95,8|0,0:0|0:0,0:0:0:0:
65,137,51813,6,0,P|123:145|174:132,1,95,0|0,1:0|0:0,0:0:0:0:
252,6,52083,2,0,P|194:-2|143:11,1,95,8|0,0:0|0:0,0:0:0:0:
321,150,52353,2,0,P|398:162|412:53,1,190,0|8,1:0|0:0,0:0:0:0:
252,6,52758,1,0,1:0:0:0:
252,6,52826,1,0,1:0:0:0:
252,6,52893,6,0,P|194:-2|143:11,1,95,0|0,1:0|0:0,0:0:0:0:
321,150,53163,2,0,P|379:158|430:145,1,95,8|0,0:0|0:0,0:0:0:0:
158,139,53433,2,0,P|150:197|163:248,1,95,0|0,1:0|0:0,0:0:0:0:
279,367,53703,2,0,P|287:309|274:258,1,95,8|0,0:0|0:0,0:0:0:0:
73,367,53973,6,0,L|275:377,1,190,0|8,1:0|0:0,0:0:0:0:
365,281,54378,1,0,1:0:0:0:
480,384,54513,2,0,P|498:288|463:189,1,190,0|8,1:0|0:0,0:0:0:0:
400,111,54918,1,0,1:0:0:0:
443,29,55053,5,0,1:0:0:0:
413,14,55121,1,0,1:0:0:0:
378,13,55188,1,0,1:0:0:0:
345,27,55256,1,0,1:0:0:0:
322,54,55323,1,12,1:2:0:0:
289,67,55391,1,0,1:0:0:0:
254,66,55458,1,0,1:0:0:0:
222,50,55526,1,0,1:0:0:0:
204,21,55593,5,12,1:2:0:0:
236,6,55661,1,8,1:2:0:0:
271,7,55728,1,8,1:2:0:0:
302,24,55796,1,8,1:2:0:0:
322,54,55863,1,12,1:2:0:0:
326,89,55931,1,8,1:2:0:0:
314,122,55998,1,8,1:2:0:0:
288,146,56066,1,8,1:2:0:0:
254,155,56133,6,0,L|51:140,1,190,12|8,1:2|0:0,0:0:0:0:
3,5,56538,1,0,0:0:0:0:
84,114,56673,2,0,P|94:203|35:289,1,190,0|8,1:0|0:0,0:0:0:0:
0,378,57078,1,0,1:0:0:0:
0,378,57146,1,0,1:0:0:0:
0,378,57213,6,0,L|111:368,1,95,0|0,1:0|0:0,0:0:0:0:
166,242,57483,2,0,L|277:252,1,95,8|0,0:0|0:0,0:0:0:0:
290,384,57753,2,0,L|401:374,1,95,0|0,1:0|0:0,0:0:0:0:
412,244,58023,2,0,L|523:254,1,95,8|0,0:0|0:0,0:0:0:0:
276,266,58293,6,0,P|283:216|276:169,1,95,0|0,1:0|0:0,0:0:0:0:
252,37,58563,2,0,P|212:68|167:85,1,95,8|0,0:0|0:0,0:0:0:0:
7,146,58833,2,0,P|-17:68|67:16,1,190,0|8,1:0|0:0,0:0:0:0:
171,84,59238,1,0,1:0:0:0:
171,84,59306,1,0,1:0:0:0:
171,84,59373,6,0,P|214:66|252:37,1,95,0|0,1:0|0:0,0:0:0:0:
437,13,59643,2,0,P|394:31|356:60,1,95,8|0,0:0|0:0,0:0:0:0:
287,258,59913,2,0,P|292:211|286:164,1,95,0|0,1:0|0:0,0:0:0:0:
446,115,60183,2,0,P|440:161|446:208,1,95,8|0,0:0|0:0,0:0:0:0:
512,366,60453,6,0,L|309:359,1,190,0|8,1:0|0:0,0:0:0:0:
187,275,60858,1,0,0:0:0:0:
285,163,60993,2,0,L|474:169,1,190,0|8,1:0|0:0,0:0:0:0:
173,289,61398,1,0,1:0:0:0:
173,289,61466,1,0,1:0:0:0:
173,289,61533,6,0,P|165:347|178:398,1,95,0|0,1:0|0:0,0:0:0:0:
108,208,61803,2,0,P|72:254|57:304,1,95,8|0,0:0|0:0,0:0:0:0:
98,110,62073,2,0,P|43:132|6:168,1,95,0|0,1:0|0:0,0:0:0:0:
152,25,62343,2,0,P|94:16|43:29,1,95,8|0,0:0|0:0,0:0:0:0:
262,139,62613,5,0,1:0:0:0:
349,21,62748,1,0,1:0:0:0:
401,181,62883,1,8,1:2:0:0:
495,52,63018,1,0,1:0:0:0:
269,153,63153,5,0,1:0:0:0:
356,35,63288,1,0,1:0:0:0:
408,195,63423,1,8,1:2:0:0:
502,66,63558,1,0,1:0:0:0:
312,225,63693,5,0,1:0:0:0:
266,237,63761,1,0,1:0:0:0:
222,222,63828,1,0,1:0:0:0:
192,186,63896,1,0,1:0:0:0:
187,140,63963,1,12,1:2:0:0:
197,94,64031,1,0,1:0:0:0:
182,49,64098,1,0,1:0:0:0:
147,18,64166,1,0,1:0:0:0:
101,9,64233,1,12,1:2:0:0:
57,25,64301,1,8,1:2:0:0:
27,61,64368,1,8,1:2:0:0:
19,108,64436,1,8,1:2:0:0:
36,151,64503,1,12,1:2:0:0:
68,183,64571,1,8,1:2:0:0:
77,229,64638,1,8,1:2:0:0:
61,273,64706,1,8,1:2:0:0:
24,300,64773,5,12,1:2:0:0:
24,300,64841,2,0,L|151:307,1,113.999996520996,0|2,0:0|0:0,0:0:0:0:
166,339,65043,2,0,L|293:333,1,113.999996520996,10|2,0:0|0:0,0:0:0:0:
341,201,65313,1,2,1:0:0:0:
366,218,65381,2,0,P|377:275|359:330,1,113.999996520996,0|2,0:0|0:0,0:0:0:0:
388,361,65583,1,10,0:0:0:0:
511,331,65718,1,2,0:0:0:0:
512,215,65853,6,0,L|323:200,1,170.999994781494,2|2,1:0|0:0,0:0:0:0:
310,172,66123,2,0,P|302:114|319:54,1,113.999996520996,10|2,0:0|0:0,0:0:0:0:
473,0,66393,1,2,1:0:0:0:
495,14,66461,2,0,P|503:72|483:131,1,113.999996520996,0|2,0:0|0:0,0:0:0:0:
460,135,66663,1,10,0:0:0:0:
318,23,66798,1,2,0:0:0:0:
209,160,66933,6,0,P|150:160|100:119,1,113.999996520996,2|0,1:0|0:0,0:0:0:0:
89,99,67136,1,2,0:0:0:0:
89,99,67203,1,10,0:0:0:0:
44,243,67338,1,2,0:0:0:0:
144,384,67473,1,2,1:0:0:0:
170,374,67541,2,0,L|179:258,1,113.999996520996,0|2,0:0|0:0,0:0:0:0:
157,234,67743,2,0,L|37:243,1,113.999996520996,10|2,0:0|0:0,0:0:0:0:
10,96,68013,5,2,1:0:0:0:
208,44,68148,1,0,1:0:0:0:
208,44,68216,1,0,1:0:0:0:
208,44,68283,1,10,0:0:0:0:
157,234,68418,1,2,1:0:0:0:
251,323,68553,1,2,1:0:0:0:
386,315,68688,1,2,1:0:0:0:
482,166,68823,1,10,0:0:0:0:
391,7,68958,1,2,1:0:0:0:
317,213,69093,6,0,P|367:228|425:211,1,113.999996520996,2|0,1:0|0:0,0:0:0:0:
456,194,69296,1,2,0:0:0:0:
482,166,69363,2,0,L|489:40,1,113.999996520996,10|2,0:0|0:0,0:0:0:0:
219,33,69633,6,0,L|102:39,1,113.999996520996,2|0,1:0|0:0,0:0:0:0:
203,207,69903,2,0,L|320:213,1,113.999996520996,10|0,0:0|0:0,0:0:0:0:
21,4,70173,2,0,L|27:121,1,113.999996520996,2|0,1:0|0:0,0:0:0:0:
198,337,70443,2,0,L|203:223,1,113.999996520996,10|0,0:0|0:0,0:0:0:0:
231,28,70713,5,2,1:0:0:0:
37,109,70848,1,2,0:0:0:0:
203,224,70983,1,10,0:0:0:0:
45,277,71118,1,2,0:0:0:0:
226,372,71253,5,6,1:0:0:0:
228,348,71321,1,0,1:0:0:0:
230,324,71388,1,0,1:0:0:0:
322,209,71523,5,10,1:2:0:0:
324,233,71591,1,0,1:0:0:0:
326,257,71658,1,0,1:0:0:0:
418,378,71793,5,6,1:0:0:0:
420,354,71861,1,0,1:0:0:0:
422,330,71928,1,0,1:0:0:0:
500,209,72063,5,8,1:2:0:0:
502,233,72131,1,0,1:0:0:0:
504,257,72198,1,0,1:0:0:0:
331,350,72333,5,4,1:0:0:0:
284,350,72401,1,0,1:0:0:0:
244,325,72468,1,0,1:0:0:0:
224,282,72536,1,0,1:0:0:0:
231,236,72603,1,12,1:2:0:0:
243,190,72671,1,0,1:0:0:0:
231,144,72738,1,0,1:0:0:0:
197,110,72806,1,0,1:0:0:0:
151,98,72873,1,12,1:2:0:0:
105,110,72941,1,8,1:2:0:0:
72,144,73008,1,8,1:2:0:0:
59,190,73076,1,8,1:2:0:0:
72,236,73143,1,12,1:2:0:0:
105,269,73211,1,8,1:2:0:0:
151,281,73278,1,8,1:2:0:0:
197,269,73346,1,8,1:2:0:0:
231,236,73413,5,12,1:2:0:0:
410,253,73548,1,2,0:0:0:0:
231,144,73683,1,8,0:0:0:0:
408,116,73818,1,2,0:0:0:0:
224,50,73953,2,0,P|160:75|149:179,1,170.999994781494,2|0,1:0|0:0,0:0:0:0:
151,194,74223,2,0,L|22:186,1,113.999996520996,8|0,0:0|0:0,0:0:0:0:
6,374,74493,5,2,1:0:0:0:
42,307,74583,1,2,0:0:0:0:
116,293,74673,1,2,0:0:0:0:
180,332,74763,2,0,P|238:344|315:335,1,113.999996520996,10|0,0:0|0:0,0:0:0:0:
476,378,75033,2,0,L|486:238,1,113.999996520996,2|0,1:0|0:0,0:0:0:0:
454,247,75236,2,0,L|444:107,1,113.999996520996,2|0,0:0|0:0,0:0:0:0:
490,48,75438,1,2,0:0:0:0:
310,27,75573,6,0,P|304:103|324:149,1,113.999996520996,2|0,1:0|0:0,0:0:0:0:
335,168,75776,1,2,0:0:0:0:
357,197,75843,1,10,0:0:0:0:
292,340,75978,1,2,0:0:0:0:
178,199,76113,2,0,P|107:174|22:307,1,227.999993041992,2|8,1:0|0:0,0:0:0:0:
115,374,76518,1,0,1:0:0:0:
115,374,76586,1,0,1:0:0:0:
115,374,76653,6,0,L|110:253,1,113.999996520996,2|2,1:0|0:0,0:0:0:0:
256,260,76923,2,0,L|260:146,1,113.999996520996,10|2,0:0|0:0,0:0:0:0:
156,33,77193,1,2,1:0:0:0:
128,26,77261,1,0,0:0:0:0:
100,30,77328,1,0,0:0:0:0:
75,43,77396,1,0,0:0:0:0:
55,64,77463,1,8,0:0:0:0:
44,90,77531,1,0,0:0:0:0:
43,118,77598,1,0,0:0:0:0:
51,146,77666,1,0,0:0:0:0:
69,169,77733,6,0,P|126:153|171:105,1,113.999996520996,2|0,1:0|0:0,0:0:0:0:
156,33,77936,2,0,P|198:74|262:89,1,113.999996520996,2|0,0:0|0:0,0:0:0:0:
316,30,78138,1,2,0:0:0:0:
376,161,78273,2,0,L|511:165,1,113.999996520996,2|0,1:0|0:0,0:0:0:0:
499,42,78543,1,10,0:0:0:0:
358,175,78678,1,2,0:0:0:0:
482,376,78813,6,0,P|491:313|478:252,1,113.999996520996,2|0,1:0|0:0,0:0:0:0:
342,191,79083,2,0,P|344:248|328:310,1,113.999996520996,10|0,0:0|0:0,0:0:0:0:
174,359,79353,2,0,L|54:351,1,113.999996520996,2|0,1:0|0:0,0:0:0:0:
0,312,79556,2,0,L|120:304,1,113.999996520996,2|0,0:0|0:0,0:0:0:0:
174,235,79758,1,2,0:0:0:0:
69,169,79893,5,2,1:0:0:0:
51,146,79961,1,0,1:0:0:0:
43,118,80028,1,0,1:0:0:0:
44,90,80096,1,2,1:2:0:0:
55,64,80163,1,10,1:2:0:0:
75,43,80231,1,0,1:0:0:0:
100,30,80298,1,2,1:0:0:0:
128,26,80366,1,0,1:0:0:0:
156,33,80433,1,2,1:0:0:0:
182,43,80501,1,0,1:0:0:0:
210,46,80568,1,0,1:0:0:0:
239,44,80636,1,0,1:0:0:0:
265,34,80703,1,10,1:2:0:0:
294,32,80771,1,0,1:0:0:0:
322,35,80838,1,2,1:0:0:0:
348,45,80906,1,0,1:0:0:0:
370,65,80973,5,6,1:0:0:0:
340,102,81041,1,0,1:0:0:0:
339,150,81108,1,0,1:0:0:0:
366,189,81176,1,0,1:0:0:0:
411,205,81243,1,14,1:2:0:0:
456,191,81311,1,0,1:2:0:0:
485,153,81378,1,0,1:0:0:0:
486,105,81446,1,0,1:0:0:0:
459,66,81513,5,14,1:2:0:0:
424,99,81581,1,8,1:2:0:0:
409,145,81648,1,8,1:2:0:0:
420,192,81716,1,8,1:2:0:0:
450,229,81783,1,14,1:2:0:0:
470,271,81851,1,8,1:2:0:0:
459,318,81918,1,8,1:2:0:0:
429,355,81986,1,8,1:2:0:0:
384,365,82053,6,0,L|33:324,1,341.999989562989,12|0,0:0|0:0,0:0:0:0:
0,186,83133,5,2,0:0:0:0:
33,340,83673,1,2,0:0:0:0:
106,69,84213,1,2,0:0:0:0:
139,223,84753,1,2,0:0:0:0:
0,186,85293,5,2,0:0:0:0:
20,99,85563,1,2,0:0:0:0:
106,69,85833,1,2,0:0:0:0:
187,118,86103,1,2,0:0:0:0:
347,21,86373,5,2,0:0:0:0:
429,150,86913,1,2,0:0:0:0:
345,260,87453,1,2,0:0:0:0:
432,375,87993,1,2,0:0:0:0:
223,232,88533,5,2,0:0:0:0:
429,150,89073,1,2,0:0:0:0:
264,330,89613,5,2,0:0:0:0:
144,361,89883,1,2,0:0:0:0:
27,316,90153,1,2,0:0:0:0:
0,192,90423,1,2,0:0:0:0:
56,68,90693,5,4,1:0:0:0:
144,40,90828,2,0,L|135:192,3,152,0|0|0|0,1:0|1:0|1:0|1:0,0:0:0:0:
24,289,91773,2,0,P|66:281|105:289,1,76,2|0,0:0|0:0,0:0:0:0:
146,361,92043,2,0,P|188:369|227:361,1,76,2|0,0:0|0:0,0:0:0:0:
255,284,92313,2,0,P|297:276|336:284,1,76,2|0,0:0|0:0,0:0:0:0:
395,357,92583,1,2,0:0:0:0:
492,244,92718,1,0,1:0:0:0:
492,244,92786,1,0,1:0:0:0:
492,244,92853,5,4,1:0:0:0:
412,189,92988,2,0,L|260:181,3,152,0|0|0|0,1:0|1:0|1:0|1:0,0:0:0:0:
231,39,93933,1,2,0:0:0:0:
320,97,94068,1,0,0:0:0:0:
410,47,94203,1,2,0:0:0:0:
490,107,94338,1,0,0:0:0:0:
412,189,94473,2,0,L|318:184,1,76,2|0,0:0|0:0,0:0:0:0:
260,181,94743,1,2,0:0:0:0:
92,292,94878,1,0,1:0:0:0:
92,292,94946,1,0,1:0:0:0:
92,292,95013,5,6,1:0:0:0:
53,208,95148,1,2,0:0:0:0:
71,119,95283,1,2,0:0:0:0:
148,57,95418,1,2,0:0:0:0:
239,61,95553,2,0,P|246:109|239:148,1,76,2|2,0:0|0:0,0:0:0:0:
52,116,95823,2,0,P|45:68|52:29,1,76,2|2,0:0|0:0,0:0:0:0:
157,222,96093,5,6,1:0:0:0:
74,305,96228,1,2,0:0:0:0:
186,361,96363,2,0,L|277:354,1,76,2|2,0:0|0:0,0:0:0:0:
366,273,96633,1,6,1:0:0:0:
449,356,96768,1,2,0:0:0:0:
505,244,96903,2,0,L|498:153,1,76,2|2,0:0|1:0,0:0:0:0:
478,142,97106,1,0,1:0:0:0:
454,120,97173,5,6,1:0:0:0:
222,180,97308,1,2,1:0:0:0:
331,38,97443,1,2,1:0:0:0:
360,247,97578,1,2,1:0:0:0:
223,86,97713,1,6,1:0:0:0:
378,103,97848,1,2,1:0:0:0:
270,268,97983,2,0,L|238:271,6,19,2|2|2|2|2|2|2,1:0|1:0|1:0|1:0|1:0|1:0|1:0,0:0:0:0:
141,214,98253,5,6,1:0:0:0:
140,204,98321,1,0,0:0:0:0:
139,195,98388,1,0,0:0:0:0:
139,185,98456,1,0,0:0:0:0:
138,176,98523,1,8,0:2:0:0:
137,166,98591,1,0,0:0:0:0:
137,157,98658,1,0,0:0:0:0:
136,147,98726,1,0,0:0:0:0:
135,138,98793,1,0,1:2:0:0:
135,128,98861,1,0,0:0:0:0:
134,119,98928,1,0,0:0:0:0:
133,109,98996,1,0,0:0:0:0:
133,100,99063,1,8,0:2:0:0:
132,90,99131,1,0,0:0:0:0:
131,81,99198,1,0,0:0:0:0:
131,71,99266,1,0,0:0:0:0:
130,61,99333,6,0,L|126:3,15,38,0|0|0|0|8|0|0|0|0|0|0|0|8|0|0|0,1:0|0:0|0:0|0:0|0:2|0:0|0:0|0:0|1:0|0:0|0:0|0:0|0:2|0:0|0:0|0:0,0:0:0:0:
27,35,100413,5,0,1:0:0:0:
27,49,100481,1,0,0:0:0:0:
28,63,100548,1,0,0:0:0:0:
29,77,100616,1,0,0:0:0:0:
30,91,100683,1,8,0:2:0:0:
30,106,100751,1,0,0:0:0:0:
31,120,100818,1,0,0:0:0:0:
32,134,100886,1,0,0:0:0:0:
33,148,100953,1,0,1:0:0:0:
34,163,101021,1,0,0:0:0:0:
34,177,101088,1,0,0:0:0:0:
35,191,101156,1,0,0:0:0:0:
36,205,101223,1,8,0:2:0:0:
37,219,101291,1,0,0:0:0:0:
38,234,101358,1,0,0:0:0:0:
38,248,101426,1,0,0:0:0:0:
39,264,101493,6,0,L|42:318,11,38,0|0|0|0|8|0|0|0|0|0|0|0,1:0|0:0|0:0|0:0|0:2|0:0|0:0|0:0|1:0|0:0|0:0|0:0,0:0:0:0:
109,371,102304,2,0,L|158:338,1,47.5,8|0,0:2|0:0,0:0:0:0:
224,295,102439,2,0,L|277:320,1,47.5,0|0,1:0|0:0,0:0:0:0:
402,364,102574,5,0,1:0:0:0:
424,357,102641,1,0,1:0:0:0:
445,345,102709,1,0,1:0:0:0:
462,329,102776,1,0,1:0:0:0:
475,309,102844,1,8,1:2:0:0:
483,287,102911,1,0,1:0:0:0:
485,263,102979,1,0,1:0:0:0:
482,240,103046,1,0,1:0:0:0:
473,218,103114,1,0,1:0:0:0:
459,198,103181,1,0,1:0:0:0:
442,183,103249,1,0,1:2:0:0:
421,172,103316,1,0,1:0:0:0:
398,167,103384,1,8,1:2:0:0:
374,167,103451,1,0,1:0:0:0:
351,172,103519,1,0,1:0:0:0:
330,183,103586,1,0,1:0:0:0:
313,198,103654,5,0,1:0:0:0:
324,164,103721,1,0,1:0:0:0:
321,129,103789,1,0,1:0:0:0:
304,98,103856,1,0,1:0:0:0:
276,77,103924,1,8,1:2:0:0:
241,69,103991,1,0,1:0:0:0:
207,76,104059,1,0,1:0:0:0:
178,97,104126,1,0,1:0:0:0:
160,127,104194,1,0,1:0:0:0:
131,148,104261,1,0,1:0:0:0:
97,155,104329,1,0,1:0:0:0:
62,147,104396,1,0,1:0:0:0:
34,126,104464,1,8,1:2:0:0:
17,95,104531,1,0,1:0:0:0:
14,60,104599,1,0,1:0:0:0:
25,27,104666,1,0,1:0:0:0:
55,7,104734,5,8,1:2:0:0:
87,40,104801,1,0,1:0:0:0:
97,86,104869,1,0,1:0:0:0:
80,129,104936,1,0,1:0:0:0:
46,161,105004,1,8,1:2:0:0:
31,205,105071,1,0,1:0:0:0:
39,252,105139,1,0,1:0:0:0:
68,289,105206,1,0,1:0:0:0:
111,309,105274,1,8,1:2:0:0:
157,306,105341,1,0,1:0:0:0:
198,282,105409,1,0,1:0:0:0:
223,242,105476,1,0,1:0:0:0:
226,195,105544,1,8,1:2:0:0:
207,152,105611,1,0,1:0:0:0:
170,123,105679,1,0,1:0:0:0:
124,114,105746,1,0,1:0:0:0:
80,129,105814,5,8,1:2:0:0:
101,183,105881,1,0,1:0:0:0:
151,213,105949,1,8,1:2:0:0:
209,206,106016,1,0,1:0:0:0:
251,165,106084,1,8,1:2:0:0:
309,158,106151,1,0,1:0:0:0:
359,188,106219,1,8,1:2:0:0:
380,242,106286,1,0,1:0:0:0:
367,293,106354,5,8,1:2:0:0:
303,277,106421,1,8,1:2:0:0:
259,229,106489,1,8,1:2:0:0:
251,165,106556,1,8,1:2:0:0:
280,105,106624,1,8,1:2:0:0:
337,74,106691,1,8,1:2:0:0:
402,80,106759,1,8,1:2:0:0:
452,123,106826,1,8,1:2:0:0:
470,186,106894,5,12,1:2:0:0:
317,2,107704,1,8,1:2:0:0:
46,290,107974,6,0,P|80:219|62:113,1,185.249991519928,4|2,1:2|0:0,0:0:0:0:
4,72,108244,2,0,L|154:82,1,123.499994346619,10|2,0:0|0:0,0:0:0:0:
300,31,108514,2,0,P|308:91|292:150,1,123.499994346619,2|0,1:0|0:0,0:0:0:0:
274,174,108716,1,2,0:0:0:0:
256,197,108784,1,10,0:0:0:0:
328,337,108919,1,2,0:0:0:0:
474,276,109054,5,2,1:0:0:0:
474,276,109121,1,0,0:0:0:0:
396,144,109256,1,2,0:0:0:0:
396,144,109324,1,10,0:0:0:0:
256,197,109459,1,2,0:0:0:0:
328,337,109594,2,0,P|253:348|164:260,1,185.249991519928,2|2,1:0|0:0,0:0:0:0:
164,252,109864,1,10,0:0:0:0:
210,87,109999,1,2,0:0:0:0:
10,141,110134,6,0,L|133:133,1,123.499994346619,2|0,1:0|0:0,0:0:0:0:
171,112,110336,1,2,0:0:0:0:
210,87,110404,1,10,0:0:0:0:
35,15,110539,1,2,0:0:0:0:
77,179,110674,2,0,L|62:375,1,185.249991519928,2|2,1:0|0:0,0:0:0:0:
154,375,110944,2,0,L|165:239,1,123.499994346619,10|2,0:0|0:0,0:0:0:0:
210,87,111214,5,2,1:0:0:0:
328,40,111349,1,0,1:0:0:0:
328,40,111416,1,0,1:0:0:0:
328,40,111484,1,10,0:0:0:0:
452,73,111619,1,2,1:0:0:0:
491,207,111754,1,2,1:0:0:0:
402,342,111889,1,2,1:0:0:0:
232,310,112024,1,10,0:0:0:0:
211,101,112159,1,2,1:0:0:0:
444,271,112294,6,0,P|378:235|359:183,1,123.499994346619,2|0,1:0|0:0,0:0:0:0:
419,143,112496,1,2,0:0:0:0:
419,143,112564,2,0,L|275:154,1,123.499994346619,10|2,0:0|0:0,0:0:0:0:
66,134,112834,2,0,P|77:64|119:9,1,123.499994346619,2|0,1:0|0:0,0:0:0:0:
138,307,113104,2,0,P|71:332|3:323,1,123.499994346619,10|0,0:0|0:0,0:0:0:0:
295,152,113374,5,2,1:0:0:0:
220,326,113509,1,2,0:0:0:0:
211,101,113644,1,10,0:0:0:0:
419,143,113779,1,2,0:0:0:0:
106,22,113914,5,2,1:0:0:0:
187,177,114049,1,2,0:0:0:0:
317,8,114184,1,10,0:0:0:0:
419,143,114319,1,2,0:0:0:0:
187,177,114454,5,6,1:0:0:0:
156,174,114521,1,0,1:0:0:0:
125,172,114589,1,0,1:0:0:0:
284,263,114724,5,10,1:2:0:0:
315,260,114791,1,0,1:0:0:0:
346,258,114859,1,0,1:0:0:0:
161,277,114994,5,6,1:0:0:0:
130,274,115061,1,0,1:0:0:0:
99,272,115129,1,0,1:0:0:0:
298,368,115264,5,8,1:2:0:0:
329,365,115331,1,0,1:0:0:0:
360,363,115399,1,0,1:0:0:0:
161,277,115534,5,4,1:0:0:0:
195,246,115601,1,0,1:0:0:0:
242,242,115669,1,0,1:0:0:0:
284,263,115736,1,0,1:0:0:0:
307,302,115804,1,12,1:2:0:0:
343,329,115871,1,0,1:0:0:0:
391,333,115939,1,0,1:0:0:0:
434,314,116006,1,0,1:0:0:0:
461,276,116074,1,12,1:2:0:0:
464,229,116141,1,8,1:2:0:0:
443,187,116209,1,8,1:2:0:0:
403,161,116276,1,8,1:2:0:0:
357,159,116344,1,12,1:2:0:0:
313,142,116411,1,8,1:2:0:0:
286,104,116479,1,8,1:2:0:0:
284,57,116546,1,8,1:2:0:0:
306,17,116614,5,12,1:2:0:0:
503,37,116749,1,2,0:0:0:0:
313,142,116884,1,8,0:0:0:0:
501,120,117019,1,2,0:0:0:0:
181,61,117154,2,0,L|196:263,1,185.249991519928,2|0,1:0|0:0,0:0:0:0:
138,292,117424,2,0,P|197:276|257:289,1,123.499994346619,8|0,0:0|0:0,0:0:0:0:
67,372,117694,5,2,1:0:0:0:
0,324,117784,1,2,0:0:0:0:
2,242,117874,1,2,0:0:0:0:
57,181,117964,2,0,L|190:168,1,123.499994346619,10|0,0:0|0:0,0:0:0:0:
26,32,118234,2,0,P|91:21|151:43,1,123.499994346619,2|0,1:0|0:0,0:0:0:0:
181,61,118436,1,2,0:0:0:0:
218,83,118504,1,10,0:0:0:0:
355,0,118639,1,2,0:0:0:0:
503,140,118774,6,0,L|350:150,1,123.499994346619,2|0,1:0|0:0,0:0:0:0:
337,153,118976,1,2,0:0:0:0:
295,155,119044,1,10,0:0:0:0:
364,341,119179,1,2,0:0:0:0:
512,260,119314,2,0,P|441:224|368:351,1,246.999988693238,2|8,1:0|0:0,0:0:0:0:
512,384,119719,1,0,1:0:0:0:
512,384,119786,1,0,1:0:0:0:
512,384,119854,6,0,L|440:378,3,61.7499971733095,2|0|0|0,1:0|0:0|0:0|0:0,0:0:0:0:
372,326,120124,2,0,L|300:332,3,61.7499971733095,10|0|0|0,0:0|0:0|0:0|0:0,0:0:0:0:
220,362,120394,1,2,1:0:0:0:
191,372,120461,1,0,1:0:0:0:
160,372,120529,1,0,1:0:0:0:
131,363,120596,1,0,1:0:0:0:
106,344,120664,1,8,1:2:0:0:
89,319,120731,1,0,1:0:0:0:
81,289,120799,1,0,1:0:0:0:
83,259,120866,1,0,1:0:0:0:
95,230,120934,6,0,P|114:170|114:104,1,123.499994346619,2|0,1:0|0:0,0:0:0:0:
49,76,121136,2,0,P|110:74|169:56,1,123.499994346619,2|0,0:0|0:0,0:0:0:0:
258,17,121339,1,2,0:0:0:0:
346,146,121474,1,2,1:0:0:0:
346,146,121541,1,0,1:0:0:0:
346,146,121609,2,0,L|210:157,1,123.499994346619,0|10,1:0|0:0,0:0:0:0:
95,230,121879,1,2,0:0:0:0:
227,370,122014,5,2,1:0:0:0:
350,161,122149,1,0,0:0:0:0:
432,383,122284,1,10,0:0:0:0:
236,234,122419,1,0,0:0:0:0:
447,252,122554,2,0,L|456:119,1,123.499994346619,2|0,1:0|0:0,0:0:0:0:
458,90,122756,1,2,0:0:0:0:
461,54,122824,1,10,0:0:0:0:
258,17,122959,1,2,0:0:0:0:
138,284,123094,5,2,1:0:0:0:
108,292,123161,1,0,1:0:0:0:
77,291,123229,1,0,1:0:0:0:
48,281,123296,1,2,1:0:0:0:
24,262,123364,1,10,0:0:0:0:
7,236,123431,1,0,1:0:0:0:
0,207,123499,1,2,1:0:0:0:
2,176,123566,1,0,1:0:0:0:
13,148,123634,1,2,1:0:0:0:
33,124,123701,1,0,1:0:0:0:
59,108,123769,1,0,1:0:0:0:
90,102,123836,1,0,1:0:0:0:
120,106,123904,1,10,0:0:0:0:
148,118,123971,1,0,1:0:0:0:
170,139,124039,1,2,1:0:0:0:
184,167,124106,1,0,1:0:0:0:
190,197,124174,5,6,1:0:0:0:
145,207,124241,1,0,1:0:0:0:
101,193,124309,1,0,1:0:0:0:
70,159,124376,1,0,1:0:0:0:
61,115,124444,1,12,1:2:0:0:
74,71,124511,1,0,1:2:0:0:
107,40,124579,1,0,1:0:0:0:
152,31,124646,1,0,1:0:0:0:
196,45,124714,1,12,1:2:0:0:
227,79,124781,1,0,1:2:0:0:
270,93,124849,1,0,1:2:0:0:
315,84,124916,1,0,1:2:0:0:
349,52,124984,5,12,1:2:0:0:
304,11,125051,1,8,1:2:0:0:
243,8,125119,1,8,1:2:0:0:
195,45,125186,1,8,1:2:0:0:
181,104,125254,6,0,P|181:162|209:228,1,123.499994346619,12|0,0:0|0:0,0:0:0:0:
266,269,125456,2,0,P|207:256|147:269,1,123.499994346619,2|0,0:0|0:0,0:0:0:0:
51,342,125659,1,2,0:0:0:0:
207,379,125794,1,2,1:0:0:0:
207,379,125861,1,0,0:0:0:0:
347,315,125996,1,2,0:0:0:0:
347,315,126064,1,10,0:0:0:0:
276,104,126199,1,2,0:0:0:0:
438,143,126334,6,0,P|436:66|317:59,1,185.249991519928,2|2,1:0|0:0,0:0:0:0:
276,104,126604,2,0,L|287:248,1,123.499994346619,10|0,0:0|0:0,0:0:0:0:
419,365,126874,1,2,1:0:0:0:
419,365,126941,1,0,0:0:0:0:
512,254,127076,1,2,0:0:0:0:
512,254,127144,1,10,0:0:0:0:
369,193,127279,1,2,0:0:0:0:
119,377,127414,6,0,P|134:310|121:251,1,123.499994346619,2|0,1:0|0:0,0:0:0:0:
62,218,127616,2,0,P|122:228|181:213,1,123.499994346619,2|0,0:0|0:0,0:0:0:0:
279,127,127819,1,2,0:0:0:0:
89,118,127954,1,2,1:0:0:0:
89,118,128021,1,0,0:0:0:0:
201,18,128156,1,2,0:0:0:0:
201,18,128224,1,10,0:0:0:0:
27,9,128359,1,2,0:0:0:0:
189,122,128494,5,2,1:0:0:0:
9,138,128629,1,0,1:0:0:0:
9,138,128696,1,0,1:0:0:0:
9,138,128764,1,10,0:0:0:0:
25,285,128899,1,2,1:0:0:0:
205,302,129034,1,2,1:0:0:0:
185,94,129169,1,2,1:0:0:0:
401,46,129304,1,10,0:0:0:0:
427,314,129439,1,2,1:0:0:0:
284,24,129574,6,0,P|314:83|307:148,1,123.499994346619,2|0,1:0|0:0,0:0:0:0:
273,225,129776,1,2,0:0:0:0:
273,225,129844,2,0,L|410:212,1,123.499994346619,10|0,0:0|0:0,0:0:0:0:
131,185,130114,2,0,L|-6:172,1,123.499994346619,2|0,1:0|0:0,0:0:0:0:
330,323,130384,2,0,L|452:311,1,123.499994346619,10|0,0:0|0:0,0:0:0:0:
102,384,130654,5,2,1:0:0:0:
149,168,130789,1,2,0:0:0:0:
254,340,130924,1,10,0:0:0:0:
220,141,131059,1,2,0:0:0:0:
370,233,131194,1,2,1:0:0:0:
264,79,131329,1,2,0:0:0:0:
404,64,131464,1,10,0:0:0:0:
268,4,131599,1,2,0:0:0:0:
478,113,131734,5,2,1:0:0:0:
486,144,131801,1,0,1:0:0:0:
488,174,131869,1,0,1:0:0:0:
486,205,131936,1,0,1:0:0:0:
478,235,132004,2,0,P|415:255|344:234,1,123.499994346619,10|0,0:0|0:0,0:0:0:0:
220,141,132274,1,2,1:0:0:0:
189,133,132341,1,0,1:0:0:0:
159,131,132409,1,0,1:0:0:0:
128,133,132476,1,0,1:0:0:0:
98,141,132544,1,8,1:2:0:0:
42,290,132679,1,0,1:0:0:0:
36,321,132746,1,0,1:0:0:0:
32,352,132814,5,0,1:0:0:0:
71,375,132881,1,0,1:0:0:0:
117,378,132949,1,0,1:0:0:0:
158,359,133016,1,0,1:0:0:0:
187,323,133084,1,12,1:2:0:0:
195,278,133151,1,0,1:0:0:0:
181,234,133219,1,0,1:0:0:0:
148,202,133286,1,0,1:0:0:0:
104,188,133354,1,12,1:2:0:0:
71,156,133421,1,8,1:2:0:0:
57,112,133489,1,8,1:2:0:0:
65,67,133556,1,8,1:2:0:0:
94,31,133624,1,12,1:2:0:0:
135,12,133691,1,8,0:2:0:0:
181,15,133759,1,8,1:2:0:0:
220,38,133826,1,8,1:2:0:0:
241,80,133894,5,12,1:2:0:0:
434,52,134029,1,2,0:0:0:0:
342,224,134164,2,0,P|333:297|353:355,1,123.499994346619,8|0,0:0|0:0,0:0:0:0:
502,293,134434,2,0,P|510:220|410:196,1,185.249991519928,2|0,1:0|0:0,0:0:0:0:
342,224,134704,2,0,L|202:216,1,123.499994346619,8|0,0:0|0:0,0:0:0:0:
45,161,134974,5,2,1:0:0:0:
0,230,135064,1,2,0:0:0:0:
8,312,135154,1,2,0:0:0:0:
71,366,135244,2,0,L|204:375,1,123.499994346619,10|0,0:0|0:0,0:0:0:0:
347,343,135514,2,0,P|355:283|341:223,1,123.499994346619,2|0,1:0|0:0,0:0:0:0:
325,191,135716,1,2,0:0:0:0:
306,159,135784,1,10,0:0:0:0:
398,35,135919,1,2,0:0:0:0:
509,146,136054,6,0,L|499:299,1,123.499994346619,2|0,1:0|0:0,0:0:0:0:
497,306,136256,1,2,0:0:0:0:
494,343,136324,1,10,0:0:0:0:
335,363,136459,1,2,0:0:0:0:
286,126,136594,2,0,P|213:83|138:202,1,246.999988693238,2|8,1:0|1:2,0:0:0:0:
194,293,136999,1,0,1:0:0:0:
212,309,137066,1,0,1:0:0:0:
228,323,137134,6,0,L|222:395,3,61.7499971733095,2|0|0|0,1:0|0:0|0:0|0:0,0:0:0:0:
347,343,137404,2,0,L|406:384,3,61.7499971733095,10|0|0|0,0:0|0:0|0:0|0:0,0:0:0:0:
422,234,137674,1,2,1:0:0:0:
432,205,137741,1,0,1:0:0:0:
432,174,137809,1,0,1:0:0:0:
423,145,137876,1,0,1:0:0:0:
404,120,137944,1,8,1:2:0:0:
379,103,138011,1,0,1:0:0:0:
349,95,138079,1,0,1:0:0:0:
319,97,138146,1,0,1:0:0:0:
290,109,138214,6,0,L|164:100,1,123.499994346619,2|0,1:0|0:0,0:0:0:0:
129,74,138416,2,0,L|141:203,1,123.499994346619,2|0,0:0|0:0,0:0:0:0:
151,281,138619,1,2,0:0:0:0:
16,0,138754,1,2,1:0:0:0:
16,0,138821,1,0,1:0:0:0:
16,0,138889,2,0,L|27:136,1,123.499994346619,0|8,1:0|0:0,0:0:0:0:
19,327,139159,1,2,0:0:0:0:
208,378,139294,5,2,1:0:0:0:
31,235,139429,1,0,0:0:0:0:
246,292,139564,1,10,0:0:0:0:
47,143,139699,1,0,0:0:0:0:
310,220,139834,2,0,L|319:87,1,123.499994346619,2|0,1:0|0:0,0:0:0:0:
321,70,140036,1,2,0:0:0:0:
323,43,140104,1,10,0:0:0:0:
467,173,140239,1,2,0:0:0:0:
512,0,140374,5,2,1:0:0:0:
478,82,140509,1,0,1:0:0:0:
478,82,140576,1,2,1:0:0:0:
478,82,140644,2,0,L|399:91,1,76,10|0,0:0|0:0,0:0:0:0:
235,21,140914,2,0,P|197:32|153:72,1,76,2|0,1:0|1:0,0:0:0:0:
57,67,141184,2,0,P|43:104|42:159,1,76,10|0,0:0|0:0,0:0:0:0:
111,360,141454,6,0,P|104:329|105:299,1,61.7499971733095,6|0,1:0|1:0,0:0:0:0:
148,208,141589,1,0,1:0:0:0:
148,208,141656,1,0,1:0:0:0:
148,208,141724,2,0,P|170:187|198:173,1,61.7499971733095,12|0,1:2|1:2,0:0:0:0:
295,149,141859,2,0,P|324:157|350:175,1,61.7499971733095,0|0,1:0|1:0,0:0:0:0:
460,279,141994,1,12,1:2:0:0:
454,316,142061,1,8,1:2:0:0:
433,349,142129,1,8,0:0:0:0:
402,370,142196,1,8,1:2:0:0:
364,376,142264,1,12,1:2:0:0:
327,367,142331,1,8,1:2:0:0:
297,343,142399,1,8,1:2:0:0:
279,309,142466,1,8,1:2:0:0:
276,271,142534,5,12,1:2:0:0:
427,184,142669,1,0,1:0:0:0:
277,67,142804,1,8,1:2:0:0:
366,269,142939,1,0,1:0:0:0:
388,36,143074,5,4,1:0:0:0:
224,190,143209,1,0,1:0:0:0:
463,109,143344,1,8,1:2:0:0:
208,33,143479,1,0,1:0:0:0:
255,285,143614,6,0,L|185:289,1,61.7499971733095,12|0,1:2|1:0,0:0:0:0:
127,159,143749,2,0,L|130:220,1,61.7499971733095,0|0,1:0|1:0,0:0:0:0:
242,300,143884,2,0,L|172:304,1,61.7499971733095,8|0,1:2|1:0,0:0:0:0:
112,146,144019,2,0,L|115:207,1,61.7499971733095,0|0,1:0|1:0,0:0:0:0:
113,366,144154,1,12,1:2:0:0:
113,366,144221,1,0,1:0:0:0:
113,366,144289,2,0,L|38:369,1,61.7499971733095,0|0,1:0|1:0,0:0:0:0:
11,236,144424,1,8,1:2:0:0:
11,236,144491,1,0,1:0:0:0:
11,236,144559,2,0,L|8:161,1,61.7499971733095,0|0,1:0|1:0,0:0:0:0:
0,37,144694,5,12,1:2:0:0:
24,18,144761,1,0,1:0:0:0:
53,8,144829,1,8,1:2:0:0:
83,8,144896,1,0,1:0:0:0:
112,19,144964,1,8,1:2:0:0:
137,37,145031,1,0,1:0:0:0:
154,63,145099,1,8,1:2:0:0:
162,92,145166,1,0,1:0:0:0:
160,124,145234,5,12,1:2:0:0:
199,119,145301,1,0,1:0:0:0:
239,114,145369,1,8,1:2:0:0:
279,110,145436,1,0,1:0:0:0:
319,105,145504,1,8,1:2:0:0:
359,101,145571,1,0,1:0:0:0:
399,96,145639,1,8,1:2:0:0:
439,92,145706,1,0,1:0:0:0:
479,87,145774,5,12,1:2:0:0:
457,43,145841,1,8,1:2:0:0:
415,20,145909,1,8,1:2:0:0:
367,25,145976,1,8,1:2:0:0:
330,57,146044,1,12,1:2:0:0:
319,105,146111,1,8,1:2:0:0:
336,149,146179,1,8,1:2:0:0:
377,176,146246,1,8,1:2:0:0:
426,174,146314,5,12,1:2:0:0:
428,113,146381,1,8,1:2:0:0:
396,62,146449,1,8,1:2:0:0:
340,37,146516,1,8,1:2:0:0:
281,48,146584,1,12,1:2:0:0:
237,91,146651,1,8,1:2:0:0:
226,151,146719,1,8,1:2:0:0:
249,206,146786,1,8,1:2:0:0:
301,239,146854,6,0,P|308:290|298:339,1,95,12|0,1:2|0:0,0:0:0:0:
140,376,147124,2,0,P|71:346|59:225,1,190,10|0,1:2|1:0,0:0:0:0:
114,132,147529,1,0,0:0:0:0:
71,13,147664,2,0,P|28:35|-7:93,1,95,10|0,0:0|0:0,0:0:0:0:
50,241,147934,6,0,L|145:231,1,95,0|0,1:0|0:0,0:0:0:0:
220,112,148204,2,0,L|414:125,1,190,10|0,0:0|1:0,0:0:0:0:
503,224,148609,1,0,0:0:0:0:
402,358,148744,2,0,B|387:312|387:312|396:243,1,95,10|0,0:0|0:0,0:0:0:0:
503,106,149014,6,0,P|479:55|341:58,1,190,6|10,1:0|0:0,0:0:0:0:
294,156,149419,1,0,0:0:0:0:
236,27,149554,2,0,L|130:39,1,95,0|0,1:0|0:0,0:0:0:0:
105,157,149824,2,0,L|10:146,1,95,10|0,0:0|0:0,0:0:0:0:
222,205,150094,6,0,B|233:239|233:239|216:360,1,142.5,0|0,1:0|0:0,0:0:0:0:
191,371,150364,2,0,P|140:373|78:345,1,95,14|0,0:0|0:0,0:0:0:0:
10,146,150634,2,8,L|21:245,1,95,14|0,1:2|1:2,1:2:0:0:
105,157,150836,2,8,L|115:62,1,95,14|0,1:2|1:2,1:2:0:0:
141,37,151039,1,14,1:2:0:0:
278,136,151174,6,0,P|331:135|380:108,1,95,6|0,1:0|0:0,0:0:0:0:
476,20,151444,2,0,L|510:223,1,190,10|0,0:0|1:0,0:0:0:0:
487,335,151849,1,0,0:0:0:0:
487,335,151984,1,10,0:0:0:0:
313,231,152119,1,6,0:0:0:0:
307,251,152389,5,0,1:0:0:0:
301,271,152457,1,0,1:0:0:0:
295,292,152524,2,0,P|236:300|191:283,1,95,10|0,1:2|1:0,1:0:0:0:
126,176,152794,1,0,1:0:0:0:
126,353,152929,1,0,1:0:0:0:
105,358,152997,1,0,1:0:0:0:
81,359,153064,2,0,P|44:311|36:264,1,95,10|0,1:2|1:0,1:0:0:0:
40,116,153334,5,4,1:0:0:0:
143,18,153469,1,0,1:0:0:0:
223,141,153604,1,10,1:2:0:0:
354,30,153739,1,0,1:0:0:0:
354,30,153807,1,0,1:0:0:0:
354,30,153874,1,4,1:0:0:0:
412,209,154009,1,0,1:0:0:0:
284,225,154144,1,10,1:2:0:0:
424,82,154279,1,0,1:0:0:0:
500,277,154414,6,0,L|515:390,1,95,14|0,1:2|1:0,0:0:0:0:
301,211,154684,2,0,L|313:116,1,95,14|0,1:2|1:0,0:0:0:0:
262,369,154954,1,14,1:2:0:0:
232,372,155021,1,8,1:2:0:0:
203,367,155089,1,8,1:2:0:0:
176,354,155156,1,8,1:2:0:0:
155,334,155224,1,14,1:2:0:0:
140,308,155291,1,8,1:2:0:0:
134,280,155359,1,8,1:2:0:0:
135,250,155426,1,8,1:2:0:0:
146,222,155494,6,0,B|98:213|98:213|38:224,1,95,14|0,1:2|0:0,0:0:0:0:
52,384,155764,2,0,L|31:194,1,190,10|0,0:0|1:0,0:0:0:0:
17,51,156169,1,0,0:0:0:0:
154,93,156304,2,0,P|210:90|251:63,1,95,10|0,0:0|0:0,0:0:0:0:
380,3,156574,6,0,P|363:101|395:184,1,190,0|10,1:0|0:0,0:0:0:0:
492,296,156979,1,0,0:0:0:0:
390,376,157114,2,0,P|335:369|295:328,1,95,0|0,1:0|0:0,0:0:0:0:
254,212,157384,1,10,0:0:0:0:
394,183,157519,1,0,0:0:0:0:
217,312,157654,6,0,L|2:295,1,190,6|10,0:0|0:0,0:0:0:0:
0,171,158059,1,0,0:0:0:0:
119,68,158194,2,0,P|137:118|134:182,1,95,0|0,1:0|0:0,0:0:0:0:
254,212,158464,2,0,P|288:171|345:142,1,95,10|0,0:0|0:0,0:0:0:0:
489,22,158734,6,0,L|346:29,1,142.5,0|0,1:0|0:0,0:0:0:0:
317,54,159004,2,0,L|324:157,1,95,14|0,0:0|0:0,0:0:0:0:
396,361,159274,2,0,P|405:323|394:252,1,95,14|0,1:2|1:0,1:0:0:0:
472,232,159477,2,0,P|443:205|376:179,1,95,14|0,1:2|1:0,1:0:0:0:
254,212,159679,1,12,1:2:0:0:
254,212,159747,1,0,1:0:0:0:
254,212,159814,6,0,L|145:224,1,95,6|0,1:0|0:0,0:0:0:0:
4,56,160084,2,0,P|56:56|70:186,1,190,10|0,0:0|1:0,0:0:0:0:
0,254,160489,1,0,0:0:0:0:
0,254,160624,1,10,0:0:0:0:
166,380,160759,1,6,0:0:0:0:
175,352,161029,5,0,1:0:0:0:
184,324,161097,1,0,1:0:0:0:
193,295,161164,2,0,P|202:242|197:191,1,95,14|0,1:2|1:0,1:0:0:0:
172,79,161434,1,4,1:0:0:0:
293,5,161569,1,0,1:0:0:0:
312,26,161637,1,0,1:0:0:0:
332,48,161704,1,14,1:2:0:0:
325,170,161839,1,0,1:0:0:0:
344,191,161907,1,0,1:0:0:0:
364,213,161974,1,4,1:0:0:0:
256,192,162042,12,0,163595,0:0:0:0:
512,350,163864,6,0,L|504:276,1,61.7499971733095,2|0,0:0|0:0,0:0:0:0:
413,277,163999,2,0,L|421:203,1,61.7499971733095,2|0,0:0|0:0,0:0:0:0:
507,100,164134,5,6,1:2:0:0:
481,82,164202,1,0,0:0:0:0:
454,68,164269,1,0,0:0:0:0:
423,61,164337,1,0,0:0:0:0:
391,59,164404,1,8,0:0:0:0:
360,65,164472,1,0,0:0:0:0:
331,76,164539,1,0,0:0:0:0:
305,94,164607,1,0,0:0:0:0:
282,115,164674,1,0,1:0:0:0:
256,131,164742,1,0,0:0:0:0:
227,142,164809,1,0,0:0:0:0:
196,148,164877,1,0,0:0:0:0:
164,146,164944,1,8,0:0:0:0:
133,139,165012,1,0,0:0:0:0:
106,126,165079,1,0,0:0:0:0:
80,108,165147,1,0,0:0:0:0:
56,75,165214,5,2,0:0:0:0:
56,75,165282,2,0,P|5:109|63:111,1,152,2|0,0:0|0:0,0:0:0:0:
64,214,165484,2,0,P|49:265|82:229,1,132.999995941162,2|0,0:0|0:0,0:0:0:0:
158,309,165687,2,0,P|174:355|181:313,1,113.999996520996,2|0,0:0|0:0,0:0:0:0:
287,334,165889,2,0,P|322:354|309:325,1,95,2|0,0:0|0:0,0:0:0:0:
397,287,166092,2,0,P|430:282|412:268,1,76,2|0,0:0|0:0,0:0:0:0:
310,228,166294,5,0,1:0:0:0:
281,208,166362,1,0,0:0:0:0:
265,178,166429,1,0,0:0:0:0:
265,145,166497,1,0,0:0:0:0:
282,115,166564,1,8,0:0:0:0:
311,97,166632,1,0,0:0:0:0:
344,94,166699,1,0,0:0:0:0:
376,109,166767,1,0,0:0:0:0:
395,135,166834,1,0,1:0:0:0:
426,150,166902,1,0,0:0:0:0:
460,147,166969,1,0,0:0:0:0:
488,129,167037,1,0,0:0:0:0:
505,100,167104,1,8,0:0:0:0:
505,65,167172,1,0,0:0:0:0:
490,37,167239,1,0,0:0:0:0:
461,17,167307,1,0,0:0:0:0:
422,8,167374,5,2,1:0:0:0:
503,229,167509,1,2,0:0:0:0:
282,115,167644,1,10,0:0:0:0:
287,334,167779,1,2,0:0:0:0:
126,197,167914,2,0,B|143:149|126:113|126:113|109:78|127:29,2,170.999994781494,2|2|2,1:0|0:0|0:0,0:0:0:0:
65,382,168454,6,0,P|81:327|74:271,1,113.999996520996,2|0,1:0|0:0,0:0:0:0:
41,168,168724,1,8,0:0:0:0:
41,168,168859,2,0,P|134:145|122:27,1,227.999993041992,2|0,0:0|0:0,0:0:0:0:
26,21,169264,1,10,0:0:0:0:
26,21,169332,1,0,0:0:0:0:
26,21,169399,2,0,L|33:95,1,56.9999982604981,0|0,0:0|0:0,0:0:0:0:
168,263,169534,5,2,1:0:0:0:
200,227,169602,1,0,0:0:0:0:
213,180,169669,2,0,L|225:106,1,56.9999982604981,0|0,0:0|0:0,0:0:0:0:
344,19,169804,5,10,0:0:0:0:
378,51,169872,1,0,0:0:0:0:
388,100,169939,2,0,L|400:173,1,56.9999982604981,0|0,0:0|0:0,0:0:0:0:
478,317,170074,5,2,1:0:0:0:
435,362,170142,1,0,0:0:0:0:
373,375,170209,1,0,0:0:0:0:
316,349,170277,1,0,0:0:0:0:
286,294,170344,1,10,0:0:0:0:
294,232,170412,1,0,0:0:0:0:
339,186,170479,1,0,0:0:0:0:
401,177,170547,1,0,0:0:0:0:
457,206,170614,5,2,1:0:0:0:
411,246,170682,1,0,0:0:0:0:
347,246,170749,1,0,0:0:0:0:
294,202,170817,1,0,0:0:0:0:
284,130,170884,6,0,B|248:143|202:128|202:128|145:151|145:151|103:136|61:150,1,213.750008153916,10|0,0:0|0:0,0:0:0:0:
2,66,171154,2,0,P|58:29|123:60,1,142.500005435944,2|0,1:0|0:0,0:0:0:0:
69,166,171357,2,0,L|60:319,1,142.500005435944,2|0,0:0|0:0,0:0:0:0:
157,367,171559,1,2,0:0:0:0:
157,367,171627,1,0,0:0:0:0:
157,367,171694,5,10,1:2:0:0:
190,333,171762,1,0,1:0:0:0:
199,287,171829,1,0,1:0:0:0:
183,243,171897,1,0,1:0:0:0:
145,216,171964,1,14,1:2:0:0:
101,201,172032,1,0,1:0:0:0:
69,166,172099,1,0,1:0:0:0:
60,120,172167,1,0,1:0:0:0:
75,76,172234,1,14,1:2:0:0:
111,46,172302,1,0,1:0:0:0:
157,39,172369,1,0,1:0:0:0:
202,54,172437,1,0,1:0:0:0:
230,90,172504,1,14,1:2:0:0:
242,134,172572,1,0,1:0:0:0:
277,165,172639,1,0,1:0:0:0:
324,173,172707,1,0,1:0:0:0:
365,155,172774,5,14,1:2:0:0:
338,145,172842,1,0,0:0:0:0:
309,143,172909,1,0,0:0:0:0:
282,150,172977,1,0,0:0:0:0:
257,164,173044,1,8,0:0:0:0:
238,185,173112,1,0,0:0:0:0:
225,211,173179,1,0,0:0:0:0:
221,239,173247,1,0,0:0:0:0:
224,267,173314,1,0,1:0:0:0:
236,293,173382,1,0,0:0:0:0:
254,314,173449,1,0,0:0:0:0:
278,330,173517,1,0,0:0:0:0:
306,337,173584,2,0,P|340:331|368:318,1,56.9999982604981,8|0,0:0|0:0,0:0:0:0:
464,255,173719,2,0,L|475:368,1,113.999996520996,0|0,0:0|1:0,0:0:0:0:
327,250,173989,5,2,0:0:0:0:
484,254,174124,1,10,0:0:0:0:
409,89,174259,1,2,0:0:0:0:
224,267,174394,5,2,1:0:0:0:
221,239,174462,1,0,0:0:0:0:
225,211,174529,1,0,0:0:0:0:
238,185,174597,1,0,0:0:0:0:
257,164,174664,1,8,0:0:0:0:
282,150,174732,1,0,0:0:0:0:
309,143,174799,1,0,0:0:0:0:
338,145,174867,1,0,0:0:0:0:
365,155,174934,5,0,1:0:0:0:
324,173,175002,1,0,0:0:0:0:
277,165,175069,1,0,0:0:0:0:
242,134,175137,1,0,0:0:0:0:
230,90,175204,1,8,0:0:0:0:
202,54,175272,1,0,0:0:0:0:
157,39,175339,1,0,0:0:0:0:
111,46,175407,1,0,0:0:0:0:
75,76,175474,1,0,1:0:0:0:
60,120,175542,1,0,0:0:0:0:
69,166,175609,1,0,0:0:0:0:
101,201,175677,1,0,0:0:0:0:
145,216,175744,2,0,P|150:250|142:293,1,56.9999982604981,8|0,0:0|0:0,0:0:0:0:
41,365,175879,2,0,P|27:305|36:247,1,113.999996520996,0|0,0:0|1:0,0:0:0:0:
148,125,176149,5,2,0:0:0:0:
272,274,176284,1,10,0:0:0:0:
336,61,176419,1,2,0:0:0:0:
145,216,176554,1,2,1:0:0:0:
145,216,176622,1,0,0:0:0:0:
145,216,176689,2,0,P|140:250|148:293,1,56.9999982604981,0|0,0:0|0:0,0:0:0:0:
210,384,176824,1,8,0:0:0:0:
266,380,176892,1,0,0:0:0:0:
323,377,176959,1,0,0:0:0:0:
380,374,177027,1,0,0:0:0:0:
437,371,177094,5,2,1:0:0:0:
407,348,177161,1,0,0:0:0:0:
389,315,177229,1,0,0:0:0:0:
386,278,177297,1,0,0:0:0:0:
400,243,177364,2,0,P|425:220|461:207,1,56.9999982604981,8|0,0:0|0:0,0:0:0:0:
512,119,177499,5,2,0:0:0:0:
477,133,177566,1,0,0:0:0:0:
439,132,177634,1,0,1:0:0:0:
405,116,177701,1,0,0:0:0:0:
382,87,177769,2,0,P|373:53|380:16,1,56.9999982604981,0|0,0:0|0:0,0:0:0:0:
287,5,177904,5,10,0:0:0:0:
281,42,177972,1,0,0:0:0:0:
261,74,178039,1,0,0:0:0:0:
230,96,178106,1,0,0:0:0:0:
194,101,178174,2,0,P|161:91|131:66,1,56.9999982604981,0|0,1:0|0:0,0:0:0:0:
15,8,178309,6,0,P|36:35|45:72,1,56.9999982604981,2|0,0:0|0:0,0:0:0:0:
63,145,178444,1,10,0:0:0:0:
67,182,178511,1,0,0:0:0:0:
53,216,178579,2,0,P|28:239|-7:252,1,56.9999982604981,0|0,0:0|0:0,0:0:0:0:
4,350,178714,5,2,1:0:0:0:
39,336,178781,1,0,0:0:0:0:
76,338,178849,1,0,0:0:0:0:
111,353,178916,1,0,0:0:0:0:
133,382,178984,2,0,L|140:319,1,56.9999982604981,10|0,0:0|0:0,0:0:0:0:
205,242,179119,2,0,L|198:179,1,56.9999982604981,2|0,1:0|0:0,0:0:0:0:
129,30,179254,5,2,1:0:0:0:
148,71,179322,1,0,1:0:0:0:
188,97,179389,1,0,1:0:0:0:
235,97,179457,1,0,1:0:0:0:
273,71,179524,1,10,1:2:0:0:
311,41,179592,1,0,1:0:0:0:
357,32,179659,1,0,1:0:0:0:
403,49,179727,1,0,1:0:0:0:
433,85,179794,1,2,1:0:0:0:
441,133,179862,1,0,1:0:0:0:
425,177,179929,1,0,1:0:0:0:
389,209,179997,1,0,1:0:0:0:
372,253,180064,1,10,1:2:0:0:
381,301,180132,1,0,1:0:0:0:
411,336,180199,1,0,1:0:0:0:
457,352,180267,1,0,1:0:0:0:
504,339,180334,5,14,1:2:0:0:
470,299,180402,1,0,1:0:0:0:
423,278,180469,1,0,1:0:0:0:
373,280,180537,1,0,1:0:0:0:
327,303,180604,1,14,1:2:0:0:
277,304,180672,1,0,1:0:0:0:
230,284,180739,1,0,1:0:0:0:
197,244,180807,1,0,1:0:0:0:
183,187,180874,5,14,1:2:0:0:
242,199,180942,1,10,1:2:0:0:
282,244,181009,1,10,1:2:0:0:
287,304,181077,1,10,1:2:0:0:
254,355,181144,1,14,1:2:0:0:
196,374,181212,1,10,1:2:0:0:
139,356,181279,1,10,1:2:0:0:
104,306,181347,1,10,1:2:0:0:
107,246,181414,6,0,P|99:220|80:189,1,56.9999982604981,14|0,1:2|0:0,0:0:0:0:
145,46,181549,2,0,P|145:72|156:109,1,56.9999982604981,2|0,0:0|0:0,0:0:0:0:
242,199,181684,2,0,B|284:213|284:213|477:190,1,227.999993041992,10|0,0:0|1:0,0:0:0:0:
339,32,182089,1,2,0:0:0:0:
339,32,182157,1,2,0:0:0:0:
339,32,182224,2,0,L|278:38,1,56.9999982604981,10|0,0:0|0:0,0:0:0:0:
372,161,182359,2,0,L|397:105,1,56.9999982604981,2|0,0:0|0:0,0:0:0:0:
489,34,182494,5,2,1:0:0:0:
487,84,182562,1,0,0:0:0:0:
485,135,182629,1,0,0:0:0:0:
483,186,182697,1,0,0:0:0:0:
481,238,182764,1,8,0:0:0:0:
456,282,182832,1,0,0:0:0:0:
410,303,182899,1,0,0:0:0:0:
361,296,182967,1,0,0:0:0:0:
324,261,183034,5,0,1:0:0:0:
304,311,183102,1,0,0:0:0:0:
260,342,183169,1,0,0:0:0:0:
205,342,183237,1,0,0:0:0:0:
162,311,183304,1,8,0:0:0:0:
144,259,183372,1,0,0:0:0:0:
159,207,183439,1,0,0:0:0:0:
202,172,183507,1,0,0:0:0:0:
256,171,183574,6,0,L|244:239,1,56.9999982604981,2|0,1:0|0:0,0:0:0:0:
149,315,183709,2,0,L|142:248,1,56.9999982604981,2|0,0:0|0:0,0:0:0:0:
92,85,183844,2,0,B|32:50|32:50|57:137|18:217,1,227.999993041992,10|0,0:0|1:0,0:0:0:0:
0,364,184249,1,2,0:0:0:0:
0,364,184317,1,2,0:0:0:0:
0,364,184384,2,0,L|61:371,1,56.9999982604981,10|0,0:0|0:0,0:0:0:0:
144,259,184519,2,0,L|205:252,1,56.9999982604981,2|0,0:0|0:0,0:0:0:0:
319,367,184654,5,0,1:0:0:0:
362,377,184722,1,0,0:0:0:0:
405,365,184789,1,0,0:0:0:0:
437,332,184857,1,0,0:0:0:0:
450,289,184924,1,8,0:0:0:0:
437,245,184992,1,0,0:0:0:0:
406,213,185059,1,0,0:0:0:0:
362,201,185127,1,0,0:0:0:0:
319,212,185194,5,0,1:0:0:0:
336,265,185261,1,0,0:0:0:0:
381,297,185329,1,0,0:0:0:0:
437,297,185396,1,0,0:0:0:0:
482,263,185464,1,8,0:0:0:0:
498,209,185531,1,0,0:0:0:0:
479,156,185599,1,0,0:0:0:0:
432,125,185666,1,0,0:0:0:0:
376,128,185734,6,0,L|319:135,1,56.9999982604981,2|0,1:0|0:0,0:0:0:0:
181,174,185869,2,0,L|187:117,1,56.9999982604981,2|0,0:0|0:0,0:0:0:0:
362,24,186004,2,0,B|408:50|408:50|286:63,1,170.999994781494,10|0,0:0|0:0,0:0:0:0:
172,0,186274,6,0,P|132:-3|153:32,1,95,2|0,1:0|0:0,0:0:0:0:
57,92,186477,2,0,P|12:101|60:113,1,109.250002083778,2|0,0:0|0:0,0:0:0:0:
44,231,186679,2,0,P|22:274|61:245,1,123.499994346619,2|0,0:0|0:0,0:0:0:0:
142,335,186882,2,0,P|160:381|172:329,1,137.750004203797,2|0,0:0|0:0,0:0:0:0:
302,333,187084,2,0,P|352:358|317:314,1,152,2|0,0:0|0:0,0:0:0:0:
383,211,187287,2,0,P|442:197|383:183,1,166.250001585484,2|0,0:0|0:0,0:0:0:0:
293,238,187489,1,2,0:0:0:0:
130,185,187624,1,10,0:0:0:0:
67,188,187692,1,2,0:0:0:0:
21,232,187759,1,2,0:0:0:0:
15,294,187827,1,2,0:0:0:0:
50,346,187894,5,2,1:0:0:0:
88,318,187962,1,0,0:0:0:0:
106,274,188029,1,0,0:0:0:0:
98,228,188097,1,0,0:0:0:0:
66,194,188164,1,8,0:0:0:0:
30,163,188232,1,0,0:0:0:0:
13,119,188299,1,0,0:0:0:0:
22,72,188367,1,0,0:0:0:0:
52,35,188434,1,0,1:0:0:0:
97,19,188502,1,0,0:0:0:0:
143,28,188569,1,0,0:0:0:0:
180,58,188637,1,0,0:0:0:0:
196,103,188704,1,8,0:0:0:0:
233,133,188772,1,0,0:0:0:0:
279,142,188839,1,0,0:0:0:0:
324,126,188907,1,0,0:0:0:0:
361,97,188974,5,0,1:0:0:0:
333,80,189041,1,0,1:0:0:0:
302,76,189109,1,0,1:0:0:0:
271,85,189176,1,0,1:0:0:0:
247,105,189244,1,12,1:2:0:0:
233,134,189311,1,0,1:0:0:0:
231,165,189379,1,0,1:0:0:0:
242,195,189446,1,0,1:0:0:0:
265,218,189514,1,12,1:2:0:0:
294,229,189581,1,0,1:0:0:0:
326,228,189649,1,0,1:0:0:0:
355,239,189717,1,0,1:0:0:0:
377,262,189785,1,12,1:2:0:0:
389,291,189852,1,0,1:0:0:0:
387,323,189920,1,0,1:0:0:0:
373,352,189987,1,0,1:0:0:0:
347,371,190054,5,12,1:2:0:0:
324,367,190122,1,0,0:0:0:0:
302,366,190189,1,0,0:0:0:0:
280,365,190257,1,0,0:0:0:0:
258,363,190324,1,8,0:0:0:0:
235,361,190392,1,0,0:0:0:0:
214,360,190459,1,0,0:0:0:0:
193,359,190527,1,0,0:0:0:0:
171,357,190594,1,0,1:0:0:0:
149,356,190662,1,0,0:0:0:0:
126,354,190729,1,0,0:0:0:0:
105,353,190797,1,0,0:0:0:0:
83,352,190864,1,8,0:0:0:0:
61,351,190932,1,0,0:0:0:0:
36,348,190999,5,2,0:0:0:0:
35,303,191067,1,2,0:0:0:0:
35,257,191134,1,2,1:0:0:0:
153,223,191269,5,2,0:0:0:0:
129,185,191337,1,2,0:0:0:0:
106,145,191404,1,10,0:0:0:0:
253,96,191539,5,2,0:0:0:0:
214,74,191607,1,2,0:0:0:0:
174,52,191674,1,2,1:0:0:0:
153,223,191809,5,2,0:0:0:0:
198,251,191877,1,2,0:0:0:0:
252,256,191944,1,10,0:0:0:0:
302,236,192012,1,2,0:0:0:0:
339,196,192079,1,2,0:0:0:0:
353,144,192147,1,2,0:0:0:0:
343,92,192214,6,0,P|404:108|448:183,1,128.250000489235,2|2,1:0|0:0,0:0:0:0:
497,357,192484,1,10,0:0:0:0:
484,374,192754,6,0,L|344:366,1,128.250000489235,2|0,1:0|0:0,0:0:0:0:
319,350,192957,2,0,B|301:235|301:235|282:277|249:302,1,192.375000733852,2|0,0:0|0:0,0:0:0:0:
52,374,193294,5,2,1:0:0:0:
19,326,193362,1,0,0:0:0:0:
27,271,193429,1,0,0:0:0:0:
72,236,193497,1,0,0:0:0:0:
127,239,193564,1,10,0:0:0:0:
180,219,193632,1,0,0:0:0:0:
210,171,193699,1,0,0:0:0:0:
203,114,193767,1,0,0:0:0:0:
163,75,193834,5,2,1:0:0:0:
136,125,193902,1,0,0:0:0:0:
131,181,193969,1,0,0:0:0:0:
152,235,194037,1,0,0:0:0:0:
192,276,194104,1,10,0:0:0:0:
246,296,194172,1,0,0:0:0:0:
303,291,194239,1,0,0:0:0:0:
353,262,194307,1,0,0:0:0:0:
378,212,194374,6,0,L|372:143,1,64.1250002446175,2|0,1:0|0:0,0:0:0:0:
304,16,194509,2,0,L|297:84,1,64.1250002446175,2|0,0:0|0:0,0:0:0:0:
283,172,194644,1,10,0:0:0:0:
508,239,194779,6,0,L|502:170,1,64.1250002446175,2|0,0:0|0:0,0:0:0:0:
429,18,194914,2,0,L|418:94,1,64.1250002446175,2|0,1:0|0:0,0:0:0:0:
283,172,195049,1,2,0:0:0:0:
458,366,195184,5,10,0:0:0:0:
409,363,195251,1,0,0:0:0:0:
361,360,195319,1,0,0:0:0:0:
313,357,195386,1,0,0:0:0:0:
265,354,195454,5,6,1:0:0:0:
274,312,195521,1,0,0:0:0:0:
264,271,195589,1,0,0:0:0:0:
236,239,195656,1,0,0:0:0:0:
197,224,195724,1,10,0:0:0:0:
155,228,195791,1,0,0:0:0:0:
120,252,195859,1,0,0:0:0:0:
77,255,195927,1,0,0:0:0:0:
38,240,195995,1,6,1:0:0:0:
10,208,196062,1,0,0:0:0:0:
0,167,196130,1,0,0:0:0:0:
10,126,196197,1,0,0:0:0:0:
39,96,196264,5,10,0:0:0:0:
75,146,196331,1,2,0:0:0:0:
137,147,196399,1,2,0:0:0:0:
174,98,196466,1,2,0:0:0:0:
156,39,196534,5,6,1:0:0:0:
133,45,196601,1,0,1:0:0:0:
113,57,196669,1,0,1:0:0:0:
97,75,196736,1,0,1:0:0:0:
88,97,196804,1,10,1:2:0:0:
86,121,196871,1,0,1:0:0:0:
91,144,196939,1,0,1:0:0:0:
103,164,197006,1,0,1:0:0:0:
120,180,197074,1,4,1:0:0:0:
142,190,197141,1,0,1:0:0:0:
165,194,197209,1,0,1:0:0:0:
188,190,197276,1,0,1:0:0:0:
210,177,197344,1,10,1:2:0:0:
233,172,197411,1,0,1:0:0:0:
256,176,197479,1,0,1:0:0:0:
276,188,197546,1,0,1:0:0:0:
289,208,197614,5,14,1:2:0:0:
324,203,197681,1,0,1:0:0:0:
359,199,197749,1,0,1:0:0:0:
395,195,197816,1,0,1:0:0:0:
430,191,197884,1,10,1:2:0:0:
465,186,197951,1,0,1:0:0:0:
501,182,198019,2,0,L|523:125,1,47.5,0|0,1:0|1:0,1:0:0:0:
360,39,198154,2,0,L|343:83,1,47.5,14|0,1:2|1:0,1:0:0:0:
254,294,198289,5,0,1:0:0:0:
289,289,198356,1,0,1:0:0:0:
324,285,198424,1,10,1:2:0:0:
360,281,198491,1,0,1:0:0:0:
395,277,198559,1,0,1:0:0:0:
430,272,198626,1,0,1:0:0:0:
466,268,198694,5,14,1:2:0:0:
453,318,198761,1,0,1:0:0:0:
419,357,198829,1,10,1:2:0:0:
371,375,198896,1,0,1:0:0:0:
319,369,198964,1,10,1:2:0:0:
277,339,199031,1,0,1:0:0:0:
253,293,199099,1,10,1:2:0:0:
254,241,199166,1,0,1:0:0:0:
278,196,199234,1,14,1:2:0:0:
277,144,199301,1,0,1:0:0:0:
250,100,199369,1,10,1:2:0:0:
204,76,199436,1,0,1:0:0:0:
153,77,199504,1,10,1:2:0:0:
109,105,199571,1,0,1:0:0:0:
85,150,199639,1,10,1:2:0:0:
87,202,199706,1,0,1:0:0:0:
115,245,199774,5,14,1:2:0:0:
158,210,199841,1,10,1:2:0:0:
170,155,199909,1,10,1:2:0:0:
146,104,199976,1,10,1:2:0:0:
96,79,200044,1,14,1:2:0:0:
41,90,200111,1,10,1:2:0:0:
4,132,200179,2,10,P|0:162|8:202,1,47.5,10|10,1:2|1:2,1:2:0:0:
57,357,200314,2,10,P|84:346|115:319,1,47.5,14|10,1:2|1:2,1:2:0:0:
277,144,200449,5,10,1:2:0:0:
331,154,200516,1,10,1:2:0:0:
369,195,200584,1,14,1:2:0:0:
373,251,200651,1,10,1:2:0:0:
343,298,200719,1,10,1:2:0:0:
290,316,200786,1,10,1:2:0:0:
237,298,200854,6,0,L|246:179,2,114,14|2|2,1:2|0:0|0:0,0:0:0:0:
467,266,201394,1,2,0:0:0:0:
467,266,201462,2,0,L|477:360,1,76,2|0,0:0|0:0,0:0:0:0:
450,364,201664,1,2,0:0:0:0:
373,251,201799,1,2,0:0:0:0:
498,155,201934,6,0,P|502:96|474:33,1,114,2|2,0:0|0:0,0:0:0:0:
455,29,202205,2,0,L|371:18,1,76,2|2,0:0|0:0,0:0:0:0:
328,190,202475,2,0,P|332:131|304:68,1,114,2|2,0:0|0:0,0:0:0:0:
285,64,202745,2,0,L|201:53,1,76,2|2,0:0|0:0,0:0:0:0:
86,16,203014,6,0,P|41:49|17:88,1,76,2|0,0:0|0:0,0:0:0:0:
16,98,203217,2,0,P|22:153|44:193,1,76,2|0,0:0|0:0,0:0:0:0:
54,200,203420,1,2,0:0:0:0:
3,297,203555,2,0,P|36:341|75:365,1,76,2|0,0:0|0:0,0:0:0:0:
85,367,203758,2,0,P|140:360|180:338,1,76,2|0,0:0|0:0,0:0:0:0:
187,329,203961,1,2,0:0:0:0:
157,214,204095,5,2,0:0:0:0:
266,122,204230,1,2,0:0:0:0:
266,122,204297,1,2,0:0:0:0:
266,122,204365,2,0,L|365:132,1,76,2|2,0:0|0:0,0:0:0:0:
390,269,204635,1,2,0:0:0:0:
481,244,204770,1,2,0:0:0:0:
302,287,204905,1,2,0:0:0:0:
470,366,205040,1,2,0:0:0:0:
338,204,205175,2,0,P|336:147|350:112,1,76,2|0,0:0|0:0,0:0:0:0:
364,100,205377,1,2,0:0:0:0:
394,77,205445,2,0,L|481:85,1,76,2|2,0:0|0:0,0:0:0:0:
285,16,205715,6,0,L|186:28,1,76,2|0,0:0|0:0,0:0:0:0:
188,130,205985,2,0,L|89:142,1,76
0,246,206255,2,0,L|113:260,1,95,2|0,0:0|0:0,0:0:0:0:
139,373,206525,2,0,L|252:387,1,95
302,287,206795,2,0,L|392:275,1,76,2|0,0:0|0:0,0:0:0:0:
406,191,207065,2,0,L|496:179,1,76
394,77,207335,2,0,L|321:68,1,56.9999982604981,2|0,0:0|0:0,0:0:0:0:
285,16,207605,2,0,L|212:7,1,56.9999982604981
188,130,207875,2,0,L|141:135,1,38,2|0,0:0|0:0,0:0:0:0:
120,170,208145,2,0,L|73:175,1,38
7,134,208415,5,2,0:0:0:0:
0,281,208617,1,2,0:0:0:0:
117,345,208820,1,2,0:0:0:0:
148,242,208955,2,0,L|72:250,1,76,2|0,0:0|0:0,0:0:0:0:
7,134,209225,1,2,0:0:0:0:
41,42,209360,5,2,1:0:0:0:
41,42,209427,1,0,1:0:0:0:
41,42,209495,2,0,L|154:36,1,95,6|0,1:0|0:0,0:0:0:0:
233,84,209765,2,0,P|242:147|233:182,1,95,2|0,0:0|0:0,0:0:0:0:
140,221,210035,2,0,P|62:218|20:309,1,190,2|2,0:0|0:0,0:0:0:0:
104,384,210440,1,0,0:0:0:0:
226,336,210575,5,2,0:0:0:0:
264,332,210665,1,2,0:0:0:0:
300,347,210755,1,2,0:0:0:0:
323,377,210845,2,0,L|333:263,1,95,2|0,0:0|0:0,0:0:0:0:
385,154,211115,2,0,P|372:75|386:-8,2,142.5,2|2|2,0:0|0:0|1:0,0:0:0:0:
398,189,211587,1,0,1:0:0:0:
417,222,211655,6,0,P|466:228|522:209,1,95,6|0,1:0|0:0,0:0:0:0:
331,282,211925,2,0,P|350:327|394:366,1,95,2|0,0:0|0:0,0:0:0:0:
259,212,212195,2,0,P|206:229|168:351,1,190,2|0,0:0|0:0,0:0:0:0:
34,367,212600,1,2,0:0:0:0:
34,367,212667,1,2,0:0:0:0:
34,367,212735,6,0,L|42:268,1,95,2|0,0:0|0:0,0:0:0:0:
132,170,213005,2,0,L|124:71,1,95,2|0,0:0|0:0,0:0:0:0:
18,32,213275,1,2,0:0:0:0:
24,137,213410,1,0,0:0:0:0:
133,187,213545,2,0,P|191:163|222:130,1,95,2|0,0:0|0:0,0:0:0:0:
293,40,213815,6,0,L|409:50,1,95,6|0,1:0|0:0,0:0:0:0:
458,79,214017,2,0,L|342:89,1,95,2|0,0:0|0:0,0:0:0:0:
304,144,214220,1,2,0:0:0:0:
448,211,214355,2,0,P|453:279|440:327,1,95,2|0,0:0|0:0,0:0:0:0:
309,363,214625,1,2,0:0:0:0:
224,194,214760,1,2,1:0:0:0:
224,194,214827,1,0,1:0:0:0:
224,194,214895,6,0,L|214:80,1,95,6|0,1:0|0:0,0:0:0:0:
63,18,215165,2,0,L|54:112,1,95,2|0,0:0|0:0,0:0:0:0:
134,262,215435,1,2,1:0:0:0:
12,368,215570,1,2,0:0:0:0:
12,368,215637,1,2,0:0:0:0:
12,368,215705,1,2,0:0:0:0:
0,212,215840,1,2,0:0:0:0:
97,348,215975,5,4,1:0:0:0:
117,360,216042,1,0,1:0:0:0:
139,369,216110,1,0,1:0:0:0:
162,374,216177,1,0,1:0:0:0:
185,376,216245,1,8,1:2:0:0:
209,375,216312,1,0,1:0:0:0:
232,370,216380,1,0,1:0:0:0:
255,362,216447,1,0,1:0:0:0:
275,350,216515,1,4,1:2:0:0:
294,336,216582,1,0,1:0:0:0:
311,319,216650,1,0,1:0:0:0:
324,299,216717,1,0,1:0:0:0:
335,278,216785,1,12,1:2:0:0:
342,256,216852,1,0,1:0:0:0:
346,232,216920,1,0,1:0:0:0:
347,209,216987,1,0,1:0:0:0:
344,181,217055,6,0,P|378:100|500:138,1,213.750008153916,14|0,1:2|0:0,0:0:0:0:
396,249,217325,2,0,P|308:260|280:135,1,213.750008153916,14|0,1:2|0:0,0:0:0:0:
425,174,217595,2,0,P|478:243|384:330,1,213.750008153916,14|0,1:2|0:0,0:0:0:0:
267,157,217865,1,14,1:2:0:0:
209,130,217932,1,8,1:2:0:0:
148,147,218000,1,8,1:2:0:0:
111,197,218067,1,8,1:2:0:0:
112,263,218135,6,0,L|100:32,1,213.750008153916,12|2,1:2|0:0,0:0:0:0:
16,7,218405,2,0,L|4:158,1,142.500005435944,10|2,0:0|0:0,0:0:0:0:
47,333,218675,1,2,1:0:0:0:
80,361,218742,2,0,P|153:362|201:315,1,142.500005435944,0|2,0:0|0:0,0:0:0:0:
203,208,218945,1,10,0:0:0:0:
419,243,219080,1,2,0:0:0:0:
398,4,219215,5,2,1:0:0:0:
363,8,219282,2,0,L|286:18,1,71.2500027179719,0|0,0:0|0:0,0:0:0:0:
274,156,219417,1,2,0:0:0:0:
309,160,219485,2,0,L|397:174,1,71.2500027179719,10|0,0:0|0:0,0:0:0:0:
508,217,219620,1,2,0:0:0:0:
405,378,219755,2,0,P|431:299|406:222,1,142.500005435944,2|0,1:0|0:0,0:0:0:0:
329,244,219957,1,2,0:0:0:0:
301,241,220025,1,10,0:0:0:0:
139,65,220160,1,2,0:0:0:0:
53,314,220295,6,0,L|43:162,1,142.500005435944,2|0,1:0|0:0,0:0:0:0:
39,135,220497,1,2,0:0:0:0:
35,96,220565,1,10,0:0:0:0:
224,6,220700,1,2,0:0:0:0:
208,232,220835,1,2,1:0:0:0:
205,267,220902,2,0,L|198:341,1,71.2500027179719,0|0,0:0|0:0,0:0:0:0:
324,153,221037,1,2,0:0:0:0:
319,118,221105,2,0,L|312:47,1,71.2500027179719,10|0,0:0|0:0,0:0:0:0:
498,221,221240,1,2,0:0:0:0:
320,372,221375,5,2,1:0:0:0:
406,191,221510,1,0,1:0:0:0:
406,191,221577,1,0,1:0:0:0:
406,191,221645,1,10,0:0:0:0:
208,232,221780,1,2,1:0:0:0:
384,294,221915,1,2,1:0:0:0:
244,138,222050,1,2,1:0:0:0:
119,359,222185,1,10,0:0:0:0:
53,94,222320,1,2,1:0:0:0:
406,191,222455,6,0,L|419:41,1,142.500005435944,2|0,1:0|0:0,0:0:0:0:
500,0,222657,1,2,0:0:0:0:
512,27,222725,2,0,L|506:105,1,71.2500027179719,10|0,0:0|0:0,0:0:0:0:
331,76,222860,2,0,L|324:146,1,71.2500027179719,2|0,0:0|0:0,0:0:0:0:
496,210,222995,1,2,1:0:0:0:
352,337,223130,1,2,0:0:0:0:
324,146,223265,1,10,0:0:0:0:
488,307,223400,1,2,0:0:0:0:
244,363,223535,5,2,1:0:0:0:
256,317,223603,1,0,0:0:0:0:
241,273,223670,1,0,0:0:0:0:
205,243,223738,1,0,0:0:0:0:
159,238,223805,1,10,0:0:0:0:
113,248,223873,1,0,0:0:0:0:
68,233,223940,1,0,0:0:0:0:
37,198,224008,1,0,0:0:0:0:
28,152,224075,1,2,1:0:0:0:
44,108,224143,1,0,0:0:0:0:
80,78,224210,1,0,0:0:0:0:
127,70,224278,1,0,0:0:0:0:
170,87,224345,1,10,0:0:0:0:
202,119,224413,1,0,0:0:0:0:
248,128,224480,1,0,0:0:0:0:
292,112,224548,1,0,0:0:0:0:
319,75,224615,6,0,L|328:2,3,71.2500027179719,2|0|0|0,1:0|0:0|0:0|0:0,0:0:0:0:
408,129,224885,2,0,L|465:83,3,61.7499971733095,10|0|0|0,0:0|0:0|0:0|0:0,0:0:0:0:
432,239,225155,2,0,L|504:248,3,52.2500015945435,2|0|0|0,1:0|0:0|0:0|0:0,0:0:0:0:
368,325,225425,2,0,L|413:382,3,42.7499986953736,8|0|0|0,0:0|0:0|0:0|0:0,0:0:0:0:
248,300,225695,5,0,1:0:0:0:
235,331,225762,1,0,1:0:0:0:
212,357,225830,1,0,1:0:0:0:
181,376,225897,1,0,1:0:0:0:
146,384,225965,1,12,1:2:0:0:
111,383,226032,1,0,1:0:0:0:
78,370,226100,1,0,1:0:0:0:
50,348,226167,1,0,1:0:0:0:
30,317,226235,1,12,1:2:0:0:
23,284,226302,1,8,1:2:0:0:
22,247,226370,1,8,1:2:0:0:
35,214,226437,1,8,1:2:0:0:
57,186,226505,1,12,1:2:0:0:
71,152,226572,1,8,1:2:0:0:
72,117,226640,1,8,1:2:0:0:
62,83,226707,1,8,1:2:0:0:
45,54,226775,6,0,B|27:22|27:22|137:31,1,142.500005435944,12|0,1:2|0:0,0:0:0:0:
392,93,227045,1,10,0:0:0:0:
214,227,227180,1,2,0:0:0:0:
324,24,227315,2,0,P|243:59|282:174,1,213.750008153916,2|0,1:0|0:0,0:0:0:0:
310,104,227585,2,0,L|319:246,1,142.500005435944,8|0,0:0|0:0,0:0:0:0:
463,370,227855,5,2,0:0:0:0:
506,293,227945,1,2,0:0:0:0:
473,210,228035,1,2,0:0:0:0:
392,184,228125,2,0,L|402:341,1,142.500005435944,10|0,0:0|0:0,0:0:0:0:
224,370,228395,2,0,L|214:227,1,142.500005435944,2|0,1:0|0:0,0:0:0:0:
191,193,228597,1,2,0:0:0:0:
167,155,228665,2,0,P|146:197|140:234,1,71.2500027179719,10|0,0:0|0:0,0:0:0:0:
50,339,228800,2,0,P|52:303|45:259,1,71.2500027179719,2|0,0:0|0:0,0:0:0:0:
19,155,228935,5,2,1:0:0:0:
8,108,229002,1,0,0:0:0:0:
22,63,229070,1,0,0:0:0:0:
57,30,229137,1,2,0:0:0:0:
102,19,229205,1,10,0:0:0:0:
147,29,229272,1,0,0:0:0:0:
182,62,229340,1,0,0:0:0:0:
227,72,229407,1,0,0:0:0:0:
272,61,229475,1,2,1:0:0:0:
307,28,229542,1,0,0:0:0:0:
352,18,229610,1,0,0:0:0:0:
397,29,229677,1,0,0:0:0:0:
432,62,229745,1,8,0:0:0:0:
450,111,229812,1,0,0:0:0:0:
443,163,229880,2,0,P|414:205|383:229,1,71.2500027179719,0|0,0:0|0:0,0:0:0:0:
241,278,230015,5,6,1:0:0:0:
205,264,230082,1,0,1:0:0:0:
172,250,230150,2,0,L|168:164,1,71.2500027179719,2|0,1:0|1:0,0:0:0:0:
272,61,230285,1,10,1:2:0:0:
308,75,230352,1,0,1:0:0:0:
341,89,230420,2,0,L|345:175,1,71.2500027179719,2|0,1:0|1:0,0:0:0:0:
354,310,230555,1,6,1:0:0:0:
375,363,230622,1,0,1:0:0:0:
428,384,230690,1,0,1:0:0:0:
481,363,230757,1,0,1:0:0:0:
503,310,230825,1,10,1:2:0:0:
481,257,230892,1,0,1:0:0:0:
428,235,230960,1,0,1:0:0:0:
375,257,231027,1,0,1:0:0:0:
354,310,231095,6,0,P|305:349|215:362,1,142.500005435944,6|0,1:0|0:0,0:0:0:0:
126,357,231297,1,2,0:0:0:0:
79,338,231365,2,0,L|88:244,1,71.2500027179719,10|0,0:0|0:0,0:0:0:0:
188,204,231500,2,0,L|179:110,1,71.2500027179719,2|0,0:0|0:0,0:0:0:0:
133,25,231635,2,0,P|79:31|-1:92,1,142.500005435944,2|0,1:0|0:0,0:0:0:0:
178,226,231905,1,10,0:0:0:0:
304,29,232040,1,2,0:0:0:0:
428,235,232175,5,2,1:0:0:0:
170,245,232310,1,0,0:0:0:0:
320,15,232445,2,0,L|312:164,1,142.500005435944,10|0,0:0|0:0,0:0:0:0:
426,373,232715,2,0,P|413:295|434:221,1,142.500005435944,2|0,1:0|0:0,0:0:0:0:
512,110,232917,1,2,0:0:0:0:
476,101,232985,2,0,P|440:102|403:118,1,71.2500027179719,10|0,0:0|0:0,0:0:0:0:
326,225,233120,2,0,P|325:189|309:152,1,71.2500027179719,2|0,1:0|0:0,0:0:0:0:
160,36,233255,5,2,1:0:0:0:
111,14,233322,1,0,1:0:0:0:
59,22,233390,1,0,1:0:0:0:
19,56,233457,1,2,1:0:0:0:
5,107,233525,1,10,1:2:0:0:
19,157,233592,1,0,1:0:0:0:
59,192,233660,1,2,1:0:0:0:
111,200,233727,1,0,1:0:0:0:
159,178,233795,1,2,1:0:0:0:
211,186,233862,1,0,1:0:0:0:
250,220,233930,1,0,1:0:0:0:
265,271,233997,1,0,1:0:0:0:
250,322,234065,1,10,1:2:0:0:
211,356,234132,1,0,1:0:0:0:
158,364,234200,2,0,P|121:350|92:321,1,71.2500027179719,2|0,1:0|1:0,0:0:0:0:
101,109,234335,5,14,1:2:0:0:
101,109,234402,1,0,1:0:0:0:
101,109,234470,2,0,L|111:17,1,71.2500027179719,0|0,1:0|1:0,0:0:0:0:
258,75,234605,5,14,1:2:0:0:
258,75,234672,1,0,1:2:0:0:
258,75,234740,2,0,L|312:0,1,71.2500027179719,0|0,1:0|1:0,0:0:0:0:
389,171,234875,5,14,1:2:0:0:
389,171,234942,1,0,1:2:0:0:
389,171,235010,2,0,L|473:133,1,71.2500027179719,0|0,1:2|1:2,0:0:0:0:
411,326,235145,5,14,1:2:0:0:
356,363,235212,1,10,1:2:0:0:
292,343,235280,1,10,1:2:0:0:
268,281,235347,1,10,1:2:0:0:
290,220,235415,6,0,P|216:219|136:278,1,156.750001494885,14|0,0:0|0:0,0:0:0:0:
119,304,235617,1,2,0:0:0:0:
92,349,235685,2,0,P|73:309|66:267,1,78.3750007474423,10|0,0:0|0:0,0:0:0:0:
19,157,235820,2,0,P|44:120|77:93,1,78.3750007474423,2|0,0:0|0:0,0:0:0:0:
222,61,235955,1,2,1:0:0:0:
258,75,236022,2,0,P|341:71|413:37,1,156.750001494885,0|2,0:0|0:0,0:0:0:0:
487,0,236225,1,10,0:0:0:0:
290,220,236360,1,2,0:0:0:0:
131,22,236495,5,2,1:0:0:0:
144,59,236562,2,0,L|137:146,1,78.3750007474423,0|0,0:0|0:0,0:0:0:0:
19,157,236697,1,2,0:0:0:0:
1,193,236765,2,0,L|10:303,1,78.3750007474423,10|0,0:0|0:0,0:0:0:0:
92,349,236900,1,2,0:0:0:0:
318,148,237035,2,0,L|307:304,1,156.750001494885,2|0,1:0|0:0,0:0:0:0:
92,349,237305,2,0,L|98:270,1,78.3750007474423,10|0,0:0|0:0,0:0:0:0:
199,203,237440,2,0,L|231:131,1,78.3750007474423,2|0,0:0|0:0,0:0:0:0:
340,40,237575,5,2,1:0:0:0:
370,33,237642,2,0,P|406:57|428:95,1,78.3750007474423,0|0,0:0|0:0,0:0:0:0:
462,197,237777,1,2,0:0:0:0:
469,230,237845,2,0,P|472:270|458:317,1,78.3750007474423,10|0,0:0|0:0,0:0:0:0:
353,384,237980,1,2,0:0:0:0:
230,131,238115,2,0,L|72:138,1,156.750001494885,2|0,1:0|0:0,0:0:0:0:
19,157,238317,1,2,0:0:0:0:
0,212,238385,2,0,B|-2:251|-2:251|15:294,1,78.3750007474423,10|0,0:0|0:0,0:0:0:0:
177,379,238520,2,0,B|211:361|211:361|240:325,1,78.3750007474423,2|0,0:0|0:0,0:0:0:0:
312,142,238655,5,2,1:0:0:0:
117,282,238790,1,0,1:0:0:0:
117,282,238857,1,0,1:0:0:0:
117,282,238925,1,10,0:0:0:0:
353,384,239060,1,2,1:0:0:0:
152,159,239195,5,2,1:0:0:0:
462,306,239330,1,2,1:0:0:0:
55,352,239465,1,10,0:0:0:0:
398,92,239600,1,2,1:0:0:0:
15,11,239735,6,0,L|0:197,1,156.750001494885,2|0,1:0|0:0,0:0:0:0:
55,352,239937,1,2,0:0:0:0:
126,384,240005,2,0,P|196:356|241:268,1,156.750001494885,10|0,0:0|0:0,0:0:0:0:
286,27,240275,1,2,1:0:0:0:
240,10,240342,1,0,1:0:0:0:
193,24,240410,1,0,1:0:0:0:
162,62,240477,1,0,1:0:0:0:
161,110,240545,1,10,1:2:0:0:
187,151,240612,1,0,1:0:0:0:
232,169,240680,1,0,1:0:0:0:
278,158,240747,1,0,1:0:0:0:
312,118,240815,5,14,1:2:0:0:
263,80,240882,1,0,1:0:0:0:
201,83,240950,1,0,1:0:0:0:
156,124,241017,1,0,1:0:0:0:
148,185,241085,1,10,1:2:0:0:
181,237,241152,1,0,1:0:0:0:
239,256,241220,1,0,1:0:0:0:
296,232,241287,1,0,1:0:0:0:
325,178,241355,1,10,1:2:0:0:
312,118,241422,1,0,1:0:0:0:
335,60,241489,1,0,1:2:0:0:
386,26,241557,1,0,1:0:0:0:
448,28,241624,1,10,1:2:0:0:
498,64,241692,1,0,1:0:0:0:
512,122,241759,1,0,1:2:0:0:
503,182,241827,1,0,1:0:0:0:
455,222,241895,5,14,1:2:0:0:
453,160,241962,1,0,1:0:0:0:
418,110,242031,1,10,1:2:0:0:
360,87,242097,1,0,1:0:0:0:
300,99,242166,1,10,1:2:0:0:
256,143,242232,1,0,1:0:0:0:
244,204,242301,1,10,1:2:0:0:
267,261,242367,1,0,1:0:0:0:
252,321,242435,1,14,1:2:0:0:
205,361,242502,1,0,1:0:0:0:
144,365,242569,1,10,1:2:0:0:
91,333,242637,1,0,1:0:0:0:
68,276,242704,1,10,1:2:0:0:
82,216,242772,1,0,1:0:0:0:
129,176,242839,1,10,1:2:0:0:
191,171,242907,1,0,1:0:0:0:
244,204,242975,5,14,1:2:0:0:
221,261,243042,1,10,1:2:0:0:
172,299,243110,1,10,1:2:0:0:
110,306,243177,1,10,1:2:0:0:
53,281,243245,1,14,1:2:0:0:
17,231,243312,1,10,1:2:0:0:
12,169,243380,1,10,1:2:0:0:
39,113,243447,1,10,1:2:0:0:
90,79,243515,1,14,1:2:0:0:
152,75,243582,1,10,1:2:0:0:
207,104,243650,1,10,1:2:0:0:
240,156,243717,1,10,1:2:0:0:
295,184,243785,1,14,1:2:0:0:
356,181,243852,1,10,1:2:0:0:
408,146,243920,1,10,1:2:0:0:
434,90,243987,1,10,1:2:0:0:
429,29,244055,6,0,P|371:19|291:46,1,142.500005435944,14|0,1:2|0:0,0:0:0:0:
142,201,244325,1,8,0:0:0:0:
35,13,244460,1,2,0:0:0:0:
295,184,244595,2,0,P|245:250|126:205,1,213.750008153916,2|0,1:0|0:0,0:0:0:0:
12,169,244865,2,0,L|22:27,1,142.500005435944,8|0,0:0|0:0,0:0:0:0:
8,268,245135,5,2,1:0:0:0:
28,356,245225,1,2,0:0:0:0:
116,384,245315,1,2,0:0:0:0:
205,370,245405,2,0,L|214:227,1,142.500005435944,10|0,0:0|0:0,0:0:0:0:
172,49,245675,2,0,L|315:42,1,142.500005435944,2|0,1:0|0:0,0:0:0:0:
367,38,245877,1,2,0:0:0:0:
420,36,245945,2,0,P|446:50|470:85,1,71.2500027179719,10|0,0:0|0:0,0:0:0:0:
309,248,246080,2,0,P|315:211|332:183,1,71.2500027179719,2|0,0:0|0:0,0:0:0:0:
501,199,246215,5,2,1:0:0:0:
485,249,246282,1,0,0:0:0:0:
447,284,246350,1,0,0:0:0:0:
395,296,246417,1,2,0:0:0:0:
347,282,246485,1,10,0:0:0:0:
309,248,246552,1,0,0:0:0:0:
294,197,246620,1,0,0:0:0:0:
257,163,246687,1,0,0:0:0:0:
209,151,246755,1,2,1:0:0:0:
162,164,246822,1,0,0:0:0:0:
126,199,246890,1,0,0:0:0:0:
112,246,246957,1,0,0:0:0:0:
122,294,247025,1,8,0:0:0:0:
155,332,247092,1,0,0:0:0:0:
201,348,247160,2,0,P|244:339|281:318,1,71.2500027179719,0|0,0:0|0:0,0:0:0:0:
328,108,247295,5,6,1:0:0:0:
314,72,247362,1,0,1:0:0:0:
300,39,247430,2,0,L|214:35,1,71.2500027179719,2|0,1:0|1:0,0:0:0:0:
81,52,247565,1,10,1:2:0:0:
47,72,247632,1,0,1:0:0:0:
17,91,247700,2,0,L|27:176,1,71.2500027179719,2|0,1:0|1:0,0:0:0:0:
132,247,247835,1,6,1:0:0:0:
153,300,247902,1,0,1:0:0:0:
132,353,247970,1,0,1:0:0:0:
79,374,248037,1,0,1:0:0:0:
26,353,248105,1,10,1:2:0:0:
4,300,248172,1,0,1:0:0:0:
26,247,248240,1,0,1:0:0:0:
79,225,248307,1,0,1:0:0:0:
132,247,248375,6,0,P|210:256|286:221,1,142.500005435944,6|0,1:0|0:0,0:0:0:0:
356,192,248577,2,0,P|374:268|433:327,1,142.500005435944,2|0,0:0|0:0,0:0:0:0:
489,365,248780,1,2,0:0:0:0:
511,168,248915,2,0,P|493:92|452:45,1,142.500005435944,2|0,1:0|0:0,0:0:0:0:
312,20,249185,1,10,0:0:0:0:
268,233,249320,1,2,0:0:0:0:
452,45,249455,5,2,1:0:0:0:
207,120,249590,1,0,0:0:0:0:
437,194,249725,1,10,0:0:0:0:
312,20,249860,1,0,0:0:0:0:
250,328,249995,2,0,L|91:334,1,142.500005435944,2|0,1:0|0:0,0:0:0:0:
84,352,250197,1,2,0:0:0:0:
59,372,250265,2,0,B|36:339|36:339|27:304,1,71.2500027179719,10|0,0:0|0:0,0:0:0:0:
0,207,250400,2,0,B|6:168|6:168|21:134,1,71.2500027179719,2|0,1:0|0:0,0:0:0:0:
80,45,250535,5,6,1:0:0:0:
126,40,250602,1,0,1:0:0:0:
167,62,250670,1,0,1:0:0:0:
190,103,250737,1,2,1:0:0:0:
187,149,250805,1,8,1:2:0:0:
168,192,250872,1,0,1:0:0:0:
176,240,250940,1,2,1:0:0:0:
205,277,251007,1,0,1:0:0:0:
249,293,251075,1,6,1:0:0:0:
294,285,251142,1,0,1:0:0:0:
331,255,251210,1,0,1:0:0:0:
347,209,251277,1,0,1:0:0:0:
337,165,251345,1,8,1:2:0:0:
312,128,251412,1,0,1:0:0:0:
311,81,251480,2,0,P|338:40|380:24,1,71.2500027179719,2|0,1:0|1:0,1:0:0:0:
496,56,251615,5,14,1:2:0:0:
499,109,251682,1,0,1:0:0:0:
502,163,251750,2,0,L|506:243,1,71.2500027179719,0|0,1:0|1:0,0:0:0:0:
453,366,251885,1,14,1:2:0:0:
405,342,251952,1,0,1:2:0:0:
357,317,252020,2,0,L|285:280,1,71.2500027179719,0|0,1:0|1:0,0:0:0:0:
205,78,252155,1,14,1:2:0:0:
149,67,252222,1,8,1:2:0:0:
98,90,252290,1,8,1:2:0:0:
69,138,252357,1,8,1:2:0:0:
73,194,252425,1,14,1:2:0:0:
107,238,252492,1,8,1:2:0:0:
161,255,252560,1,8,1:2:0:0:
215,238,252627,1,8,1:2:0:0:
250,196,252695,5,14,1:2:0:0:
220,171,252762,1,0,1:0:0:0:
184,161,252830,1,0,1:0:0:0:
146,168,252897,1,0,1:0:0:0:
115,188,252965,1,10,1:2:0:0:
96,221,253032,1,0,1:0:0:0:
92,258,253100,1,0,1:0:0:0:
104,294,253167,1,0,1:0:0:0:
129,322,253235,1,10,1:2:0:0:
164,336,253302,1,0,1:0:0:0:
202,335,253370,1,0,1:0:0:0:
235,317,253437,1,0,1:0:0:0:
259,288,253505,1,10,1:2:0:0:
293,272,253572,1,0,1:0:0:0:
330,277,253640,1,0,1:0:0:0:
361,300,253707,1,0,1:0:0:0:
379,333,253775,5,14,1:2:0:0:
332,353,253842,1,0,1:0:0:0:
281,344,253910,1,0,1:0:0:0:
243,309,253977,1,0,1:0:0:0:
231,259,254045,1,10,1:2:0:0:
247,210,254112,1,0,1:0:0:0:
287,177,254180,1,0,1:0:0:0:
338,172,254247,1,0,1:0:0:0:
384,195,254315,1,10,1:2:0:0:
435,190,254382,1,0,1:0:0:0:
476,157,254450,1,0,1:0:0:0:
491,108,254517,1,0,1:0:0:0:
477,59,254585,1,10,1:2:0:0:
438,25,254652,1,0,1:0:0:0:
387,18,254720,1,0,1:0:0:0:
341,41,254787,1,0,1:0:0:0:
315,85,254855,5,14,1:2:0:0:
255,80,254922,1,0,1:0:0:0:
196,74,254990,1,10,1:2:0:0:
137,68,255057,1,0,1:0:0:0:
78,63,255125,1,10,1:2:0:0:
27,91,255192,1,0,1:0:0:0:
0,143,255260,1,10,1:2:0:0:
6,201,255327,1,0,1:0:0:0:
44,245,255395,1,14,1:2:0:0:
100,261,255462,1,0,1:0:0:0:
156,243,255530,1,10,1:2:0:0:
191,197,255597,1,0,1:0:0:0:
247,180,255665,1,10,1:2:0:0:
302,200,255733,1,0,1:0:0:0:
334,248,255800,1,10,1:2:0:0:
331,306,255868,1,0,1:0:0:0:
284,341,255935,5,14,1:2:0:0:
234,291,256002,1,10,1:2:0:0:
229,221,256070,1,10,1:2:0:0:
270,166,256137,1,10,1:2:0:0:
338,150,256205,1,14,1:2:0:0:
402,180,256273,1,10,1:2:0:0:
471,162,256340,1,10,1:2:0:0:
503,98,256408,1,10,1:2:0:0:
481,31,256476,1,14,1:2:0:0:
417,1,256543,1,10,1:2:0:0:
349,20,256611,1,10,1:2:0:0:
316,82,256678,1,10,1:2:0:0:
338,150,256745,1,14,1:2:0:0:
312,215,256812,1,10,1:2:0:0:
252,251,256880,1,10,1:2:0:0:
183,243,256947,1,10,1:2:0:0:
131,195,257015,5,14,1:2:0:0:
256,192,257083,12,2,261335,0:0:0:0:
