osu file format v14

[General]
AudioFilename: audio.mp3
AudioLeadIn: 0
PreviewTime: -1
Countdown: 1
SampleSet: None
StackLeniency: 0.7
Mode: 3
LetterboxInBreaks: 0
SpecialStyle: 0
WidescreenStoryboard: 1

[Editor]
DistanceSpacing: 0.8
BeatDivisor: 4
GridSize: 8
TimelineZoom: 2.8

[Metadata]
Title:FREEDOM DiVE
TitleUnicode:FREEDOM DiVE↓
Artist:xi
ArtistUnicode:xi
Creator:ExVeemon
Version:Normal
Source:
Tags:
BeatmapID:1535283
BeatmapSetID:727230

[Difficulty]
HPDrainRate:7
CircleSize:4
OverallDifficulty:7
ApproachRate:5
SliderMultiplier:1.4
SliderTickRate:1

[Events]
//Background and Video events
0,0,"background desuuu.jpg",0,0
//Break Periods
//Storyboard Layer 0 (Background)
//Storyboard Layer 1 (Fail)
//Storyboard Layer 2 (Pass)
//Storyboard Layer 3 (Foreground)
//Storyboard Sound Samples

[TimingPoints]
-34,270.00027000027,4,2,0,30,1,0
64766,-100,4,2,0,30,0,1
82046,-100,4,2,0,30,0,0
107966,-100,4,2,0,30,0,1

[HitObjects]
64,192,2126,5,0,0:0:0:0:
320,192,2126,1,0,0:0:0:0:
448,192,2126,1,0,0:0:0:0:
64,192,2328,1,0,0:0:0:0:
320,192,2328,1,0,0:0:0:0:
192,192,2531,1,0,0:0:0:0:
448,192,2531,1,0,0:0:0:0:
64,192,2801,1,0,0:0:0:0:
448,192,2801,1,0,0:0:0:0:
192,192,2936,1,0,0:0:0:0:
320,192,2936,1,0,0:0:0:0:
64,192,3071,1,0,0:0:0:0:
448,192,3071,1,0,0:0:0:0:
448,192,3206,1,0,0:0:0:0:
192,192,3206,1,0,0:0:0:0:
320,192,3408,1,0,0:0:0:0:
64,192,3408,1,0,0:0:0:0:
448,192,3611,1,0,0:0:0:0:
192,192,3611,1,0,0:0:0:0:
64,192,3746,1,0,0:0:0:0:
192,192,3746,1,0,0:0:0:0:
320,192,3881,1,0,0:0:0:0:
448,192,3881,1,0,0:0:0:0:
192,192,4016,1,0,0:0:0:0:
64,192,4016,1,0,0:0:0:0:
64,192,4286,1,0,0:0:0:0:
320,192,4286,1,0,0:0:0:0:
448,192,4286,1,0,0:0:0:0:
320,192,4488,1,0,0:0:0:0:
192,192,4488,1,0,0:0:0:0:
448,192,4691,1,0,0:0:0:0:
192,192,4691,1,0,0:0:0:0:
64,192,4961,1,0,0:0:0:0:
192,192,4961,1,0,0:0:0:0:
448,192,5096,1,0,0:0:0:0:
320,192,5096,1,0,0:0:0:0:
64,192,5231,1,0,0:0:0:0:
192,192,5231,1,0,0:0:0:0:
448,192,5366,1,0,0:0:0:0:
320,192,5366,1,0,0:0:0:0:
320,192,5568,1,0,0:0:0:0:
64,192,5568,1,0,0:0:0:0:
448,192,5771,1,0,0:0:0:0:
64,192,5771,1,0,0:0:0:0:
320,192,5906,1,0,0:0:0:0:
192,192,5973,1,0,0:0:0:0:
448,192,6041,1,0,0:0:0:0:
320,192,6086,1,0,0:0:0:0:
192,192,6131,1,0,0:0:0:0:
64,192,6176,1,0,0:0:0:0:
320,192,6311,1,0,0:0:0:0:
448,192,6311,1,0,0:0:0:0:
64,192,6446,1,0,0:0:0:0:
192,192,6446,1,0,0:0:0:0:
448,192,6446,1,0,0:0:0:0:
192,192,6648,1,0,0:0:0:0:
320,192,6648,1,0,0:0:0:0:
64,192,6851,1,0,0:0:0:0:
448,192,6851,1,0,0:0:0:0:
192,192,7121,1,0,0:0:0:0:
320,192,7121,1,0,0:0:0:0:
64,192,7256,1,0,0:0:0:0:
448,192,7256,1,0,0:0:0:0:
192,192,7391,1,0,0:0:0:0:
320,192,7391,1,0,0:0:0:0:
64,192,7526,1,0,0:0:0:0:
448,192,7526,1,0,0:0:0:0:
448,192,7728,1,0,0:0:0:0:
192,192,7728,1,0,0:0:0:0:
64,192,7931,1,0,0:0:0:0:
320,192,7931,1,0,0:0:0:0:
320,192,8066,1,0,0:0:0:0:
448,192,8066,1,0,0:0:0:0:
64,192,8201,1,0,0:0:0:0:
192,192,8201,1,0,0:0:0:0:
320,192,8336,1,0,0:0:0:0:
448,192,8336,1,0,0:0:0:0:
64,192,8471,1,0,0:0:0:0:
192,192,8471,1,0,0:0:0:0:
448,192,8606,1,0,0:0:0:0:
320,192,8606,1,0,0:0:0:0:
64,192,8606,1,0,0:0:0:0:
192,192,8808,1,0,0:0:0:0:
448,192,8808,1,0,0:0:0:0:
64,192,9011,1,0,0:0:0:0:
320,192,9011,1,0,0:0:0:0:
192,192,9146,1,0,0:0:0:0:
320,192,9281,1,0,0:0:0:0:
448,192,9281,1,0,0:0:0:0:
64,192,9416,1,0,0:0:0:0:
192,192,9416,1,0,0:0:0:0:
320,192,9551,1,0,0:0:0:0:
448,192,9551,1,0,0:0:0:0:
64,192,9686,1,0,0:0:0:0:
192,192,9686,1,0,0:0:0:0:
448,192,9686,1,0,0:0:0:0:
320,192,9821,128,0,9956:0:0:0:0:
64,192,9956,1,0,0:0:0:0:
192,192,9956,1,0,0:0:0:0:
192,192,10091,128,0,10226:0:0:0:0:
448,192,10226,1,0,0:0:0:0:
320,192,10293,1,0,0:0:0:0:
192,192,10361,1,0,0:0:0:0:
64,192,10428,1,0,0:0:0:0:
448,192,10496,1,0,0:0:0:0:
320,192,10563,1,0,0:0:0:0:
192,192,10631,1,0,0:0:0:0:
64,192,10698,1,0,0:0:0:0:
320,192,10766,1,0,0:0:0:0:
448,192,10766,1,0,0:0:0:0:
192,192,10901,1,0,0:0:0:0:
64,192,11036,1,0,0:0:0:0:
320,192,11036,1,0,0:0:0:0:
448,192,11036,1,0,0:0:0:0:
192,192,11171,1,0,0:0:0:0:
320,192,11306,1,0,0:0:0:0:
64,192,11306,1,0,0:0:0:0:
448,192,11441,1,0,0:0:0:0:
192,192,11576,1,0,0:0:0:0:
64,192,11576,1,0,0:0:0:0:
320,192,11576,1,0,0:0:0:0:
448,192,11711,1,0,0:0:0:0:
320,192,11846,1,0,0:0:0:0:
64,192,11846,1,0,0:0:0:0:
192,192,11981,1,0,0:0:0:0:
320,192,12116,1,0,0:0:0:0:
448,192,12116,1,0,0:0:0:0:
64,192,12116,1,0,0:0:0:0:
192,192,12251,1,0,0:0:0:0:
448,192,12386,1,0,0:0:0:0:
64,192,12386,1,0,0:0:0:0:
320,192,12521,1,0,0:0:0:0:
64,192,12656,1,0,0:0:0:0:
192,192,12656,1,0,0:0:0:0:
192,192,12791,1,0,0:0:0:0:
64,192,12791,1,0,0:0:0:0:
448,192,12926,1,0,0:0:0:0:
320,192,12926,1,0,0:0:0:0:
64,192,12926,1,0,0:0:0:0:
192,192,13061,1,0,0:0:0:0:
448,192,13196,1,0,0:0:0:0:
64,192,13196,1,0,0:0:0:0:
320,192,13331,1,0,0:0:0:0:
64,192,13466,1,0,0:0:0:0:
192,192,13466,1,0,0:0:0:0:
448,192,13601,1,0,0:0:0:0:
64,192,13736,1,0,0:0:0:0:
320,192,13736,1,0,0:0:0:0:
192,192,13871,1,0,0:0:0:0:
448,192,13871,1,0,0:0:0:0:
192,192,14006,1,0,0:0:0:0:
448,192,14006,1,0,0:0:0:0:
64,192,14006,1,0,0:0:0:0:
320,192,14141,1,0,0:0:0:0:
448,192,14276,1,0,0:0:0:0:
192,192,14276,1,0,0:0:0:0:
64,192,14276,1,0,0:0:0:0:
448,192,14546,1,0,0:0:0:0:
192,192,14546,1,0,0:0:0:0:
320,192,14546,1,0,0:0:0:0:
320,192,14748,1,0,0:0:0:0:
448,192,14748,1,0,0:0:0:0:
64,192,14748,1,0,0:0:0:0:
64,192,14951,1,0,0:0:0:0:
192,192,14951,1,0,0:0:0:0:
320,192,15018,1,0,0:0:0:0:
448,192,15086,1,0,0:0:0:0:
64,192,15086,1,0,0:0:0:0:
192,192,15086,1,0,0:0:0:0:
320,192,15221,1,0,0:0:0:0:
64,192,15356,1,0,0:0:0:0:
192,192,15356,1,0,0:0:0:0:
448,192,15491,1,0,0:0:0:0:
320,192,15626,1,0,0:0:0:0:
64,192,15626,1,0,0:0:0:0:
192,192,15761,1,0,0:0:0:0:
320,192,15896,1,0,0:0:0:0:
448,192,15896,1,0,0:0:0:0:
64,192,15896,1,0,0:0:0:0:
192,192,16031,1,0,0:0:0:0:
320,192,16031,1,0,0:0:0:0:
64,192,16301,1,0,0:0:0:0:
192,192,16368,1,0,0:0:0:0:
320,192,16436,1,0,0:0:0:0:
448,192,16436,1,0,0:0:0:0:
64,192,16571,1,0,0:0:0:0:
192,192,16571,1,0,0:0:0:0:
448,192,16706,1,0,0:0:0:0:
320,192,16773,1,0,0:0:0:0:
192,192,16841,1,0,0:0:0:0:
64,192,16908,1,0,0:0:0:0:
448,192,16976,1,0,0:0:0:0:
320,192,16976,1,0,0:0:0:0:
64,192,17111,1,0,0:0:0:0:
192,192,17178,1,0,0:0:0:0:
448,192,17246,1,0,0:0:0:0:
320,192,17246,1,0,0:0:0:0:
64,192,17381,1,0,0:0:0:0:
192,192,17516,1,0,0:0:0:0:
448,192,17516,1,0,0:0:0:0:
320,192,17651,1,0,0:0:0:0:
192,192,17786,1,0,0:0:0:0:
64,192,17786,1,0,0:0:0:0:
448,192,17786,1,0,0:0:0:0:
320,192,17921,1,0,0:0:0:0:
64,192,18056,1,0,0:0:0:0:
448,192,18056,1,0,0:0:0:0:
192,192,18191,1,0,0:0:0:0:
64,192,18326,1,0,0:0:0:0:
448,192,18326,1,0,0:0:0:0:
320,192,18326,1,0,0:0:0:0:
192,192,18461,1,0,0:0:0:0:
320,192,18596,1,0,0:0:0:0:
448,192,18596,1,0,0:0:0:0:
64,192,18596,1,0,0:0:0:0:
192,192,18731,1,0,0:0:0:0:
64,192,18866,1,0,0:0:0:0:
448,192,18866,1,0,0:0:0:0:
192,192,18933,1,0,0:0:0:0:
320,192,19001,1,0,0:0:0:0:
448,192,19068,1,0,0:0:0:0:
64,192,19136,1,0,0:0:0:0:
192,192,19203,1,0,0:0:0:0:
320,192,19271,1,0,0:0:0:0:
448,192,19338,1,0,0:0:0:0:
64,192,19406,1,0,0:0:0:0:
192,192,19406,1,0,0:0:0:0:
320,192,19541,1,0,0:0:0:0:
448,192,19676,1,0,0:0:0:0:
192,192,19676,1,0,0:0:0:0:
64,192,19676,1,0,0:0:0:0:
320,192,19811,1,0,0:0:0:0:
448,192,19946,1,0,0:0:0:0:
64,192,19946,1,0,0:0:0:0:
192,192,20081,1,0,0:0:0:0:
320,192,20216,1,0,0:0:0:0:
448,192,20216,1,0,0:0:0:0:
64,192,20216,1,0,0:0:0:0:
192,192,20351,1,0,0:0:0:0:
320,192,20486,1,0,0:0:0:0:
448,192,20486,1,0,0:0:0:0:
64,192,20621,1,0,0:0:0:0:
192,192,20756,1,0,0:0:0:0:
320,192,20756,1,0,0:0:0:0:
448,192,20756,1,0,0:0:0:0:
64,192,20891,1,0,0:0:0:0:
192,192,21026,1,0,0:0:0:0:
448,192,21026,1,0,0:0:0:0:
64,192,21161,1,0,0:0:0:0:
448,192,21296,1,0,0:0:0:0:
320,192,21296,1,0,0:0:0:0:
448,192,21431,1,0,0:0:0:0:
320,192,21431,1,0,0:0:0:0:
448,192,21566,1,0,0:0:0:0:
64,192,21566,1,0,0:0:0:0:
192,192,21566,1,0,0:0:0:0:
320,192,21701,1,0,0:0:0:0:
64,192,21836,1,0,0:0:0:0:
448,192,21836,1,0,0:0:0:0:
192,192,21971,1,0,0:0:0:0:
320,192,22106,1,0,0:0:0:0:
64,192,22106,1,0,0:0:0:0:
448,192,22241,1,0,0:0:0:0:
64,192,22376,1,0,0:0:0:0:
192,192,22376,1,0,0:0:0:0:
448,192,22511,1,0,0:0:0:0:
320,192,22511,1,0,0:0:0:0:
64,192,22646,1,0,0:0:0:0:
192,192,22646,1,0,0:0:0:0:
448,192,22646,1,0,0:0:0:0:
320,192,22781,1,0,0:0:0:0:
192,192,22916,1,0,0:0:0:0:
64,192,22916,1,0,0:0:0:0:
448,192,22916,1,0,0:0:0:0:
192,192,23186,1,0,0:0:0:0:
320,192,23186,1,0,0:0:0:0:
448,192,23186,1,0,0:0:0:0:
64,192,23388,1,0,0:0:0:0:
192,192,23388,1,0,0:0:0:0:
320,192,23388,1,0,0:0:0:0:
320,192,23591,1,0,0:0:0:0:
448,192,23591,1,0,0:0:0:0:
192,192,23658,1,0,0:0:0:0:
64,192,23726,1,0,0:0:0:0:
448,192,23726,1,0,0:0:0:0:
320,192,23726,1,0,0:0:0:0:
192,192,23861,1,0,0:0:0:0:
320,192,23996,1,0,0:0:0:0:
448,192,23996,1,0,0:0:0:0:
192,192,24131,1,0,0:0:0:0:
64,192,24266,1,0,0:0:0:0:
448,192,24266,1,0,0:0:0:0:
320,192,24401,1,0,0:0:0:0:
448,192,24536,1,0,0:0:0:0:
192,192,24536,1,0,0:0:0:0:
64,192,24536,1,0,0:0:0:0:
192,192,24671,1,0,0:0:0:0:
320,192,24671,1,0,0:0:0:0:
448,192,24941,1,0,0:0:0:0:
320,192,25008,1,0,0:0:0:0:
192,192,25076,1,0,0:0:0:0:
64,192,25076,1,0,0:0:0:0:
448,192,25211,1,0,0:0:0:0:
320,192,25211,1,0,0:0:0:0:
64,192,25346,1,0,0:0:0:0:
192,192,25413,1,0,0:0:0:0:
320,192,25481,1,0,0:0:0:0:
448,192,25548,1,0,0:0:0:0:
64,192,25616,1,0,0:0:0:0:
192,192,25616,1,0,0:0:0:0:
448,192,25751,1,0,0:0:0:0:
320,192,25818,1,0,0:0:0:0:
192,192,25886,1,0,0:0:0:0:
64,192,25886,128,0,26156:0:0:0:0:
320,192,26021,1,0,0:0:0:0:
192,192,26156,128,0,26426:0:0:0:0:
448,192,26156,1,0,0:0:0:0:
64,192,26291,1,0,0:0:0:0:
320,192,26426,128,0,26696:0:0:0:0:
448,192,26426,1,0,0:0:0:0:
192,192,26561,1,0,0:0:0:0:
448,192,26696,128,0,26966:0:0:0:0:
64,192,26696,1,0,0:0:0:0:
192,192,26831,1,0,0:0:0:0:
64,192,26966,128,0,27236:0:0:0:0:
320,192,26966,1,0,0:0:0:0:
448,192,27101,1,0,0:0:0:0:
192,192,27236,128,0,27506:0:0:0:0:
320,192,27236,1,0,0:0:0:0:
448,192,27371,1,0,0:0:0:0:
320,192,27506,128,0,27776:0:0:0:0:
64,192,27506,1,0,0:0:0:0:
192,192,27641,1,0,0:0:0:0:
448,192,27776,128,0,28046:0:0:0:0:
64,192,27776,1,0,0:0:0:0:
192,192,27911,1,0,0:0:0:0:
320,192,28046,1,0,0:0:0:0:
320,192,28248,1,0,0:0:0:0:
320,192,28451,1,0,0:0:0:0:
64,192,28586,1,0,0:0:0:0:
192,192,28653,1,0,0:0:0:0:
192,192,28856,1,0,0:0:0:0:
192,192,28991,1,0,0:0:0:0:
64,192,29126,1,0,0:0:0:0:
64,192,29328,1,0,0:0:0:0:
64,192,29531,1,0,0:0:0:0:
320,192,29666,1,0,0:0:0:0:
192,192,29733,1,0,0:0:0:0:
192,192,29936,1,0,0:0:0:0:
192,192,30071,1,0,0:0:0:0:
448,192,30206,1,0,0:0:0:0:
448,192,30408,1,0,0:0:0:0:
448,192,30611,1,0,0:0:0:0:
192,192,30746,1,0,0:0:0:0:
320,192,30813,1,0,0:0:0:0:
320,192,31016,1,0,0:0:0:0:
320,192,31151,1,0,0:0:0:0:
192,192,31286,1,0,0:0:0:0:
192,192,31488,1,0,0:0:0:0:
64,192,31691,1,0,0:0:0:0:
192,192,31826,1,0,0:0:0:0:
320,192,31961,1,0,0:0:0:0:
192,192,32096,1,0,0:0:0:0:
320,192,32231,1,0,0:0:0:0:
448,192,32366,1,0,0:0:0:0:
448,192,32568,1,0,0:0:0:0:
448,192,32771,1,0,0:0:0:0:
64,192,32906,1,0,0:0:0:0:
192,192,32973,1,0,0:0:0:0:
320,192,33041,1,0,0:0:0:0:
64,192,33176,1,0,0:0:0:0:
192,192,33243,1,0,0:0:0:0:
448,192,33311,1,0,0:0:0:0:
192,192,33446,1,0,0:0:0:0:
320,192,33513,1,0,0:0:0:0:
448,192,33581,1,0,0:0:0:0:
64,192,33716,1,0,0:0:0:0:
320,192,33783,1,0,0:0:0:0:
448,192,33851,1,0,0:0:0:0:
64,192,33986,1,0,0:0:0:0:
192,192,34053,1,0,0:0:0:0:
448,192,34121,1,0,0:0:0:0:
64,192,34256,1,0,0:0:0:0:
192,192,34323,1,0,0:0:0:0:
320,192,34391,1,0,0:0:0:0:
448,192,34526,1,0,0:0:0:0:
320,192,34593,1,0,0:0:0:0:
192,192,34661,1,0,0:0:0:0:
448,192,34796,1,0,0:0:0:0:
320,192,34863,1,0,0:0:0:0:
64,192,34931,1,0,0:0:0:0:
448,192,35066,1,0,0:0:0:0:
192,192,35133,1,0,0:0:0:0:
64,192,35201,1,0,0:0:0:0:
448,192,35336,1,0,0:0:0:0:
320,192,35403,1,0,0:0:0:0:
192,192,35471,1,0,0:0:0:0:
320,192,35606,1,0,0:0:0:0:
320,192,35808,1,0,0:0:0:0:
320,192,36011,1,0,0:0:0:0:
64,192,36146,1,0,0:0:0:0:
192,192,36213,1,0,0:0:0:0:
192,192,36416,1,0,0:0:0:0:
192,192,36551,1,0,0:0:0:0:
320,192,36618,1,0,0:0:0:0:
448,192,36686,1,0,0:0:0:0:
64,192,36686,1,0,0:0:0:0:
64,192,36821,1,0,0:0:0:0:
192,192,36956,1,0,0:0:0:0:
192,192,37091,1,0,0:0:0:0:
320,192,37226,1,0,0:0:0:0:
320,192,37361,1,0,0:0:0:0:
448,192,37496,1,0,0:0:0:0:
448,192,37631,1,0,0:0:0:0:
192,192,37766,1,0,0:0:0:0:
320,192,37856,1,0,0:0:0:0:
192,192,37946,1,0,0:0:0:0:
448,192,38036,1,0,0:0:0:0:
448,192,38171,1,0,0:0:0:0:
320,192,38306,1,0,0:0:0:0:
320,192,38441,1,0,0:0:0:0:
192,192,38576,1,0,0:0:0:0:
192,192,38711,1,0,0:0:0:0:
64,192,38846,1,0,0:0:0:0:
448,192,38846,1,0,0:0:0:0:
64,192,38981,1,0,0:0:0:0:
192,192,39116,1,0,0:0:0:0:
192,192,39251,1,0,0:0:0:0:
320,192,39386,1,0,0:0:0:0:
320,192,39521,1,0,0:0:0:0:
448,192,39656,1,0,0:0:0:0:
448,192,39791,1,0,0:0:0:0:
64,192,39926,1,0,0:0:0:0:
320,192,39993,1,0,0:0:0:0:
64,192,40061,1,0,0:0:0:0:
192,192,40196,1,0,0:0:0:0:
320,192,40263,1,0,0:0:0:0:
192,192,40331,1,0,0:0:0:0:
448,192,40466,1,0,0:0:0:0:
192,192,40533,1,0,0:0:0:0:
448,192,40601,1,0,0:0:0:0:
320,192,40736,1,0,0:0:0:0:
192,192,40803,1,0,0:0:0:0:
320,192,40871,1,0,0:0:0:0:
448,192,41006,1,0,0:0:0:0:
64,192,41006,128,0,42086:0:0:0:0:
448,192,41208,1,0,0:0:0:0:
448,192,41411,1,0,0:0:0:0:
192,192,41546,1,0,0:0:0:0:
320,192,41613,1,0,0:0:0:0:
320,192,41816,1,0,0:0:0:0:
320,192,41951,1,0,0:0:0:0:
448,192,42018,1,0,0:0:0:0:
320,192,42086,1,0,0:0:0:0:
192,192,42086,128,0,42626:0:0:0:0:
320,192,42221,1,0,0:0:0:0:
448,192,42356,1,0,0:0:0:0:
448,192,42491,1,0,0:0:0:0:
320,192,42626,128,0,43166:0:0:0:0:
64,192,42626,1,0,0:0:0:0:
64,192,42828,1,0,0:0:0:0:
64,192,43031,1,0,0:0:0:0:
448,192,43166,128,0,44246:0:0:0:0:
192,192,43166,1,0,0:0:0:0:
192,192,43368,1,0,0:0:0:0:
192,192,43571,1,0,0:0:0:0:
320,192,43706,1,0,0:0:0:0:
64,192,43773,1,0,0:0:0:0:
192,192,43976,1,0,0:0:0:0:
64,192,44111,1,0,0:0:0:0:
320,192,44246,128,0,44516:0:0:0:0:
192,192,44246,1,0,0:0:0:0:
64,192,44516,128,0,44786:0:0:0:0:
448,192,44516,1,0,0:0:0:0:
448,192,44786,128,0,45056:0:0:0:0:
192,192,44786,1,0,0:0:0:0:
192,192,45056,128,0,45326:0:0:0:0:
64,192,45056,1,0,0:0:0:0:
448,192,45326,1,0,0:0:0:0:
320,192,45326,1,0,0:0:0:0:
64,192,45326,1,0,0:0:0:0:
192,192,45461,1,0,0:0:0:0:
448,192,45596,1,0,0:0:0:0:
320,192,45596,1,0,0:0:0:0:
192,192,45731,1,0,0:0:0:0:
448,192,45866,1,0,0:0:0:0:
64,192,45866,1,0,0:0:0:0:
320,192,45866,1,0,0:0:0:0:
192,192,46001,1,0,0:0:0:0:
448,192,46136,1,0,0:0:0:0:
64,192,46136,1,0,0:0:0:0:
192,192,46271,1,0,0:0:0:0:
64,192,46406,1,0,0:0:0:0:
320,192,46406,1,0,0:0:0:0:
448,192,46406,1,0,0:0:0:0:
320,192,46541,1,0,0:0:0:0:
448,192,46676,1,0,0:0:0:0:
64,192,46676,1,0,0:0:0:0:
192,192,46676,1,0,0:0:0:0:
64,192,46811,1,0,0:0:0:0:
192,192,46946,1,0,0:0:0:0:
320,192,46946,1,0,0:0:0:0:
448,192,46946,1,0,0:0:0:0:
192,192,47081,1,0,0:0:0:0:
64,192,47216,1,0,0:0:0:0:
320,192,47216,1,0,0:0:0:0:
448,192,47216,1,0,0:0:0:0:
320,192,47351,1,0,0:0:0:0:
64,192,47486,1,0,0:0:0:0:
448,192,47486,1,0,0:0:0:0:
192,192,47486,128,0,48026:0:0:0:0:
64,192,47756,1,0,0:0:0:0:
448,192,47756,1,0,0:0:0:0:
448,192,48026,128,0,48161:0:0:0:0:
64,192,48026,1,0,0:0:0:0:
320,192,48296,128,0,48431:0:0:0:0:
64,192,48296,1,0,0:0:0:0:
192,192,48566,128,0,48701:0:0:0:0:
448,192,48566,1,0,0:0:0:0:
320,192,48836,128,0,48971:0:0:0:0:
192,192,48836,1,0,0:0:0:0:
192,192,49106,128,0,49241:0:0:0:0:
448,192,49106,1,0,0:0:0:0:
64,192,49376,128,0,49511:0:0:0:0:
192,192,49376,1,0,0:0:0:0:
448,192,49511,1,0,0:0:0:0:
192,192,49646,128,0,49781:0:0:0:0:
320,192,49646,1,0,0:0:0:0:
320,192,49916,128,0,50051:0:0:0:0:
64,192,49916,1,0,0:0:0:0:
448,192,50186,128,0,50321:0:0:0:0:
192,192,50186,1,0,0:0:0:0:
448,192,50456,128,0,50591:0:0:0:0:
192,192,50456,1,0,0:0:0:0:
320,192,50726,128,0,50861:0:0:0:0:
64,192,50726,1,0,0:0:0:0:
64,192,50996,128,0,51131:0:0:0:0:
192,192,50996,1,0,0:0:0:0:
448,192,51266,128,0,51401:0:0:0:0:
64,192,51266,1,0,0:0:0:0:
192,192,51536,128,0,51671:0:0:0:0:
320,192,51536,1,0,0:0:0:0:
448,192,51671,1,0,0:0:0:0:
64,192,51806,128,0,51941:0:0:0:0:
320,192,51806,1,0,0:0:0:0:
192,192,52076,128,0,52211:0:0:0:0:
448,192,52076,1,0,0:0:0:0:
320,192,52346,128,0,52481:0:0:0:0:
448,192,52346,1,0,0:0:0:0:
192,192,52616,128,0,52751:0:0:0:0:
448,192,52616,1,0,0:0:0:0:
64,192,52886,128,0,53021:0:0:0:0:
192,192,52886,1,0,0:0:0:0:
448,192,53156,128,0,53291:0:0:0:0:
64,192,53156,1,0,0:0:0:0:
320,192,53426,128,0,53561:0:0:0:0:
64,192,53426,1,0,0:0:0:0:
192,192,53696,128,0,53831:0:0:0:0:
64,192,53696,1,0,0:0:0:0:
320,192,53831,1,0,0:0:0:0:
64,192,53966,128,0,54101:0:0:0:0:
448,192,53966,1,0,0:0:0:0:
320,192,54236,128,0,54371:0:0:0:0:
448,192,54236,1,0,0:0:0:0:
64,192,54371,1,0,0:0:0:0:
192,192,54506,128,0,54641:0:0:0:0:
448,192,54506,1,0,0:0:0:0:
320,192,54776,128,0,54911:0:0:0:0:
448,192,54776,1,0,0:0:0:0:
192,192,54911,1,0,0:0:0:0:
448,192,55046,128,0,55181:0:0:0:0:
64,192,55046,1,0,0:0:0:0:
320,192,55316,128,0,55451:0:0:0:0:
64,192,55316,1,0,0:0:0:0:
192,192,55316,1,0,0:0:0:0:
192,192,55586,128,0,55721:0:0:0:0:
64,192,55586,1,0,0:0:0:0:
448,192,55721,1,0,0:0:0:0:
320,192,55856,128,0,55991:0:0:0:0:
64,192,55856,1,0,0:0:0:0:
192,192,55856,1,0,0:0:0:0:
448,192,55991,1,0,0:0:0:0:
192,192,56126,128,0,56666:0:0:0:0:
64,192,56126,1,0,0:0:0:0:
320,192,56126,1,0,0:0:0:0:
320,192,56396,1,0,0:0:0:0:
64,192,56396,1,0,0:0:0:0:
448,192,56666,128,0,56801:0:0:0:0:
64,192,56666,1,0,0:0:0:0:
320,192,56666,1,0,0:0:0:0:
192,192,56936,128,0,57071:0:0:0:0:
320,192,56936,1,0,0:0:0:0:
448,192,56936,1,0,0:0:0:0:
320,192,57206,128,0,57341:0:0:0:0:
64,192,57206,1,0,0:0:0:0:
448,192,57206,1,0,0:0:0:0:
64,192,57476,128,0,57611:0:0:0:0:
192,192,57476,1,0,0:0:0:0:
448,192,57476,1,0,0:0:0:0:
192,192,57746,128,0,57881:0:0:0:0:
448,192,57746,1,0,0:0:0:0:
64,192,57746,1,0,0:0:0:0:
64,192,58016,128,0,58151:0:0:0:0:
448,192,58016,1,0,0:0:0:0:
320,192,58016,1,0,0:0:0:0:
320,192,58151,1,0,0:0:0:0:
448,192,58151,1,0,0:0:0:0:
192,192,58286,128,0,58421:0:0:0:0:
448,192,58286,1,0,0:0:0:0:
320,192,58286,1,0,0:0:0:0:
320,192,58556,128,0,58691:0:0:0:0:
64,192,58556,1,0,0:0:0:0:
448,192,58556,1,0,0:0:0:0:
448,192,58826,128,0,58961:0:0:0:0:
192,192,58826,1,0,0:0:0:0:
64,192,58826,1,0,0:0:0:0:
448,192,59096,128,0,59231:0:0:0:0:
64,192,59096,1,0,0:0:0:0:
192,192,59096,1,0,0:0:0:0:
192,192,59366,128,0,59501:0:0:0:0:
320,192,59366,1,0,0:0:0:0:
64,192,59366,1,0,0:0:0:0:
64,192,59636,128,0,59771:0:0:0:0:
320,192,59636,1,0,0:0:0:0:
448,192,59636,1,0,0:0:0:0:
448,192,59906,128,0,60041:0:0:0:0:
192,192,59906,1,0,0:0:0:0:
320,192,59906,1,0,0:0:0:0:
320,192,60176,128,0,60311:0:0:0:0:
64,192,60176,1,0,0:0:0:0:
192,192,60176,1,0,0:0:0:0:
64,192,60311,1,0,0:0:0:0:
192,192,60311,1,0,0:0:0:0:
64,192,60446,1,0,0:0:0:0:
192,192,60446,1,0,0:0:0:0:
448,192,60446,128,0,60581:0:0:0:0:
192,192,60716,128,0,60851:0:0:0:0:
320,192,60716,1,0,0:0:0:0:
448,192,60716,1,0,0:0:0:0:
320,192,60986,128,0,61121:0:0:0:0:
64,192,60986,1,0,0:0:0:0:
448,192,60986,1,0,0:0:0:0:
192,192,61256,128,0,61391:0:0:0:0:
64,192,61256,1,0,0:0:0:0:
320,192,61256,1,0,0:0:0:0:
64,192,61526,128,0,61661:0:0:0:0:
320,192,61526,1,0,0:0:0:0:
448,192,61526,1,0,0:0:0:0:
448,192,61796,128,0,61931:0:0:0:0:
192,192,61796,1,0,0:0:0:0:
320,192,61796,1,0,0:0:0:0:
320,192,62066,128,0,62201:0:0:0:0:
64,192,62066,1,0,0:0:0:0:
192,192,62066,1,0,0:0:0:0:
192,192,62336,128,0,62471:0:0:0:0:
320,192,62336,1,0,0:0:0:0:
448,192,62336,1,0,0:0:0:0:
320,192,62471,1,0,0:0:0:0:
448,192,62471,1,0,0:0:0:0:
320,192,62606,1,0,0:0:0:0:
448,192,62606,1,0,0:0:0:0:
64,192,62741,1,0,0:0:0:0:
192,192,62876,1,0,0:0:0:0:
448,192,62876,1,0,0:0:0:0:
320,192,63011,1,0,0:0:0:0:
64,192,63146,1,0,0:0:0:0:
192,192,63146,1,0,0:0:0:0:
448,192,63281,1,0,0:0:0:0:
192,192,63416,1,0,0:0:0:0:
320,192,63416,1,0,0:0:0:0:
64,192,63551,1,0,0:0:0:0:
448,192,63686,1,0,0:0:0:0:
320,192,63686,1,0,0:0:0:0:
64,192,63821,1,0,0:0:0:0:
192,192,63821,1,0,0:0:0:0:
320,192,63956,1,0,0:0:0:0:
448,192,63956,1,0,0:0:0:0:
64,192,64091,1,0,0:0:0:0:
192,192,64091,1,0,0:0:0:0:
320,192,64226,1,0,0:0:0:0:
64,192,64226,1,0,0:0:0:0:
192,192,64361,1,0,0:0:0:0:
448,192,64361,1,0,0:0:0:0:
64,192,64496,1,0,0:0:0:0:
320,192,64496,1,0,0:0:0:0:
192,192,64631,1,0,0:0:0:0:
448,192,64631,1,0,0:0:0:0:
448,192,64766,1,0,0:0:0:0:
320,192,64833,1,0,0:0:0:0:
192,192,64901,1,0,0:0:0:0:
448,192,64968,1,0,0:0:0:0:
320,192,65036,1,0,0:0:0:0:
192,192,65103,1,0,0:0:0:0:
448,192,65171,1,0,0:0:0:0:
320,192,65238,1,0,0:0:0:0:
64,192,65306,1,0,0:0:0:0:
320,192,65373,1,0,0:0:0:0:
64,192,65508,1,0,0:0:0:0:
320,192,65576,1,0,0:0:0:0:
64,192,65643,1,0,0:0:0:0:
320,192,65711,1,0,0:0:0:0:
64,192,65778,1,0,0:0:0:0:
320,192,65846,1,0,0:0:0:0:
192,192,65913,1,0,0:0:0:0:
64,192,65981,1,0,0:0:0:0:
320,192,66048,1,0,0:0:0:0:
192,192,66116,1,0,0:0:0:0:
64,192,66183,1,0,0:0:0:0:
320,192,66251,1,0,0:0:0:0:
192,192,66318,1,0,0:0:0:0:
448,192,66386,1,0,0:0:0:0:
192,192,66453,1,0,0:0:0:0:
448,192,66588,1,0,0:0:0:0:
192,192,66656,1,0,0:0:0:0:
448,192,66723,1,0,0:0:0:0:
192,192,66791,1,0,0:0:0:0:
448,192,66858,1,0,0:0:0:0:
64,192,66926,1,0,0:0:0:0:
192,192,66993,1,0,0:0:0:0:
320,192,67061,1,0,0:0:0:0:
64,192,67128,1,0,0:0:0:0:
192,192,67196,1,0,0:0:0:0:
320,192,67263,1,0,0:0:0:0:
64,192,67331,1,0,0:0:0:0:
192,192,67398,1,0,0:0:0:0:
448,192,67466,1,0,0:0:0:0:
192,192,67533,1,0,0:0:0:0:
448,192,67668,1,0,0:0:0:0:
192,192,67736,1,0,0:0:0:0:
448,192,67803,1,0,0:0:0:0:
192,192,67871,1,0,0:0:0:0:
448,192,67938,1,0,0:0:0:0:
192,192,68006,1,0,0:0:0:0:
320,192,68073,1,0,0:0:0:0:
448,192,68141,1,0,0:0:0:0:
192,192,68208,1,0,0:0:0:0:
320,192,68276,1,0,0:0:0:0:
448,192,68343,1,0,0:0:0:0:
64,192,68411,1,0,0:0:0:0:
192,192,68411,1,0,0:0:0:0:
320,192,68546,1,0,0:0:0:0:
448,192,68546,1,0,0:0:0:0:
192,192,68681,1,0,0:0:0:0:
64,192,68681,1,0,0:0:0:0:
448,192,68816,1,0,0:0:0:0:
192,192,68816,1,0,0:0:0:0:
64,192,68951,1,0,0:0:0:0:
320,192,68951,1,0,0:0:0:0:
448,192,69086,1,0,0:0:0:0:
320,192,69153,1,0,0:0:0:0:
64,192,69221,1,0,0:0:0:0:
448,192,69288,1,0,0:0:0:0:
320,192,69356,1,0,0:0:0:0:
64,192,69423,1,0,0:0:0:0:
448,192,69491,1,0,0:0:0:0:
320,192,69558,1,0,0:0:0:0:
64,192,69626,1,0,0:0:0:0:
192,192,69693,1,0,0:0:0:0:
320,192,69761,1,0,0:0:0:0:
64,192,69896,1,0,0:0:0:0:
192,192,69963,1,0,0:0:0:0:
448,192,70031,1,0,0:0:0:0:
192,192,70166,1,0,0:0:0:0:
320,192,70233,1,0,0:0:0:0:
448,192,70301,1,0,0:0:0:0:
64,192,70436,1,0,0:0:0:0:
320,192,70503,1,0,0:0:0:0:
448,192,70571,1,0,0:0:0:0:
64,192,70706,1,0,0:0:0:0:
192,192,70773,1,0,0:0:0:0:
448,192,70841,1,0,0:0:0:0:
64,192,70976,1,0,0:0:0:0:
192,192,71043,1,0,0:0:0:0:
320,192,71111,1,0,0:0:0:0:
448,192,71246,1,0,0:0:0:0:
320,192,71313,1,0,0:0:0:0:
192,192,71381,1,0,0:0:0:0:
448,192,71516,1,0,0:0:0:0:
192,192,71583,1,0,0:0:0:0:
64,192,71651,1,0,0:0:0:0:
320,192,71786,1,0,0:0:0:0:
192,192,71853,1,0,0:0:0:0:
64,192,71921,1,0,0:0:0:0:
448,192,72056,1,0,0:0:0:0:
320,192,72123,1,0,0:0:0:0:
64,192,72191,1,0,0:0:0:0:
448,192,72326,1,0,0:0:0:0:
320,192,72393,1,0,0:0:0:0:
192,192,72461,1,0,0:0:0:0:
448,192,72528,1,0,0:0:0:0:
320,192,72596,1,0,0:0:0:0:
192,192,72663,1,0,0:0:0:0:
448,192,72731,1,0,0:0:0:0:
320,192,72798,1,0,0:0:0:0:
64,192,72866,1,0,0:0:0:0:
448,192,72933,1,0,0:0:0:0:
64,192,73068,1,0,0:0:0:0:
448,192,73136,1,0,0:0:0:0:
64,192,73203,1,0,0:0:0:0:
448,192,73271,1,0,0:0:0:0:
64,192,73338,1,0,0:0:0:0:
448,192,73406,1,0,0:0:0:0:
320,192,73473,1,0,0:0:0:0:
192,192,73541,1,0,0:0:0:0:
448,192,73676,1,0,0:0:0:0:
320,192,73743,1,0,0:0:0:0:
64,192,73811,1,0,0:0:0:0:
448,192,73946,1,0,0:0:0:0:
192,192,74013,1,0,0:0:0:0:
64,192,74081,1,0,0:0:0:0:
320,192,74216,1,0,0:0:0:0:
192,192,74283,1,0,0:0:0:0:
64,192,74351,1,0,0:0:0:0:
320,192,74486,1,0,0:0:0:0:
192,192,74576,1,0,0:0:0:0:
320,192,74666,1,0,0:0:0:0:
192,192,74756,1,0,0:0:0:0:
320,192,74823,1,0,0:0:0:0:
448,192,74891,1,0,0:0:0:0:
64,192,75026,1,0,0:0:0:0:
320,192,75093,1,0,0:0:0:0:
448,192,75161,1,0,0:0:0:0:
320,192,75228,1,0,0:0:0:0:
64,192,75296,1,0,0:0:0:0:
192,192,75296,1,0,0:0:0:0:
448,192,75431,1,0,0:0:0:0:
320,192,75431,1,0,0:0:0:0:
64,192,75566,1,0,0:0:0:0:
192,192,75633,1,0,0:0:0:0:
320,192,75701,1,0,0:0:0:0:
64,192,75836,1,0,0:0:0:0:
192,192,75903,1,0,0:0:0:0:
448,192,75971,1,0,0:0:0:0:
64,192,76106,1,0,0:0:0:0:
320,192,76173,1,0,0:0:0:0:
448,192,76241,1,0,0:0:0:0:
64,192,76376,1,0,0:0:0:0:
192,192,76443,1,0,0:0:0:0:
320,192,76511,1,0,0:0:0:0:
448,192,76646,1,0,0:0:0:0:
320,192,76713,1,0,0:0:0:0:
192,192,76781,1,0,0:0:0:0:
448,192,76916,1,0,0:0:0:0:
320,192,76983,1,0,0:0:0:0:
64,192,77051,1,0,0:0:0:0:
448,192,77186,1,0,0:0:0:0:
192,192,77253,1,0,0:0:0:0:
64,192,77321,1,0,0:0:0:0:
448,192,77456,1,0,0:0:0:0:
320,192,77523,1,0,0:0:0:0:
64,192,77591,1,0,0:0:0:0:
192,192,77726,1,0,0:0:0:0:
320,192,77793,1,0,0:0:0:0:
448,192,77861,1,0,0:0:0:0:
192,192,77928,1,0,0:0:0:0:
320,192,77996,1,0,0:0:0:0:
448,192,78063,1,0,0:0:0:0:
192,192,78131,1,0,0:0:0:0:
320,192,78198,1,0,0:0:0:0:
64,192,78266,1,0,0:0:0:0:
192,192,78333,1,0,0:0:0:0:
64,192,78468,1,0,0:0:0:0:
192,192,78536,1,0,0:0:0:0:
64,192,78603,1,0,0:0:0:0:
320,192,78671,1,0,0:0:0:0:
192,192,78738,1,0,0:0:0:0:
448,192,78806,1,0,0:0:0:0:
320,192,78873,1,0,0:0:0:0:
192,192,78941,1,0,0:0:0:0:
64,192,79076,1,0,0:0:0:0:
192,192,79143,1,0,0:0:0:0:
320,192,79211,1,0,0:0:0:0:
448,192,79346,1,0,0:0:0:0:
192,192,79413,1,0,0:0:0:0:
64,192,79481,1,0,0:0:0:0:
448,192,79548,1,0,0:0:0:0:
320,192,79616,1,0,0:0:0:0:
64,192,79683,1,0,0:0:0:0:
192,192,79751,1,0,0:0:0:0:
64,192,79886,1,0,0:0:0:0:
192,192,79953,1,0,0:0:0:0:
320,192,80021,1,0,0:0:0:0:
64,192,80088,1,0,0:0:0:0:
192,192,80156,1,0,0:0:0:0:
320,192,80223,1,0,0:0:0:0:
64,192,80291,1,0,0:0:0:0:
192,192,80358,1,0,0:0:0:0:
448,192,80426,1,0,0:0:0:0:
320,192,80493,1,0,0:0:0:0:
64,192,80561,1,0,0:0:0:0:
192,192,80561,1,0,0:0:0:0:
320,192,80696,1,0,0:0:0:0:
448,192,80696,1,0,0:0:0:0:
64,192,80831,1,0,0:0:0:0:
192,192,80831,1,0,0:0:0:0:
448,192,80966,1,0,0:0:0:0:
320,192,80966,1,0,0:0:0:0:
192,192,81033,1,0,0:0:0:0:
64,192,81101,1,0,0:0:0:0:
192,192,81236,1,0,0:0:0:0:
448,192,81236,1,0,0:0:0:0:
320,192,81303,1,0,0:0:0:0:
192,192,81371,1,0,0:0:0:0:
64,192,81506,1,0,0:0:0:0:
192,192,81506,1,0,0:0:0:0:
320,192,81573,1,0,0:0:0:0:
448,192,81641,1,0,0:0:0:0:
64,192,81776,1,0,0:0:0:0:
320,192,81776,1,0,0:0:0:0:
192,192,81843,1,0,0:0:0:0:
320,192,81911,1,0,0:0:0:0:
64,192,82046,128,0,84206:0:0:0:0:
192,192,82046,1,0,0:0:0:0:
448,192,82181,1,0,0:0:0:0:
192,192,82316,1,0,0:0:0:0:
320,192,82451,1,0,0:0:0:0:
448,192,82586,1,0,0:0:0:0:
320,192,82721,1,0,0:0:0:0:
448,192,82856,1,0,0:0:0:0:
192,192,82991,1,0,0:0:0:0:
448,192,83126,1,0,0:0:0:0:
192,192,83261,1,0,0:0:0:0:
320,192,83396,1,0,0:0:0:0:
448,192,83531,1,0,0:0:0:0:
320,192,83666,1,0,0:0:0:0:
448,192,83801,1,0,0:0:0:0:
320,192,83936,1,0,0:0:0:0:
192,192,84071,1,0,0:0:0:0:
448,192,84206,1,0,0:0:0:0:
320,192,84341,1,0,0:0:0:0:
192,192,84476,1,0,0:0:0:0:
320,192,84611,1,0,0:0:0:0:
448,192,84746,1,0,0:0:0:0:
64,192,84881,1,0,0:0:0:0:
320,192,85016,1,0,0:0:0:0:
448,192,85151,1,0,0:0:0:0:
192,192,85286,1,0,0:0:0:0:
448,192,85421,1,0,0:0:0:0:
64,192,85556,1,0,0:0:0:0:
320,192,85691,1,0,0:0:0:0:
448,192,85826,1,0,0:0:0:0:
64,192,85961,1,0,0:0:0:0:
320,192,86096,1,0,0:0:0:0:
192,192,86231,1,0,0:0:0:0:
64,192,86366,1,0,0:0:0:0:
192,192,86501,1,0,0:0:0:0:
64,192,86636,1,0,0:0:0:0:
320,192,86771,1,0,0:0:0:0:
448,192,86906,1,0,0:0:0:0:
192,192,87041,1,0,0:0:0:0:
448,192,87176,1,0,0:0:0:0:
320,192,87311,1,0,0:0:0:0:
448,192,87446,1,0,0:0:0:0:
64,192,87581,1,0,0:0:0:0:
192,192,87716,1,0,0:0:0:0:
448,192,87851,1,0,0:0:0:0:
320,192,87986,1,0,0:0:0:0:
448,192,88121,1,0,0:0:0:0:
320,192,88256,1,0,0:0:0:0:
192,192,88391,1,0,0:0:0:0:
448,192,88526,1,0,0:0:0:0:
192,192,88661,1,0,0:0:0:0:
64,192,88796,1,0,0:0:0:0:
320,192,88931,1,0,0:0:0:0:
64,192,89066,1,0,0:0:0:0:
320,192,89201,1,0,0:0:0:0:
192,192,89336,1,0,0:0:0:0:
320,192,89471,1,0,0:0:0:0:
448,192,89606,1,0,0:0:0:0:
320,192,89741,1,0,0:0:0:0:
192,192,89876,1,0,0:0:0:0:
320,192,90011,1,0,0:0:0:0:
192,192,90146,128,0,90416:0:0:0:0:
448,192,90146,128,0,90686:0:0:0:0:
64,192,90416,128,0,90686:0:0:0:0:
320,192,90686,1,0,0:0:0:0:
192,192,90686,1,0,0:0:0:0:
64,192,90821,1,0,0:0:0:0:
192,192,90956,1,0,0:0:0:0:
320,192,91091,1,0,0:0:0:0:
448,192,91226,1,0,0:0:0:0:
320,192,91361,1,0,0:0:0:0:
448,192,91496,1,0,0:0:0:0:
192,192,91631,1,0,0:0:0:0:
448,192,91766,1,0,0:0:0:0:
320,192,91901,1,0,0:0:0:0:
448,192,92036,1,0,0:0:0:0:
320,192,92171,1,0,0:0:0:0:
192,192,92306,1,0,0:0:0:0:
448,192,92441,1,0,0:0:0:0:
192,192,92576,1,0,0:0:0:0:
64,192,92711,1,0,0:0:0:0:
320,192,92846,1,0,0:0:0:0:
448,192,92846,1,0,0:0:0:0:
192,192,92981,1,0,0:0:0:0:
64,192,93116,1,0,0:0:0:0:
192,192,93251,1,0,0:0:0:0:
320,192,93386,1,0,0:0:0:0:
192,192,93521,1,0,0:0:0:0:
320,192,93656,1,0,0:0:0:0:
448,192,93791,1,0,0:0:0:0:
64,192,93926,1,0,0:0:0:0:
192,192,94061,1,0,0:0:0:0:
64,192,94196,1,0,0:0:0:0:
320,192,94331,1,0,0:0:0:0:
448,192,94466,1,0,0:0:0:0:
192,192,94601,1,0,0:0:0:0:
320,192,94736,1,0,0:0:0:0:
192,192,94871,1,0,0:0:0:0:
64,192,95006,1,0,0:0:0:0:
448,192,95006,1,0,0:0:0:0:
320,192,95006,1,0,0:0:0:0:
192,192,95141,1,0,0:0:0:0:
320,192,95276,1,0,0:0:0:0:
192,192,95411,1,0,0:0:0:0:
448,192,95546,1,0,0:0:0:0:
320,192,95681,1,0,0:0:0:0:
448,192,95816,1,0,0:0:0:0:
192,192,95951,1,0,0:0:0:0:
448,192,96086,1,0,0:0:0:0:
64,192,96086,1,0,0:0:0:0:
192,192,96221,1,0,0:0:0:0:
320,192,96356,1,0,0:0:0:0:
448,192,96491,1,0,0:0:0:0:
320,192,96626,1,0,0:0:0:0:
64,192,96626,1,0,0:0:0:0:
448,192,96761,1,0,0:0:0:0:
320,192,96896,1,0,0:0:0:0:
192,192,97031,1,0,0:0:0:0:
64,192,97166,1,0,0:0:0:0:
320,192,97166,1,0,0:0:0:0:
448,192,97166,1,0,0:0:0:0:
192,192,97301,1,0,0:0:0:0:
64,192,97436,1,0,0:0:0:0:
448,192,97436,1,0,0:0:0:0:
192,192,97571,1,0,0:0:0:0:
64,192,97706,1,0,0:0:0:0:
448,192,97706,1,0,0:0:0:0:
320,192,97841,1,0,0:0:0:0:
192,192,97976,1,0,0:0:0:0:
448,192,97976,1,0,0:0:0:0:
320,192,98111,1,0,0:0:0:0:
64,192,98246,1,0,0:0:0:0:
192,192,98246,1,0,0:0:0:0:
64,192,98516,1,0,0:0:0:0:
192,192,98516,1,0,0:0:0:0:
64,192,98786,1,0,0:0:0:0:
192,192,98786,1,0,0:0:0:0:
64,192,99056,1,0,0:0:0:0:
192,192,99056,1,0,0:0:0:0:
192,192,99326,1,0,0:0:0:0:
320,192,99326,1,0,0:0:0:0:
192,192,99596,1,0,0:0:0:0:
320,192,99596,1,0,0:0:0:0:
192,192,99866,1,0,0:0:0:0:
320,192,99866,1,0,0:0:0:0:
192,192,100136,1,0,0:0:0:0:
320,192,100136,1,0,0:0:0:0:
320,192,100406,1,0,0:0:0:0:
448,192,100406,1,0,0:0:0:0:
320,192,100676,1,0,0:0:0:0:
448,192,100676,1,0,0:0:0:0:
320,192,100946,1,0,0:0:0:0:
448,192,100946,1,0,0:0:0:0:
320,192,101216,1,0,0:0:0:0:
448,192,101216,1,0,0:0:0:0:
64,192,101486,1,0,0:0:0:0:
448,192,101486,1,0,0:0:0:0:
64,192,101756,1,0,0:0:0:0:
448,192,101756,1,0,0:0:0:0:
64,192,102026,1,0,0:0:0:0:
448,192,102026,1,0,0:0:0:0:
64,192,102296,1,0,0:0:0:0:
448,192,102296,1,0,0:0:0:0:
64,192,102431,1,0,0:0:0:0:
448,192,102431,1,0,0:0:0:0:
448,192,102566,1,0,0:0:0:0:
192,192,102566,1,0,0:0:0:0:
320,192,102701,1,0,0:0:0:0:
448,192,102836,1,0,0:0:0:0:
192,192,102836,1,0,0:0:0:0:
320,192,102971,1,0,0:0:0:0:
448,192,103106,1,0,0:0:0:0:
192,192,103106,1,0,0:0:0:0:
320,192,103241,1,0,0:0:0:0:
448,192,103376,1,0,0:0:0:0:
192,192,103376,1,0,0:0:0:0:
320,192,103511,1,0,0:0:0:0:
64,192,103646,1,0,0:0:0:0:
192,192,103646,1,0,0:0:0:0:
320,192,103781,1,0,0:0:0:0:
64,192,103916,1,0,0:0:0:0:
192,192,103916,1,0,0:0:0:0:
320,192,104051,1,0,0:0:0:0:
64,192,104186,1,0,0:0:0:0:
192,192,104186,1,0,0:0:0:0:
320,192,104321,1,0,0:0:0:0:
64,192,104456,1,0,0:0:0:0:
192,192,104456,1,0,0:0:0:0:
320,192,104591,1,0,0:0:0:0:
192,192,104726,1,0,0:0:0:0:
448,192,104726,1,0,0:0:0:0:
64,192,104861,1,0,0:0:0:0:
192,192,104996,1,0,0:0:0:0:
448,192,104996,1,0,0:0:0:0:
64,192,105131,1,0,0:0:0:0:
448,192,105266,1,0,0:0:0:0:
192,192,105266,1,0,0:0:0:0:
64,192,105401,1,0,0:0:0:0:
448,192,105536,1,0,0:0:0:0:
192,192,105536,1,0,0:0:0:0:
64,192,105671,1,0,0:0:0:0:
320,192,105806,1,0,0:0:0:0:
448,192,105806,1,0,0:0:0:0:
192,192,105941,1,0,0:0:0:0:
64,192,105941,1,0,0:0:0:0:
320,192,106076,1,0,0:0:0:0:
448,192,106076,1,0,0:0:0:0:
64,192,106211,1,0,0:0:0:0:
192,192,106211,1,0,0:0:0:0:
448,192,106346,1,0,0:0:0:0:
192,192,106346,1,0,0:0:0:0:
64,192,106481,1,0,0:0:0:0:
320,192,106481,1,0,0:0:0:0:
448,192,106616,1,0,0:0:0:0:
192,192,106616,1,0,0:0:0:0:
64,192,106751,1,0,0:0:0:0:
320,192,106751,1,0,0:0:0:0:
192,192,106886,128,0,107696:0:0:0:0:
448,192,106886,128,0,107696:0:0:0:0:
64,192,106886,128,0,107696:0:0:0:0:
320,192,107696,128,0,107966:0:0:0:0:
64,192,107966,1,0,0:0:0:0:
448,192,107966,1,0,0:0:0:0:
320,192,108033,1,0,0:0:0:0:
192,192,108101,1,0,0:0:0:0:
448,192,108168,1,0,0:0:0:0:
320,192,108236,1,0,0:0:0:0:
192,192,108303,1,0,0:0:0:0:
448,192,108371,1,0,0:0:0:0:
320,192,108438,1,0,0:0:0:0:
64,192,108506,1,0,0:0:0:0:
320,192,108573,1,0,0:0:0:0:
64,192,108708,1,0,0:0:0:0:
320,192,108776,1,0,0:0:0:0:
64,192,108843,1,0,0:0:0:0:
320,192,108911,1,0,0:0:0:0:
64,192,108978,1,0,0:0:0:0:
320,192,109046,1,0,0:0:0:0:
192,192,109113,1,0,0:0:0:0:
64,192,109181,1,0,0:0:0:0:
320,192,109248,1,0,0:0:0:0:
192,192,109316,1,0,0:0:0:0:
64,192,109383,1,0,0:0:0:0:
320,192,109451,1,0,0:0:0:0:
192,192,109518,1,0,0:0:0:0:
448,192,109586,1,0,0:0:0:0:
192,192,109653,1,0,0:0:0:0:
448,192,109788,1,0,0:0:0:0:
192,192,109856,1,0,0:0:0:0:
448,192,109923,1,0,0:0:0:0:
192,192,109991,1,0,0:0:0:0:
448,192,110058,1,0,0:0:0:0:
192,192,110126,1,0,0:0:0:0:
320,192,110193,1,0,0:0:0:0:
448,192,110261,1,0,0:0:0:0:
192,192,110328,1,0,0:0:0:0:
320,192,110396,1,0,0:0:0:0:
448,192,110463,1,0,0:0:0:0:
320,192,110531,1,0,0:0:0:0:
448,192,110598,1,0,0:0:0:0:
64,192,110666,1,0,0:0:0:0:
320,192,110733,1,0,0:0:0:0:
64,192,110868,1,0,0:0:0:0:
320,192,110936,1,0,0:0:0:0:
64,192,111003,1,0,0:0:0:0:
320,192,111071,1,0,0:0:0:0:
64,192,111138,1,0,0:0:0:0:
320,192,111206,1,0,0:0:0:0:
192,192,111273,1,0,0:0:0:0:
64,192,111341,1,0,0:0:0:0:
320,192,111408,1,0,0:0:0:0:
192,192,111476,1,0,0:0:0:0:
64,192,111543,1,0,0:0:0:0:
320,192,111611,1,0,0:0:0:0:
448,192,111611,1,0,0:0:0:0:
64,192,111746,1,0,0:0:0:0:
192,192,111746,1,0,0:0:0:0:
320,192,111881,1,0,0:0:0:0:
448,192,111881,1,0,0:0:0:0:
64,192,112016,1,0,0:0:0:0:
192,192,112016,1,0,0:0:0:0:
192,192,112151,1,0,0:0:0:0:
448,192,112151,1,0,0:0:0:0:
64,192,112286,1,0,0:0:0:0:
320,192,112286,1,0,0:0:0:0:
192,192,112353,1,0,0:0:0:0:
320,192,112421,1,0,0:0:0:0:
64,192,112488,1,0,0:0:0:0:
192,192,112556,1,0,0:0:0:0:
320,192,112623,1,0,0:0:0:0:
64,192,112691,1,0,0:0:0:0:
192,192,112758,1,0,0:0:0:0:
448,192,112826,1,0,0:0:0:0:
320,192,112893,1,0,0:0:0:0:
192,192,112961,1,0,0:0:0:0:
448,192,113096,1,0,0:0:0:0:
320,192,113163,1,0,0:0:0:0:
64,192,113231,1,0,0:0:0:0:
320,192,113366,1,0,0:0:0:0:
192,192,113433,1,0,0:0:0:0:
64,192,113501,1,0,0:0:0:0:
448,192,113636,1,0,0:0:0:0:
192,192,113703,1,0,0:0:0:0:
64,192,113771,1,0,0:0:0:0:
448,192,113906,1,0,0:0:0:0:
320,192,113973,1,0,0:0:0:0:
64,192,114041,1,0,0:0:0:0:
448,192,114176,1,0,0:0:0:0:
320,192,114243,1,0,0:0:0:0:
192,192,114311,1,0,0:0:0:0:
64,192,114446,1,0,0:0:0:0:
192,192,114513,1,0,0:0:0:0:
320,192,114581,1,0,0:0:0:0:
64,192,114716,1,0,0:0:0:0:
192,192,114783,1,0,0:0:0:0:
448,192,114851,1,0,0:0:0:0:
64,192,114986,1,0,0:0:0:0:
320,192,115053,1,0,0:0:0:0:
448,192,115121,1,0,0:0:0:0:
64,192,115256,1,0,0:0:0:0:
192,192,115323,1,0,0:0:0:0:
448,192,115391,1,0,0:0:0:0:
64,192,115526,1,0,0:0:0:0:
320,192,115593,1,0,0:0:0:0:
448,192,115661,1,0,0:0:0:0:
64,192,115728,1,0,0:0:0:0:
320,192,115796,1,0,0:0:0:0:
448,192,115863,1,0,0:0:0:0:
64,192,115931,1,0,0:0:0:0:
320,192,115998,1,0,0:0:0:0:
448,192,116066,1,0,0:0:0:0:
320,192,116133,1,0,0:0:0:0:
448,192,116268,1,0,0:0:0:0:
320,192,116336,1,0,0:0:0:0:
448,192,116403,1,0,0:0:0:0:
320,192,116471,1,0,0:0:0:0:
448,192,116538,1,0,0:0:0:0:
64,192,116606,1,0,0:0:0:0:
192,192,116673,1,0,0:0:0:0:
320,192,116741,1,0,0:0:0:0:
192,192,116876,1,0,0:0:0:0:
320,192,116943,1,0,0:0:0:0:
448,192,117011,1,0,0:0:0:0:
64,192,117146,1,0,0:0:0:0:
192,192,117213,1,0,0:0:0:0:
448,192,117281,1,0,0:0:0:0:
64,192,117416,1,0,0:0:0:0:
320,192,117483,1,0,0:0:0:0:
448,192,117551,1,0,0:0:0:0:
192,192,117686,1,0,0:0:0:0:
320,192,117776,1,0,0:0:0:0:
192,192,117866,1,0,0:0:0:0:
320,192,117956,1,0,0:0:0:0:
192,192,118023,1,0,0:0:0:0:
64,192,118091,1,0,0:0:0:0:
448,192,118226,1,0,0:0:0:0:
320,192,118293,1,0,0:0:0:0:
192,192,118361,1,0,0:0:0:0:
320,192,118428,1,0,0:0:0:0:
64,192,118496,1,0,0:0:0:0:
448,192,118496,1,0,0:0:0:0:
192,192,118631,1,0,0:0:0:0:
320,192,118631,1,0,0:0:0:0:
64,192,118766,1,0,0:0:0:0:
192,192,118833,1,0,0:0:0:0:
320,192,118901,1,0,0:0:0:0:
64,192,119036,1,0,0:0:0:0:
320,192,119103,1,0,0:0:0:0:
448,192,119171,1,0,0:0:0:0:
192,192,119306,1,0,0:0:0:0:
320,192,119373,1,0,0:0:0:0:
448,192,119441,1,0,0:0:0:0:
64,192,119576,1,0,0:0:0:0:
192,192,119643,1,0,0:0:0:0:
448,192,119711,1,0,0:0:0:0:
320,192,119846,1,0,0:0:0:0:
192,192,119913,1,0,0:0:0:0:
64,192,119981,1,0,0:0:0:0:
448,192,120116,1,0,0:0:0:0:
320,192,120183,1,0,0:0:0:0:
192,192,120251,1,0,0:0:0:0:
448,192,120386,1,0,0:0:0:0:
192,192,120453,1,0,0:0:0:0:
64,192,120521,1,0,0:0:0:0:
448,192,120656,1,0,0:0:0:0:
320,192,120723,1,0,0:0:0:0:
64,192,120791,1,0,0:0:0:0:
192,192,120926,1,0,0:0:0:0:
320,192,120993,1,0,0:0:0:0:
448,192,121061,1,0,0:0:0:0:
192,192,121128,1,0,0:0:0:0:
320,192,121196,1,0,0:0:0:0:
448,192,121263,1,0,0:0:0:0:
192,192,121331,1,0,0:0:0:0:
320,192,121398,1,0,0:0:0:0:
64,192,121466,1,0,0:0:0:0:
448,192,121533,1,0,0:0:0:0:
64,192,121668,1,0,0:0:0:0:
448,192,121736,1,0,0:0:0:0:
64,192,121803,1,0,0:0:0:0:
320,192,121871,1,0,0:0:0:0:
192,192,121938,1,0,0:0:0:0:
448,192,122006,1,0,0:0:0:0:
320,192,122073,1,0,0:0:0:0:
192,192,122141,1,0,0:0:0:0:
64,192,122276,1,0,0:0:0:0:
192,192,122343,1,0,0:0:0:0:
320,192,122411,1,0,0:0:0:0:
64,192,122546,1,0,0:0:0:0:
192,192,122613,1,0,0:0:0:0:
320,192,122681,1,0,0:0:0:0:
64,192,122748,1,0,0:0:0:0:
320,192,122816,1,0,0:0:0:0:
448,192,122883,1,0,0:0:0:0:
64,192,122951,1,0,0:0:0:0:
192,192,123018,1,0,0:0:0:0:
448,192,123086,1,0,0:0:0:0:
320,192,123153,1,0,0:0:0:0:
192,192,123221,1,0,0:0:0:0:
448,192,123288,1,0,0:0:0:0:
320,192,123356,1,0,0:0:0:0:
192,192,123423,1,0,0:0:0:0:
448,192,123491,1,0,0:0:0:0:
320,192,123558,1,0,0:0:0:0:
64,192,123626,1,0,0:0:0:0:
192,192,123693,1,0,0:0:0:0:
64,192,123828,1,0,0:0:0:0:
320,192,123896,1,0,0:0:0:0:
64,192,123963,1,0,0:0:0:0:
192,192,124031,1,0,0:0:0:0:
64,192,124098,1,0,0:0:0:0:
448,192,124166,1,0,0:0:0:0:
192,192,124166,1,0,0:0:0:0:
320,192,124233,1,0,0:0:0:0:
192,192,124301,1,0,0:0:0:0:
64,192,124436,1,0,0:0:0:0:
448,192,124436,1,0,0:0:0:0:
320,192,124503,1,0,0:0:0:0:
192,192,124571,1,0,0:0:0:0:
64,192,124706,1,0,0:0:0:0:
320,192,124706,1,0,0:0:0:0:
192,192,124773,1,0,0:0:0:0:
320,192,124841,1,0,0:0:0:0:
64,192,124976,1,0,0:0:0:0:
448,192,124976,1,0,0:0:0:0:
192,192,125043,1,0,0:0:0:0:
320,192,125111,1,0,0:0:0:0:
64,192,125246,1,0,0:0:0:0:
448,192,125246,1,0,0:0:0:0:
192,192,125313,1,0,0:0:0:0:
320,192,125381,1,0,0:0:0:0:
64,192,125448,1,0,0:0:0:0:
192,192,125516,1,0,0:0:0:0:
320,192,125583,1,0,0:0:0:0:
64,192,125651,1,0,0:0:0:0:
192,192,125718,1,0,0:0:0:0:
64,192,125786,1,0,0:0:0:0:
320,192,125853,1,0,0:0:0:0:
320,192,125988,1,0,0:0:0:0:
64,192,126056,1,0,0:0:0:0:
192,192,126123,1,0,0:0:0:0:
64,192,126191,1,0,0:0:0:0:
320,192,126258,1,0,0:0:0:0:
192,192,126326,1,0,0:0:0:0:
320,192,126393,1,0,0:0:0:0:
448,192,126461,1,0,0:0:0:0:
192,192,126528,1,0,0:0:0:0:
320,192,126596,1,0,0:0:0:0:
448,192,126663,1,0,0:0:0:0:
192,192,126731,1,0,0:0:0:0:
320,192,126798,1,0,0:0:0:0:
448,192,126866,1,0,0:0:0:0:
64,192,126933,1,0,0:0:0:0:
64,192,127068,1,0,0:0:0:0:
320,192,127136,1,0,0:0:0:0:
192,192,127203,1,0,0:0:0:0:
320,192,127271,1,0,0:0:0:0:
64,192,127338,1,0,0:0:0:0:
320,192,127406,1,0,0:0:0:0:
192,192,127473,1,0,0:0:0:0:
64,192,127541,1,0,0:0:0:0:
320,192,127608,1,0,0:0:0:0:
192,192,127676,1,0,0:0:0:0:
64,192,127743,1,0,0:0:0:0:
320,192,127811,1,0,0:0:0:0:
192,192,127878,1,0,0:0:0:0:
64,192,127946,1,0,0:0:0:0:
320,192,128013,1,0,0:0:0:0:
320,192,128148,1,0,0:0:0:0:
192,192,128216,1,0,0:0:0:0:
448,192,128283,1,0,0:0:0:0:
192,192,128351,1,0,0:0:0:0:
320,192,128418,1,0,0:0:0:0:
64,192,128486,1,0,0:0:0:0:
192,192,128553,1,0,0:0:0:0:
320,192,128621,1,0,0:0:0:0:
64,192,128688,1,0,0:0:0:0:
192,192,128756,1,0,0:0:0:0:
320,192,128823,1,0,0:0:0:0:
64,192,128891,1,0,0:0:0:0:
448,192,128891,1,0,0:0:0:0:
64,192,129026,1,0,0:0:0:0:
320,192,129026,1,0,0:0:0:0:
448,192,129161,1,0,0:0:0:0:
192,192,129161,1,0,0:0:0:0:
192,192,129296,1,0,0:0:0:0:
320,192,129296,1,0,0:0:0:0:
64,192,129431,1,0,0:0:0:0:
320,192,129431,1,0,0:0:0:0:
192,192,129566,1,0,0:0:0:0:
448,192,129566,1,0,0:0:0:0:
320,192,129633,1,0,0:0:0:0:
64,192,129701,1,0,0:0:0:0:
448,192,129768,1,0,0:0:0:0:
320,192,129836,1,0,0:0:0:0:
64,192,129903,1,0,0:0:0:0:
448,192,129971,1,0,0:0:0:0:
320,192,130038,1,0,0:0:0:0:
64,192,130106,1,0,0:0:0:0:
192,192,130173,1,0,0:0:0:0:
448,192,130241,1,0,0:0:0:0:
64,192,130376,1,0,0:0:0:0:
192,192,130443,1,0,0:0:0:0:
320,192,130511,1,0,0:0:0:0:
448,192,130646,1,0,0:0:0:0:
192,192,130713,1,0,0:0:0:0:
64,192,130781,1,0,0:0:0:0:
64,192,130916,1,0,0:0:0:0:
192,192,130983,1,0,0:0:0:0:
448,192,131051,1,0,0:0:0:0:
320,192,131186,1,0,0:0:0:0:
192,192,131253,1,0,0:0:0:0:
64,192,131321,1,0,0:0:0:0:
448,192,131456,1,0,0:0:0:0:
192,192,131523,1,0,0:0:0:0:
64,192,131591,1,0,0:0:0:0:
448,192,131726,1,0,0:0:0:0:
192,192,131793,1,0,0:0:0:0:
64,192,131861,1,0,0:0:0:0:
320,192,131996,1,0,0:0:0:0:
64,192,132063,1,0,0:0:0:0:
192,192,132131,1,0,0:0:0:0:
320,192,132266,1,0,0:0:0:0:
192,192,132333,1,0,0:0:0:0:
64,192,132401,1,0,0:0:0:0:
192,192,132536,1,0,0:0:0:0:
448,192,132603,1,0,0:0:0:0:
192,192,132671,1,0,0:0:0:0:
64,192,132806,1,0,0:0:0:0:
192,192,132873,1,0,0:0:0:0:
320,192,132941,1,0,0:0:0:0:
64,192,133008,1,0,0:0:0:0:
192,192,133076,1,0,0:0:0:0:
320,192,133143,1,0,0:0:0:0:
64,192,133211,1,0,0:0:0:0:
192,192,133278,1,0,0:0:0:0:
448,192,133346,1,0,0:0:0:0:
320,192,133413,1,0,0:0:0:0:
320,192,133548,1,0,0:0:0:0:
448,192,133616,1,0,0:0:0:0:
192,192,133683,1,0,0:0:0:0:
448,192,133751,1,0,0:0:0:0:
320,192,133818,1,0,0:0:0:0:
64,192,133886,1,0,0:0:0:0:
320,192,133953,1,0,0:0:0:0:
448,192,134021,1,0,0:0:0:0:
64,192,134156,1,0,0:0:0:0:
192,192,134223,1,0,0:0:0:0:
448,192,134291,1,0,0:0:0:0:
320,192,134426,1,0,0:0:0:0:
192,192,134493,1,0,0:0:0:0:
64,192,134561,1,0,0:0:0:0:
448,192,134696,1,0,0:0:0:0:
320,192,134763,1,0,0:0:0:0:
64,192,134831,1,0,0:0:0:0:
320,192,134966,1,0,0:0:0:0:
192,192,135056,1,0,0:0:0:0:
64,192,135146,1,0,0:0:0:0:
448,192,135236,1,0,0:0:0:0:
320,192,135303,1,0,0:0:0:0:
192,192,135371,1,0,0:0:0:0:
448,192,135506,1,0,0:0:0:0:
320,192,135573,1,0,0:0:0:0:
64,192,135641,1,0,0:0:0:0:
448,192,135708,1,0,0:0:0:0:
320,192,135776,1,0,0:0:0:0:
64,192,135843,1,0,0:0:0:0:
320,192,135911,1,0,0:0:0:0:
192,192,135978,1,0,0:0:0:0:
448,192,136046,1,0,0:0:0:0:
192,192,136113,1,0,0:0:0:0:
64,192,136181,1,0,0:0:0:0:
448,192,136316,1,0,0:0:0:0:
64,192,136383,1,0,0:0:0:0:
192,192,136451,1,0,0:0:0:0:
448,192,136586,1,0,0:0:0:0:
320,192,136653,1,0,0:0:0:0:
64,192,136721,1,0,0:0:0:0:
192,192,136856,1,0,0:0:0:0:
320,192,136923,1,0,0:0:0:0:
448,192,136991,1,0,0:0:0:0:
64,192,137126,1,0,0:0:0:0:
448,192,137193,1,0,0:0:0:0:
320,192,137261,1,0,0:0:0:0:
64,192,137396,1,0,0:0:0:0:
192,192,137463,1,0,0:0:0:0:
320,192,137531,1,0,0:0:0:0:
448,192,137666,1,0,0:0:0:0:
192,192,137733,1,0,0:0:0:0:
64,192,137801,1,0,0:0:0:0:
192,192,137936,1,0,0:0:0:0:
320,192,138003,1,0,0:0:0:0:
192,192,138071,1,0,0:0:0:0:
192,192,138206,1,0,0:0:0:0:
320,192,138273,1,0,0:0:0:0:
448,192,138341,1,0,0:0:0:0:
192,192,138408,1,0,0:0:0:0:
320,192,138476,1,0,0:0:0:0:
448,192,138543,1,0,0:0:0:0:
192,192,138611,1,0,0:0:0:0:
320,192,138678,1,0,0:0:0:0:
448,192,138746,1,0,0:0:0:0:
192,192,138813,1,0,0:0:0:0:
192,192,138948,1,0,0:0:0:0:
448,192,139016,1,0,0:0:0:0:
320,192,139083,1,0,0:0:0:0:
448,192,139151,1,0,0:0:0:0:
192,192,139218,1,0,0:0:0:0:
320,192,139286,1,0,0:0:0:0:
192,192,139353,1,0,0:0:0:0:
320,192,139421,1,0,0:0:0:0:
64,192,139556,1,0,0:0:0:0:
192,192,139623,1,0,0:0:0:0:
64,192,139691,1,0,0:0:0:0:
448,192,139826,1,0,0:0:0:0:
320,192,139893,1,0,0:0:0:0:
192,192,139961,1,0,0:0:0:0:
448,192,140028,1,0,0:0:0:0:
320,192,140096,1,0,0:0:0:0:
192,192,140163,1,0,0:0:0:0:
448,192,140231,1,0,0:0:0:0:
320,192,140366,1,0,0:0:0:0:
192,192,140433,1,0,0:0:0:0:
64,192,140501,1,0,0:0:0:0:
320,192,140568,1,0,0:0:0:0:
192,192,140636,1,0,0:0:0:0:
64,192,140703,1,0,0:0:0:0:
320,192,140771,1,0,0:0:0:0:
192,192,140838,1,0,0:0:0:0:
64,192,140906,1,0,0:0:0:0:
320,192,140973,1,0,0:0:0:0:
320,192,141108,1,0,0:0:0:0:
64,192,141176,1,0,0:0:0:0:
192,192,141243,1,0,0:0:0:0:
64,192,141311,1,0,0:0:0:0:
320,192,141378,1,0,0:0:0:0:
192,192,141446,1,0,0:0:0:0:
448,192,141446,1,0,0:0:0:0:
320,192,141513,1,0,0:0:0:0:
64,192,141581,1,0,0:0:0:0:
192,192,141716,1,0,0:0:0:0:
448,192,141716,1,0,0:0:0:0:
320,192,141783,1,0,0:0:0:0:
448,192,141851,1,0,0:0:0:0:
64,192,141986,1,0,0:0:0:0:
192,192,141986,1,0,0:0:0:0:
320,192,142053,1,0,0:0:0:0:
448,192,142121,1,0,0:0:0:0:
448,192,142256,1,0,0:0:0:0:
320,192,142256,1,0,0:0:0:0:
192,192,142323,1,0,0:0:0:0:
64,192,142391,1,0,0:0:0:0:
448,192,142526,1,0,0:0:0:0:
320,192,142526,1,0,0:0:0:0:
448,192,142661,1,0,0:0:0:0:
320,192,142661,1,0,0:0:0:0:
192,192,142796,1,0,0:0:0:0:
448,192,142796,1,0,0:0:0:0:
448,192,142931,1,0,0:0:0:0:
192,192,142931,1,0,0:0:0:0:
192,192,143066,1,0,0:0:0:0:
320,192,143066,1,0,0:0:0:0:
192,192,143201,1,0,0:0:0:0:
320,192,143201,1,0,0:0:0:0:
64,192,143336,1,0,0:0:0:0:
320,192,143336,1,0,0:0:0:0:
64,192,143471,1,0,0:0:0:0:
320,192,143471,1,0,0:0:0:0:
64,192,143606,1,0,0:0:0:0:
192,192,143606,1,0,0:0:0:0:
448,192,143606,1,0,0:0:0:0:
64,192,143741,1,0,0:0:0:0:
192,192,143741,1,0,0:0:0:0:
320,192,143876,1,0,0:0:0:0:
448,192,143876,1,0,0:0:0:0:
320,192,144011,1,0,0:0:0:0:
448,192,144011,1,0,0:0:0:0:
64,192,144146,1,0,0:0:0:0:
320,192,144146,1,0,0:0:0:0:
64,192,144281,1,0,0:0:0:0:
320,192,144281,1,0,0:0:0:0:
192,192,144416,1,0,0:0:0:0:
448,192,144416,1,0,0:0:0:0:
192,192,144551,1,0,0:0:0:0:
448,192,144551,1,0,0:0:0:0:
64,192,144686,1,0,0:0:0:0:
192,192,144686,1,0,0:0:0:0:
448,192,144686,1,0,0:0:0:0:
320,192,144821,1,0,0:0:0:0:
448,192,144821,1,0,0:0:0:0:
64,192,144956,1,0,0:0:0:0:
192,192,144956,1,0,0:0:0:0:
320,192,145091,1,0,0:0:0:0:
448,192,145091,1,0,0:0:0:0:
64,192,145226,1,0,0:0:0:0:
320,192,145226,1,0,0:0:0:0:
192,192,145361,1,0,0:0:0:0:
448,192,145361,1,0,0:0:0:0:
64,192,145496,1,0,0:0:0:0:
320,192,145496,1,0,0:0:0:0:
192,192,145631,1,0,0:0:0:0:
448,192,145631,1,0,0:0:0:0:
64,192,145766,1,0,0:0:0:0:
320,192,145766,1,0,0:0:0:0:
192,192,145833,1,0,0:0:0:0:
320,192,145901,1,0,0:0:0:0:
448,192,145968,1,0,0:0:0:0:
64,192,146036,1,0,0:0:0:0:
192,192,146103,1,0,0:0:0:0:
320,192,146171,1,0,0:0:0:0:
448,192,146238,1,0,0:0:0:0:
64,192,146306,1,0,0:0:0:0:
320,192,146306,1,0,0:0:0:0:
192,192,146373,1,0,0:0:0:0:
64,192,146441,1,0,0:0:0:0:
448,192,146508,1,0,0:0:0:0:
320,192,146576,1,0,0:0:0:0:
192,192,146643,1,0,0:0:0:0:
64,192,146711,1,0,0:0:0:0:
448,192,146778,1,0,0:0:0:0:
320,192,146846,1,0,0:0:0:0:
192,192,146846,128,0,149006:0:0:0:0:
64,192,146846,128,0,149006:0:0:0:0:
