osu file format v14

[General]
AudioFilename: Freedom Dive.mp3
AudioLeadIn: 0
PreviewTime: 64773
Countdown: 0
SampleSet: Normal
StackLeniency: 0.7
Mode: 0
LetterboxInBreaks: 0
WidescreenStoryboard: 1

[Editor]
Bookmarks: 104726,131996,136316,200846,228589,240267
DistanceSpacing: 1
BeatDivisor: 16
GridSize: 4
TimelineZoom: 2.899999

[Metadata]
Title:FREEDOM DiVE
TitleUnicode:FREEDOM DiVE
Artist:xi
ArtistUnicode:xi
Creator:Ekoro
Version:Heaven
Source:BMS
Tags:
BeatmapID:408137
BeatmapSetID:168140

[Difficulty]
HPDrainRate:7
CircleSize:4
OverallDifficulty:8
ApproachRate:10
SliderMultiplier:1.6
SliderTickRate:1

[Events]
//Background and Video events
0,0,"Screenshot_2014-02-12-13-14-00_1.jpg",0,0
//Break Periods
2,82253,90243
//Storyboard Layer 0 (Background)
//Storyboard Layer 1 (Fail)
//Storyboard Layer 2 (Pass)
//Storyboard Layer 3 (Foreground)
//Storyboard Sound Samples

[TimingPoints]
2133,270.002700027,4,1,0,70,1,0
27985,-100,4,2,0,70,0,0
41013,-100,4,1,0,70,0,0
64773,-83.3333333333333,4,1,0,70,0,1
82053,-125,4,1,0,70,0,0
98253,-111.111111111111,4,1,0,70,0,0
107974,-83.3333333333333,4,1,0,70,0,1
146854,-83.3333333333333,4,1,0,70,0,0
164134,-83.3333333333333,4,2,0,70,0,0

[Colours]
Combo1 : 255,128,128
Combo2 : 128,255,0
Combo3 : 0,128,192
Combo4 : 255,255,128

[HitObjects]
112,36,2133,6,0,P|172:56|212:100,2,120,6|2|0,0:0|0:0|0:0,0:0:0:0:
36,64,2673,2,0,L|28:152,1,80
104,264,2943,2,0,L|96:176,1,80
40,312,3213,2,0,P|96:312|156:332,1,120
188,360,3483,2,0,L|196:272,1,80
164,208,3753,5,0,0:0:0:0:
40,312,3888,1,0,0:0:0:0:
188,360,4023,2,0,P|228:348|272:344,1,80
404,352,4293,6,0,P|464:360|520:384,2,120,4|0|0,0:0|0:0|0:0,0:0:0:0:
340,308,4833,2,0,L|328:224,1,80
392,92,5103,2,0,L|380:176,1,80
260,272,5373,2,0,P|252:208|260:152,1,120
276,116,5643,2,0,L|188:128,1,80
120,104,5913,5,0,0:0:0:0:
100,68,5980,1,0,0:0:0:0:
64,52,6048,2,0,L|44:48,4,20
44,128,6318,1,0,0:0:0:0:
32,208,6453,6,0,P|36:268|56:328,2,120
108,184,6993,2,0,P|148:184|192:192,1,80
332,244,7263,2,0,P|292:244|248:236,1,80
120,104,7533,2,0,P|180:108|240:120,2,120
44,128,8073,5,0,0:0:0:0:
64,52,8208,1,0,0:0:0:0:
108,184,8343,2,0,P|100:224|80:264,1,80
28,316,8613,5,4,0:0:0:0:
104,336,8748,1,0,0:0:0:0:
104,336,8815,1,0,0:0:0:0:
104,336,8883,2,0,L|188:324,1,80
336,216,9153,5,4,0:0:0:0:
260,236,9288,1,0,0:0:0:0:
260,236,9355,1,0,0:0:0:0:
260,236,9423,2,0,L|176:224,1,80
44,128,9693,5,4,0:0:0:0:
36,88,9760,1,0,0:0:0:0:
28,48,9828,2,0,L|44:12,1,40
176,24,9963,5,4,0:0:0:0:
184,64,10030,1,0,0:0:0:0:
192,104,10098,2,0,L|176:140,1,40
96,248,10233,5,0,0:0:0:0:
84,284,10300,1,0,0:0:0:0:
92,324,10368,1,2,0:0:0:0:
124,348,10435,1,0,0:0:0:0:
164,356,10503,1,2,0:0:0:0:
204,344,10570,1,2,0:0:0:0:
240,324,10638,1,2,0:0:0:0:
280,320,10705,1,2,0:0:0:0:
320,328,10773,6,0,P|392:356|476:352,1,160,4|8,0:0|0:0,0:0:0:0:
508,280,11178,1,0,0:0:0:0:
500,200,11313,2,0,P|428:172|344:176,1,160,0|8,0:0|0:0,0:0:0:0:
272,208,11718,1,0,0:0:0:0:
224,272,11853,6,0,L|232:352,1,80
148,236,12123,2,0,L|156:156,1,80,8|0,0:0|0:0,0:0:0:0:
320,328,12393,5,0,0:0:0:0:
148,236,12528,1,0,0:0:0:0:
312,128,12663,2,0,P|352:124|392:124,1,80,8|0,0:0|0:0,0:0:0:0:
268,52,12933,6,0,P|184:48|108:32,1,160,4|8,0:0|0:0,0:0:0:0:
36,68,13338,1,0,0:0:0:0:
36,68,13473,2,0,L|48:232,1,160,0|8,0:0|0:0,0:0:0:0:
120,264,13878,1,0,0:0:0:0:
196,284,14013,5,0,0:0:0:0:
236,288,14080,1,0,0:0:0:0:
276,280,14148,1,0,0:0:0:0:
312,260,14215,1,0,0:0:0:0:
340,232,14283,2,0,P|348:272|360:312,1,80,12|0,0:0|0:0,0:0:0:0:
396,168,14553,2,0,P|336:148|276:144,2,120,8|12|8,0:0|0:0|0:0,0:0:0:0:
424,244,15093,6,0,P|484:188|508:108,1,160,0|8,0:0|0:0,0:0:0:0:
476,44,15498,1,0,0:0:0:0:
400,20,15633,2,0,L|356:28,2,40
476,44,15903,5,12,0:0:0:0:
292,72,16038,2,0,P|300:152|288:232,1,160,4|0,0:0|0:0,0:0:0:0:
236,292,16443,5,8,0:0:0:0:
200,304,16510,1,0,0:0:0:0:
160,300,16578,1,0,0:0:0:0:
132,272,16645,1,0,0:0:0:0:
116,236,16713,2,0,L|124:192,3,40
40,272,16983,2,0,L|48:316,3,40,8|0|0|0,0:0|0:0|0:0|0:0,0:0:0:0:
48,192,17253,6,0,L|68:112,1,80,4|0,0:0|0:0,0:0:0:0:
128,16,17523,2,0,L|148:96,1,80,8|0,0:0|0:0,0:0:0:0:
220,220,17793,6,0,P|260:208|296:192,1,80,4|0,0:0|0:0,0:0:0:0:
368,104,18063,2,0,P|408:116|444:132,1,80,8|0,0:0|0:0,0:0:0:0:
472,244,18333,5,4,0:0:0:0:
460,284,18400,1,0,0:0:0:0:
428,308,18468,1,0,0:0:0:0:
388,316,18535,1,0,0:0:0:0:
348,308,18603,1,12,0:0:0:0:
312,292,18670,1,0,0:0:0:0:
272,292,18738,1,0,0:0:0:0:
232,304,18805,1,0,0:0:0:0:
204,332,18873,6,0,L|196:372,1,40,2|0,0:0|0:0,0:0:0:0:
120,292,19008,2,0,L|128:252,1,40,0|0,0:0|0:0,0:0:0:0:
228,180,19143,2,0,L|220:220,1,40,10|2,0:0|0:0,0:0:0:0:
144,140,19278,2,0,L|152:100,1,40,2|2,0:0|0:0,0:0:0:0:
244,76,19413,6,0,P|320:84|396:52,1,160,4|8,0:0|0:0,0:0:0:0:
468,84,19818,1,0,0:0:0:0:
468,84,19885,1,0,0:0:0:0:
468,84,19953,2,0,L|476:168,1,80
396,288,20223,2,0,L|404:204,1,80,8|0,0:0|0:0,0:0:0:0:
312,144,20493,6,0,P|236:152|160:120,1,160,0|8,0:0|0:0,0:0:0:0:
112,56,20898,1,0,0:0:0:0:
112,56,20965,1,0,0:0:0:0:
112,56,21033,2,0,P|148:40|188:44,1,80
128,192,21303,2,0,P|96:168|79:132,1,80,8|0,0:0|0:0,0:0:0:0:
240,108,21573,6,0,B|235:147|212:180|212:180|224:260,1,160,4|8,0:0|0:0,0:0:0:0:
304,276,21978,1,0,0:0:0:0:
304,276,22045,1,0,0:0:0:0:
304,276,22113,2,0,L|288:196,1,80
132,176,22383,2,0,L|148:256,1,80,8|0,0:0|0:0,0:0:0:0:
244,348,22653,5,0,0:0:0:0:
280,364,22720,1,0,0:0:0:0:
320,364,22788,1,0,0:0:0:0:
356,348,22855,1,0,0:0:0:0:
384,320,22923,2,0,P|400:284|408:244,1,80,12|0,0:0|0:0,0:0:0:0:
360,180,23193,2,0,P|340:136|340:64,2,120,12|12|12,0:0|0:0|0:0,0:0:0:0:
440,172,23733,6,0,L|488:164,2,40
324,252,24003,2,0,L|276:244,2,40,8|0|0,0:0|0:0|0:0,0:0:0:0:
440,172,24273,5,0,0:0:0:0:
416,44,24408,1,0,0:0:0:0:
324,252,24543,5,12,0:0:0:0:
296,120,24678,2,0,P|216:120|136:88,1,160,4|0,0:0|0:0,0:0:0:0:
84,36,25083,5,8,0:0:0:0:
44,44,25150,1,0,0:0:0:0:
16,72,25218,1,0,0:0:0:0:
4,112,25285,1,0,0:0:0:0:
16,152,25353,2,0,L|56:160,1,40
160,208,25488,2,0,L|120:216,1,40
8,268,25623,2,0,P|16:308|16:348,1,80,8|0,0:0|0:0,0:0:0:0:
92,372,25893,5,2,0:0:0:0:
112,336,25960,1,0,0:0:0:0:
148,316,26028,1,0,0:0:0:0:
188,308,26095,1,0,0:0:0:0:
228,316,26163,1,10,0:0:0:0:
260,340,26230,1,0,0:0:0:0:
300,348,26298,1,0,0:0:0:0:
340,336,26365,1,0,0:0:0:0:
364,304,26433,5,2,0:0:0:0:
368,264,26500,1,0,0:0:0:0:
348,228,26568,1,0,0:0:0:0:
312,212,26635,1,0,0:0:0:0:
272,208,26703,1,10,0:0:0:0:
240,184,26770,1,0,0:0:0:0:
224,148,26838,1,0,0:0:0:0:
232,108,26905,1,0,0:0:0:0:
260,80,26973,6,0,L|304:76,1,40,2|0,0:0|0:0,0:0:0:0:
396,128,27108,2,0,L|352:132,1,40,0|0,0:0|0:0,0:0:0:0:
360,16,27243,6,0,L|372:56,1,40,10|0,0:0|0:0,0:0:0:0:
464,160,27378,2,0,L|452:200,1,40,0|0,0:0|0:0,0:0:0:0:
364,304,27513,5,2,0:0:0:0:
328,288,27580,1,0,0:0:0:0:
288,280,27648,1,0,0:0:0:0:
248,284,27715,1,0,0:0:0:0:
212,300,27783,1,10,0:0:0:0:
180,324,27850,1,0,0:0:0:0:
140,336,27918,1,0,0:0:0:0:
100,332,27985,1,0,0:0:0:0:
64,316,28053,6,0,L|44:192,2,120,6|2|2,0:0|0:0|0:0,0:0:0:0:
152,144,28593,1,0,0:0:0:0:
152,144,28660,2,0,L|140:228,1,80,2|0,0:0|0:0,0:0:0:0:
172,248,28863,2,0,P|212:252|256:240,1,80,2|2,0:0|0:0,0:0:0:0:
320,200,29133,6,0,P|380:200|440:224,2,120,2|2|2,0:0|0:0|0:0,0:0:0:0:
252,160,29673,1,0,0:0:0:0:
236,124,29740,2,0,P|232:84|232:44,1,80,2|0,0:0|0:0,0:0:0:0:
248,8,29943,2,0,L|164:16,1,80,2|2,0:0|0:0,0:0:0:0:
92,40,30213,5,2,0:0:0:0:
12,128,30415,1,2,0:0:0:0:
128,152,30618,1,2,0:0:0:0:
164,80,30753,5,0,0:0:0:0:
172,40,30820,1,2,0:0:0:0:
48,208,30955,1,0,0:0:0:0:
56,248,31023,2,0,P|60:288|60:332,1,80,2|2,0:0|0:0,0:0:0:0:
136,356,31293,6,0,P|196:360|256:336,2,120,0|0|2,0:0|0:0|0:0,0:0:0:0:
144,276,31833,5,0,0:0:0:0:
128,152,31968,1,2,0:0:0:0:
136,356,32103,5,2,0:0:0:0:
56,248,32238,1,2,0:0:0:0:
208,320,32373,6,0,L|340:332,2,120,2|2|0,0:0|0:0|0:0,0:0:0:0:
220,240,32913,6,0,L|304:248,1,80,2|0,0:0|0:0,0:0:0:0:
436,188,33183,2,0,L|352:180,1,80,2|0,0:0|0:0,0:0:0:0:
196,252,33453,6,0,P|188:292|188:340,1,80,2|0,0:0|0:0,0:0:0:0:
272,168,33723,2,0,P|280:128|280:80,1,80,2|0,0:0|0:0,0:0:0:0:
168,20,33993,6,0,L|84:28,1,80,2|0,0:0|0:0,0:0:0:0:
0,156,34263,2,0,L|84:148,1,80,2|0,0:0|0:0,0:0:0:0:
204,96,34533,6,0,P|236:72|252:32,1,80,2|0,0:0|0:0,0:0:0:0:
272,168,34803,2,0,P|240:191|224:227,1,80,2|0,0:0|0:0,0:0:0:0:
296,348,35073,6,0,L|376:336,1,80,2|0,0:0|0:0,0:0:0:0:
208,316,35343,2,0,L|128:328,1,80,2|0,0:0|0:0,0:0:0:0:
280,380,35613,6,0,L|404:360,2,120,0|2|2,0:0|0:0|0:0,0:0:0:0:
224,280,36153,2,0,L|100:300,2,120,0|2|2,0:0|0:0|1:2,0:0:0:0:
260,152,36693,5,4,1:0:0:0:
268,120,36963,1,2,0:0:0:0:
276,88,37233,1,0,0:0:0:0:
284,56,37503,1,2,0:0:0:0:
292,24,37773,5,2,0:0:0:0:
340,48,37863,1,2,0:0:0:0:
392,56,37953,1,0,0:0:0:0:
444,48,38043,1,0,0:0:0:0:
492,200,38313,2,0,L|472:364,1,160,2|0,0:0|0:0,0:0:0:0:
396,376,38718,1,2,0:0:0:0:
320,352,38853,5,4,1:0:0:0:
296,332,39123,1,0,0:0:0:0:
268,312,39393,1,2,0:0:0:0:
240,292,39663,1,0,0:0:0:0:
192,208,39933,5,2,0:0:0:0:
216,188,40203,1,0,0:0:0:0:
244,168,40473,1,2,0:0:0:0:
272,148,40743,1,0,0:0:0:0:
340,64,41013,5,4,0:0:0:0:
340,64,41958,1,0,0:0:0:0:
340,64,42025,1,0,0:0:0:0:
340,64,42093,1,4,0:0:0:0:
340,64,42633,1,4,0:0:0:0:
212,28,42835,1,0,0:0:0:0:
160,148,43038,1,0,0:0:0:0:
160,148,43173,6,0,P|92:184|4:176,1,160,4|0,0:0|0:0,0:0:0:0:
108,324,43713,2,4,P|176:288|264:296,1,160,4|0,0:0|0:0,0:0:0:0:
420,356,44253,5,0,0:0:0:0:
428,324,44523,1,4,0:0:0:0:
436,292,44793,1,4,0:0:0:0:
444,260,45063,1,4,0:0:0:0:
464,184,45198,5,0,0:0:0:0:
464,184,45265,1,0,0:0:0:0:
464,184,45333,1,2,0:0:0:0:
476,104,45468,1,0,0:0:0:0:
488,24,45603,1,2,0:0:0:0:
316,0,45738,5,0,0:0:0:0:
316,0,45805,1,0,0:0:0:0:
316,0,45873,1,2,0:0:0:0:
328,120,46008,1,0,0:0:0:0:
344,240,46143,1,2,0:0:0:0:
180,340,46278,5,0,0:0:0:0:
180,340,46345,1,0,0:0:0:0:
180,340,46413,1,2,0:0:0:0:
204,180,46548,1,0,0:0:0:0:
204,180,46615,1,0,0:0:0:0:
204,180,46683,1,2,0:0:0:0:
228,20,46818,1,0,0:0:0:0:
228,20,46885,1,0,0:0:0:0:
228,20,46953,5,2,0:0:0:0:
188,12,47020,1,0,0:0:0:0:
148,12,47088,1,0,0:0:0:0:
112,24,47155,1,0,0:0:0:0:
76,44,47223,1,2,0:0:0:0:
48,72,47290,1,0,0:0:0:0:
32,108,47358,1,0,0:0:0:0:
24,148,47425,1,0,0:0:0:0:
28,188,47493,6,0,P|32:232|28:272,1,80,6|0,0:0|0:0,0:0:0:0:
4,344,47763,2,0,L|88:348,1,80,8|0,0:0|0:0,0:0:0:0:
156,308,48033,2,0,P|240:332|316:328,1,160,2|10,0:0|0:0,0:0:0:0:
372,276,48438,1,0,0:0:0:0:
372,276,48505,1,0,0:0:0:0:
372,276,48573,6,0,L|384:196,1,80,2|0,0:0|0:0,0:0:0:0:
452,56,48843,2,0,L|440:136,1,80,10|0,0:0|0:0,0:0:0:0:
400,356,49113,5,2,0:0:0:0:
280,244,49248,1,0,0:0:0:0:
440,135,49383,5,10,0:0:0:0:
372,276,49518,1,0,0:0:0:0:
228,168,49653,6,0,L|220:88,1,80
144,288,49923,2,0,L|152:208,1,80,10|0,0:0|0:0,0:0:0:0:
152,124,50193,2,0,P|72:136|-4:120,1,160,2|10,0:0|0:0,0:0:0:0:
36,52,50598,5,0,0:0:0:0:
36,52,50665,1,0,0:0:0:0:
36,52,50733,2,0,L|120:56,1,80,2|0,0:0|0:0,0:0:0:0:
160,212,51003,2,0,L|76:216,1,80,10|0,0:0|0:0,0:0:0:0:
12,320,51273,5,2,0:0:0:0:
164,372,51408,1,0,0:0:0:0:
308,308,51543,1,10,0:0:0:0:
460,352,51678,1,0,0:0:0:0:
420,196,51813,6,0,L|408:112,1,80,2|0,0:0|0:0,0:0:0:0:
472,0,52083,2,0,L|484:84,1,80,10|0,0:0|0:0,0:0:0:0:
500,224,52353,2,0,P|420:216|340:228,1,160,2|10,0:0|0:0,0:0:0:0:
276,272,52758,5,0,0:0:0:0:
276,272,52826,1,0,0:0:0:0:
276,272,52893,2,0,L|264:356,1,80
264,188,53163,2,0,L|276:104,1,80,10|0,0:0|0:0,0:0:0:0:
356,308,53433,5,2,0:0:0:0:
196,240,53568,1,0,0:0:0:0:
332,136,53703,5,10,0:0:0:0:
344,222,53838,1,0,0:0:0:0:
208,320,53973,6,0,L|128:328,1,80
8,248,54243,2,0,L|88:256,1,80,10|0,0:0|0:0,0:0:0:0:
172,168,54513,2,0,P|92:180|24:140,1,160,2|10,0:0|0:0,0:0:0:0:
8,64,54918,1,0,0:0:0:0:
84,36,55053,5,2,0:0:0:0:
116,56,55121,1,0,0:0:0:0:
156,68,55188,1,0,0:0:0:0:
196,64,55256,1,0,0:0:0:0:
232,52,55323,2,0,L|224:8,1,40,14|0,0:0|0:0,0:0:0:0:
304,104,55458,2,0,L|296:148,1,40
228,224,55593,5,2,0:0:0:0:
188,228,55661,1,0,0:0:0:0:
152,216,55728,1,0,0:0:0:0:
124,188,55796,1,0,0:0:0:0:
112,148,55863,2,0,L|152:144,1,40,14|0,0:0|0:0,0:0:0:0:
44,244,55998,2,0,L|4:240,1,40,0|0,0:0|0:0,0:0:0:0:
120,336,56133,6,0,P|196:308|276:316,1,160,6|8,0:0|0:0,0:0:0:0:
340,360,56538,1,0,0:0:0:0:
348,280,56673,2,0,P|344:240|344:200,1,80,2|0,0:0|0:0,0:0:0:0:
504,184,56943,2,0,P|508:224|508:264,1,80,10|0,0:0|0:0,0:0:0:0:
416,332,57213,5,2,0:0:0:0:
340,360,57348,1,0,0:0:0:0:
268,228,57483,1,10,0:0:0:0:
344,200,57618,1,0,0:0:0:0:
416,332,57753,5,2,0:0:0:0:
268,228,57888,1,0,0:0:0:0:
352,80,58023,5,10,0:0:0:0:
504,184,58158,1,0,0:0:0:0:
320,308,58293,6,0,B|252:332|228:284|160:308,1,160,2|10,0:0|0:0,0:0:0:0:
88,340,58698,1,0,0:0:0:0:
96,260,58833,2,0,L|88:176,1,80,2|0,0:0|0:0,0:0:0:0:
12,64,59103,2,0,L|4:148,1,80,10|0,0:0|0:0,0:0:0:0:
176,232,59373,6,0,P|244:236|328:192,1,160,2|10,0:0|0:0,0:0:0:0:
360,124,59778,1,0,0:0:0:0:
360,124,59846,1,0,0:0:0:0:
360,124,59913,2,0,L|352:40,1,80,2|0,0:0|0:0,0:0:0:0:
404,188,60183,2,0,L|396:272,1,80,10|0,0:0|0:0,0:0:0:0:
436,340,60453,6,0,P|476:328|512:308,1,80,2|0,0:0|0:0,0:0:0:0:
276,276,60723,2,0,P|305:303|339:324,1,80,10|0,0:0|0:0,0:0:0:0:
224,108,60993,2,0,P|225:149|235:189,1,80,2|0,0:0|0:0,0:0:0:0:
414,266,61263,2,0,P|412:224|402:184,1,80,10|0,0:0|0:0,0:0:0:0:
300,64,61533,6,0,L|140:76,1,160,2|10,0:0|0:0,0:0:0:0:
68,112,61938,1,0,0:0:0:0:
68,112,62006,1,0,0:0:0:0:
68,112,62073,2,0,P|76:156|76:192,1,80,2|0,0:0|0:0,0:0:0:0:
12,312,62343,2,0,P|4:268|4:232,1,80,10|0,0:0|0:0,0:0:0:0:
140,76,62613,5,2,0:0:0:0:
156,156,62748,1,0,0:0:0:0:
148,236,62883,1,10,0:0:0:0:
112,308,63018,1,0,0:0:0:0:
272,328,63153,5,2,0:0:0:0:
252,208,63288,1,0,0:0:0:0:
252,208,63356,1,0,0:0:0:0:
252,208,63423,1,10,0:0:0:0:
300,100,63558,1,0,0:0:0:0:
412,52,63693,5,2,0:0:0:0:
452,56,63761,1,0,0:0:0:0:
480,84,63828,1,0,0:0:0:0:
492,124,63896,1,0,0:0:0:0:
476,160,63963,1,10,0:0:0:0:
440,176,64031,1,0,0:0:0:0:
400,172,64098,1,0,0:0:0:0:
364,156,64166,1,0,0:0:0:0:
344,120,64233,5,2,0:0:0:0:
300,100,64301,1,0,0:0:0:0:
252,100,64368,1,0,0:0:0:0:
208,124,64436,1,0,0:0:0:0:
188,168,64503,1,10,0:0:0:0:
192,216,64571,1,0,0:0:0:0:
176,260,64638,1,0,0:0:0:0:
136,288,64706,1,0,0:0:0:0:
88,284,64773,5,6,0:0:0:0:
48,256,64841,2,0,P|56:208|56:160,1,95.9999970703126,2|0,0:0|0:0,0:0:0:0:
100,140,65043,2,0,L|196:152,1,95.9999970703126,10|0,0:0|0:0,0:0:0:0:
324,184,65313,5,2,0:0:0:0:
364,156,65381,2,0,P|356:108|356:60,1,95.9999970703126,2|0,0:0|0:0,0:0:0:0:
312,40,65583,2,0,L|216:52,1,95.9999970703126,10|0,0:0|0:0,0:0:0:0:
132,104,65853,5,0,0:0:0:0:
100,140,65921,2,0,P|104:192|92:236,1,95.9999970703126,2|0,0:0|0:0,0:0:0:0:
60,268,66123,2,0,L|160:284,1,95.9999970703126,10|0,0:0|0:0,0:0:0:0:
324,184,66393,5,0,0:0:0:0:
352,224,66461,1,2,0:0:0:0:
364,268,66528,1,0,0:0:0:0:
360,316,66596,1,0,0:0:0:0:
336,356,66663,2,0,L|241:340,1,95.9999970703126,10|0,0:0|0:0,0:0:0:0:
164,284,66933,6,0,L|160:140,1,143.999995605469,2|2,0:0|0:0,0:0:0:0:
132,104,67203,2,0,P|184:108|236:100,1,95.9999970703126,8|2,0:0|0:0,0:0:0:0:
420,88,67473,5,0,0:0:0:0:
372,76,67541,1,2,0:0:0:0:
324,84,67608,1,0,0:0:0:0:
280,108,67676,1,0,0:0:0:0:
248,144,67743,2,0,L|236:240,1,95.9999970703126,10|2,0:0|0:0,0:0:0:0:
272,328,68013,5,2,0:0:0:0:
368,344,68148,1,0,0:0:0:0:
416,328,68216,1,2,0:0:0:0:
452,300,68283,1,8,0:0:0:0:
488,212,68418,5,2,0:0:0:0:
272,328,68553,1,2,0:0:0:0:
472,128,68688,1,0,0:0:0:0:
256,244,68823,2,0,P|252:196|252:148,1,95.9999970703126,10|0,0:0|0:0,0:0:0:0:
272,56,69093,5,2,0:0:0:0:
228,36,69161,1,0,0:0:0:0:
180,40,69228,1,0,0:0:0:0:
136,64,69296,1,2,0:0:0:0:
88,76,69363,1,8,0:0:0:0:
40,60,69431,1,0,0:0:0:0:
12,20,69498,1,2,0:0:0:0:
104,152,69633,6,0,P|112:200|112:248,1,95.9999970703126,2|0,0:0|0:0,0:0:0:0:
80,336,69903,2,0,L|176:344,1,95.9999970703126,10|0,0:0|0:0,0:0:0:0:
240,272,70173,6,0,L|228:216,2,47.9999985351563,2|0|0,0:0|0:0|0:0,0:0:0:0:
324,320,70443,2,0,L|312:376,2,47.9999985351563,10|0|0,0:0|0:0|0:0,0:0:0:0:
388,248,70713,2,0,L|376:192,2,47.9999985351563,2|0|0,0:0|0:0|0:0,0:0:0:0:
472,296,70983,2,0,L|460:352,2,47.9999985351563,10|0|0,0:0|0:0|0:0,0:0:0:0:
472,200,71253,6,0,P|468:152|468:104,1,95.9999970703126,2|0,0:0|0:0,0:0:0:0:
484,60,71456,1,0,0:0:0:0:
484,60,71523,2,0,L|388:68,1,95.9999970703126,10|0,0:0|0:0,0:0:0:0:
300,32,71793,6,0,P|296:80|296:128,1,95.9999970703126,2|0,0:0|0:0,0:0:0:0:
312,172,71996,1,0,0:0:0:0:
312,172,72063,2,0,L|216:164,1,95.9999970703126,10|0,0:0|0:0,0:0:0:0:
128,128,72333,5,2,0:0:0:0:
80,140,72401,1,0,0:0:0:0:
52,180,72468,1,0,0:0:0:0:
56,228,72536,1,2,0:0:0:0:
84,268,72603,1,10,0:0:0:0:
132,280,72671,1,0,0:0:0:0:
176,268,72738,1,2,0:0:0:0:
212,232,72806,1,0,0:0:0:0:
216,184,72873,5,0,0:0:0:0:
244,144,72941,1,2,0:0:0:0:
288,128,73008,1,0,0:0:0:0:
336,140,73076,1,0,0:0:0:0:
364,180,73143,1,10,0:0:0:0:
364,228,73211,1,0,0:0:0:0:
332,264,73278,2,0,L|336:312,1,47.9999985351563,2|0,0:0|0:0,0:0:0:0:
404,356,73413,6,0,B|456:360|456:360|500:344,1,95.9999970703126,4|0,0:0|0:0,0:0:0:0:
312,252,73683,2,0,B|260:248|260:248|216:264,1,95.9999970703126,10|0,0:0|0:0,0:0:0:0:
396,268,73953,2,0,B|408:200|408:200|400:144|400:144|412:76,1,191.999994140625,2|10,0:0|0:0,0:0:0:0:
488,20,74358,1,0,0:0:0:0:
496,116,74493,6,0,B|492:148|492:148|496:184,1,63.9999980468751,2|2,0:0|0:0,0:0:0:0:
328,72,74673,2,0,B|332:40|332:40|328:8,1,63.9999980468751,2|10,0:0|0:0,0:0:0:0:
276,176,74898,1,0,0:0:0:0:
164,28,75033,2,0,L|176:128,1,95.9999970703126,2|0,0:0|0:0,0:0:0:0:
84,156,75303,2,0,L|72:56,1,95.9999970703126,10|0,0:0|0:0,0:0:0:0:
148,224,75573,6,0,B|84:252|12:240|12:240|20:296,1,191.999994140625,2|10,0:0|0:0,0:0:0:0:
96,352,75978,1,0,0:0:0:0:
96,352,76046,1,0,0:0:0:0:
96,352,76113,2,0,B|160:324|232:336|232:336|224:280,1,191.999994140625,2|10,0:0|0:0,0:0:0:0:
236,188,76518,1,0,0:0:0:0:
320,140,76653,5,2,0:0:0:0:
348,180,76721,1,0,0:0:0:0:
392,192,76788,1,0,0:0:0:0:
436,176,76856,1,0,0:0:0:0:
464,136,76923,1,10,0:0:0:0:
468,88,76991,1,0,0:0:0:0:
444,48,77058,1,0,0:0:0:0:
400,28,77126,1,0,0:0:0:0:
352,36,77193,2,0,P|304:52|256:56,1,95.9999970703126,2|0,0:0|0:0,0:0:0:0:
68,48,77463,2,0,P|116:32|164:28,1,95.9999970703126,10|0,0:0|0:0,0:0:0:0:
392,108,77733,6,0,P|396:184|416:252,1,143.999995605469,2|2,0:0|0:0,0:0:0:0:
444,288,78003,2,0,P|396:292|348:308,1,95.9999970703126,8|2,0:0|0:0,0:0:0:0:
268,356,78273,1,0,0:0:0:0:
268,356,78341,2,0,L|260:256,1,95.9999970703126,2|0,0:0|0:0,0:0:0:0:
300,236,78543,2,0,L|308:136,1,95.9999970703126,10|2,0:0|0:0,0:0:0:0:
396,28,78813,5,2,0:0:0:0:
356,56,78881,1,0,0:0:0:0:
312,68,78948,1,0,0:0:0:0:
264,60,79016,1,0,0:0:0:0:
220,40,79083,1,8,0:0:0:0:
172,28,79151,1,0,0:0:0:0:
124,36,79218,1,0,0:0:0:0:
80,56,79286,1,0,0:0:0:0:
52,92,79353,2,0,L|36:236,1,143.999995605469,2|2,0:0|0:0,0:0:0:0:
48,280,79623,2,0,P|96:296|144:292,1,95.9999970703126,8|2,0:0|0:0,0:0:0:0:
200,216,79893,5,2,0:0:0:0:
248,204,79961,1,2,0:0:0:0:
296,212,80028,1,0,0:0:0:0:
328,248,80096,1,2,0:0:0:0:
340,296,80163,1,8,0:0:0:0:
376,328,80231,1,0,0:0:0:0:
424,336,80298,1,2,0:0:0:0:
468,312,80366,1,0,0:0:0:0:
488,268,80433,5,0,0:0:0:0:
484,220,80501,1,2,0:0:0:0:
452,184,80568,1,0,0:0:0:0:
404,172,80636,1,0,0:0:0:0:
376,136,80703,1,10,0:0:0:0:
368,88,80771,1,0,0:0:0:0:
384,44,80838,1,2,0:0:0:0:
428,24,80906,1,0,0:0:0:0:
476,28,80973,5,6,0:0:0:0:
488,76,81041,1,0,0:0:0:0:
468,120,81108,1,0,0:0:0:0:
424,140,81176,1,0,0:0:0:0:
376,136,81243,5,14,0:0:0:0:
336,112,81311,1,0,0:0:0:0:
316,68,81378,1,0,0:0:0:0:
280,36,81446,1,0,0:0:0:0:
232,28,81513,5,6,0:0:0:0:
184,40,81581,1,0,0:0:0:0:
152,76,81648,1,0,0:0:0:0:
156,124,81716,1,0,0:0:0:0:
184,160,81783,5,14,0:0:0:0:
228,176,81851,1,0,0:0:0:0:
264,208,81918,1,0,0:0:0:0:
276,256,81986,1,0,0:0:0:0:
264,300,82053,1,6,0:0:0:0:
80,4,90693,6,0,L|96:76,1,64,4|0,0:0|0:0,0:0:0:0:
32,112,90963,1,0,0:0:0:0:
32,112,91098,1,0,0:0:0:0:
104,144,91233,2,0,P|96:204|60:264,1,128
4,308,91638,1,0,0:0:0:0:
76,336,91773,5,0,0:0:0:0:
136,288,91908,1,0,0:0:0:0:
212,268,92043,2,0,P|244:272|276:284,1,64
392,292,92313,5,0,0:0:0:0:
332,340,92448,1,0,0:0:0:0:
256,360,92583,2,0,P|224:356|192:344,1,64
112,212,92853,6,0,L|100:80,1,128,4|0,0:0|0:0,0:0:0:0:
148,24,93258,1,0,0:0:0:0:
180,96,93393,2,0,P|244:104|304:88,1,128
332,16,93798,1,0,0:0:0:0:
380,76,93933,6,0,L|448:80,1,64
348,152,94203,2,0,P|320:168|288:176,1,64
428,156,94473,2,0,L|496:160,1,64
396,232,94743,2,0,P|368:248|336:256,1,64
260,248,95013,6,0,P|264:316|252:376,1,128,4|0,0:0|0:0,0:0:0:0:
176,376,95418,1,0,0:0:0:0:
112,336,95553,1,0,0:0:0:0:
88,264,95688,1,0,0:0:0:0:
120,196,95823,1,0,0:0:0:0:
192,168,95958,1,0,0:0:0:0:
268,184,96093,6,0,P|332:192|392:176,1,128,4|0,0:0|0:0,0:0:0:0:
460,140,96498,1,0,0:0:0:0:
460,140,96633,2,0,L|472:76,1,64,4|0,0:0|0:0,0:0:0:0:
364,260,96903,2,0,L|376:324,1,64
296,108,97173,5,4,0:0:0:0:
220,124,97308,1,0,0:0:0:0:
144,112,97443,1,4,0:0:0:0:
80,68,97578,1,0,0:0:0:0:
44,0,97713,5,4,0:0:0:0:
104,92,97848,1,0,0:0:0:0:
116,200,97983,2,0,P|108:236|96:264,1,64,4|0,0:0|0:0,0:0:0:0:
28,344,98253,6,0,P|100:340|168:360,1,143.999995605469,6|0,0:0|0:0,0:0:0:0:
232,324,98658,1,0,0:0:0:0:
232,324,98793,2,0,L|228:252,1,71.9999978027344
164,140,99063,2,0,L|160:212,1,71.9999978027344
300,356,99333,6,0,P|372:360|440:340,1,143.999995605469,2|0,0:0|0:0,0:0:0:0:
496,292,99738,1,0,0:0:0:0:
496,292,99806,1,0,0:0:0:0:
496,292,99873,2,0,L|504:216,1,71.9999978027344
444,88,100143,2,0,L|452:164,1,71.9999978027344
432,228,100413,6,0,P|360:208|292:216,1,143.999995605469,2|0,0:0|0:0,0:0:0:0:
228,248,100818,2,0,L|236:288,2,35.9999989013672
168,208,101088,2,0,L|176:168,2,35.9999989013672
104,240,101358,1,0,0:0:0:0:
44,200,101493,6,0,P|32:132|40:56,1,143.999995605469,2|0,0:0|0:0,0:0:0:0:
100,16,101898,1,0,0:0:0:0:
100,16,101966,1,0,0:0:0:0:
100,16,102033,2,0,L|172:28,1,71.9999978027344
272,88,102304,2,0,L|200:100,1,71.9999978027344
108,172,102574,6,0,L|116:212,3,35.9999989013672,2|0|0|0,0:0|0:0|0:0|0:0,0:0:0:0:
196,244,102844,2,0,L|204:204,3,35.9999989013672,0|0|0|0,0:0|0:0|0:0|0:0,0:0:0:0:
284,152,103114,6,0,L|292:192,3,35.9999989013672
372,264,103384,2,0,L|380:224,3,35.9999989013672,0|0|0|0,0:0|0:0|0:0|0:0,0:0:0:0:
460,132,103654,5,2,0:0:0:0:
424,140,103721,1,0,0:0:0:0:
388,136,103789,1,0,0:0:0:0:
360,116,103856,1,0,0:0:0:0:
344,84,103924,1,0,0:0:0:0:
316,60,103991,1,0,0:0:0:0:
280,56,104059,1,0,0:0:0:0:
244,68,104126,1,0,0:0:0:0:
224,100,104194,1,0,0:0:0:0:
228,136,104261,1,0,0:0:0:0:
252,160,104329,1,0,0:0:0:0:
288,168,104396,1,0,0:0:0:0:
316,192,104464,1,0,0:0:0:0:
328,228,104531,1,0,0:0:0:0:
316,264,104599,1,0,0:0:0:0:
284,280,104666,1,0,0:0:0:0:
248,272,104734,6,0,L|216:256,3,35.9999989013672,2|0|0|0,0:0|0:0|0:0|0:0,0:0:0:0:
148,208,105004,2,0,L|126:179,3,35.9999989013672,0|0|0|0,0:0|0:0|0:0|0:0,0:0:0:0:
88,112,105274,2,0,L|80:76,3,35.9999989013672
168,24,105544,2,0,L|159:58,3,35.9999989013672,0|0|0|0,0:0|0:0|0:0|0:0,0:0:0:0:
212,128,105814,5,2,0:0:0:0:
252,140,105881,1,0,0:0:0:0:
296,132,105949,1,0,0:0:0:0:
328,104,106016,1,0,0:0:0:0:
344,64,106084,1,0,0:0:0:0:
380,40,106151,1,0,0:0:0:0:
424,32,106219,1,0,0:0:0:0:
464,44,106286,1,0,0:0:0:0:
492,76,106354,5,2,0:0:0:0:
500,128,106421,1,0,0:0:0:0:
472,176,106489,1,0,0:0:0:0:
420,188,106556,1,0,0:0:0:0:
380,228,106624,1,0,0:0:0:0:
380,280,106691,1,0,0:0:0:0:
416,324,106759,1,0,0:0:0:0:
468,332,106826,1,0,0:0:0:0:
512,300,106894,1,6,0:0:0:0:
512,300,107704,1,10,0:0:0:0:
512,300,107974,6,0,P|440:296|384:344,1,143.999995605469,2|2,0:0|0:0,0:0:0:0:
372,384,108244,2,0,L|269:372,1,95.9999970703126,8|2,0:0|0:0,0:0:0:0:
136,288,108514,1,0,0:0:0:0:
136,288,108581,2,0,L|238:276,1,95.9999970703126,2|2,0:0|0:0,0:0:0:0:
268,244,108784,2,0,P|272:196|256:152,1,95.9999970703126,10|2,0:0|0:0,0:0:0:0:
180,92,109054,6,0,P|108:88|52:136,1,143.999995605469,2|2,0:0|0:0,0:0:0:0:
36,176,109324,2,0,L|48:272,1,95.9999970703126,8|2,0:0|0:0,0:0:0:0:
208,348,109594,5,2,0:0:0:0:
164,328,109661,1,2,0:0:0:0:
136,288,109729,1,0,0:0:0:0:
140,240,109796,1,2,0:0:0:0:
172,204,109864,2,0,L|276:212,1,95.9999970703126,10|2,0:0|0:0,0:0:0:0:
344,268,110134,6,0,P|412:296|480:288,1,143.999995605469,2|2,0:0|0:0,0:0:0:0:
512,248,110404,2,0,L|500:144,1,95.9999970703126,8|2,0:0|0:0,0:0:0:0:
420,36,110674,1,0,0:0:0:0:
420,36,110741,2,0,L|408:140,1,95.9999970703126,2|0,0:0|0:0,0:0:0:0:
372,160,110944,2,0,P|328:144|276:136,1,95.9999970703126,10|2,0:0|0:0,0:0:0:0:
184,156,111214,5,2,0:0:0:0:
136,164,111281,1,0,0:0:0:0:
92,144,111349,1,0,0:0:0:0:
72,100,111416,1,2,0:0:0:0:
84,52,111484,1,10,0:0:0:0:
124,28,111551,1,0,0:0:0:0:
172,32,111619,6,0,L|220:48,1,47.9999985351563,2|0,0:0|0:0,0:0:0:0:
296,100,111754,2,0,L|248:116,1,47.9999985351563,2|0,0:0|0:0,0:0:0:0:
168,164,111889,2,0,P|172:188|172:212,1,47.9999985351563,2|0,0:0|0:0,0:0:0:0:
260,256,112024,2,0,P|256:232|256:208,1,47.9999985351563,10|0,0:0|0:0,0:0:0:0:
344,168,112159,2,0,L|392:184,1,47.9999985351563,2|0,0:0|0:0,0:0:0:0:
452,256,112294,6,0,L|460:352,1,95.9999970703126,2|0,0:0|0:0,0:0:0:0:
420,376,112496,1,2,0:0:0:0:
372,380,112564,2,0,P|328:360|292:328,1,95.9999970703126,8|2,0:0|0:0,0:0:0:0:
256,240,112834,6,0,L|264:144,1,95.9999970703126,2|0,0:0|0:0,0:0:0:0:
164,272,113104,2,0,L|156:368,1,95.9999970703126,10|0,0:0|0:0,0:0:0:0:
336,304,113374,6,0,P|380:292|436:288,1,95.9999970703126,2|0,0:0|0:0,0:0:0:0:
180,172,113644,2,0,P|136:184|80:188,1,95.9999970703126,10|0,0:0|0:0,0:0:0:0:
16,32,113914,6,0,L|112:48,1,95.9999970703126,2|0,0:0|0:0,0:0:0:0:
252,116,114184,2,0,L|348:100,1,95.9999970703126,10|0,0:0|0:0,0:0:0:0:
480,4,114454,6,0,P|476:52|476:104,1,95.9999970703126,2|0,0:0|0:0,0:0:0:0:
404,304,114724,2,0,P|408:256|408:204,1,95.9999970703126,10|0,0:0|0:0,0:0:0:0:
328,16,114994,6,0,P|280:28|232:32,1,95.9999970703126,2|0,0:0|0:0,0:0:0:0:
40,96,115264,2,0,P|88:84|136:80,1,95.9999970703126,10|0,0:0|0:0,0:0:0:0:
252,116,115534,5,2,0:0:0:0:
284,152,115601,1,0,0:0:0:0:
292,200,115669,1,0,0:0:0:0:
268,240,115736,1,2,0:0:0:0:
220,252,115804,1,10,0:0:0:0:
180,228,115871,1,0,0:0:0:0:
160,184,115939,1,2,0:0:0:0:
116,164,116006,1,0,0:0:0:0:
68,172,116074,5,0,0:0:0:0:
36,208,116141,1,2,0:0:0:0:
28,256,116209,1,0,0:0:0:0:
48,300,116276,1,0,0:0:0:0:
92,324,116344,2,0,L|140:316,1,47.9999985351563,10|0,0:0|0:0,0:0:0:0:
236,352,116479,2,0,L|284:360,1,47.9999985351563,2|0,0:0|0:0,0:0:0:0:
392,328,116614,6,0,B|416:260|416:260|448:236|448:236|472:160,1,191.999994140625,6|10,0:0|0:0,0:0:0:0:
484,320,117019,6,0,L|468:368,1,47.9999985351563
380,176,117154,2,0,L|408:80,1,95.9999970703126,2|0,0:0|0:0,0:0:0:0:
332,28,117424,2,0,B|284:40|284:40|236:36,1,95.9999970703126,10|0,0:0|0:0,0:0:0:0:
144,12,117694,5,2,0:0:0:0:
80,24,117784,1,2,0:0:0:0:
52,80,117874,1,0,0:0:0:0:
68,140,117964,2,0,B|72:188|72:188|60:236,1,95.9999970703126,10|0,0:0|0:0,0:0:0:0:
148,316,118234,2,0,B|144:268|144:268|156:220,1,95.9999970703126,2|0,0:0|0:0,0:0:0:0:
328,284,118504,2,0,L|232:276,1,95.9999970703126,10|0,0:0|0:0,0:0:0:0:
152,136,118774,6,0,L|164:40,1,95.9999970703126,2|0,0:0|0:0,0:0:0:0:
260,24,119044,2,0,L|248:120,1,95.9999970703126,10|0,0:0|0:0,0:0:0:0:
312,188,119314,1,2,0:0:0:0:
360,200,119381,1,0,0:0:0:0:
408,188,119449,1,0,0:0:0:0:
444,160,119516,1,0,0:0:0:0:
460,116,119584,2,0,P|460:68|444:16,1,95.9999970703126,10|0,0:0|0:0,0:0:0:0:
352,4,119854,5,2,0:0:0:0:
304,12,119921,1,0,0:0:0:0:
272,48,119989,1,0,0:0:0:0:
264,96,120056,1,0,0:0:0:0:
280,140,120124,1,10,0:0:0:0:
280,188,120191,1,0,0:0:0:0:
248,224,120259,1,0,0:0:0:0:
200,232,120326,1,0,0:0:0:0:
156,212,120394,5,2,0:0:0:0:
136,168,120461,1,0,0:0:0:0:
144,120,120529,1,0,0:0:0:0:
172,84,120596,1,0,0:0:0:0:
180,36,120664,2,0,L|172:-12,2,47.9999985351563,10|0|0,0:0|0:0|0:0,0:0:0:0:
84,52,120934,6,0,P|48:112|52:184,1,143.999995605469,2|2,0:0|0:0,0:0:0:0:
76,224,121204,2,0,L|172:232,1,95.9999970703126,8|2,0:0|0:0,0:0:0:0:
276,372,121474,5,0,0:0:0:0:
268,324,121541,1,2,0:0:0:0:
280,276,121609,1,0,0:0:0:0:
312,244,121676,1,0,0:0:0:0:
360,236,121744,2,0,P|316:216|276:184,1,95.9999970703126,10|2,0:0|0:0,0:0:0:0:
232,104,122014,6,0,L|220:4,1,95.9999970703126,2|0,0:0|0:0,0:0:0:0:
144,120,122284,2,0,L|132:220,1,95.9999970703126,8|0,0:0|0:0,0:0:0:0:
116,312,122554,1,2,0:0:0:0:
164,300,122621,1,0,0:0:0:0:
208,316,122689,1,0,0:0:0:0:
232,356,122756,1,2,0:0:0:0:
276,372,122824,1,10,0:0:0:0:
320,352,122891,1,0,0:0:0:0:
336,308,122959,1,2,0:0:0:0:
324,212,123094,5,0,0:0:0:0:
300,172,123161,1,2,0:0:0:0:
252,160,123229,1,0,0:0:0:0:
208,176,123296,1,0,0:0:0:0:
160,172,123364,1,10,0:0:0:0:
124,140,123431,1,0,0:0:0:0:
112,92,123499,1,2,0:0:0:0:
136,48,123566,1,2,0:0:0:0:
184,36,123634,5,0,0:0:0:0:
228,56,123701,1,2,0:0:0:0:
240,104,123769,1,0,0:0:0:0:
232,152,123836,1,0,0:0:0:0:
196,184,123904,1,2,0:0:0:0:
180,228,123971,1,0,0:0:0:0:
188,276,124039,2,0,L|216:316,1,47.9999985351563,2|0,0:0|0:0,0:0:0:0:
304,356,124174,5,6,0:0:0:0:
352,348,124241,1,0,0:0:0:0:
388,316,124309,1,0,0:0:0:0:
404,272,124376,1,0,0:0:0:0:
396,224,124444,5,14,0:0:0:0:
364,188,124511,1,0,0:0:0:0:
348,140,124579,1,0,0:0:0:0:
356,92,124646,1,0,0:0:0:0:
396,68,124714,5,6,0:0:0:0:
444,80,124781,1,0,0:0:0:0:
472,120,124849,1,0,0:0:0:0:
472,168,124916,1,0,0:0:0:0:
440,204,124984,5,14,0:0:0:0:
396,224,125051,1,0,0:0:0:0:
348,220,125119,1,0,0:0:0:0:
308,192,125186,1,0,0:0:0:0:
292,148,125254,6,0,P|220:140|160:184,1,143.999995605469,6|2,0:0|0:0,0:0:0:0:
148,224,125524,2,0,L|44:212,1,95.9999970703126,8|2,0:0|0:0,0:0:0:0:
168,60,125794,1,0,0:0:0:0:
168,60,125861,2,0,L|272:48,1,95.9999970703126,2|0,0:0|0:0,0:0:0:0:
304,76,126064,2,0,P|300:124|312:172,1,95.9999970703126,10|2,0:0|0:0,0:0:0:0:
388,224,126334,6,0,P|452:208|480:132,1,143.999995605469,2|2,0:0|0:0,0:0:0:0:
464,96,126604,2,0,L|360:84,1,95.9999970703126,8|2,0:0|0:0,0:0:0:0:
288,32,126874,5,2,0:0:0:0:
244,48,126941,1,2,0:0:0:0:
224,92,127009,1,0,0:0:0:0:
236,136,127076,1,2,0:0:0:0:
272,168,127144,2,0,P|280:216|272:268,1,95.9999970703126,10|2,0:0|0:0,0:0:0:0:
200,324,127414,6,0,L|104:316,1,95.9999970703126,2|0,0:0|0:0,0:0:0:0:
68,284,127616,1,2,0:0:0:0:
48,240,127684,2,0,P|48:192|64:148,1,95.9999970703126,8|2,0:0|0:0,0:0:0:0:
188,32,127954,5,2,0:0:0:0:
188,32,128021,2,0,P|188:80|172:124,1,95.9999970703126,2|0,0:0|0:0,0:0:0:0:
140,160,128224,2,2,L|236:152,1,95.9999970703126,10|2,0:0|0:0,0:0:0:0:
288,72,128494,5,2,0:0:0:0:
336,64,128561,1,0,0:0:0:0:
380,80,128629,1,0,0:0:0:0:
408,120,128696,1,2,0:0:0:0:
456,132,128764,1,10,0:0:0:0:
496,104,128831,1,0,0:0:0:0:
504,56,128899,1,2,0:0:0:0:
472,20,128966,1,0,0:0:0:0:
424,32,129034,5,2,0:0:0:0:
400,72,129101,1,0,0:0:0:0:
408,120,129169,1,2,0:0:0:0:
448,148,129236,1,0,0:0:0:0:
468,192,129304,1,10,0:0:0:0:
452,236,129371,1,0,0:0:0:0:
408,256,129439,1,2,0:0:0:0:
364,240,129506,1,0,0:0:0:0:
336,200,129574,6,0,P|340:260|312:348,1,143.999995605469,2|2,0:0|0:0,0:0:0:0:
272,356,129844,2,0,L|176:340,1,95.9999970703126,8|2,0:0|0:0,0:0:0:0:
116,268,130114,6,0,L|108:172,1,95.9999970703126,2|0,0:0|0:0,0:0:0:0:
204,160,130384,2,0,L|212:264,1,95.9999970703126,10|0,0:0|0:0,0:0:0:0:
84,236,130654,6,0,L|92:140,1,95.9999970703126,2|0,0:0|0:0,0:0:0:0:
236,192,130924,2,0,L|225:295,1,95.9999970703126,10|0,0:0|0:0,0:0:0:0:
52,208,131194,6,0,L|77:115,1,95.9999970703126,2|0,0:0|0:0,0:0:0:0:
268,224,131464,2,0,L|239:324,1,95.9999970703126,10|0,0:0|0:0,0:0:0:0:
20,176,131734,6,0,L|61:88,1,95.9999970703126,2|0,0:0|0:0,0:0:0:0:
164,72,132004,2,0,L|205:159,1,95.9999970703126,10|0,0:0|0:0,0:0:0:0:
308,216,132274,6,0,L|349:128,1,95.9999970703126,2|0,0:0|0:0,0:0:0:0:
452,32,132544,2,0,L|493:119,1,95.9999970703126,10|0,0:0|0:0,0:0:0:0:
512,272,132814,5,2,0:0:0:0:
492,316,132881,1,2,0:0:0:0:
448,336,132949,1,0,0:0:0:0:
400,324,133016,1,2,0:0:0:0:
376,284,133084,1,10,0:0:0:0:
380,236,133151,1,0,0:0:0:0:
420,208,133219,1,2,0:0:0:0:
436,164,133286,1,0,0:0:0:0:
428,116,133354,5,0,0:0:0:0:
388,92,133421,1,2,0:0:0:0:
340,96,133489,1,0,0:0:0:0:
304,128,133556,1,0,0:0:0:0:
288,172,133624,1,10,0:0:0:0:
248,200,133691,1,0,0:0:0:0:
200,192,133759,1,2,0:0:0:0:
164,160,133826,1,2,0:0:0:0:
160,112,133894,6,0,B|176:64|176:64|172:16,1,95.9999970703126,6|0,0:0|0:0,0:0:0:0:
24,36,134164,2,0,B|8:84|8:84|12:132,1,95.9999970703126,10|0,0:0|0:0,0:0:0:0:
236,124,134434,2,0,B|252:76|252:76|248:28,1,95.9999970703126,2|0,0:0|0:0,0:0:0:0:
100,48,134704,2,0,B|84:96|84:96|88:144,1,95.9999970703126,10|0,0:0|0:0,0:0:0:0:
144,216,134974,6,0,B|176:228|176:228|208:232,1,63.9999980468751,2|2,0:0|0:0,0:0:0:0:
108,364,135154,2,0,B|76:352|76:352|44:348,1,63.9999980468751,2|10,0:0|0:0,0:0:0:0:
76,276,135379,1,0,0:0:0:0:
76,276,135446,1,0,0:0:0:0:
76,276,135514,2,0,L|192:312,1,95.9999970703126,2|0,0:0|0:0,0:0:0:0:
252,352,135784,2,0,L|368:316,1,95.9999970703126,10|0,0:0|0:0,0:0:0:0:
384,236,136054,5,2,0:0:0:0:
384,236,136121,1,0,0:0:0:0:
384,236,136189,1,0,0:0:0:0:
468,64,136324,1,10,0:0:0:0:
468,64,136391,1,0,0:0:0:0:
468,64,136459,1,0,0:0:0:0:
300,152,136594,1,2,0:0:0:0:
300,152,136662,1,0,0:0:0:0:
300,152,136729,1,0,0:0:0:0:
488,184,136864,1,10,0:0:0:0:
488,184,136932,1,0,0:0:0:0:
488,184,136999,1,0,0:0:0:0:
352,48,137134,5,2,0:0:0:0:
308,32,137201,1,0,0:0:0:0:
260,36,137269,1,0,0:0:0:0:
220,64,137336,1,0,0:0:0:0:
200,108,137404,1,10,0:0:0:0:
168,144,137471,1,0,0:0:0:0:
124,160,137539,1,0,0:0:0:0:
76,156,137606,1,0,0:0:0:0:
36,128,137674,6,0,L|48:76,2,47.9999985351563,2|0|0,0:0|0:0|0:0,0:0:0:0:
152,260,137944,2,0,L|164:312,2,47.9999985351563,10|0|0,0:0|0:0|0:0,0:0:0:0:
296,184,138214,5,2,0:0:0:0:
328,216,138281,2,0,P|372:228|424:228,1,95.9999970703126,0|2,0:0|0:0,0:0:0:0:
464,204,138484,2,0,L|476:108,1,95.9999970703126,8|2,0:0|0:0,0:0:0:0:
424,28,138754,5,0,0:0:0:0:
380,48,138821,1,2,0:0:0:0:
332,60,138889,1,0,0:0:0:0:
284,52,138956,1,0,0:0:0:0:
240,32,139024,2,0,P|248:80|244:128,1,95.9999970703126,10|2,0:0|0:0,0:0:0:0:
184,200,139294,6,0,L|88:184,1,95.9999970703126,2|0,0:0|0:0,0:0:0:0:
220,288,139564,2,0,L|316:272,1,95.9999970703126,8|0,0:0|0:0,0:0:0:0:
480,324,139834,5,2,0:0:0:0:
440,296,139901,1,0,0:0:0:0:
424,252,139969,1,0,0:0:0:0:
436,204,140036,1,2,0:0:0:0:
452,160,140104,1,8,0:0:0:0:
436,116,140172,1,0,0:0:0:0:
396,88,140239,2,0,L|344:80,1,47.9999985351563,2|0,0:0|0:0,0:0:0:0:
256,108,140374,5,0,0:0:0:0:
232,148,140441,2,0,P|244:196|240:244,1,95.9999970703126,2|0,0:0|0:0,0:0:0:0:
212,280,140644,2,0,L|312:288,1,95.9999970703126,10|0,0:0|0:0,0:0:0:0:
100,376,140914,5,2,0:0:0:0:
124,336,140981,2,0,P|112:288|116:240,1,95.9999970703126,2|0,0:0|0:0,0:0:0:0:
144,204,141184,2,0,L|44:196,1,95.9999970703126,10|2,0:0|0:0,0:0:0:0:
12,108,141454,5,6,0:0:0:0:
24,64,141521,1,0,0:0:0:0:
64,36,141589,1,0,0:0:0:0:
112,32,141656,1,0,0:0:0:0:
156,56,141724,1,14,0:0:0:0:
176,100,141791,1,0,0:0:0:0:
216,128,141859,1,0,0:0:0:0:
264,132,141926,1,0,0:0:0:0:
304,108,141994,5,6,0:0:0:0:
320,64,142061,1,0,0:0:0:0:
304,20,142129,1,0,0:0:0:0:
256,12,142196,1,0,0:0:0:0:
216,40,142264,1,14,0:0:0:0:
200,84,142331,1,0,0:0:0:0:
216,128,142399,1,0,0:0:0:0:
224,176,142466,1,0,0:0:0:0:
208,220,142534,6,0,L|172:252,3,47.9999985351563,4|0|0|0,0:0|0:0|0:0|0:0,0:0:0:0:
56,148,142804,2,0,L|92:116,3,47.9999985351563,8|0|0|0,0:0|0:0|0:0|0:0,0:0:0:0:
264,272,143074,6,0,L|228:304,3,47.9999985351563,4|0|0|0,0:0|0:0|0:0|0:0,0:0:0:0:
112,200,143344,2,0,L|148:168,3,47.9999985351563,8|0|0|0,0:0|0:0|0:0|0:0,0:0:0:0:
264,80,143614,6,0,L|272:128,3,47.9999985351563,4|0|0|0,0:0|0:0|0:0|0:0,0:0:0:0:
356,208,143884,2,0,L|348:160,3,47.9999985351563,8|0|0|0,0:0|0:0|0:0|0:0,0:0:0:0:
396,52,144154,2,0,L|404:100,3,47.9999985351563,4|0|0|0,0:0|0:0|0:0|0:0,0:0:0:0:
488,180,144424,2,0,L|480:132,3,47.9999985351563,8|0|0|0,0:0|0:0|0:0|0:0,0:0:0:0:
488,44,144694,5,4,0:0:0:0:
444,60,144761,1,0,0:0:0:0:
396,52,144829,1,0,0:0:0:0:
356,24,144896,1,0,0:0:0:0:
308,16,144964,1,8,0:0:0:0:
264,36,145031,1,0,0:0:0:0:
244,80,145099,1,0,0:0:0:0:
260,124,145166,1,0,0:0:0:0:
300,152,145234,5,4,0:0:0:0:
320,196,145301,1,0,0:0:0:0:
308,244,145369,1,0,0:0:0:0:
268,272,145436,1,0,0:0:0:0:
220,268,145504,1,8,0:0:0:0:
184,236,145571,1,0,0:0:0:0:
176,188,145639,1,0,0:0:0:0:
196,144,145706,1,0,0:0:0:0:
244,128,145774,5,4,0:0:0:0:
292,136,145841,1,0,0:0:0:0:
324,172,145909,1,0,0:0:0:0:
348,212,145976,1,0,0:0:0:0:
392,228,146044,1,8,0:0:0:0:
440,216,146111,1,0,0:0:0:0:
468,176,146179,1,0,0:0:0:0:
476,128,146246,1,0,0:0:0:0:
456,84,146314,6,0,L|416:52,1,47.9999985351563,4|0,0:0|0:0,0:0:0:0:
226,6,146449,2,0,L|263:35,1,47.9999985351563,0|0,0:0|0:0,0:0:0:0:
348,212,146584,6,0,L|344:264,1,47.9999985351563,8|0,0:0|0:0,0:0:0:0:
140,368,146719,2,0,L|136:316,1,47.9999985351563,0|0,0:0|0:0,0:0:0:0:
24,56,146854,1,6,0:0:0:0:
256,192,146921,12,4,149014,0:0:0:0:
