osu file format v14

[General]
AudioFilename: audio.mp3
AudioLeadIn: 0
PreviewTime: 37277
Countdown: 0
SampleSet: Normal
StackLeniency: 0.7
Mode: 1
LetterboxInBreaks: 0
WidescreenStoryboard: 1

[Editor]
Bookmarks: 20329,28901,37472,54615,63186,69615,71758,81401,98544,115686,119972,137115,154258,162829,176758,193901,211044
DistanceSpacing: 2.2
BeatDivisor: 4
GridSize: 32
TimelineZoom: 3.899999

[Metadata]
Title:FREEDOM DiVE (Dear Mr.X Remix)
TitleUnicode:FREEDOM DiVE↓(Dear Mr.X Remix)
Artist:xi
ArtistUnicode:xi
Creator:Coryn
Version:iNNER ONi
Source:
Tags:梅干茶漬け umeboshi chazuke BM9820AT BMS chiptune happy hardcore 8bit bitpop skull kid instrumental skull_kid electronic
BeatmapID:1952301
BeatmapSetID:935142

[Difficulty]
HPDrainRate:4.5
CircleSize:5
OverallDifficulty:6.5
ApproachRate:5
SliderMultiplier:1.4
SliderTickRate:1

[Events]
//Background and Video events
0,0,"DzH70GjUYAAsKZQ.jpg",0,40
//Break Periods
//Storyboard Layer 0 (Background)
//Storyboard Layer 1 (Fail)
//Storyboard Layer 2 (Pass)
//Storyboard Layer 3 (Foreground)
//Storyboard Layer 4 (Overlay)
//Storyboard Sound Samples

[TimingPoints]
-23,267.857142857143,4,1,0,5,1,0
-23,-100,4,1,0,5,0,0
780,-100,4,1,0,85,0,0
1050,267.857142857143,4,1,0,85,1,0
18258,-100,4,1,0,70,0,0
20067,-111.111111111111,4,1,0,70,0,0
28839,-105.263157894737,4,1,0,85,0,0
35335,-104.166666666667,4,1,0,85,0,0
35603,-103.092783505155,4,1,0,85,0,0
36139,-102.040816326531,4,1,0,85,0,0
36675,-101.010101010101,4,1,0,85,0,0
37478,-100,4,1,0,85,0,1
54621,-100,4,1,0,85,0,0
54687,-102.040816326531,4,1,0,75,0,0
54888,-104.166666666667,4,1,0,75,0,0
55022,-106.382978723404,4,1,0,75,0,0
55156,-108.695652173913,4,1,0,75,0,0
55425,-111.111111111111,4,1,0,75,0,0
62522,-109.89010989011,4,1,0,75,0,0
62656,-108.695652173913,4,1,0,75,0,0
62723,-106.382978723404,4,1,0,80,0,0
69486,-107.52688172043,4,1,0,80,0,0
69553,-108.108108108108,4,1,0,80,0,0
69620,-108.695652173913,4,1,0,80,0,0
69687,-111.111111111111,4,1,0,55,0,0
70156,-114.942528735632,4,1,0,55,0,0
70424,-117.647058823529,4,1,0,55,0,0
71495,-114.285714285714,4,1,0,55,0,0
71696,-111.111111111111,4,1,0,85,0,0
72834,-109.89010989011,4,1,0,85,0,0
73906,-108.695652173913,4,1,0,85,0,0
74977,-107.52688172043,4,1,0,85,0,0
75916,-106.382978723404,4,1,0,85,0,0
77120,-105.263157894737,4,1,0,85,0,0
78191,-104.166666666667,4,1,0,85,0,0
79263,-103.092783505155,4,1,0,85,0,0
79799,-102.040816326531,4,1,0,85,0,0
80301,-100,4,1,0,75,0,0
80870,-96.6183574879227,4,1,0,75,0,0
80938,-97.0873786407767,4,1,0,75,0,0
81004,-98.0392156862745,4,1,0,75,0,0
81138,-99.009900990099,4,1,0,75,0,0
81407,-100,4,1,0,85,0,1
115692,-100,4,1,0,85,0,0
137187,-102.040816326531,4,1,0,80,0,0
137522,-105.263157894737,4,1,0,80,0,0
153728,-104.166666666667,4,1,0,80,0,0
153794,-103.626943005181,4,1,0,80,0,0
153861,-103.092783505155,4,1,0,80,0,0
153995,-102.040816326531,4,1,0,80,0,0
154062,-101.522842639594,4,1,0,80,0,0
154129,-101.010101010101,4,1,0,80,0,0
154196,-100.502512562814,4,1,0,80,0,0
154263,-100,4,1,0,80,0,0
162801,-100,4,1,0,85,0,0
169263,-99.502487562189,4,1,0,85,0,0
169799,-99.009900990099,4,1,0,85,0,0
170334,-98.5221674876847,4,1,0,85,0,0
170870,-98.0392156862745,4,1,0,85,0,0
171406,-97.5609756097561,4,1,0,85,0,0
171941,-97.0873786407767,4,1,0,85,0,0
172477,-96.6183574879227,4,1,0,85,0,0
173013,-96.1538461538461,4,1,0,85,0,0
173549,-95.6937799043062,4,1,0,85,0,0
174084,-95.2380952380952,4,1,0,85,0,0
174620,-94.7867298578199,4,1,0,85,0,0
175156,-93.8967136150235,4,1,0,85,0,0
175758,-96.1538461538461,4,1,0,70,0,0
176495,-100,4,1,0,70,0,0
176729,-100,4,1,0,85,0,0
176764,-100,4,1,0,85,0,1
211050,-100,4,1,0,85,0,0
215401,-100,4,1,0,80,0,0
216406,-100,4,1,0,75,0,0
217477,-100,4,1,0,70,0,0
218549,-100,4,1,0,65,0,0
219620,-100,4,1,0,60,0,0

[HitObjects]
298,118,780,5,0,0:0:0:0:
298,118,1048,1,12,0:0:0:0:
298,118,1250,1,12,0:0:0:0:
298,118,1451,1,12,0:0:0:0:
298,118,1719,1,0,0:0:0:0:
298,118,1853,1,8,0:0:0:0:
298,118,1987,1,8,0:0:0:0:
375,116,2255,1,12,0:0:0:0:
316,93,2456,1,4,0:0:0:0:
316,93,2657,1,12,0:0:0:0:
282,71,2858,1,4,0:0:0:0:
241,134,3058,1,4,0:0:0:0:
206,71,3192,1,12,0:0:0:0:
172,62,3326,1,0,0:0:0:0:
194,80,3393,1,0,0:0:0:0:
199,80,3460,1,8,0:0:0:0:
352,170,3594,1,0,0:0:0:0:
352,170,3728,1,8,0:0:0:0:
337,146,3862,1,0,0:0:0:0:
332,148,3996,1,8,0:0:0:0:
373,152,4130,1,8,0:0:0:0:
323,102,4398,1,12,0:0:0:0:
346,89,4532,1,0,0:0:0:0:
357,115,4599,1,0,0:0:0:0:
357,115,4666,1,0,0:0:0:0:
321,125,4800,1,0,0:0:0:0:
297,133,5000,1,0,0:0:0:0:
297,133,5067,1,8,0:0:0:0:
277,98,5201,1,0,0:0:0:0:
262,111,5335,1,12,0:0:0:0:
269,59,5603,1,0,0:0:0:0:
260,67,5670,1,0,0:0:0:0:
256,97,5737,1,12,0:0:0:0:
251,55,6005,1,8,0:0:0:0:
242,83,6139,1,0,0:0:0:0:
87,157,6273,1,0,0:0:0:0:
331,62,6340,1,0,0:0:0:0:
87,157,6407,1,8,0:0:0:0:
326,112,6541,1,0,0:0:0:0:
297,67,6608,1,0,0:0:0:0:
326,112,6675,1,8,0:0:0:0:
326,112,6808,1,0,0:0:0:0:
318,118,6942,1,8,0:0:0:0:
341,76,7009,1,0,0:0:0:0:
341,76,7076,1,8,0:0:0:0:
341,76,7143,1,8,0:0:0:0:
490,166,7210,1,8,0:0:0:0:
490,166,7344,1,0,0:0:0:0:
71,103,7411,1,8,0:0:0:0:
306,104,7612,1,8,0:0:0:0:
297,67,7746,1,4,0:0:0:0:
330,125,8014,1,8,0:0:0:0:
297,116,8215,1,8,0:0:0:0:
297,67,8416,1,4,0:0:0:0:
166,113,8683,1,8,0:0:0:0:
166,113,8817,1,0,0:0:0:0:
265,157,8951,1,0,0:0:0:0:
265,157,9018,1,0,0:0:0:0:
265,157,9085,1,8,0:0:0:0:
256,163,9219,1,0,0:0:0:0:
297,67,9353,1,8,0:0:0:0:
206,143,9420,1,8,0:0:0:0:
268,178,9487,1,0,0:0:0:0:
297,67,9621,1,12,0:0:0:0:
143,177,9755,5,0,0:0:0:0:
220,145,9889,1,8,0:0:0:0:
220,145,9956,1,0,0:0:0:0:
220,145,10023,1,0,0:0:0:0:
220,145,10157,1,8,0:0:0:0:
220,145,10291,1,0,0:0:0:0:
220,145,10425,1,8,0:0:0:0:
220,145,10491,1,8,0:0:0:0:
220,145,10558,1,8,0:0:0:0:
220,145,10692,1,8,0:0:0:0:
253,119,10826,1,0,0:0:0:0:
253,119,10960,1,8,0:0:0:0:
220,91,11027,1,0,0:0:0:0:
253,119,11094,1,0,0:0:0:0:
253,119,11228,1,8,0:0:0:0:
241,78,11362,1,0,0:0:0:0:
241,78,11429,1,0,0:0:0:0:
241,78,11496,1,8,0:0:0:0:
241,78,11630,5,8,0:0:0:0:
241,78,11898,1,8,0:0:0:0:
241,78,12032,1,8,0:0:0:0:
322,93,12166,1,0,0:0:0:0:
349,99,12233,1,0,0:0:0:0:
402,113,12300,1,8,0:0:0:0:
475,154,12433,1,8,0:0:0:0:
59,169,12701,1,0,0:0:0:0:
338,128,12835,5,8,0:0:0:0:
341,134,12902,1,8,0:0:0:0:
346,137,12969,1,0,0:0:0:0:
350,134,13103,1,8,0:0:0:0:
350,134,13237,1,0,0:0:0:0:
347,128,13371,1,8,0:0:0:0:
347,152,13438,1,8,0:0:0:0:
347,152,13505,1,0,0:0:0:0:
350,149,13639,1,8,0:0:0:0:
350,149,13773,1,0,0:0:0:0:
347,73,13907,1,8,0:0:0:0:
361,127,14041,1,8,0:0:0:0:
268,61,14175,1,0,0:0:0:0:
441,111,14442,1,8,0:0:0:0:
441,111,14576,1,0,0:0:0:0:
441,111,14643,1,8,0:0:0:0:
441,111,14844,1,0,0:0:0:0:
397,65,15112,1,0,0:0:0:0:
319,56,15246,1,0,0:0:0:0:
309,68,15380,1,0,0:0:0:0:
309,68,15447,1,0,0:0:0:0:
314,79,15514,1,8,0:0:0:0:
506,88,15581,1,0,0:0:0:0:
314,150,15648,1,0,0:0:0:0:
314,97,15715,1,0,0:0:0:0:
256,97,15782,1,8,0:0:0:0:
239,45,15916,1,0,0:0:0:0:
307,137,16050,5,8,0:0:0:0:
305,103,16116,1,0,0:0:0:0:
305,103,16183,1,0,0:0:0:0:
305,112,16250,1,0,0:0:0:0:
305,112,16317,1,8,0:0:0:0:
307,115,16451,1,0,0:0:0:0:
307,115,16585,1,8,0:0:0:0:
305,117,16652,1,8,0:0:0:0:
305,117,16719,1,0,0:0:0:0:
303,126,16786,1,0,0:0:0:0:
298,139,16853,1,8,0:0:0:0:
296,135,16987,1,0,0:0:0:0:
296,135,17121,1,8,0:0:0:0:
296,135,17188,1,8,0:0:0:0:
296,135,17255,1,8,0:0:0:0:
296,135,17322,1,0,0:0:0:0:
296,135,17389,1,8,0:0:0:0:
296,135,17523,1,0,0:0:0:0:
296,135,17657,1,8,0:0:0:0:
296,135,17724,1,0,0:0:0:0:
296,135,17791,1,8,0:0:0:0:
221,178,17858,1,0,0:0:0:0:
216,175,17925,1,8,0:0:0:0:
247,117,18058,1,0,0:0:0:0:
296,135,18192,1,0,0:0:0:0:
256,192,18326,12,12,19933,0:0:0:0:
316,160,20067,5,8,0:0:0:0:
316,160,20201,1,0,0:0:0:0:
316,160,20335,1,12,0:0:0:0:
236,108,20603,1,0,0:0:0:0:
405,115,20871,1,8,0:0:0:0:
243,108,21139,1,0,0:0:0:0:
405,115,21407,1,8,0:0:0:0:
271,94,21675,1,8,0:0:0:0:
405,115,21942,1,0,0:0:0:0:
271,115,22210,1,0,0:0:0:0:
414,111,22478,1,8,0:0:0:0:
243,108,22746,1,0,0:0:0:0:
120,121,23014,1,8,0:0:0:0:
243,108,23282,1,0,0:0:0:0:
413,102,23550,1,8,0:0:0:0:
268,111,23817,1,8,0:0:0:0:
402,103,24085,1,8,0:0:0:0:
247,112,24353,1,0,0:0:0:0:
428,153,24621,1,8,0:0:0:0:
243,108,24889,1,0,0:0:0:0:
390,85,25157,1,8,0:0:0:0:
243,108,25425,1,0,0:0:0:0:
390,85,25692,1,0,0:0:0:0:
390,85,25960,1,8,0:0:0:0:
390,85,26228,1,8,0:0:0:0:
361,83,26496,1,0,0:0:0:0:
361,83,26764,1,8,0:0:0:0:
243,108,27032,1,0,0:0:0:0:
328,78,27300,1,8,0:0:0:0:
243,108,27567,1,0,0:0:0:0:
328,78,27835,1,12,0:0:0:0:
401,103,28103,1,8,0:0:0:0:
401,103,28192,1,0,0:0:0:0:
401,103,28282,1,0,0:0:0:0:
401,103,28371,1,8,0:0:0:0:
331,56,28639,1,8,0:0:0:0:
316,160,28907,1,12,0:0:0:0:
294,115,29041,1,8,0:0:0:0:
236,108,29175,1,0,0:0:0:0:
346,82,29308,1,0,0:0:0:0:
183,69,29375,1,0,0:0:0:0:
405,115,29442,1,8,0:0:0:0:
243,108,29710,1,0,0:0:0:0:
328,88,29844,1,0,0:0:0:0:
405,115,29978,1,8,0:0:0:0:
310,92,30045,1,8,0:0:0:0:
377,80,30112,1,0,0:0:0:0:
271,94,30246,1,8,0:0:0:0:
344,80,30380,1,0,0:0:0:0:
314,92,30514,1,8,0:0:0:0:
316,89,30581,1,0,0:0:0:0:
361,78,30648,1,0,0:0:0:0:
271,115,30782,1,0,0:0:0:0:
414,111,31050,1,8,0:0:0:0:
314,92,31183,1,8,0:0:0:0:
243,108,31317,1,0,0:0:0:0:
353,78,31451,1,0,0:0:0:0:
405,121,31518,1,0,0:0:0:0:
120,121,31585,1,8,0:0:0:0:
243,108,31853,1,0,0:0:0:0:
309,71,31987,1,0,0:0:0:0:
413,102,32121,1,8,0:0:0:0:
251,47,32188,1,8,0:0:0:0:
343,51,32255,1,8,0:0:0:0:
268,111,32389,1,8,0:0:0:0:
355,75,32523,1,0,0:0:0:0:
402,103,32657,1,8,0:0:0:0:
290,45,32724,1,8,0:0:0:0:
343,51,32791,1,0,0:0:0:0:
247,112,32925,1,0,0:0:0:0:
428,153,33192,1,8,0:0:0:0:
310,57,33326,1,8,0:0:0:0:
243,108,33460,1,0,0:0:0:0:
328,75,33594,1,0,0:0:0:0:
386,112,33661,1,0,0:0:0:0:
390,85,33728,1,8,0:0:0:0:
243,108,33996,1,0,0:0:0:0:
352,74,34130,1,8,0:0:0:0:
390,85,34264,1,0,0:0:0:0:
314,60,34331,1,0,0:0:0:0:
368,73,34398,1,8,0:0:0:0:
390,85,34532,1,8,0:0:0:0:
328,78,34666,1,0,0:0:0:0:
390,85,34800,1,8,0:0:0:0:
314,69,34866,1,8,0:0:0:0:
347,37,34933,1,0,0:0:0:0:
361,83,35067,1,0,0:0:0:0:
361,83,35335,1,12,0:0:0:0:
314,111,35603,1,0,0:0:0:0:
314,111,35737,1,0,0:0:0:0:
294,107,35871,1,12,0:0:0:0:
301,80,36139,1,0,0:0:0:0:
301,80,36273,1,0,0:0:0:0:
299,102,36407,1,12,0:0:0:0:
299,102,36675,1,8,0:0:0:0:
315,175,36808,1,0,0:0:0:0:
294,79,36942,1,12,0:0:0:0:
486,104,37076,1,0,0:0:0:0:
337,57,37143,1,0,0:0:0:0:
486,96,37210,1,0,0:0:0:0:
457,84,37344,1,0,0:0:0:0:
269,57,37411,1,0,0:0:0:0:
391,61,37478,1,8,0:0:0:0:
342,73,37612,1,0,0:0:0:0:
342,73,37679,1,8,0:0:0:0:
340,78,37880,1,0,0:0:0:0:
274,115,38014,1,0,0:0:0:0:
231,68,38081,1,8,0:0:0:0:
213,104,38282,1,8,0:0:0:0:
213,104,38416,1,8,0:0:0:0:
208,99,38550,1,0,0:0:0:0:
277,51,38616,1,8,0:0:0:0:
297,108,38683,1,8,0:0:0:0:
297,108,38750,1,0,0:0:0:0:
285,101,38951,1,8,0:0:0:0:
285,101,39085,1,8,0:0:0:0:
285,101,39152,1,0,0:0:0:0:
281,101,39353,1,0,0:0:0:0:
281,101,39487,1,0,0:0:0:0:
281,101,39621,1,8,0:0:0:0:
358,119,39688,1,0,0:0:0:0:
263,138,39755,1,0,0:0:0:0:
263,138,39822,1,8,0:0:0:0:
263,138,40023,1,0,0:0:0:0:
258,133,40157,1,0,0:0:0:0:
319,122,40224,1,8,0:0:0:0:
222,113,40425,1,8,0:0:0:0:
222,113,40558,1,8,0:0:0:0:
199,122,40692,1,0,0:0:0:0:
377,131,40759,1,8,0:0:0:0:
199,122,40826,1,8,0:0:0:0:
197,126,40893,1,0,0:0:0:0:
197,126,41094,1,0,0:0:0:0:
190,69,41228,1,8,0:0:0:0:
179,69,41362,1,8,0:0:0:0:
179,69,41496,1,8,0:0:0:0:
170,74,41630,1,0,0:0:0:0:
196,178,41697,1,0,0:0:0:0:
186,88,41764,1,8,0:0:0:0:
67,93,41898,1,0,0:0:0:0:
246,131,41965,1,8,0:0:0:0:
222,138,42166,1,0,0:0:0:0:
184,128,42300,1,0,0:0:0:0:
184,128,42366,1,8,0:0:0:0:
179,125,42567,1,8,0:0:0:0:
121,113,42701,1,8,0:0:0:0:
254,71,42835,1,8,0:0:0:0:
255,82,42969,1,0,0:0:0:0:
301,79,43036,5,0,0:0:0:0:
255,82,43103,1,8,0:0:0:0:
206,69,43237,1,8,0:0:0:0:
204,66,43371,1,0,0:0:0:0:
341,145,43505,1,0,0:0:0:0:
373,117,43639,1,8,0:0:0:0:
288,94,43773,1,8,0:0:0:0:
294,100,43907,1,0,0:0:0:0:
274,92,44041,1,0,0:0:0:0:
288,112,44108,1,0,0:0:0:0:
274,92,44175,1,8,0:0:0:0:
274,92,44308,1,8,0:0:0:0:
271,88,44442,1,0,0:0:0:0:
330,153,44576,1,0,0:0:0:0:
268,103,44710,1,8,0:0:0:0:
181,60,44844,1,8,0:0:0:0:
181,60,44978,1,0,0:0:0:0:
190,84,45112,1,8,0:0:0:0:
188,86,45179,1,0,0:0:0:0:
188,53,45380,1,0,0:0:0:0:
186,86,45514,1,0,0:0:0:0:
188,89,45581,1,8,0:0:0:0:
188,89,45782,1,8,0:0:0:0:
179,60,45916,1,8,0:0:0:0:
303,136,46050,1,0,0:0:0:0:
303,136,46183,1,0,0:0:0:0:
318,112,46250,1,0,0:0:0:0:
303,136,46317,1,8,0:0:0:0:
298,130,46451,1,0,0:0:0:0:
344,123,46585,1,8,0:0:0:0:
350,92,46719,1,0,0:0:0:0:
281,82,46853,1,8,0:0:0:0:
281,82,46987,1,8,0:0:0:0:
417,117,47121,1,8,0:0:0:0:
417,126,47210,1,0,0:0:0:0:
417,126,47300,1,0,0:0:0:0:
420,129,47389,1,8,0:0:0:0:
213,92,47523,1,0,0:0:0:0:
213,92,47657,1,8,0:0:0:0:
309,138,47791,1,0,0:0:0:0:
309,138,47858,1,8,0:0:0:0:
315,130,47991,1,0,0:0:0:0:
306,118,48058,1,8,0:0:0:0:
336,142,48192,1,0,0:0:0:0:
339,156,48326,1,0,0:0:0:0:
339,156,48393,1,0,0:0:0:0:
339,156,48460,1,8,0:0:0:0:
310,127,48594,1,0,0:0:0:0:
310,127,48728,1,8,0:0:0:0:
347,95,48862,1,8,0:0:0:0:
441,109,48996,1,0,0:0:0:0:
452,112,49130,1,0,0:0:0:0:
341,133,49264,1,8,0:0:0:0:
333,124,49398,1,8,0:0:0:0:
269,40,49465,5,8,0:0:0:0:
333,124,49532,1,0,0:0:0:0:
298,97,49666,1,8,0:0:0:0:
310,94,49800,1,0,0:0:0:0:
257,109,49933,1,0,0:0:0:0:
257,129,50000,1,0,0:0:0:0:
257,129,50067,1,8,0:0:0:0:
248,133,50201,1,0,0:0:0:0:
248,133,50268,1,0,0:0:0:0:
248,133,50335,1,8,0:0:0:0:
366,121,50469,1,0,0:0:0:0:
321,123,50536,1,8,0:0:0:0:
321,127,50737,1,8,0:0:0:0:
304,121,50871,1,0,0:0:0:0:
304,123,50938,1,8,0:0:0:0:
301,74,51139,1,8,0:0:0:0:
210,142,51273,1,8,0:0:0:0:
210,142,51407,1,8,0:0:0:0:
300,88,51541,1,0,0:0:0:0:
349,61,51675,1,8,0:0:0:0:
337,71,51808,1,0,0:0:0:0:
340,79,51942,1,8,0:0:0:0:
390,141,52076,1,0,0:0:0:0:
369,96,52143,1,8,0:0:0:0:
267,141,52277,1,0,0:0:0:0:
300,97,52344,1,8,0:0:0:0:
302,97,52478,1,8,0:0:0:0:
300,97,52612,1,0,0:0:0:0:
300,97,52679,1,8,0:0:0:0:
398,155,52880,1,8,0:0:0:0:
307,100,53014,1,0,0:0:0:0:
363,119,53081,1,0,0:0:0:0:
276,123,53282,1,8,0:0:0:0:
270,123,53416,1,0,0:0:0:0:
400,125,53550,1,12,0:0:0:0:
400,125,53683,1,12,0:0:0:0:
400,125,53817,1,4,0:0:0:0:
400,125,53951,1,4,0:0:0:0:
400,125,54085,1,12,0:0:0:0:
400,125,54219,1,12,0:0:0:0:
400,125,54353,1,4,0:0:0:0:
400,125,54487,1,4,0:0:0:0:
384,84,54621,1,8,0:0:0:0:
316,87,54755,1,0,0:0:0:0:
316,82,54889,1,0,0:0:0:0:
316,82,55023,1,0,0:0:0:0:
409,93,55157,1,8,0:0:0:0:
313,79,55425,1,0,0:0:0:0:
313,79,55558,1,0,0:0:0:0:
401,175,55692,1,8,0:0:0:0:
371,119,55826,1,8,0:0:0:0:
371,119,55960,1,8,0:0:0:0:
371,119,56094,1,0,0:0:0:0:
395,132,56228,1,8,0:0:0:0:
354,93,56496,1,0,0:0:0:0:
354,93,56630,1,0,0:0:0:0:
395,126,56764,1,8,0:0:0:0:
307,107,56898,1,0,0:0:0:0:
307,99,57032,1,0,0:0:0:0:
307,99,57166,1,0,0:0:0:0:
395,122,57300,1,8,0:0:0:0:
307,82,57567,1,0,0:0:0:0:
307,82,57701,1,0,0:0:0:0:
395,122,57835,1,8,0:0:0:0:
246,97,57969,1,8,0:0:0:0:
237,117,58103,1,8,0:0:0:0:
237,117,58237,1,0,0:0:0:0:
371,58,58371,1,8,0:0:0:0:
231,102,58639,1,8,0:0:0:0:
231,102,58773,1,0,0:0:0:0:
371,58,58907,1,8,0:0:0:0:
231,97,59041,1,0,0:0:0:0:
231,97,59175,1,0,0:0:0:0:
231,97,59308,1,0,0:0:0:0:
366,52,59442,1,8,0:0:0:0:
231,97,59710,1,0,0:0:0:0:
231,97,59844,1,0,0:0:0:0:
366,52,59978,1,8,0:0:0:0:
229,70,60112,1,8,0:0:0:0:
229,70,60246,1,8,0:0:0:0:
229,70,60380,1,0,0:0:0:0:
340,122,60514,1,8,0:0:0:0:
269,87,60782,1,0,0:0:0:0:
269,87,60916,1,0,0:0:0:0:
340,122,61050,1,8,0:0:0:0:
258,79,61183,1,0,0:0:0:0:
258,79,61317,1,0,0:0:0:0:
258,79,61451,1,0,0:0:0:0:
336,125,61585,1,8,0:0:0:0:
258,79,61853,1,0,0:0:0:0:
258,79,61987,1,0,0:0:0:0:
331,120,62121,1,8,0:0:0:0:
255,84,62255,1,0,0:0:0:0:
255,84,62389,1,8,0:0:0:0:
249,79,62523,1,8,0:0:0:0:
49,64,62657,1,8,0:0:0:0:
366,175,62791,1,0,0:0:0:0:
366,175,62858,1,0,0:0:0:0:
195,64,62925,1,0,0:0:0:0:
366,175,63058,1,0,0:0:0:0:
366,175,63125,1,0,0:0:0:0:
291,49,63192,1,12,0:0:0:0:
261,105,63326,1,0,0:0:0:0:
351,82,63393,1,0,0:0:0:0:
261,105,63460,1,0,0:0:0:0:
261,105,63594,1,0,0:0:0:0:
342,78,63728,1,8,0:0:0:0:
255,99,63996,1,0,0:0:0:0:
249,97,64130,1,0,0:0:0:0:
342,78,64264,1,8,0:0:0:0:
251,58,64398,1,8,0:0:0:0:
269,71,64465,1,8,0:0:0:0:
251,58,64532,1,8,0:0:0:0:
251,58,64666,1,0,0:0:0:0:
342,78,64800,1,8,0:0:0:0:
255,70,64933,1,8,0:0:0:0:
255,70,65067,1,0,0:0:0:0:
255,70,65201,1,0,0:0:0:0:
342,78,65335,1,8,0:0:0:0:
255,64,65469,1,0,0:0:0:0:
164,79,65536,1,0,0:0:0:0:
255,64,65603,1,0,0:0:0:0:
255,64,65737,1,0,0:0:0:0:
342,78,65871,1,8,0:0:0:0:
255,76,66139,1,0,0:0:0:0:
255,76,66273,1,0,0:0:0:0:
342,78,66407,1,8,0:0:0:0:
255,76,66541,1,8,0:0:0:0:
260,77,66608,1,0,0:0:0:0:
255,76,66675,1,8,0:0:0:0:
255,76,66808,1,0,0:0:0:0:
342,78,66942,1,8,0:0:0:0:
255,76,67076,1,0,0:0:0:0:
234,70,67143,1,8,0:0:0:0:
255,76,67210,1,8,0:0:0:0:
255,76,67344,1,0,0:0:0:0:
342,78,67478,1,12,0:0:0:0:
266,96,67612,1,0,0:0:0:0:
388,112,67679,1,0,0:0:0:0:
264,85,67746,1,0,0:0:0:0:
261,79,67880,1,0,0:0:0:0:
342,73,68014,1,8,0:0:0:0:
237,140,68282,1,0,0:0:0:0:
231,138,68416,1,0,0:0:0:0:
342,105,68550,1,12,0:0:0:0:
208,91,68683,1,0,0:0:0:0:
208,91,68817,1,8,0:0:0:0:
205,111,68884,1,0,0:0:0:0:
208,91,68951,1,8,0:0:0:0:
342,105,69085,1,12,0:0:0:0:
342,105,69219,1,0,0:0:0:0:
342,105,69286,1,0,0:0:0:0:
342,97,69353,1,8,0:0:0:0:
340,85,69487,1,0,0:0:0:0:
340,102,69554,1,0,0:0:0:0:
340,102,69621,1,12,0:0:0:0:
334,73,69889,1,8,0:0:0:0:
334,73,70157,1,8,0:0:0:0:
334,73,70425,5,8,0:0:0:0:
395,137,70692,1,0,0:0:0:0:
392,132,70960,1,0,0:0:0:0:
313,134,71228,1,0,0:0:0:0:
447,125,71496,5,8,0:0:0:0:
447,125,71563,1,8,0:0:0:0:
447,125,71630,1,0,0:0:0:0:
418,97,71764,5,12,0:0:0:0:
359,109,71898,1,0,0:0:0:0:
359,109,72032,1,0,0:0:0:0:
359,109,72166,1,0,0:0:0:0:
96,146,72300,5,8,0:0:0:0:
102,128,72433,1,8,0:0:0:0:
373,93,72567,1,0,0:0:0:0:
373,93,72634,1,0,0:0:0:0:
373,93,72701,1,0,0:0:0:0:
373,93,72835,1,8,0:0:0:0:
373,93,72969,1,0,0:0:0:0:
373,93,73036,1,8,0:0:0:0:
373,93,73103,1,8,0:0:0:0:
276,53,73237,5,0,0:0:0:0:
276,53,73371,1,0,0:0:0:0:
294,60,73505,1,0,0:0:0:0:
404,150,73639,1,8,0:0:0:0:
321,72,73907,1,12,0:0:0:0:
384,137,74041,1,0,0:0:0:0:
384,137,74175,1,0,0:0:0:0:
384,137,74308,1,0,0:0:0:0:
142,62,74442,1,8,0:0:0:0:
155,74,74576,1,8,0:0:0:0:
262,37,74710,1,0,0:0:0:0:
262,37,74777,1,0,0:0:0:0:
266,37,74844,1,0,0:0:0:0:
273,74,74978,1,8,0:0:0:0:
281,87,75112,1,8,0:0:0:0:
281,88,75246,1,8,0:0:0:0:
271,97,75380,1,8,0:0:0:0:
252,69,75514,1,12,0:0:0:0:
252,69,75648,1,12,0:0:0:0:
255,33,75916,1,0,0:0:0:0:
271,97,76050,1,12,0:0:0:0:
316,62,76183,1,0,0:0:0:0:
316,62,76317,1,0,0:0:0:0:
316,62,76451,1,0,0:0:0:0:
184,50,76585,1,8,0:0:0:0:
184,50,76719,1,8,0:0:0:0:
301,53,76853,1,0,0:0:0:0:
301,53,76920,1,0,0:0:0:0:
301,53,76987,1,0,0:0:0:0:
404,171,77121,1,12,0:0:0:0:
217,44,77255,1,0,0:0:0:0:
217,44,77322,1,8,0:0:0:0:
217,44,77389,1,8,0:0:0:0:
280,55,77523,1,0,0:0:0:0:
282,57,77657,1,0,0:0:0:0:
282,57,77791,1,0,0:0:0:0:
345,80,77925,1,8,0:0:0:0:
404,171,78192,1,12,0:0:0:0:
319,80,78326,1,0,0:0:0:0:
319,80,78460,1,0,0:0:0:0:
306,58,78594,1,0,0:0:0:0:
251,14,78728,1,8,0:0:0:0:
312,77,78862,1,8,0:0:0:0:
326,154,78996,1,0,0:0:0:0:
326,154,79063,1,0,0:0:0:0:
326,154,79130,1,0,0:0:0:0:
400,142,79264,1,8,0:0:0:0:
400,142,79331,1,0,0:0:0:0:
400,142,79398,1,0,0:0:0:0:
400,142,79465,1,0,0:0:0:0:
400,142,79532,1,8,0:0:0:0:
390,144,79666,1,0,0:0:0:0:
390,144,79800,1,8,0:0:0:0:
388,155,79866,1,8,0:0:0:0:
388,155,79933,1,0,0:0:0:0:
388,155,80000,1,0,0:0:0:0:
386,149,80067,1,8,0:0:0:0:
347,84,80201,1,0,0:0:0:0:
256,192,80335,12,0,80737,0:0:0:0:
291,178,80871,5,8,0:0:0:0:
311,164,80938,1,8,0:0:0:0:
311,164,81005,1,0,0:0:0:0:
287,95,81139,5,8,0:0:0:0:
361,131,81273,1,0,0:0:0:0:
253,80,81407,1,12,0:0:0:0:
342,73,81541,1,0,0:0:0:0:
342,73,81608,1,8,0:0:0:0:
428,119,81675,1,8,0:0:0:0:
428,119,81741,1,0,0:0:0:0:
340,78,81808,1,8,0:0:0:0:
274,115,81942,1,0,0:0:0:0:
231,68,82009,1,8,0:0:0:0:
213,104,82210,1,8,0:0:0:0:
213,104,82344,1,8,0:0:0:0:
208,99,82478,1,0,0:0:0:0:
297,108,82612,1,8,0:0:0:0:
297,108,82679,1,0,0:0:0:0:
426,117,82746,1,8,0:0:0:0:
426,117,82813,1,8,0:0:0:0:
285,101,82880,1,0,0:0:0:0:
285,101,83014,1,8,0:0:0:0:
285,101,83081,1,0,0:0:0:0:
281,101,83282,1,0,0:0:0:0:
281,101,83416,1,0,0:0:0:0:
281,101,83550,1,8,0:0:0:0:
263,138,83683,1,0,0:0:0:0:
263,138,83750,1,8,0:0:0:0:
436,93,83817,1,0,0:0:0:0:
436,93,83884,1,0,0:0:0:0:
263,138,83951,1,8,0:0:0:0:
258,133,84085,1,0,0:0:0:0:
319,122,84152,1,8,0:0:0:0:
222,113,84353,1,8,0:0:0:0:
222,113,84487,1,8,0:0:0:0:
199,122,84621,1,0,0:0:0:0:
199,122,84755,1,8,0:0:0:0:
197,126,84822,1,0,0:0:0:0:
416,102,84889,1,0,0:0:0:0:
416,102,84956,1,8,0:0:0:0:
197,126,85023,1,0,0:0:0:0:
190,69,85157,1,8,0:0:0:0:
179,69,85291,1,8,0:0:0:0:
179,69,85425,1,8,0:0:0:0:
170,74,85558,1,0,0:0:0:0:
196,178,85625,1,0,0:0:0:0:
186,88,85692,1,8,0:0:0:0:
67,93,85826,1,0,0:0:0:0:
246,131,85893,1,8,0:0:0:0:
422,97,85960,1,0,0:0:0:0:
422,97,86027,1,0,0:0:0:0:
222,138,86094,1,8,0:0:0:0:
184,128,86228,1,0,0:0:0:0:
184,128,86295,1,8,0:0:0:0:
179,125,86496,1,8,0:0:0:0:
121,113,86630,1,8,0:0:0:0:
254,71,86764,1,8,0:0:0:0:
255,82,86898,1,0,0:0:0:0:
301,79,86965,5,0,0:0:0:0:
255,82,87032,1,8,0:0:0:0:
206,69,87166,1,8,0:0:0:0:
204,66,87300,1,0,0:0:0:0:
341,145,87433,1,0,0:0:0:0:
373,117,87567,1,8,0:0:0:0:
288,94,87701,1,8,0:0:0:0:
294,100,87835,1,0,0:0:0:0:
274,92,87969,1,0,0:0:0:0:
288,112,88036,1,0,0:0:0:0:
274,92,88103,1,8,0:0:0:0:
274,92,88237,1,8,0:0:0:0:
271,88,88371,1,0,0:0:0:0:
330,153,88505,1,0,0:0:0:0:
268,103,88639,1,8,0:0:0:0:
181,60,88773,1,8,0:0:0:0:
181,60,88907,1,0,0:0:0:0:
190,84,89041,1,8,0:0:0:0:
188,86,89108,1,0,0:0:0:0:
361,73,89175,1,0,0:0:0:0:
414,107,89241,1,8,0:0:0:0:
188,53,89308,1,0,0:0:0:0:
186,86,89442,1,0,0:0:0:0:
188,89,89509,1,8,0:0:0:0:
188,89,89710,1,8,0:0:0:0:
179,60,89844,1,8,0:0:0:0:
303,136,89978,1,0,0:0:0:0:
303,136,90112,1,0,0:0:0:0:
318,112,90179,1,0,0:0:0:0:
303,136,90246,1,8,0:0:0:0:
298,130,90380,1,0,0:0:0:0:
344,123,90514,1,8,0:0:0:0:
350,92,90648,1,0,0:0:0:0:
281,82,90782,1,8,0:0:0:0:
281,82,90916,1,8,0:0:0:0:
417,117,91050,1,8,0:0:0:0:
417,126,91139,1,0,0:0:0:0:
417,126,91228,1,0,0:0:0:0:
420,129,91317,1,8,0:0:0:0:
213,92,91451,1,0,0:0:0:0:
213,92,91585,1,8,0:0:0:0:
309,138,91719,1,0,0:0:0:0:
309,138,91786,1,8,0:0:0:0:
315,130,91920,1,0,0:0:0:0:
306,118,91987,1,8,0:0:0:0:
336,142,92121,1,0,0:0:0:0:
339,156,92255,1,0,0:0:0:0:
339,156,92322,1,0,0:0:0:0:
339,156,92389,1,8,0:0:0:0:
310,127,92523,1,0,0:0:0:0:
310,127,92657,1,8,0:0:0:0:
347,95,92791,1,8,0:0:0:0:
441,109,92925,1,0,0:0:0:0:
452,112,93058,1,0,0:0:0:0:
341,133,93192,1,8,0:0:0:0:
333,124,93326,1,8,0:0:0:0:
269,40,93393,5,8,0:0:0:0:
333,124,93460,1,0,0:0:0:0:
298,97,93594,1,8,0:0:0:0:
310,94,93728,1,0,0:0:0:0:
257,109,93862,1,0,0:0:0:0:
257,129,93929,1,0,0:0:0:0:
257,129,93996,1,8,0:0:0:0:
248,133,94130,1,0,0:0:0:0:
248,133,94197,1,0,0:0:0:0:
248,133,94264,1,8,0:0:0:0:
366,121,94398,1,0,0:0:0:0:
321,123,94465,1,8,0:0:0:0:
302,52,94532,1,8,0:0:0:0:
302,52,94599,1,0,0:0:0:0:
321,127,94666,1,8,0:0:0:0:
304,121,94800,1,0,0:0:0:0:
304,123,94866,1,8,0:0:0:0:
301,74,95067,1,8,0:0:0:0:
210,142,95201,1,8,0:0:0:0:
210,142,95335,1,8,0:0:0:0:
300,88,95469,1,0,0:0:0:0:
349,61,95603,1,8,0:0:0:0:
337,71,95737,1,0,0:0:0:0:
340,79,95871,1,8,0:0:0:0:
390,141,96005,1,0,0:0:0:0:
369,96,96072,1,8,0:0:0:0:
267,141,96206,1,0,0:0:0:0:
300,97,96273,1,8,0:0:0:0:
302,97,96407,5,8,0:0:0:0:
300,97,96541,1,0,0:0:0:0:
300,97,96608,1,8,0:0:0:0:
367,81,96741,1,0,0:0:0:0:
398,155,96808,1,8,0:0:0:0:
307,100,96942,1,0,0:0:0:0:
363,119,97009,1,0,0:0:0:0:
350,72,97076,1,0,0:0:0:0:
276,123,97210,1,8,0:0:0:0:
270,123,97344,1,0,0:0:0:0:
426,122,97478,1,12,0:0:0:0:
423,114,97612,1,12,0:0:0:0:
423,114,97746,1,4,0:0:0:0:
417,107,97880,1,4,0:0:0:0:
417,107,98014,1,12,0:0:0:0:
417,107,98148,1,12,0:0:0:0:
414,105,98282,1,4,0:0:0:0:
414,105,98416,1,0,0:0:0:0:
352,201,98483,1,0,0:0:0:0:
141,146,98550,1,12,0:0:0:0:
342,73,98683,1,0,0:0:0:0:
342,73,98750,1,8,0:0:0:0:
411,92,98817,1,8,0:0:0:0:
411,92,98884,1,0,0:0:0:0:
340,78,98951,1,8,0:0:0:0:
274,115,99085,1,0,0:0:0:0:
231,68,99152,1,8,0:0:0:0:
213,104,99353,1,8,0:0:0:0:
213,104,99487,1,8,0:0:0:0:
208,99,99621,1,0,0:0:0:0:
297,108,99755,1,8,0:0:0:0:
297,108,99822,1,0,0:0:0:0:
408,84,99889,1,8,0:0:0:0:
408,90,99956,1,8,0:0:0:0:
285,101,100023,1,0,0:0:0:0:
285,101,100157,1,8,0:0:0:0:
285,101,100224,1,0,0:0:0:0:
281,101,100425,1,0,0:0:0:0:
281,101,100558,1,0,0:0:0:0:
281,101,100692,1,8,0:0:0:0:
263,138,100826,1,0,0:0:0:0:
263,138,100893,1,8,0:0:0:0:
329,61,100960,1,0,0:0:0:0:
329,61,101027,1,0,0:0:0:0:
263,138,101094,1,8,0:0:0:0:
258,133,101228,1,0,0:0:0:0:
319,122,101295,1,8,0:0:0:0:
222,113,101496,1,8,0:0:0:0:
222,113,101630,1,8,0:0:0:0:
199,122,101764,1,0,0:0:0:0:
199,122,101898,1,8,0:0:0:0:
197,126,101965,1,0,0:0:0:0:
323,61,102032,1,0,0:0:0:0:
323,61,102099,1,8,0:0:0:0:
197,126,102166,1,0,0:0:0:0:
190,69,102300,1,8,0:0:0:0:
179,69,102433,1,8,0:0:0:0:
179,69,102567,1,8,0:0:0:0:
170,74,102701,1,0,0:0:0:0:
196,178,102768,1,0,0:0:0:0:
186,88,102835,1,8,0:0:0:0:
67,93,102969,1,0,0:0:0:0:
246,131,103036,1,8,0:0:0:0:
396,133,103103,1,0,0:0:0:0:
396,133,103170,1,0,0:0:0:0:
222,138,103237,1,8,0:0:0:0:
184,128,103371,1,0,0:0:0:0:
184,128,103438,1,8,0:0:0:0:
179,125,103639,1,8,0:0:0:0:
121,113,103773,1,8,0:0:0:0:
254,71,103907,1,8,0:0:0:0:
255,82,104041,1,0,0:0:0:0:
301,79,104108,5,0,0:0:0:0:
255,82,104175,1,8,0:0:0:0:
206,69,104308,1,8,0:0:0:0:
204,66,104442,1,0,0:0:0:0:
341,145,104576,1,0,0:0:0:0:
373,117,104710,1,8,0:0:0:0:
288,94,104844,1,8,0:0:0:0:
294,100,104978,1,0,0:0:0:0:
274,92,105112,1,0,0:0:0:0:
288,112,105179,1,0,0:0:0:0:
274,92,105246,1,8,0:0:0:0:
274,92,105380,1,8,0:0:0:0:
271,88,105514,1,0,0:0:0:0:
330,153,105648,1,0,0:0:0:0:
268,103,105782,1,8,0:0:0:0:
181,60,105916,1,8,0:0:0:0:
181,60,106050,1,0,0:0:0:0:
190,84,106183,1,8,0:0:0:0:
188,86,106250,1,0,0:0:0:0:
323,69,106317,1,0,0:0:0:0:
323,69,106384,1,8,0:0:0:0:
188,53,106451,1,0,0:0:0:0:
186,86,106585,1,0,0:0:0:0:
188,89,106652,1,8,0:0:0:0:
188,89,106853,1,8,0:0:0:0:
179,60,106987,1,8,0:0:0:0:
303,136,107121,1,0,0:0:0:0:
303,136,107255,1,0,0:0:0:0:
318,112,107322,1,0,0:0:0:0:
303,136,107389,1,8,0:0:0:0:
298,130,107523,1,0,0:0:0:0:
344,123,107657,1,8,0:0:0:0:
350,92,107791,1,0,0:0:0:0:
281,82,107925,1,8,0:0:0:0:
281,82,108058,1,8,0:0:0:0:
417,117,108192,1,8,0:0:0:0:
417,126,108282,1,0,0:0:0:0:
417,126,108371,1,0,0:0:0:0:
420,129,108460,1,8,0:0:0:0:
213,92,108594,1,0,0:0:0:0:
213,92,108728,1,8,0:0:0:0:
309,138,108862,1,0,0:0:0:0:
309,138,108929,1,8,0:0:0:0:
315,130,109063,1,0,0:0:0:0:
306,118,109130,1,8,0:0:0:0:
336,142,109264,1,0,0:0:0:0:
339,156,109398,1,0,0:0:0:0:
339,156,109465,1,0,0:0:0:0:
339,156,109532,1,8,0:0:0:0:
310,127,109666,1,0,0:0:0:0:
310,127,109800,1,8,0:0:0:0:
347,95,109933,1,8,0:0:0:0:
441,109,110067,1,0,0:0:0:0:
452,112,110201,1,0,0:0:0:0:
341,133,110335,1,8,0:0:0:0:
333,124,110469,1,8,0:0:0:0:
269,40,110536,5,8,0:0:0:0:
333,124,110603,1,0,0:0:0:0:
298,97,110737,1,8,0:0:0:0:
310,94,110871,1,0,0:0:0:0:
257,109,111005,1,0,0:0:0:0:
257,129,111072,1,0,0:0:0:0:
257,129,111139,1,8,0:0:0:0:
248,133,111273,1,0,0:0:0:0:
248,133,111340,1,0,0:0:0:0:
248,133,111407,1,8,0:0:0:0:
366,121,111541,1,0,0:0:0:0:
321,123,111608,1,8,0:0:0:0:
265,178,111675,1,0,0:0:0:0:
256,174,111741,1,0,0:0:0:0:
321,127,111808,1,8,0:0:0:0:
304,121,111942,1,0,0:0:0:0:
304,123,112009,1,8,0:0:0:0:
301,74,112210,1,8,0:0:0:0:
210,142,112344,1,8,0:0:0:0:
210,142,112478,1,8,0:0:0:0:
300,88,112612,1,0,0:0:0:0:
349,61,112746,1,8,0:0:0:0:
337,71,112880,1,0,0:0:0:0:
340,79,113014,1,8,0:0:0:0:
390,141,113148,1,0,0:0:0:0:
369,96,113215,1,8,0:0:0:0:
267,141,113349,1,0,0:0:0:0:
300,97,113416,1,8,0:0:0:0:
302,97,113550,5,8,0:0:0:0:
300,97,113683,1,0,0:0:0:0:
300,97,113750,1,8,0:0:0:0:
317,57,113884,1,0,0:0:0:0:
398,155,113951,1,8,0:0:0:0:
307,100,114085,1,0,0:0:0:0:
323,52,114152,1,0,0:0:0:0:
323,49,114219,1,0,0:0:0:0:
276,123,114353,1,8,0:0:0:0:
270,123,114487,1,0,0:0:0:0:
420,111,114621,1,12,0:0:0:0:
426,111,114755,1,12,0:0:0:0:
428,108,114889,1,4,0:0:0:0:
426,105,115023,1,4,0:0:0:0:
426,105,115157,1,12,0:0:0:0:
426,105,115291,1,12,0:0:0:0:
426,105,115425,1,4,0:0:0:0:
374,133,115558,1,4,0:0:0:0:
429,89,115692,1,8,0:0:0:0:
359,129,115826,1,0,0:0:0:0:
351,138,115960,1,0,0:0:0:0:
336,135,116094,1,0,0:0:0:0:
213,123,116228,1,8,0:0:0:0:
228,106,116496,1,0,0:0:0:0:
228,106,116630,1,0,0:0:0:0:
274,135,116764,1,8,0:0:0:0:
213,100,116898,1,0,0:0:0:0:
211,82,117032,1,8,0:0:0:0:
213,100,117166,1,0,0:0:0:0:
271,123,117300,1,8,0:0:0:0:
211,82,117567,1,8,0:0:0:0:
306,94,117701,1,0,0:0:0:0:
69,20,117768,1,0,0:0:0:0:
211,82,117835,1,8,0:0:0:0:
304,74,117969,1,0,0:0:0:0:
295,74,118103,1,0,0:0:0:0:
295,74,118237,1,0,0:0:0:0:
268,74,118371,1,8,0:0:0:0:
318,152,118639,1,0,0:0:0:0:
318,152,118773,1,0,0:0:0:0:
321,155,118907,1,8,0:0:0:0:
254,111,119041,1,0,0:0:0:0:
254,111,119175,1,8,0:0:0:0:
256,99,119308,1,0,0:0:0:0:
374,76,119375,1,0,0:0:0:0:
262,105,119442,1,8,0:0:0:0:
432,107,119576,1,0,0:0:0:0:
432,107,119643,1,0,0:0:0:0:
435,109,119710,1,0,0:0:0:0:
435,109,119844,1,0,0:0:0:0:
435,109,119911,1,0,0:0:0:0:
435,109,119978,1,8,0:0:0:0:
358,132,120112,1,0,0:0:0:0:
323,162,120246,1,8,0:0:0:0:
349,129,120380,1,0,0:0:0:0:
349,129,120514,1,0,0:0:0:0:
337,123,120648,1,0,0:0:0:0:
323,162,120782,1,8,0:0:0:0:
320,123,121050,1,0,0:0:0:0:
320,123,121183,1,0,0:0:0:0:
321,158,121317,1,8,0:0:0:0:
302,135,121451,1,0,0:0:0:0:
336,158,121518,1,0,0:0:0:0:
363,178,121585,1,0,0:0:0:0:
294,129,121719,1,0,0:0:0:0:
317,158,121853,1,8,0:0:0:0:
303,115,122121,1,12,0:0:0:0:
265,103,122255,1,0,0:0:0:0:
311,147,122389,1,8,0:0:0:0:
317,109,122523,1,0,0:0:0:0:
317,109,122657,1,0,0:0:0:0:
314,103,122791,1,0,0:0:0:0:
311,147,122925,1,8,0:0:0:0:
328,120,123058,1,0,0:0:0:0:
326,117,123326,1,0,0:0:0:0:
303,115,123460,1,12,0:0:0:0:
372,141,123594,1,0,0:0:0:0:
303,115,123728,1,12,0:0:0:0:
300,115,123929,1,12,0:0:0:0:
288,117,124130,1,0,0:0:0:0:
250,158,124264,1,12,0:0:0:0:
279,94,124398,1,0,0:0:0:0:
311,144,124532,1,8,0:0:0:0:
244,88,124666,1,0,0:0:0:0:
215,129,124800,1,0,0:0:0:0:
215,129,124933,1,0,0:0:0:0:
273,115,125067,1,12,0:0:0:0:
273,115,125201,1,12,0:0:0:0:
238,97,125469,1,0,0:0:0:0:
268,112,125603,1,12,0:0:0:0:
305,129,125737,1,0,0:0:0:0:
302,135,125871,1,0,0:0:0:0:
302,135,126005,1,0,0:0:0:0:
265,112,126139,1,12,0:0:0:0:
302,126,126407,1,12,0:0:0:0:
253,112,126541,1,0,0:0:0:0:
244,112,126675,1,0,0:0:0:0:
224,114,126808,1,0,0:0:0:0:
302,135,126942,1,12,0:0:0:0:
206,115,127210,1,0,0:0:0:0:
197,123,127344,1,0,0:0:0:0:
300,121,127478,1,12,0:0:0:0:
180,123,127612,1,0,0:0:0:0:
291,121,127746,1,12,0:0:0:0:
180,123,127880,1,0,0:0:0:0:
291,121,128014,1,12,0:0:0:0:
411,105,128148,5,0,0:0:0:0:
411,105,128282,1,12,0:0:0:0:
411,105,128416,1,0,0:0:0:0:
406,109,128550,1,12,0:0:0:0:
300,117,128683,1,0,0:0:0:0:
241,161,128750,1,0,0:0:0:0:
206,106,128817,1,8,0:0:0:0:
279,117,128951,1,0,0:0:0:0:
261,117,129085,1,0,0:0:0:0:
253,123,129219,1,0,0:0:0:0:
201,106,129353,1,8,0:0:0:0:
209,112,129621,1,0,0:0:0:0:
180,112,129755,1,0,0:0:0:0:
174,103,129889,1,8,0:0:0:0:
320,108,130023,1,0,0:0:0:0:
355,139,130090,1,0,0:0:0:0:
276,129,130157,1,0,0:0:0:0:
267,153,130291,1,0,0:0:0:0:
171,100,130425,1,8,0:0:0:0:
291,121,130692,1,12,0:0:0:0:
313,105,130826,1,0,0:0:0:0:
171,100,130960,1,8,0:0:0:0:
296,114,131094,1,0,0:0:0:0:
370,125,131228,1,0,0:0:0:0:
276,123,131362,1,0,0:0:0:0:
171,100,131496,1,8,0:0:0:0:
328,120,131630,1,0,0:0:0:0:
326,132,131898,1,0,0:0:0:0:
288,117,132032,1,12,0:0:0:0:
180,141,132166,1,0,0:0:0:0:
288,117,132300,1,12,0:0:0:0:
288,117,132500,1,12,0:0:0:0:
286,112,132701,1,0,0:0:0:0:
288,115,132835,1,12,0:0:0:0:
366,120,132969,1,0,0:0:0:0:
301,84,133103,1,8,0:0:0:0:
352,123,133237,1,0,0:0:0:0:
341,117,133371,1,0,0:0:0:0:
337,117,133505,1,0,0:0:0:0:
291,161,133639,1,12,0:0:0:0:
291,161,133773,1,12,0:0:0:0:
322,167,134041,1,0,0:0:0:0:
282,162,134175,1,12,0:0:0:0:
326,156,134308,1,0,0:0:0:0:
302,156,134442,1,0,0:0:0:0:
285,156,134576,1,0,0:0:0:0:
282,162,134710,1,12,0:0:0:0:
282,158,134978,1,12,0:0:0:0:
232,150,135112,1,0,0:0:0:0:
232,150,135246,1,0,0:0:0:0:
232,150,135380,1,0,0:0:0:0:
291,153,135514,1,12,0:0:0:0:
215,129,135782,1,0,0:0:0:0:
215,129,135916,1,0,0:0:0:0:
253,155,136050,1,12,0:0:0:0:
186,121,136183,1,0,0:0:0:0:
253,155,136317,1,12,0:0:0:0:
186,121,136451,1,0,0:0:0:0:
253,155,136585,1,12,0:0:0:0:
415,126,136719,5,0,0:0:0:0:
436,116,136853,1,12,0:0:0:0:
434,118,136987,1,0,0:0:0:0:
434,118,137054,1,0,0:0:0:0:
432,118,137121,1,8,0:0:0:0:
249,84,137523,1,8,0:0:0:0:
257,84,137657,1,8,0:0:0:0:
257,84,137791,1,0,0:0:0:0:
263,67,137925,1,8,0:0:0:0:
269,41,138058,1,0,0:0:0:0:
328,52,138326,1,8,0:0:0:0:
328,52,138460,1,8,0:0:0:0:
322,72,138862,1,8,0:0:0:0:
322,72,138996,1,8,0:0:0:0:
322,67,139130,1,0,0:0:0:0:
322,67,139264,1,0,0:0:0:0:
313,64,139532,1,8,0:0:0:0:
313,64,139666,1,0,0:0:0:0:
264,62,139933,1,0,0:0:0:0:
264,62,140067,1,0,0:0:0:0:
251,35,140201,1,8,0:0:0:0:
179,138,140469,1,0,0:0:0:0:
344,118,140536,1,0,0:0:0:0:
344,118,140603,1,8,0:0:0:0:
344,118,140737,1,0,0:0:0:0:
312,104,140804,1,8,0:0:0:0:
332,89,140871,1,8,0:0:0:0:
351,63,141005,1,8,0:0:0:0:
407,120,141072,1,0,0:0:0:0:
357,120,141139,1,8,0:0:0:0:
410,88,141206,1,8,0:0:0:0:
267,144,141273,1,8,0:0:0:0:
212,96,141340,1,8,0:0:0:0:
355,251,141407,1,0,0:0:0:0:
325,48,141675,1,0,0:0:0:0:
209,151,141741,1,0,0:0:0:0:
506,80,141808,1,0,0:0:0:0:
209,151,141875,1,0,0:0:0:0:
412,101,141942,1,8,0:0:0:0:
410,98,142076,1,0,0:0:0:0:
243,43,142210,1,8,0:0:0:0:
251,49,142344,1,8,0:0:0:0:
251,49,142612,1,0,0:0:0:0:
261,47,142746,1,0,0:0:0:0:
95,95,142880,1,0,0:0:0:0:
85,58,142947,1,0,0:0:0:0:
202,82,143014,1,8,0:0:0:0:
190,86,143215,1,0,0:0:0:0:
261,38,143416,1,0,0:0:0:0:
261,38,143550,1,8,0:0:0:0:
190,86,143817,1,8,0:0:0:0:
501,142,143951,1,0,0:0:0:0:
477,130,144018,1,0,0:0:0:0:
261,32,144085,1,8,0:0:0:0:
296,93,144219,1,0,0:0:0:0:
296,50,144353,1,8,0:0:0:0:
296,50,144487,1,8,0:0:0:0:
296,50,144889,1,8,0:0:0:0:
327,87,144956,1,8,0:0:0:0:
327,87,145023,1,8,0:0:0:0:
327,87,145157,1,8,0:0:0:0:
331,72,145291,1,0,0:0:0:0:
331,72,145425,1,8,0:0:0:0:
336,67,145491,1,0,0:0:0:0:
331,67,145558,1,0,0:0:0:0:
348,105,145692,1,12,0:0:0:0:
82,111,145960,1,0,0:0:0:0:
120,138,146027,1,0,0:0:0:0:
120,138,146094,1,0,0:0:0:0:
241,49,146161,1,0,0:0:0:0:
123,125,146228,1,8,0:0:0:0:
334,152,146362,1,0,0:0:0:0:
334,152,146496,1,8,0:0:0:0:
145,129,146630,1,8,0:0:0:0:
314,143,146697,1,8,0:0:0:0:
301,132,146764,1,8,0:0:0:0:
162,128,146831,1,8,0:0:0:0:
166,125,146898,1,8,0:0:0:0:
274,127,147032,1,8,0:0:0:0:
235,109,147166,1,0,0:0:0:0:
319,71,147233,1,0,0:0:0:0:
305,86,147300,1,8,0:0:0:0:
298,64,147433,1,0,0:0:0:0:
304,67,147567,1,8,0:0:0:0:
304,56,147701,1,0,0:0:0:0:
313,52,147835,1,12,0:0:0:0:
438,99,148237,1,8,0:0:0:0:
142,117,148304,1,0,0:0:0:0:
201,158,148371,1,0,0:0:0:0:
251,138,148438,1,0,0:0:0:0:
249,140,148505,1,0,0:0:0:0:
143,141,148773,1,0,0:0:0:0:
145,134,148840,1,8,0:0:0:0:
257,60,148907,1,8,0:0:0:0:
331,72,149041,1,0,0:0:0:0:
371,92,149108,1,0,0:0:0:0:
328,76,149175,1,8,0:0:0:0:
33,117,149308,1,0,0:0:0:0:
33,117,149375,1,0,0:0:0:0:
296,56,149442,1,8,0:0:0:0:
290,58,149576,1,0,0:0:0:0:
290,58,149710,1,8,0:0:0:0:
287,58,149844,1,0,0:0:0:0:
231,62,149978,1,12,0:0:0:0:
293,134,150916,1,0,0:0:0:0:
293,117,150983,1,0,0:0:0:0:
293,134,151050,1,12,0:0:0:0:
348,78,151317,1,8,0:0:0:0:
255,58,151585,1,8,0:0:0:0:
257,70,151853,1,0,0:0:0:0:
257,70,151987,1,0,0:0:0:0:
257,70,152121,1,12,0:0:0:0:
252,87,152523,1,0,0:0:0:0:
366,114,152657,1,12,0:0:0:0:
360,108,153058,1,0,0:0:0:0:
201,158,153192,1,12,0:0:0:0:
137,105,153326,1,0,0:0:0:0:
255,138,153460,1,0,0:0:0:0:
328,115,153594,1,0,0:0:0:0:
328,115,153728,1,0,0:0:0:0:
328,115,153795,1,0,0:0:0:0:
328,115,153862,1,0,0:0:0:0:
328,115,153996,1,0,0:0:0:0:
316,112,154063,1,0,0:0:0:0:
316,112,154130,1,0,0:0:0:0:
316,112,154197,1,0,0:0:0:0:
368,167,154264,1,8,0:0:0:0:
464,137,154465,5,0,0:0:0:0:
341,236,154532,1,8,0:0:0:0:
365,102,154666,1,8,0:0:0:0:
365,102,154866,1,0,0:0:0:0:
344,110,155067,1,8,0:0:0:0:
344,110,155134,5,8,0:0:0:0:
344,110,155201,1,0,0:0:0:0:
344,110,155268,1,0,0:0:0:0:
344,110,155335,1,8,0:0:0:0:
201,52,155536,1,0,0:0:0:0:
201,52,155603,1,8,0:0:0:0:
183,145,155737,1,8,0:0:0:0:
183,145,155938,1,0,0:0:0:0:
338,107,156139,1,8,0:0:0:0:
338,107,156206,1,8,0:0:0:0:
338,107,156273,1,0,0:0:0:0:
338,107,156340,1,8,0:0:0:0:
338,107,156407,1,0,0:0:0:0:
296,97,156608,1,0,0:0:0:0:
296,97,156675,1,8,0:0:0:0:
296,97,156808,1,8,0:0:0:0:
296,97,157009,1,0,0:0:0:0:
336,116,157210,1,8,0:0:0:0:
336,116,157277,1,8,0:0:0:0:
336,116,157344,1,0,0:0:0:0:
336,116,157411,1,0,0:0:0:0:
336,116,157478,1,8,0:0:0:0:
370,71,157679,1,0,0:0:0:0:
370,71,157746,1,0,0:0:0:0:
370,71,157880,1,8,0:0:0:0:
214,131,158014,1,0,0:0:0:0:
214,131,158081,1,0,0:0:0:0:
214,131,158148,1,8,0:0:0:0:
214,131,158282,1,0,0:0:0:0:
278,70,158349,1,0,0:0:0:0:
301,96,158416,1,8,0:0:0:0:
296,96,158483,1,8,0:0:0:0:
293,84,158550,1,8,0:0:0:0:
305,112,158750,1,0,0:0:0:0:
305,112,158817,1,8,0:0:0:0:
305,112,158951,1,8,0:0:0:0:
302,117,159152,1,0,0:0:0:0:
332,119,159353,1,8,0:0:0:0:
332,119,159420,1,8,0:0:0:0:
332,119,159487,1,0,0:0:0:0:
332,119,159554,1,0,0:0:0:0:
332,119,159621,1,8,0:0:0:0:
361,129,159822,5,0,0:0:0:0:
341,141,159889,1,8,0:0:0:0:
341,141,160023,1,8,0:0:0:0:
337,161,160224,1,0,0:0:0:0:
332,119,160425,1,8,0:0:0:0:
332,119,160491,1,8,0:0:0:0:
332,119,160558,1,8,0:0:0:0:
332,119,160625,1,8,0:0:0:0:
332,119,160692,1,0,0:0:0:0:
332,119,160826,1,0,0:0:0:0:
255,122,160960,1,8,0:0:0:0:
363,91,161094,1,0,0:0:0:0:
287,102,161228,1,0,0:0:0:0:
367,78,161362,1,0,0:0:0:0:
252,82,161496,1,8,0:0:0:0:
352,133,161630,1,0,0:0:0:0:
252,82,161764,1,8,0:0:0:0:
314,166,162032,5,8,0:0:0:0:
314,166,162099,1,8,0:0:0:0:
349,168,162166,1,0,0:0:0:0:
308,157,162300,1,8,0:0:0:0:
102,157,162433,1,0,0:0:0:0:
115,148,162567,1,8,0:0:0:0:
197,123,162634,1,0,0:0:0:0:
197,123,162701,1,0,0:0:0:0:
246,127,162835,5,12,0:0:0:0:
81,90,162969,1,0,0:0:0:0:
304,86,163103,1,0,0:0:0:0:
304,86,163170,1,0,0:0:0:0:
304,86,163237,1,8,0:0:0:0:
258,68,163371,1,0,0:0:0:0:
258,68,163438,1,8,0:0:0:0:
258,68,163505,1,8,0:0:0:0:
341,118,163639,1,8,0:0:0:0:
341,118,163706,1,8,0:0:0:0:
341,118,163773,1,0,0:0:0:0:
347,121,163840,1,0,0:0:0:0:
341,118,163907,1,8,0:0:0:0:
341,118,164041,1,8,0:0:0:0:
253,119,164175,1,8,0:0:0:0:
220,91,164241,1,0,0:0:0:0:
253,119,164308,1,0,0:0:0:0:
325,131,164375,1,0,0:0:0:0:
253,119,164442,1,8,0:0:0:0:
241,78,164576,1,0,0:0:0:0:
241,78,164643,1,0,0:0:0:0:
241,78,164710,1,8,0:0:0:0:
241,78,164844,5,8,0:0:0:0:
241,78,165112,1,8,0:0:0:0:
241,78,165246,1,8,0:0:0:0:
322,93,165380,1,0,0:0:0:0:
349,99,165447,1,0,0:0:0:0:
402,113,165514,1,8,0:0:0:0:
475,154,165648,1,8,0:0:0:0:
59,169,165916,1,0,0:0:0:0:
338,128,166050,5,8,0:0:0:0:
341,134,166116,1,8,0:0:0:0:
346,137,166183,1,0,0:0:0:0:
350,134,166317,1,8,0:0:0:0:
350,134,166451,1,0,0:0:0:0:
347,128,166585,1,8,0:0:0:0:
347,152,166652,1,8,0:0:0:0:
347,152,166719,1,0,0:0:0:0:
350,149,166853,1,8,0:0:0:0:
350,149,166987,1,0,0:0:0:0:
361,127,167255,1,8,0:0:0:0:
268,61,167389,1,0,0:0:0:0:
441,111,167657,1,8,0:0:0:0:
441,111,167791,1,0,0:0:0:0:
441,111,167858,1,8,0:0:0:0:
441,111,168058,1,0,0:0:0:0:
397,65,168326,1,0,0:0:0:0:
319,56,168460,1,0,0:0:0:0:
309,68,168594,1,0,0:0:0:0:
309,68,168661,1,0,0:0:0:0:
314,79,168728,1,8,0:0:0:0:
506,88,168795,1,0,0:0:0:0:
314,150,168862,1,0,0:0:0:0:
314,97,168929,1,0,0:0:0:0:
256,97,168996,1,8,0:0:0:0:
239,45,169130,1,0,0:0:0:0:
307,137,169264,5,8,0:0:0:0:
305,103,169331,1,0,0:0:0:0:
305,103,169398,1,0,0:0:0:0:
305,112,169465,1,0,0:0:0:0:
305,112,169532,1,8,0:0:0:0:
307,115,169666,1,0,0:0:0:0:
307,115,169800,1,8,0:0:0:0:
305,117,169866,1,8,0:0:0:0:
305,117,169933,1,0,0:0:0:0:
303,126,170000,1,0,0:0:0:0:
298,139,170067,1,8,0:0:0:0:
296,135,170201,1,0,0:0:0:0:
296,135,170335,5,8,0:0:0:0:
296,135,170402,1,8,0:0:0:0:
296,135,170469,1,8,0:0:0:0:
296,135,170536,1,0,0:0:0:0:
296,135,170603,1,8,0:0:0:0:
296,135,170737,1,0,0:0:0:0:
296,135,170871,1,8,0:0:0:0:
296,135,170938,1,0,0:0:0:0:
296,135,171005,1,8,0:0:0:0:
221,178,171072,1,0,0:0:0:0:
216,175,171139,1,8,0:0:0:0:
291,96,171273,1,0,0:0:0:0:
303,100,171407,5,8,0:0:0:0:
303,100,171474,1,0,0:0:0:0:
303,100,171541,1,0,0:0:0:0:
167,55,171608,1,0,0:0:0:0:
176,73,171675,1,8,0:0:0:0:
176,73,171741,1,0,0:0:0:0:
176,73,171808,1,8,0:0:0:0:
303,100,171942,1,8,0:0:0:0:
285,52,172009,1,8,0:0:0:0:
303,100,172076,1,0,0:0:0:0:
212,84,172143,1,0,0:0:0:0:
212,84,172210,1,8,0:0:0:0:
212,84,172277,1,8,0:0:0:0:
212,84,172344,1,0,0:0:0:0:
301,91,172478,1,8,0:0:0:0:
301,91,172545,1,8,0:0:0:0:
301,91,172612,1,8,0:0:0:0:
208,113,172679,1,0,0:0:0:0:
208,113,172746,1,8,0:0:0:0:
208,113,172813,1,8,0:0:0:0:
208,113,172880,1,0,0:0:0:0:
305,77,173014,1,8,0:0:0:0:
307,80,173081,1,0,0:0:0:0:
263,79,173148,1,8,0:0:0:0:
203,138,173215,1,0,0:0:0:0:
203,138,173282,1,8,0:0:0:0:
203,145,173349,1,0,0:0:0:0:
205,148,173416,1,8,0:0:0:0:
305,77,173550,1,8,0:0:0:0:
305,77,173616,1,0,0:0:0:0:
305,77,173683,1,0,0:0:0:0:
210,111,173750,1,0,0:0:0:0:
273,116,173817,1,8,0:0:0:0:
273,116,173884,1,0,0:0:0:0:
273,116,173951,1,0,0:0:0:0:
210,111,174018,1,0,0:0:0:0:
273,91,174085,1,8,0:0:0:0:
273,91,174152,1,8,0:0:0:0:
273,91,174219,1,0,0:0:0:0:
210,111,174286,1,0,0:0:0:0:
273,91,174353,1,8,0:0:0:0:
273,91,174420,1,8,0:0:0:0:
273,91,174487,1,0,0:0:0:0:
273,91,174621,1,8,0:0:0:0:
273,91,174688,1,8,0:0:0:0:
273,91,174755,1,8,0:0:0:0:
210,111,174822,1,0,0:0:0:0:
273,91,174889,1,8,0:0:0:0:
273,91,174956,1,8,0:0:0:0:
273,91,175023,1,0,0:0:0:0:
210,111,175157,1,8,0:0:0:0:
210,111,175224,1,0,0:0:0:0:
273,91,175291,1,8,0:0:0:0:
273,91,175358,1,0,0:0:0:0:
273,91,175425,1,8,0:0:0:0:
210,111,175491,1,0,0:0:0:0:
273,91,175558,1,8,0:0:0:0:
273,91,175625,1,0,0:0:0:0:
273,91,175692,1,8,0:0:0:0:
256,192,175826,12,0,176362,0:0:0:0:
431,177,176496,5,8,0:0:0:0:
431,177,176563,1,8,0:0:0:0:
431,177,176630,1,0,0:0:0:0:
141,146,176764,1,12,0:0:0:0:
342,73,176898,1,0,0:0:0:0:
342,73,176965,1,8,0:0:0:0:
428,119,177032,1,8,0:0:0:0:
428,119,177099,1,0,0:0:0:0:
340,78,177166,1,8,0:0:0:0:
274,115,177300,1,0,0:0:0:0:
231,68,177366,1,8,0:0:0:0:
505,127,177500,1,0,0:0:0:0:
213,104,177567,1,8,0:0:0:0:
213,104,177701,1,8,0:0:0:0:
208,99,177835,1,0,0:0:0:0:
297,108,177969,1,8,0:0:0:0:
297,108,178036,1,0,0:0:0:0:
426,117,178103,1,8,0:0:0:0:
426,117,178170,1,8,0:0:0:0:
285,101,178237,1,0,0:0:0:0:
285,101,178371,1,8,0:0:0:0:
285,101,178438,1,0,0:0:0:0:
361,94,178572,1,8,0:0:0:0:
281,101,178639,1,0,0:0:0:0:
281,101,178773,1,0,0:0:0:0:
281,101,178907,1,8,0:0:0:0:
263,138,179041,1,0,0:0:0:0:
263,138,179108,1,8,0:0:0:0:
436,93,179175,1,0,0:0:0:0:
436,93,179241,1,0,0:0:0:0:
263,138,179308,1,8,0:0:0:0:
258,133,179442,1,0,0:0:0:0:
319,122,179509,1,8,0:0:0:0:
361,94,179643,1,0,0:0:0:0:
222,113,179710,1,8,0:0:0:0:
222,113,179844,1,8,0:0:0:0:
199,122,179978,1,0,0:0:0:0:
199,122,180112,1,8,0:0:0:0:
197,126,180179,1,0,0:0:0:0:
416,102,180246,1,0,0:0:0:0:
416,102,180313,1,8,0:0:0:0:
197,126,180380,1,0,0:0:0:0:
190,69,180514,1,8,0:0:0:0:
179,69,180648,1,8,0:0:0:0:
179,69,180782,1,8,0:0:0:0:
170,74,180916,1,0,0:0:0:0:
196,178,180983,1,0,0:0:0:0:
186,88,181050,1,8,0:0:0:0:
67,93,181183,1,0,0:0:0:0:
246,131,181250,1,8,0:0:0:0:
422,97,181317,1,0,0:0:0:0:
422,97,181384,1,0,0:0:0:0:
222,138,181451,1,8,0:0:0:0:
184,128,181585,1,0,0:0:0:0:
184,128,181652,1,8,0:0:0:0:
179,125,181853,1,8,0:0:0:0:
121,113,181987,1,8,0:0:0:0:
254,71,182121,1,8,0:0:0:0:
255,82,182255,1,0,0:0:0:0:
301,79,182322,5,0,0:0:0:0:
255,82,182389,1,8,0:0:0:0:
206,69,182523,1,8,0:0:0:0:
204,66,182657,1,0,0:0:0:0:
341,145,182791,1,0,0:0:0:0:
381,91,182858,1,8,0:0:0:0:
373,117,182925,1,8,0:0:0:0:
288,94,183058,1,8,0:0:0:0:
294,100,183192,1,0,0:0:0:0:
274,92,183326,1,0,0:0:0:0:
288,112,183393,1,0,0:0:0:0:
274,92,183460,1,8,0:0:0:0:
274,92,183594,1,8,0:0:0:0:
271,88,183728,1,0,0:0:0:0:
330,153,183862,1,0,0:0:0:0:
321,41,183929,1,8,0:0:0:0:
268,103,183996,1,8,0:0:0:0:
181,60,184130,1,8,0:0:0:0:
181,60,184264,1,0,0:0:0:0:
190,84,184398,1,8,0:0:0:0:
188,86,184465,1,0,0:0:0:0:
361,73,184532,1,0,0:0:0:0:
414,107,184599,1,8,0:0:0:0:
188,53,184666,1,0,0:0:0:0:
186,86,184800,1,0,0:0:0:0:
188,89,184866,1,8,0:0:0:0:
321,35,184933,1,8,0:0:0:0:
321,35,185000,1,0,0:0:0:0:
188,89,185067,1,8,0:0:0:0:
179,60,185201,1,8,0:0:0:0:
303,136,185335,1,0,0:0:0:0:
303,136,185469,1,0,0:0:0:0:
318,112,185536,1,0,0:0:0:0:
303,136,185603,1,8,0:0:0:0:
298,130,185737,1,0,0:0:0:0:
344,123,185871,1,8,0:0:0:0:
350,92,186005,1,0,0:0:0:0:
291,73,186072,1,0,0:0:0:0:
281,82,186139,1,8,0:0:0:0:
281,82,186273,1,8,0:0:0:0:
417,117,186407,1,8,0:0:0:0:
417,126,186496,1,0,0:0:0:0:
417,126,186585,1,0,0:0:0:0:
420,129,186675,1,8,0:0:0:0:
213,92,186808,1,0,0:0:0:0:
213,92,186942,1,8,0:0:0:0:
309,138,187076,1,0,0:0:0:0:
309,138,187143,1,8,0:0:0:0:
315,130,187277,1,0,0:0:0:0:
306,118,187344,1,8,0:0:0:0:
336,142,187478,1,0,0:0:0:0:
339,156,187612,1,0,0:0:0:0:
339,156,187679,1,0,0:0:0:0:
339,156,187746,1,8,0:0:0:0:
310,127,187880,1,0,0:0:0:0:
310,127,188014,1,8,0:0:0:0:
347,95,188148,1,8,0:0:0:0:
330,76,188215,1,8,0:0:0:0:
441,109,188282,1,0,0:0:0:0:
452,112,188416,1,0,0:0:0:0:
341,133,188550,1,8,0:0:0:0:
333,124,188683,1,8,0:0:0:0:
269,40,188750,5,8,0:0:0:0:
333,124,188817,1,0,0:0:0:0:
298,97,188951,1,8,0:0:0:0:
347,96,189018,1,8,0:0:0:0:
310,94,189085,1,0,0:0:0:0:
257,109,189219,1,0,0:0:0:0:
257,129,189286,1,0,0:0:0:0:
257,129,189353,1,8,0:0:0:0:
248,133,189487,1,0,0:0:0:0:
248,133,189554,1,0,0:0:0:0:
248,133,189621,1,8,0:0:0:0:
366,121,189755,1,0,0:0:0:0:
321,123,189822,1,8,0:0:0:0:
302,52,189889,1,8,0:0:0:0:
302,52,189956,1,0,0:0:0:0:
321,127,190023,1,8,0:0:0:0:
304,121,190157,1,0,0:0:0:0:
304,123,190224,1,8,0:0:0:0:
225,57,190358,1,0,0:0:0:0:
301,74,190425,1,8,0:0:0:0:
210,142,190558,1,8,0:0:0:0:
210,142,190692,1,8,0:0:0:0:
300,88,190826,1,0,0:0:0:0:
405,116,190893,1,0,0:0:0:0:
349,61,190960,1,8,0:0:0:0:
337,71,191094,1,0,0:0:0:0:
340,79,191228,1,8,0:0:0:0:
390,141,191362,1,0,0:0:0:0:
369,96,191429,1,8,0:0:0:0:
267,141,191563,1,0,0:0:0:0:
300,97,191630,1,8,0:0:0:0:
302,97,191764,5,8,0:0:0:0:
300,97,191898,1,0,0:0:0:0:
300,97,191965,1,8,0:0:0:0:
367,81,192099,1,0,0:0:0:0:
398,155,192166,1,8,0:0:0:0:
307,100,192300,1,0,0:0:0:0:
363,119,192366,1,0,0:0:0:0:
350,72,192433,1,0,0:0:0:0:
276,123,192567,1,8,0:0:0:0:
270,123,192701,1,0,0:0:0:0:
420,120,192835,1,12,0:0:0:0:
420,120,192969,1,12,0:0:0:0:
420,120,193103,1,4,0:0:0:0:
420,120,193237,1,4,0:0:0:0:
420,120,193371,1,12,0:0:0:0:
420,120,193505,1,12,0:0:0:0:
440,111,193639,1,4,0:0:0:0:
440,111,193773,1,0,0:0:0:0:
446,184,193840,1,0,0:0:0:0:
141,146,193907,1,12,0:0:0:0:
342,73,194041,1,0,0:0:0:0:
342,73,194108,1,8,0:0:0:0:
428,119,194175,1,8,0:0:0:0:
428,119,194241,1,0,0:0:0:0:
340,78,194308,1,8,0:0:0:0:
274,115,194442,1,0,0:0:0:0:
231,68,194509,1,8,0:0:0:0:
505,127,194643,1,0,0:0:0:0:
213,104,194710,1,8,0:0:0:0:
213,104,194844,1,8,0:0:0:0:
208,99,194978,1,0,0:0:0:0:
297,108,195112,1,8,0:0:0:0:
297,108,195179,1,0,0:0:0:0:
426,117,195246,1,8,0:0:0:0:
426,117,195313,1,8,0:0:0:0:
285,101,195380,1,0,0:0:0:0:
285,101,195514,1,8,0:0:0:0:
285,101,195581,1,0,0:0:0:0:
361,94,195715,1,8,0:0:0:0:
281,101,195782,1,0,0:0:0:0:
281,101,195916,1,0,0:0:0:0:
281,101,196050,1,8,0:0:0:0:
263,138,196183,1,0,0:0:0:0:
263,138,196250,1,8,0:0:0:0:
436,93,196317,1,0,0:0:0:0:
436,93,196384,1,0,0:0:0:0:
263,138,196451,1,8,0:0:0:0:
258,133,196585,1,0,0:0:0:0:
319,122,196652,1,8,0:0:0:0:
361,94,196786,1,0,0:0:0:0:
222,113,196853,1,8,0:0:0:0:
222,113,196987,1,8,0:0:0:0:
199,122,197121,1,0,0:0:0:0:
199,122,197255,1,8,0:0:0:0:
197,126,197322,1,0,0:0:0:0:
416,102,197389,1,0,0:0:0:0:
416,102,197456,1,8,0:0:0:0:
197,126,197523,1,0,0:0:0:0:
190,69,197657,1,8,0:0:0:0:
179,69,197791,1,8,0:0:0:0:
179,69,197925,1,8,0:0:0:0:
170,74,198058,1,0,0:0:0:0:
196,178,198125,1,0,0:0:0:0:
186,88,198192,1,8,0:0:0:0:
67,93,198326,1,0,0:0:0:0:
246,131,198393,1,8,0:0:0:0:
422,97,198460,1,0,0:0:0:0:
422,97,198527,1,0,0:0:0:0:
222,138,198594,1,8,0:0:0:0:
184,128,198728,1,0,0:0:0:0:
184,128,198795,1,8,0:0:0:0:
179,125,198996,1,8,0:0:0:0:
121,113,199130,1,8,0:0:0:0:
254,71,199264,1,8,0:0:0:0:
255,82,199398,1,0,0:0:0:0:
301,79,199465,5,0,0:0:0:0:
255,82,199532,1,8,0:0:0:0:
206,69,199666,1,8,0:0:0:0:
204,66,199800,1,0,0:0:0:0:
341,145,199933,1,0,0:0:0:0:
381,91,200000,1,8,0:0:0:0:
373,117,200067,1,8,0:0:0:0:
288,94,200201,1,8,0:0:0:0:
294,100,200335,1,0,0:0:0:0:
274,92,200469,1,0,0:0:0:0:
288,112,200536,1,0,0:0:0:0:
274,92,200603,1,8,0:0:0:0:
274,92,200737,1,8,0:0:0:0:
271,88,200871,1,0,0:0:0:0:
330,153,201005,1,0,0:0:0:0:
321,41,201072,1,8,0:0:0:0:
268,103,201139,1,8,0:0:0:0:
181,60,201273,1,8,0:0:0:0:
181,60,201407,1,0,0:0:0:0:
190,84,201541,1,8,0:0:0:0:
188,86,201608,1,0,0:0:0:0:
361,73,201675,1,0,0:0:0:0:
414,107,201741,1,8,0:0:0:0:
188,53,201808,1,0,0:0:0:0:
186,86,201942,1,0,0:0:0:0:
188,89,202009,1,8,0:0:0:0:
321,35,202076,1,8,0:0:0:0:
321,35,202143,1,0,0:0:0:0:
188,89,202210,1,8,0:0:0:0:
179,60,202344,1,8,0:0:0:0:
303,136,202478,1,0,0:0:0:0:
303,136,202612,1,0,0:0:0:0:
318,112,202679,1,0,0:0:0:0:
303,136,202746,1,8,0:0:0:0:
298,130,202880,1,0,0:0:0:0:
344,123,203014,1,8,0:0:0:0:
350,92,203148,1,0,0:0:0:0:
291,73,203215,1,0,0:0:0:0:
281,82,203282,1,8,0:0:0:0:
281,82,203416,1,8,0:0:0:0:
417,117,203550,1,8,0:0:0:0:
417,126,203639,1,0,0:0:0:0:
417,126,203728,1,0,0:0:0:0:
420,129,203817,1,8,0:0:0:0:
213,92,203951,1,0,0:0:0:0:
213,92,204085,1,8,0:0:0:0:
309,138,204219,1,0,0:0:0:0:
309,138,204286,1,8,0:0:0:0:
315,130,204420,1,0,0:0:0:0:
306,118,204487,1,8,0:0:0:0:
336,142,204621,1,0,0:0:0:0:
339,156,204755,1,0,0:0:0:0:
339,156,204822,1,0,0:0:0:0:
339,156,204889,1,8,0:0:0:0:
310,127,205023,1,0,0:0:0:0:
310,127,205157,1,8,0:0:0:0:
347,95,205291,1,8,0:0:0:0:
330,76,205358,1,8,0:0:0:0:
441,109,205425,1,0,0:0:0:0:
452,112,205558,1,0,0:0:0:0:
341,133,205692,1,8,0:0:0:0:
333,124,205826,1,8,0:0:0:0:
269,40,205893,5,8,0:0:0:0:
333,124,205960,1,0,0:0:0:0:
298,97,206094,1,8,0:0:0:0:
347,96,206161,1,8,0:0:0:0:
310,94,206228,1,0,0:0:0:0:
257,109,206362,1,0,0:0:0:0:
257,129,206429,1,0,0:0:0:0:
257,129,206496,1,8,0:0:0:0:
248,133,206630,1,0,0:0:0:0:
248,133,206697,1,0,0:0:0:0:
248,133,206764,1,8,0:0:0:0:
366,121,206898,1,0,0:0:0:0:
321,123,206965,1,8,0:0:0:0:
302,52,207032,1,8,0:0:0:0:
302,52,207099,1,0,0:0:0:0:
321,127,207166,1,8,0:0:0:0:
304,121,207300,1,0,0:0:0:0:
304,123,207366,1,8,0:0:0:0:
225,57,207500,1,0,0:0:0:0:
301,74,207567,1,8,0:0:0:0:
210,142,207701,1,8,0:0:0:0:
210,142,207835,1,8,0:0:0:0:
300,88,207969,1,0,0:0:0:0:
349,61,208103,1,8,0:0:0:0:
337,71,208237,1,0,0:0:0:0:
340,79,208371,1,8,0:0:0:0:
390,141,208505,1,0,0:0:0:0:
369,96,208572,1,8,0:0:0:0:
267,141,208706,1,0,0:0:0:0:
300,97,208773,1,8,0:0:0:0:
302,97,208907,5,8,0:0:0:0:
300,97,209041,1,0,0:0:0:0:
300,97,209108,1,8,0:0:0:0:
367,81,209241,1,0,0:0:0:0:
398,155,209308,1,8,0:0:0:0:
307,100,209442,1,0,0:0:0:0:
363,119,209509,1,0,0:0:0:0:
350,72,209576,1,0,0:0:0:0:
276,123,209710,1,8,0:0:0:0:
270,123,209844,1,0,0:0:0:0:
387,128,209978,1,12,0:0:0:0:
387,128,210112,1,12,0:0:0:0:
387,126,210246,1,4,0:0:0:0:
387,128,210380,1,4,0:0:0:0:
387,128,210514,1,12,0:0:0:0:
387,128,210648,1,12,0:0:0:0:
387,128,210782,1,4,0:0:0:0:
387,126,210916,1,4,0:0:0:0:
429,89,211050,5,8,0:0:0:0:
231,100,211183,1,0,0:0:0:0:
226,111,211317,1,0,0:0:0:0:
234,98,211451,1,0,0:0:0:0:
170,170,211518,1,0,0:0:0:0:
233,110,211585,1,8,0:0:0:0:
185,121,211853,1,0,0:0:0:0:
230,40,211987,1,0,0:0:0:0:
274,109,212121,1,8,0:0:0:0:
310,147,212255,1,0,0:0:0:0:
336,99,212322,1,0,0:0:0:0:
276,107,212389,1,0,0:0:0:0:
324,145,212523,1,0,0:0:0:0:
276,107,212657,1,8,0:0:0:0:
310,145,212791,1,0,0:0:0:0:
276,107,212925,1,8,0:0:0:0:
243,77,213192,1,8,0:0:0:0:
324,165,213326,1,0,0:0:0:0:
243,82,213460,1,0,0:0:0:0:
188,131,213594,1,0,0:0:0:0:
243,95,213728,1,8,0:0:0:0:
243,97,213996,1,0,0:0:0:0:
330,108,214130,1,0,0:0:0:0:
245,100,214264,1,8,0:0:0:0:
226,52,214331,5,0,0:0:0:0:
226,61,214398,1,0,0:0:0:0:
228,63,214532,1,8,0:0:0:0:
230,75,214599,1,8,0:0:0:0:
233,77,214666,1,0,0:0:0:0:
70,128,214800,1,0,0:0:0:0:
83,114,214866,1,0,0:0:0:0:
83,114,214933,1,0,0:0:0:0:
394,74,215000,1,0,0:0:0:0:
223,148,215067,1,0,0:0:0:0:
223,148,215134,1,0,0:0:0:0:
223,148,215201,1,0,0:0:0:0:
223,148,215268,1,0,0:0:0:0:
221,174,215335,1,8,0:0:0:0:
256,192,215469,12,8,219621,0:0:0:0:
