osu file format v14

[General]
AudioFilename: audio.mp3
AudioLeadIn: 0
PreviewTime: -1
Countdown: 0
SampleSet: Soft
StackLeniency: 0.7
Mode: 0
LetterboxInBreaks: 0
WidescreenStoryboard: 0

[Editor]
DistanceSpacing: 0.6
BeatDivisor: 4
GridSize: 4
TimelineZoom: 4.899998

[Metadata]
Title:FREEDOM DiVE
TitleUnicode:FREEDOM DiVE↓
Artist:xi
ArtistUnicode:xi
Creator:Crystal
Version:Vibration
Source:BMS
Tags:parousia happy hardcore cut ver. version
BeatmapID:1130791
BeatmapSetID:533756

[Difficulty]
HPDrainRate:6
CircleSize:4
OverallDifficulty:9.3
ApproachRate:10
SliderMultiplier:1.8
SliderTickRate:1

[Events]
//Background and Video events
0,0,"bg.png",0,0
//Break Periods
2,28177,36167
2,82177,90167
//Storyboard Layer 0 (Background)
//Storyboard Layer 1 (Fail)
//Storyboard Layer 2 (Pass)
//Storyboard Layer 3 (Foreground)
//Storyboard Layer 4 (Overlay)
//Storyboard Sound Samples

[TimingPoints]
2057,270.002700027,4,2,1,60,1,0
14207,-80,4,2,1,60,0,0
15017,-100,4,2,1,60,0,0
22847,-80,4,2,1,60,0,0
23657,-100,4,2,1,60,0,0
56057,-80,4,2,1,60,0,0
56327,-100,4,2,1,60,0,0
64697,-83.3333333333333,4,2,1,60,0,0
77657,-66.6666666666667,4,2,1,60,0,0
81977,-100,4,2,1,60,0,0
90617,-133.333333333333,4,2,1,60,0,0
98177,-100,4,2,1,60,0,0
107628,-500,4,2,1,60,0,0
107898,-80,4,2,1,60,0,1
120858,-66.6666666666667,4,2,1,60,0,1
125110,-66.6666666666667,4,2,1,60,0,0
125178,-80,4,2,1,60,0,1
138138,-66.6666666666667,4,2,1,60,0,1
142458,-80,4,2,1,60,0,0

[Colours]
Combo1 : 255,128,64
Combo2 : 0,255,255
Combo3 : 0,128,255
Combo4 : 255,128,192

[HitObjects]
297,115,2057,6,0,B|353:112|353:112|381:121|381:121|442:118,2,135
184,62,2597,2,0,P|165:115|169:171,1,90
288,314,2867,2,0,P|285:269|268:227,1,90
55,301,3137,6,0,L|193:295,2,135
55,301,3677,1,0,0:0:0:0:
188,201,3812,1,0,0:0:0:0:
293,307,3947,2,0,P|301:330|297:362,3,45
277,377,4217,6,0,P|347:361|403:384,2,135
87,359,4757,2,0,L|79:259,1,90
204,56,5027,1,0,0:0:0:0:
192,182,5162,1,0,0:0:0:0:
466,176,5297,6,0,P|391:178|373:197,1,90
369,208,5499,2,0,L|375:70,1,135
231,36,5837,1,0,0:0:0:0:
188,52,5904,1,0,0:0:0:0:
142,41,5972,2,0,L|136:11,3,22.5
93,119,6107,5,0,0:0:0:0:
49,115,6174,1,0,0:0:0:0:
15,144,6242,1,0,0:0:0:0:
12,187,6309,1,0,0:0:0:0:
38,223,6377,6,0,L|32:333,1,90
32,349,6579,2,0,B|77:333|77:333|140:346,1,90
154,352,6782,1,0,0:0:0:0:
320,358,6917,2,0,L|313:255,1,90
458,364,7187,1,0,0:0:0:0:
443,230,7322,1,0,0:0:0:0:
301,142,7457,6,0,B|391:138|330:110|431:106,2,135
145,82,7997,2,0,L|44:76,1,90
20,196,8267,1,0,0:0:0:0:
23,240,8334,1,0,0:0:0:0:
26,285,8402,1,0,0:0:0:0:
29,329,8469,1,0,0:0:0:0:
34,374,8537,6,0,L|126:368,1,90
167,373,8739,2,0,P|218:357|225:275,1,135
230,283,9212,1,0,0:0:0:0:
122,215,9347,1,0,0:0:0:0:
123,368,9482,1,0,0:0:0:0:
365,346,9617,5,0,0:0:0:0:
408,337,9684,1,0,0:0:0:0:
441,307,9752,2,0,L|477:309,4,22.5
311,110,10022,2,0,L|275:108,3,22.5
350,88,10157,5,0,0:0:0:0:
333,129,10224,1,0,0:0:0:0:
356,167,10292,1,0,0:0:0:0:
339,208,10359,1,0,0:0:0:0:
358,249,10427,5,0,0:0:0:0:
320,207,10494,1,0,0:0:0:0:
267,192,10562,1,0,0:0:0:0:
214,207,10629,1,0,0:0:0:0:
177,248,10697,6,0,B|192:204|192:204|183:155,1,90
21,41,10967,2,0,B|6:85|6:85|15:134,1,90
260,91,11237,2,0,L|356:87,1,90
335,322,11507,2,0,L|245:318,1,90
470,279,11777,6,0,B|486:322|486:322|475:376,1,90
242,181,12047,2,0,L|336:176,1,90
81,338,12317,2,0,B|65:295|65:295|76:241,1,90
357,176,12587,1,0,0:0:0:0:
281,364,12722,1,0,0:0:0:0:
73,251,12857,6,0,L|177:247,1,90
458,277,13127,2,0,L|368:280,1,90
38,143,13397,2,0,L|160:138,1,90
491,173,13667,2,0,L|385:177,1,90
6,146,13937,6,0,B|30:184|30:184|19:243,1,90
136,362,14207,6,0,B|175:346|175:346|215:359|215:359|256:342|256:342|297:358,1,168.75
318,371,14477,2,0,L|328:255,1,112.5
224,163,14679,2,0,L|214:275,1,112.5
214,275,14882,1,0,0:0:0:0:
403,157,15017,6,0,P|452:139|474:104,1,90
264,82,15287,2,0,P|260:29|283:-5,1,90
387,284,15557,2,0,P|435:304|475:293,1,90
118,265,15827,1,0,0:0:0:0:
229,198,15962,6,0,B|264:261|264:261|227:370,1,180
229,363,16299,1,0,0:0:0:0:
229,363,16367,2,0,L|322:354,1,90
46,315,16637,1,0,0:0:0:0:
172,269,16772,1,0,0:0:0:0:
145,267,16839,1,0,0:0:0:0:
118,265,16907,1,0,0:0:0:0:
303,128,17042,1,0,0:0:0:0:
271,130,17109,1,0,0:0:0:0:
239,132,17177,6,0,B|329:135|329:135|414:193,1,180
143,160,17582,1,0,0:0:0:0:
439,105,17717,2,0,L|425:294,1,180
378,27,18122,1,0,0:0:0:0:
294,321,18257,6,0,L|234:317,3,45
161,340,18527,2,0,L|101:336,3,45
21,351,18797,5,0,0:0:0:0:
3,310,18864,1,0,0:0:0:0:
7,265,18932,1,0,0:0:0:0:
32,228,18999,1,0,0:0:0:0:
71,208,19067,5,0,0:0:0:0:
127,203,19134,1,0,0:0:0:0:
179,221,19202,1,0,0:0:0:0:
231,239,19269,1,0,0:0:0:0:
287,235,19337,6,0,L|280:132,1,90
456,267,19607,2,0,L|462:356,1,90
222,82,19877,2,0,B|264:63|264:63|322:69,1,90
182,328,20147,2,0,B|140:347|140:347|82:341,1,90
341,184,20417,6,0,L|435:179,1,90
467,176,20619,1,0,0:0:0:0:
467,176,20687,2,0,B|486:213|486:213|475:271,1,90
216,368,20957,2,0,L|213:276,1,90
211,242,21159,1,0,0:0:0:0:
211,242,21227,2,0,B|246:228|246:228|306:241,1,90
52,306,21497,5,0,0:0:0:0:
88,118,21632,1,0,0:0:0:0:
88,118,21699,1,0,0:0:0:0:
88,118,21767,2,0,L|82:214,1,90
330,97,22037,5,0,0:0:0:0:
182,260,22172,1,0,0:0:0:0:
182,260,22239,1,0,0:0:0:0:
182,260,22307,2,0,B|209:238|209:238|282:248,1,90
476,332,22577,5,0,0:0:0:0:
226,336,22712,1,0,0:0:0:0:
226,336,22779,1,0,0:0:0:0:
226,336,22847,6,0,L|407:334,1,168.75
476,332,23117,6,0,B|505:287|505:287|500:212,1,112.5
431,126,23319,2,0,B|402:171|402:171|407:246,1,112.5
281,246,23522,1,0,0:0:0:0:
252,238,23589,1,0,0:0:0:0:
226,246,23657,6,0,L|118:245,1,90
394,334,23927,2,0,L|502:333,1,90
136,245,24197,2,0,L|28:244,1,90
392,166,24467,1,0,0:0:0:0:
270,244,24602,6,0,B|339:239|339:239|377:255|377:255|454:251,1,180
480,249,24939,1,0,0:0:0:0:
480,249,25007,2,0,L|485:156,1,90
202,31,25277,2,0,L|206:124,1,90
208,155,25479,1,0,0:0:0:0:
208,155,25547,2,0,B|252:140|252:140|314:145,1,90
375,306,25817,6,0,L|371:369,3,45
322,311,26087,2,0,L|318:374,3,45
238,317,26357,2,0,L|234:380,3,45
135,326,26627,2,0,L|131:389,3,45
46,248,26897,5,0,0:0:0:0:
29,218,26964,1,0,0:0:0:0:
25,185,27032,1,0,0:0:0:0:
33,153,27099,1,0,0:0:0:0:
53,125,27167,1,0,0:0:0:0:
83,112,27234,1,0,0:0:0:0:
98,83,27302,1,0,0:0:0:0:
91,51,27369,1,0,0:0:0:0:
64,31,27437,5,0,0:0:0:0:
75,69,27504,1,0,0:0:0:0:
97,101,27572,1,0,0:0:0:0:
129,124,27639,1,0,0:0:0:0:
167,135,27707,1,0,0:0:0:0:
206,133,27774,1,0,0:0:0:0:
242,119,27842,1,0,0:0:0:0:
272,93,27909,1,0,0:0:0:0:
292,59,27977,5,0,0:0:0:0:
152,78,36617,6,0,L|51:72,1,90
145,163,36887,2,0,L|44:157,1,90
236,246,37157,6,0,L|337:240,1,90
243,331,37427,2,0,L|344:325,1,90
462,200,37697,6,0,B|476:228|476:228|471:268,2,60
407,136,37967,2,0,L|412:44,1,90
188,92,38237,2,0,B|246:126|246:126|321:106,2,135
311,108,38777,6,0,L|306:197,1,90
117,310,39047,2,0,L|112:220,1,90
376,284,39317,2,0,P|307:307|210:246,1,180
453,52,39857,6,0,B|463:97|463:97|452:149,1,90
371,267,40127,2,0,B|361:312|361:312|370:354,1,90
136,178,40397,2,0,B|222:151|222:151|322:197,1,180
217,258,40937,5,0,0:0:0:0:
108,91,41882,1,0,0:0:0:0:
108,91,41949,1,0,0:0:0:0:
108,91,42017,6,0,B|198:81|198:81|269:137|269:137|381:127,1,270
357,254,42557,2,0,B|269:247|269:247|198:303|198:303|108:293,1,270
46,192,43097,6,0,L|39:135,7,45
124,153,43637,2,0,L|117:96,3,45
204,126,43907,2,0,L|197:69,3,45
332,156,44177,5,0,0:0:0:0:
328,182,44244,1,0,0:0:0:0:
324,209,44312,1,0,0:0:0:0:
320,235,44379,1,0,0:0:0:0:
317,262,44447,1,0,0:0:0:0:
314,288,44514,1,0,0:0:0:0:
311,315,44582,1,0,0:0:0:0:
308,341,44649,1,0,0:0:0:0:
352,365,44717,5,0,0:0:0:0:
387,362,44784,1,0,0:0:0:0:
421,350,44852,1,0,0:0:0:0:
451,329,44919,1,0,0:0:0:0:
474,302,44987,1,0,0:0:0:0:
489,270,45054,1,0,0:0:0:0:
495,234,45122,1,0,0:0:0:0:
492,198,45189,1,0,0:0:0:0:
480,165,45257,6,0,L|466:65,1,90
289,81,45527,2,0,L|276:170,1,90
148,338,45797,1,0,0:0:0:0:
80,298,45932,1,0,0:0:0:0:
42,230,46067,1,0,0:0:0:0:
44,152,46202,1,0,0:0:0:0:
85,86,46337,6,0,L|80:33,2,45
184,205,46607,2,0,L|188:249,2,45
264,86,46877,1,0,0:0:0:0:
297,82,46944,1,0,0:0:0:0:
331,85,47012,1,0,0:0:0:0:
361,99,47079,1,0,0:0:0:0:
385,123,47147,1,0,0:0:0:0:
411,143,47214,1,0,0:0:0:0:
444,150,47282,1,0,0:0:0:0:
478,149,47349,1,0,0:0:0:0:
511,143,47417,6,0,L|502:45,1,90
407,244,47687,2,0,L|415:333,1,90
207,191,47957,2,0,B|250:176|250:176|304:195,1,90
122,341,48227,2,0,B|80:355|80:355|37:340,1,90
311,204,48497,6,0,P|319:253|302:291,1,90
25,327,48767,2,0,P|17:278|34:240,1,90
175,36,49037,2,0,L|167:196,1,135
166,222,49307,1,0,0:0:0:0:
166,222,49442,1,0,0:0:0:0:
366,80,49577,6,0,L|458:70,1,90
168,170,49847,2,0,L|76:160,1,90
292,278,50117,2,0,B|346:269|346:269|377:280|377:280|430:274,1,135
427,349,50387,2,0,L|331:361,1,90
229,374,50589,1,0,0:0:0:0:
219,365,50657,6,0,B|186:325|186:325|190:230,1,135
114,236,50927,2,0,L|110:332,1,90
268,239,51197,2,0,L|273:141,1,90
124,36,51467,2,0,L|119:125,1,90
449,197,51737,6,0,B|459:152|459:152|445:96,1,90
433,198,52007,2,0,B|443:153|443:153|429:97,1,90
227,297,52277,6,0,B|269:307|269:307|314:297,1,90
315,102,52547,2,0,B|270:92|270:92|228:103,1,90
205,116,52750,1,0,0:0:0:0:
205,116,52817,6,0,L|211:205,1,90
396,364,53087,2,0,L|402:274,1,90
51,284,53357,2,0,B|123:280|123:280|164:300|164:300|236:296,1,180
361,182,53762,1,0,0:0:0:0:
208,26,53897,6,0,L|204:125,1,90
230,319,54167,2,0,L|234:229,1,90
436,128,54437,2,0,B|452:171|452:171|445:224,1,90
65,214,54707,2,0,B|60:171|60:171|76:128,1,90
256,44,54977,5,0,0:0:0:0:
194,181,55112,1,0,0:0:0:0:
185,160,55180,1,0,0:0:0:0:
177,139,55247,1,0,0:0:0:0:
173,315,55382,2,0,L|112:310,1,45
256,340,55517,5,0,0:0:0:0:
300,344,55584,1,0,0:0:0:0:
343,331,55652,1,0,0:0:0:0:
378,303,55719,1,0,0:0:0:0:
399,264,55787,1,0,0:0:0:0:
421,225,55854,1,0,0:0:0:0:
460,204,55922,1,0,0:0:0:0:
504,207,55989,1,0,0:0:0:0:
492,248,56057,6,0,L|481:78,1,168.75
476,41,56327,2,0,P|417:52|384:87,1,90
244,87,56597,2,0,P|224:143|237:189,1,90
167,310,56867,2,0,P|206:355|252:366,1,90
258,361,57070,1,0,0:0:0:0:
275,344,57137,5,0,0:0:0:0:
266,244,57272,1,0,0:0:0:0:
403,361,57407,2,0,L|498:354,1,90
376,169,57677,5,0,0:0:0:0:
367,269,57812,1,0,0:0:0:0:
258,116,57947,2,0,L|163:123,1,90
139,130,58150,1,0,0:0:0:0:
110,137,58217,6,0,B|98:163|98:163|106:235,1,90
324,214,58487,2,0,B|336:240|336:240|329:300,1,90
191,378,58757,2,0,L|200:224,1,135
207,263,59027,2,0,L|201:162,1,90
198,145,59230,1,0,0:0:0:0:
194,118,59297,5,0,0:0:0:0:
88,230,59432,1,0,0:0:0:0:
290,120,59567,2,0,P|270:63|234:35,1,90
293,239,59837,5,0,0:0:0:0:
109,219,59972,1,0,0:0:0:0:
353,383,60107,2,0,B|373:344|373:344|360:279,1,90
127,352,60377,6,0,L|242:347,1,90
197,109,60647,2,0,L|312:104,1,90
41,256,60917,2,0,L|156:251,1,90
344,183,61187,2,0,L|459:178,1,90
473,177,61390,1,0,0:0:0:0:
473,177,61457,6,0,L|464:280,1,90
179,261,61727,2,0,L|170:364,1,90
317,170,61997,2,0,L|308:273,1,90
36,240,62267,2,0,L|27:343,1,90
120,105,62537,5,0,0:0:0:0:
200,138,62672,1,0,0:0:0:0:
284,121,62807,1,0,0:0:0:0:
336,53,62942,1,0,0:0:0:0:
256,100,63077,5,0,0:0:0:0:
218,191,63212,1,0,0:0:0:0:
237,287,63347,1,0,0:0:0:0:
315,347,63482,1,0,0:0:0:0:
490,268,63617,5,0,0:0:0:0:
498,224,63684,1,0,0:0:0:0:
486,181,63752,1,0,0:0:0:0:
456,148,63819,1,0,0:0:0:0:
414,133,63887,1,0,0:0:0:0:
369,138,63954,1,0,0:0:0:0:
332,162,64022,1,0,0:0:0:0:
310,201,64089,1,0,0:0:0:0:
280,232,64157,5,0,0:0:0:0:
230,260,64224,1,0,0:0:0:0:
173,270,64292,1,0,0:0:0:0:
116,260,64359,1,0,0:0:0:0:
67,231,64427,1,0,0:0:0:0:
30,187,64494,1,0,0:0:0:0:
15,132,64562,1,0,0:0:0:0:
15,75,64629,1,0,0:0:0:0:
74,17,64697,6,0,B|149:9|149:9|210:72,1,161.999995056153
200,91,64967,2,0,L|319:85,1,107.999996704102
422,246,65237,5,0,0:0:0:0:
422,246,65305,2,0,P|442:202|437:138,1,107.999996704102
438,143,65507,1,0,0:0:0:0:
285,200,65642,1,0,0:0:0:0:
86,340,65777,6,0,B|182:302|134:373|243:331,1,161.999995056153
326,380,66047,2,0,L|334:272,1,107.999996704102
148,97,66317,5,0,0:0:0:0:
151,120,66385,2,0,L|166:241,1,107.999996704102
168,247,66587,1,0,0:0:0:0:
316,109,66722,1,0,0:0:0:0:
443,183,66857,6,0,B|350:166|396:227|290:206,1,161.999995056153
257,191,67127,1,0,0:0:0:0:
312,344,67262,1,0,0:0:0:0:
80,299,67397,5,0,0:0:0:0:
60,280,67465,2,0,P|44:236|56:169,1,107.999996704102
129,96,67667,2,0,L|242:88,1,107.999996704102
472,138,67937,5,0,0:0:0:0:
257,191,68072,1,0,0:0:0:0:
257,191,68140,1,0,0:0:0:0:
257,191,68207,1,0,0:0:0:0:
473,252,68342,1,0,0:0:0:0:
224,333,68477,6,0,P|193:312|176:291,1,53.9999983520508
440,360,68612,2,0,P|476:351|499:338,1,53.9999983520508
270,242,68747,2,0,P|258:206|257:178,1,53.9999983520508
417,209,68882,2,0,P|434:176|439:149,1,53.9999983520508
511,51,69017,6,0,B|456:67|456:67|342:54,1,161.999995056153
333,45,69287,2,0,L|210:54,1,107.999996704102
62,181,69557,5,0,0:0:0:0:
225,52,69692,1,0,0:0:0:0:
154,228,69827,1,0,0:0:0:0:
42,69,69962,1,0,0:0:0:0:
307,153,70097,5,0,0:0:0:0:
359,162,70164,1,0,0:0:0:0:
411,148,70232,1,0,0:0:0:0:
451,112,70299,1,0,0:0:0:0:
471,63,70367,5,0,0:0:0:0:
435,102,70434,1,0,0:0:0:0:
421,153,70502,1,0,0:0:0:0:
436,205,70569,1,0,0:0:0:0:
473,243,70637,5,0,0:0:0:0:
503,287,70704,1,0,0:0:0:0:
496,339,70772,1,0,0:0:0:0:
456,374,70839,1,0,0:0:0:0:
403,373,70907,5,0,0:0:0:0:
348,338,70974,1,0,0:0:0:0:
286,321,71042,1,0,0:0:0:0:
221,322,71109,1,0,0:0:0:0:
160,342,71177,6,0,L|80:351,3,53.9999983520508
54,243,71447,2,0,L|-26:251,3,53.9999983520508
115,157,71717,5,0,0:0:0:0:
164,117,71784,1,0,0:0:0:0:
224,97,71852,1,0,0:0:0:0:
288,98,71919,1,0,0:0:0:0:
347,120,71987,5,0,0:0:0:0:
401,154,72054,1,0,0:0:0:0:
464,147,72122,1,0,0:0:0:0:
510,104,72189,1,0,0:0:0:0:
472,53,72257,6,0,L|467:-1,3,53.9999983520508
380,71,72527,1,0,0:0:0:0:
323,106,72594,1,0,0:0:0:0:
287,162,72662,1,0,0:0:0:0:
278,229,72729,1,0,0:0:0:0:
300,292,72797,5,0,0:0:0:0:
246,349,72865,2,0,B|290:318|290:318|346:323,1,107.999996704102
420,316,73067,1,0,0:0:0:0:
84,338,73202,1,0,0:0:0:0:
383,213,73337,6,0,P|410:210|442:199,3,53.9999983520508
314,127,73607,2,0,P|331:105|345:75,3,53.9999983520508
198,127,73877,2,0,P|180:105|166:75,3,53.9999983520508
129,213,74147,2,0,P|101:210|70:199,3,53.9999983520508
216,362,74417,5,0,0:0:0:0:
325,346,74507,1,0,0:0:0:0:
229,278,74597,1,0,0:0:0:0:
342,264,74687,6,0,L|340:201,1,53.9999983520508
434,341,74822,2,0,L|432:278,1,53.9999983520508
489,56,74957,6,0,B|462:84|462:84|469:163,1,107.999996704102
475,181,75160,2,0,L|352:180,1,107.999996704102
242,177,75362,1,0,0:0:0:0:
58,288,75497,6,0,L|47:353,3,53.9999983520508
60,199,75767,2,0,L|49:134,3,53.9999983520508
147,306,76037,6,0,L|136:371,3,53.9999983520508
149,183,76307,2,0,L|138:118,3,53.9999983520508
235,317,76577,6,0,L|224:382,1,53.9999983520508
234,173,76712,2,0,L|223:108,1,53.9999983520508
319,326,76847,2,0,L|308:391,1,53.9999983520508
317,164,76982,2,0,L|306:99,1,53.9999983520508
406,334,77117,5,0,0:0:0:0:
402,151,77252,1,0,0:0:0:0:
490,342,77387,1,0,0:0:0:0:
485,135,77522,1,0,0:0:0:0:
99,218,77657,6,0,B|131:234|131:234|240:226,1,135.000005149842
310,218,77860,2,0,L|299:353,1,135.000005149842
299,352,78062,1,0,0:0:0:0:
165,130,78197,5,0,0:0:0:0:
157,150,78265,2,0,B|141:118|141:118|149:9,1,135.000005149842
148,19,78467,1,0,0:0:0:0:
322,53,78602,1,0,0:0:0:0:
414,197,78737,5,0,0:0:0:0:
427,250,78804,1,0,0:0:0:0:
409,303,78872,1,0,0:0:0:0:
366,338,78939,1,0,0:0:0:0:
311,345,79007,5,0,0:0:0:0:
259,316,79074,1,0,0:0:0:0:
198,317,79142,1,0,0:0:0:0:
146,347,79209,1,0,0:0:0:0:
59,381,79277,5,0,0:0:0:0:
64,347,79345,2,0,L|72:276,1,67.5000025749208
169,118,79480,5,0,0:0:0:0:
170,152,79548,2,0,L|170:223,1,67.5000025749208
333,259,79682,5,0,0:0:0:0:
345,267,79750,1,0,0:0:0:0:
357,275,79817,6,0,L|431:265,2,67.5000025749208
251,197,80020,2,0,L|177:187,2,67.5000025749208
306,96,80222,2,0,L|380:86,1,67.5000025749208
185,83,80357,5,0,0:0:0:0:
139,104,80424,1,0,0:0:0:0:
106,142,80492,1,0,0:0:0:0:
92,191,80559,1,0,0:0:0:0:
98,241,80627,1,0,0:0:0:0:
125,284,80694,1,0,0:0:0:0:
167,312,80762,1,0,0:0:0:0:
216,321,80829,1,0,0:0:0:0:
265,310,80897,5,0,0:0:0:0:
326,293,80964,1,0,0:0:0:0:
390,297,81032,1,0,0:0:0:0:
450,320,81099,1,0,0:0:0:0:
489,368,81167,5,0,0:0:0:0:
425,359,81234,1,0,0:0:0:0:
372,325,81302,1,0,0:0:0:0:
338,271,81369,1,0,0:0:0:0:
331,207,81437,5,0,0:0:0:0:
356,145,81504,1,0,0:0:0:0:
344,80,81572,1,0,0:0:0:0:
299,31,81639,1,0,0:0:0:0:
234,15,81707,5,0,0:0:0:0:
171,36,81774,1,0,0:0:0:0:
130,88,81842,1,0,0:0:0:0:
124,155,81909,1,0,0:0:0:0:
165,229,81977,5,0,0:0:0:0:
114,55,90617,6,0,P|95:103|105:139,1,67.5000025749208
104,203,90887,2,0,P|124:250|157:268,1,67.5000025749208
196,320,91157,2,0,P|244:339|280:329,1,67.5000025749208
343,348,91427,2,0,P|390:327|408:294,1,67.5000025749208
456,252,91697,5,0,0:0:0:0:
506,189,91832,1,0,0:0:0:0:
462,121,91967,1,0,0:0:0:0:
384,142,92102,1,0,0:0:0:0:
380,222,92237,1,0,0:0:0:0:
305,247,92372,1,0,0:0:0:0:
258,180,92507,1,0,0:0:0:0:
307,115,92642,1,0,0:0:0:0:
323,121,92710,1,0,0:0:0:0:
339,126,92777,6,0,L|259:120,1,67.5000025749208
124,153,93047,2,0,L|44:147,1,67.5000025749208
270,215,93317,2,0,L|338:221,1,67.5000025749208
55,244,93587,2,0,L|122:249,1,67.5000025749208
248,377,93857,5,0,0:0:0:0:
241,282,93992,1,0,0:0:0:0:
349,373,94127,1,0,0:0:0:0:
342,278,94262,1,0,0:0:0:0:
155,355,94397,5,0,0:0:0:0:
241,282,94532,1,0,0:0:0:0:
147,266,94667,1,0,0:0:0:0:
233,193,94802,1,0,0:0:0:0:
218,186,94870,1,0,0:0:0:0:
205,175,94937,6,0,P|181:178|154:173,3,33.7500012874604
97,147,95207,2,0,P|76:134|59:114,3,33.7500012874604
144,48,95477,6,0,P|159:42|176:40,3,33.7500012874604
257,37,95747,2,0,P|272:42|287:51,3,33.7500012874604
295,197,96017,6,0,L|291:246,7,33.7500012874604
377,199,96557,2,0,L|373:248,7,33.7500012874604
417,332,97097,6,0,P|398:344|372:352,3,33.7500012874604
291,363,97367,2,0,P|268:362|242:355,3,33.7500012874604
173,338,97637,2,0,P|155:324|138:303,3,33.7500012874604
108,236,97907,1,0,0:0:0:0:
94,205,97974,1,0,0:0:0:0:
92,171,98042,1,0,0:0:0:0:
100,138,98109,1,0,0:0:0:0:
118,110,98177,6,0,L|16:104,1,90
241,127,98447,2,0,L|343:121,1,90
115,283,98717,2,0,B|88:255|88:255|95:194,1,90
311,366,98987,2,0,B|338:338|338:338|331:277,1,90
207,98,99257,5,0,0:0:0:0:
228,232,99392,1,0,0:0:0:0:
435,122,99527,2,0,L|335:127,1,90
321,129,99730,1,0,0:0:0:0:
298,131,99797,6,0,P|300:177|331:220,1,90
472,368,100067,2,0,P|498:330|500:277,1,90
494,265,100270,1,0,0:0:0:0:
482,241,100337,6,0,L|462:193,3,45
422,128,100607,2,0,L|402:80,3,45
311,83,100877,2,0,L|329:125,3,45
371,196,101147,2,0,L|389:238,3,45
330,315,101417,5,0,0:0:0:0:
302,327,101484,1,0,0:0:0:0:
273,330,101552,1,0,0:0:0:0:
243,325,101619,1,0,0:0:0:0:
217,312,101687,2,0,P|205:293|197:259,3,45
352,62,101957,5,0,0:0:0:0:
382,88,102024,1,0,0:0:0:0:
404,122,102092,1,0,0:0:0:0:
415,161,102159,1,0,0:0:0:0:
415,201,102227,2,0,P|399:225|362:256,3,45
240,292,102498,5,0,0:0:0:0:
211,291,102565,1,0,0:0:0:0:
183,288,102633,1,0,0:0:0:0:
158,278,102700,1,0,0:0:0:0:
139,257,102768,1,0,0:0:0:0:
121,235,102835,1,0,0:0:0:0:
95,225,102903,1,0,0:0:0:0:
67,221,102970,1,0,0:0:0:0:
39,226,103038,5,0,0:0:0:0:
71,211,103105,1,0,0:0:0:0:
96,186,103173,1,0,0:0:0:0:
109,152,103240,1,0,0:0:0:0:
109,117,103308,2,0,L|101:58,3,45
230,130,103578,5,0,0:0:0:0:
252,147,103645,1,0,0:0:0:0:
277,160,103713,1,0,0:0:0:0:
304,167,103780,1,0,0:0:0:0:
333,167,103848,1,0,0:0:0:0:
360,162,103915,1,0,0:0:0:0:
386,151,103983,1,0,0:0:0:0:
409,134,104050,1,0,0:0:0:0:
428,113,104118,5,0,0:0:0:0:
379,129,104185,1,0,0:0:0:0:
342,166,104253,1,0,0:0:0:0:
326,216,104320,1,0,0:0:0:0:
334,267,104388,2,0,P|344:289|370:309,3,45
512,358,104658,5,0,0:0:0:0:
492,321,104725,1,0,0:0:0:0:
465,291,104793,1,0,0:0:0:0:
432,268,104860,1,0,0:0:0:0:
394,253,104928,1,0,0:0:0:0:
353,247,104995,1,0,0:0:0:0:
313,252,105063,1,0,0:0:0:0:
274,265,105130,1,0,0:0:0:0:
240,287,105198,5,0,0:0:0:0:
225,329,105265,1,0,0:0:0:0:
191,358,105333,1,0,0:0:0:0:
147,366,105400,1,0,0:0:0:0:
105,350,105468,1,0,0:0:0:0:
77,316,105535,1,0,0:0:0:0:
69,273,105603,1,0,0:0:0:0:
85,231,105670,1,0,0:0:0:0:
119,202,105738,5,0,0:0:0:0:
162,189,105805,1,0,0:0:0:0:
206,186,105873,1,0,0:0:0:0:
247,204,105940,1,0,0:0:0:0:
287,223,106008,1,0,0:0:0:0:
332,225,106075,1,0,0:0:0:0:
377,217,106143,1,0,0:0:0:0:
416,196,106210,1,0,0:0:0:0:
438,157,106278,5,0,0:0:0:0:
387,132,106345,1,0,0:0:0:0:
332,137,106413,1,0,0:0:0:0:
287,169,106480,1,0,0:0:0:0:
264,220,106548,1,0,0:0:0:0:
270,275,106615,1,0,0:0:0:0:
303,319,106683,1,0,0:0:0:0:
354,341,106750,1,0,0:0:0:0:
438,341,106818,5,0,0:0:0:0:
70,78,107628,6,0,L|72:110,1,27
16,153,107898,6,0,B|126:134|77:202|223:177,1,168.75
261,153,108168,1,0,0:0:0:0:
52,234,108303,1,0,0:0:0:0:
295,360,108438,5,0,0:0:0:0:
295,360,108505,2,0,L|290:242,1,112.5
288,228,108708,1,0,0:0:0:0:
441,222,108843,1,0,0:0:0:0:
179,288,108978,6,0,B|160:233|160:233|186:156,1,112.5
190,159,109180,1,0,0:0:0:0:
201,140,109248,1,0,0:0:0:0:
379,163,109383,1,0,0:0:0:0:
72,80,109518,5,0,0:0:0:0:
75,113,109585,2,0,L|80:192,1,56.25
265,343,109788,1,0,0:0:0:0:
273,229,109923,1,0,0:0:0:0:
467,180,110058,6,0,P|502:249|478:350,1,168.75
467,367,110328,2,0,P|408:373|349:356,1,112.5
123,237,110598,1,0,0:0:0:0:
123,237,110665,2,0,P|188:228|236:273,1,112.5
246,323,110868,1,0,0:0:0:0:
232,138,111003,1,0,0:0:0:0:
33,266,111138,6,0,L|38:326,1,56.25
130,363,111273,1,0,0:0:0:0:
163,359,111340,1,0,0:0:0:0:
196,355,111408,1,0,0:0:0:0:
347,238,111543,1,0,0:0:0:0:
403,340,111678,5,0,0:0:0:0:
167,260,111813,1,0,0:0:0:0:
449,199,111948,5,0,0:0:0:0:
237,346,112083,1,0,0:0:0:0:
496,360,112218,6,0,L|490:182,1,168.75
489,158,112488,2,0,B|433:151|433:151|376:190,1,112.5
290,328,112758,1,0,0:0:0:0:
237,346,112825,1,0,0:0:0:0:
182,338,112893,1,0,0:0:0:0:
136,306,112960,1,0,0:0:0:0:
110,257,113028,1,0,0:0:0:0:
58,240,113095,1,0,0:0:0:0:
14,271,113163,1,0,0:0:0:0:
12,325,113230,1,0,0:0:0:0:
55,359,113298,6,0,L|127:349,3,56.25
215,262,113568,2,0,L|286:251,3,56.25
452,340,113838,2,0,L|397:348,1,56.25
490,242,113973,2,0,L|434:249,1,56.25
419,156,114108,2,0,L|363:163,1,56.25
456,57,114243,2,0,L|400:64,1,56.25
285,46,114378,5,0,0:0:0:0:
233,25,114445,1,0,0:0:0:0:
177,32,114513,1,0,0:0:0:0:
132,65,114580,1,0,0:0:0:0:
113,118,114648,5,0,0:0:0:0:
115,174,114715,1,0,0:0:0:0:
118,230,114783,1,0,0:0:0:0:
120,286,114850,1,0,0:0:0:0:
157,330,114918,5,0,0:0:0:0:
221,314,114985,1,0,0:0:0:0:
263,262,115053,1,0,0:0:0:0:
264,196,115120,1,0,0:0:0:0:
225,143,115188,1,0,0:0:0:0:
251,204,115255,1,0,0:0:0:0:
308,239,115323,1,0,0:0:0:0:
374,235,115390,1,0,0:0:0:0:
464,217,115458,6,0,L|457:98,1,112.5
453,83,115660,1,0,0:0:0:0:
447,62,115728,1,0,0:0:0:0:
337,136,115863,1,0,0:0:0:0:
88,60,115998,5,0,0:0:0:0:
88,60,116065,2,0,B|123:105|123:105|88:182,1,112.5
23,262,116268,2,0,L|17:205,1,56.25
131,298,116403,2,0,L|137:365,1,56.25
297,357,116538,5,0,0:0:0:0:
350,340,116605,1,0,0:0:0:0:
391,303,116673,1,0,0:0:0:0:
412,251,116740,1,0,0:0:0:0:
409,196,116808,2,0,P|400:165|381:138,3,56.25
301,55,117078,5,0,0:0:0:0:
247,37,117145,1,0,0:0:0:0:
192,38,117213,1,0,0:0:0:0:
140,59,117280,1,0,0:0:0:0:
98,97,117348,1,0,0:0:0:0:
73,147,117415,1,0,0:0:0:0:
66,202,117483,1,0,0:0:0:0:
79,257,117550,1,0,0:0:0:0:
109,302,117618,5,0,0:0:0:0:
205,292,117708,1,0,0:0:0:0:
149,216,117798,1,0,0:0:0:0:
170,376,117888,6,0,L|237:373,1,56.25
263,231,118023,2,0,L|330:234,1,56.25
393,350,118158,6,0,L|505:345,1,112.5
429,158,118360,2,0,B|402:196|402:196|409:282,1,112.5
407,261,118563,1,0,0:0:0:0:
253,369,118698,6,0,L|249:296,3,56.25
241,173,118968,2,0,L|237:100,3,56.25
357,159,119238,6,0,P|385:159|412:152,1,56.25
156,59,119373,2,0,P|143:84|138:111,1,56.25
146,193,119508,6,0,P|117:193|90:186,1,56.25
331,239,119643,2,0,P|343:264|348:291,1,56.25
182,360,119778,5,0,0:0:0:0:
126,349,119845,1,0,0:0:0:0:
77,322,119913,1,0,0:0:0:0:
39,281,119980,1,0,0:0:0:0:
15,231,120048,1,0,0:0:0:0:
8,175,120115,1,0,0:0:0:0:
18,120,120183,1,0,0:0:0:0:
55,78,120250,1,0,0:0:0:0:
106,55,120318,5,0,0:0:0:0:
161,56,120385,1,0,0:0:0:0:
212,80,120453,1,0,0:0:0:0:
248,123,120520,1,0,0:0:0:0:
246,179,120588,1,0,0:0:0:0:
297,156,120655,1,0,0:0:0:0:
353,154,120723,1,0,0:0:0:0:
406,172,120790,1,0,0:0:0:0:
449,207,120858,6,0,L|454:357,1,135.000005149842
238,305,121060,2,0,B|329:294|329:294|376:317,1,135.000005149842
367,313,121263,1,0,0:0:0:0:
86,345,121398,5,0,0:0:0:0:
70,367,121465,2,0,L|83:228,1,135.000005149842
93,155,121668,1,0,0:0:0:0:
318,89,121803,1,0,0:0:0:0:
231,270,121938,5,0,0:0:0:0:
256,226,122005,1,0,0:0:0:0:
261,176,122073,1,0,0:0:0:0:
245,128,122140,1,0,0:0:0:0:
210,93,122208,5,0,0:0:0:0:
184,136,122275,1,0,0:0:0:0:
179,186,122343,1,0,0:0:0:0:
195,234,122410,1,0,0:0:0:0:
173,334,122478,6,0,L|94:330,2,67.5000025749208
328,291,122680,2,0,L|407:287,2,67.5000025749208
167,241,122883,2,0,L|88:237,1,67.5000025749208
258,147,123018,5,0,0:0:0:0:
308,128,123085,1,0,0:0:0:0:
361,132,123153,1,0,0:0:0:0:
408,159,123220,1,0,0:0:0:0:
440,202,123288,1,0,0:0:0:0:
390,192,123355,1,0,0:0:0:0:
342,206,123423,1,0,0:0:0:0:
305,239,123490,1,0,0:0:0:0:
286,286,123558,5,0,0:0:0:0:
238,301,123625,1,0,0:0:0:0:
188,297,123693,1,0,0:0:0:0:
144,273,123760,1,0,0:0:0:0:
112,234,123828,1,0,0:0:0:0:
98,186,123895,1,0,0:0:0:0:
104,136,123963,1,0,0:0:0:0:
130,92,124030,1,0,0:0:0:0:
170,62,124098,5,0,0:0:0:0:
233,40,124165,1,0,0:0:0:0:
298,54,124233,1,0,0:0:0:0:
345,100,124300,1,0,0:0:0:0:
361,165,124368,2,0,L|349:247,3,67.5000025749208
206,308,124638,5,0,0:0:0:0:
266,266,124705,1,0,0:0:0:0:
339,260,124773,1,0,0:0:0:0:
405,293,124840,1,0,0:0:0:0:
446,354,124908,1,0,0:0:0:0:
387,310,124975,1,0,0:0:0:0:
363,240,125043,1,0,0:0:0:0:
381,170,125110,1,0,0:0:0:0:
436,121,125178,6,0,B|328:140|387:68|250:90,1,168.75
198,118,125448,1,0,0:0:0:0:
405,44,125583,1,0,0:0:0:0:
101,74,125718,5,0,0:0:0:0:
101,74,125785,2,0,B|84:129|84:129|121:197,1,112.5
126,201,125988,1,0,0:0:0:0:
286,54,126123,1,0,0:0:0:0:
242,341,126258,6,0,L|238:213,1,112.5
236,190,126460,1,0,0:0:0:0:
234,148,126528,1,0,0:0:0:0:
369,297,126663,1,0,0:0:0:0:
88,186,126798,5,0,0:0:0:0:
90,223,126865,2,0,L|92:279,1,56.25
396,184,127068,1,0,0:0:0:0:
280,190,127203,1,0,0:0:0:0:
280,362,127338,6,0,B|353:317|353:317|451:361,1,168.75
506,376,127608,2,0,L|497:246,1,112.5
412,81,127878,1,0,0:0:0:0:
412,81,127945,2,0,B|386:114|386:114|397:193,1,112.5
412,260,128148,1,0,0:0:0:0:
272,100,128283,1,0,0:0:0:0:
152,273,128418,6,0,P|183:269|218:256,1,56.25
292,180,128553,1,0,0:0:0:0:
300,147,128620,1,0,0:0:0:0:
285,116,128688,1,0,0:0:0:0:
180,29,128823,1,0,0:0:0:0:
131,153,128958,5,0,0:0:0:0:
380,78,129093,1,0,0:0:0:0:
308,278,129228,5,0,0:0:0:0:
196,45,129363,1,0,0:0:0:0:
455,222,129498,6,0,B|396:220|396:220|364:188|364:188|298:186,1,168.75
227,238,129768,2,0,L|108:236,1,112.5
71,127,130038,1,0,0:0:0:0:
51,76,130105,1,0,0:0:0:0:
76,27,130173,1,0,0:0:0:0:
130,16,130240,1,0,0:0:0:0:
173,48,130308,1,0,0:0:0:0:
220,79,130375,1,0,0:0:0:0:
275,84,130443,1,0,0:0:0:0:
327,63,130510,1,0,0:0:0:0:
362,20,130578,6,0,L|352:104,3,56.25
423,136,130848,2,0,L|412:219,3,56.25
347,353,131118,2,0,L|336:269,1,56.25
246,340,131253,2,0,L|235:256,1,56.25
145,365,131388,2,0,L|134:281,1,56.25
44,352,131523,2,0,L|33:268,1,56.25
22,146,131658,5,0,0:0:0:0:
67,134,131725,1,0,0:0:0:0:
113,130,131793,1,0,0:0:0:0:
158,144,131860,1,0,0:0:0:0:
201,160,131928,5,0,0:0:0:0:
247,156,131995,1,0,0:0:0:0:
293,145,132063,1,0,0:0:0:0:
327,117,132130,1,0,0:0:0:0:
348,74,132198,5,0,0:0:0:0:
303,107,132265,1,0,0:0:0:0:
277,156,132333,1,0,0:0:0:0:
277,212,132400,1,0,0:0:0:0:
301,262,132468,1,0,0:0:0:0:
346,296,132535,1,0,0:0:0:0:
401,306,132603,1,0,0:0:0:0:
454,291,132670,1,0,0:0:0:0:
493,216,132738,6,0,L|481:390,1,168.75
481,384,133008,1,0,0:0:0:0:
167,269,133143,1,0,0:0:0:0:
386,168,133278,1,0,0:0:0:0:
386,168,133345,2,0,B|334:144|334:144|261:158,1,112.5
149,93,133548,2,0,L|205:97,1,56.25
79,146,133683,2,0,L|23:142,1,56.25
33,307,133818,5,0,0:0:0:0:
83,302,133885,1,0,0:0:0:0:
133,298,133953,1,0,0:0:0:0:
184,294,134020,1,0,0:0:0:0:
234,290,134088,2,0,P|244:261|235:223,3,56.25
194,80,134358,5,0,0:0:0:0:
144,54,134425,1,0,0:0:0:0:
89,57,134493,1,0,0:0:0:0:
44,90,134560,1,0,0:0:0:0:
22,142,134628,5,0,0:0:0:0:
72,168,134695,1,0,0:0:0:0:
127,165,134763,1,0,0:0:0:0:
172,132,134830,1,0,0:0:0:0:
194,80,134898,5,0,0:0:0:0:
290,130,134988,1,0,0:0:0:0:
377,56,135078,1,0,0:0:0:0:
451,142,135168,6,0,P|449:178|435:220,1,56.25
320,265,135303,2,0,P|286:252|250:226,1,56.25
68,115,135438,6,0,B|117:85|117:85|178:119,1,112.5
233,164,135640,2,0,L|369:159,1,112.5
435,152,135843,1,0,0:0:0:0:
485,345,135978,5,0,0:0:0:0:
441,309,136045,1,0,0:0:0:0:
387,293,136113,1,0,0:0:0:0:
332,299,136180,1,0,0:0:0:0:
282,324,136248,1,0,0:0:0:0:
246,367,136315,1,0,0:0:0:0:
192,381,136382,1,0,0:0:0:0:
136,374,136450,1,0,0:0:0:0:
86,348,136517,1,0,0:0:0:0:
49,306,136585,1,0,0:0:0:0:
29,254,136653,1,0,0:0:0:0:
26,198,136720,1,0,0:0:0:0:
46,146,136788,1,0,0:0:0:0:
86,108,136855,1,0,0:0:0:0:
136,82,136922,1,0,0:0:0:0:
192,83,136990,1,0,0:0:0:0:
263,136,137058,5,0,0:0:0:0:
326,144,137125,1,0,0:0:0:0:
389,128,137193,1,0,0:0:0:0:
439,87,137260,1,0,0:0:0:0:
470,30,137328,1,0,0:0:0:0:
407,47,137395,1,0,0:0:0:0:
364,93,137463,1,0,0:0:0:0:
350,157,137530,1,0,0:0:0:0:
373,216,137598,1,0,0:0:0:0:
397,275,137665,1,0,0:0:0:0:
377,335,137733,1,0,0:0:0:0:
321,367,137800,1,0,0:0:0:0:
260,354,137868,1,0,0:0:0:0:
200,328,137935,1,0,0:0:0:0:
135,324,138003,1,0,0:0:0:0:
74,343,138070,1,0,0:0:0:0:
0,384,138138,6,0,L|9:225,1,135.000005149842
11,223,138340,2,0,L|20:64,1,135.000005149842
22,59,138543,1,0,0:0:0:0:
223,117,138678,5,0,0:0:0:0:
199,106,138745,2,0,B|242:78|242:78|344:92,1,135.000005149842
401,104,138948,1,0,0:0:0:0:
450,245,139083,1,0,0:0:0:0:
253,353,139218,5,0,0:0:0:0:
300,328,139285,1,0,0:0:0:0:
334,286,139353,1,0,0:0:0:0:
346,234,139420,1,0,0:0:0:0:
283,155,139488,5,0,0:0:0:0:
230,144,139555,1,0,0:0:0:0:
178,156,139623,1,0,0:0:0:0:
136,189,139690,1,0,0:0:0:0:
81,260,139758,6,0,L|6:257,2,67.5000025749208
67,143,139960,2,0,L|-8:140,2,67.5000025749208
121,50,140163,2,0,L|196:47,1,67.5000025749208
286,109,140298,5,0,0:0:0:0:
255,137,140365,1,0,0:0:0:0:
236,175,140433,1,0,0:0:0:0:
231,217,140500,1,0,0:0:0:0:
240,257,140568,1,0,0:0:0:0:
263,293,140635,1,0,0:0:0:0:
296,318,140703,1,0,0:0:0:0:
336,331,140770,1,0,0:0:0:0:
378,329,140838,5,0,0:0:0:0:
365,281,140905,1,0,0:0:0:0:
336,240,140973,1,0,0:0:0:0:
293,213,141040,1,0,0:0:0:0:
244,202,141108,1,0,0:0:0:0:
194,210,141175,1,0,0:0:0:0:
151,235,141243,1,0,0:0:0:0:
119,274,141310,1,0,0:0:0:0:
103,322,141378,6,0,P|137:339|180:342,3,67.5000025749208
296,306,141648,1,0,0:0:0:0:
349,266,141715,1,0,0:0:0:0:
415,264,141783,1,0,0:0:0:0:
470,301,141850,1,0,0:0:0:0:
494,363,141918,5,0,0:0:0:0:
434,332,141985,1,0,0:0:0:0:
396,278,142053,1,0,0:0:0:0:
388,211,142120,1,0,0:0:0:0:
411,149,142188,5,0,0:0:0:0:
352,190,142255,1,0,0:0:0:0:
281,174,142323,1,0,0:0:0:0:
245,112,142390,1,0,0:0:0:0:
266,43,142458,6,0,L|205:28,3,56.25
115,57,142728,2,0,L|54:42,3,56.25
25,150,142998,2,0,L|29:211,3,56.25
96,281,143268,2,0,L|100:342,3,56.25
221,376,143538,5,0,0:0:0:0:
248,382,143605,1,0,0:0:0:0:
276,381,143673,1,0,0:0:0:0:
303,374,143740,1,0,0:0:0:0:
327,360,143808,1,0,0:0:0:0:
348,341,143875,1,0,0:0:0:0:
363,317,143943,1,0,0:0:0:0:
372,291,144010,1,0,0:0:0:0:
372,263,144078,5,0,0:0:0:0:
351,243,144145,1,0,0:0:0:0:
327,230,144213,1,0,0:0:0:0:
299,223,144280,1,0,0:0:0:0:
271,223,144348,1,0,0:0:0:0:
244,230,144415,1,0,0:0:0:0:
220,244,144483,1,0,0:0:0:0:
200,264,144550,1,0,0:0:0:0:
154,332,144618,5,0,0:0:0:0:
124,313,144685,1,0,0:0:0:0:
100,288,144753,1,0,0:0:0:0:
83,257,144820,1,0,0:0:0:0:
74,223,144888,1,0,0:0:0:0:
75,188,144955,1,0,0:0:0:0:
85,154,145023,1,0,0:0:0:0:
103,124,145090,1,0,0:0:0:0:
130,100,145158,1,0,0:0:0:0:
162,85,145225,1,0,0:0:0:0:
196,79,145293,1,0,0:0:0:0:
231,86,145360,1,0,0:0:0:0:
264,100,145428,1,0,0:0:0:0:
289,123,145495,1,0,0:0:0:0:
309,152,145563,1,0,0:0:0:0:
320,186,145630,1,0,0:0:0:0:
437,141,145698,5,0,0:0:0:0:
445,190,145765,1,0,0:0:0:0:
437,240,145833,1,0,0:0:0:0:
413,284,145900,1,0,0:0:0:0:
375,318,145968,1,0,0:0:0:0:
329,337,146035,1,0,0:0:0:0:
279,340,146103,1,0,0:0:0:0:
230,327,146170,1,0,0:0:0:0:
197,288,146238,1,0,0:0:0:0:
150,256,146305,1,0,0:0:0:0:
95,249,146373,1,0,0:0:0:0:
42,268,146440,1,0,0:0:0:0:
3,308,146508,1,0,0:0:0:0:
10,238,146575,1,0,0:0:0:0:
16,168,146643,1,0,0:0:0:0:
22,98,146710,1,0,0:0:0:0:
28,28,146778,5,0,0:0:0:0:
256,192,146845,12,0,150963,0:0:0:0:
