osu file format v14

[General]
AudioFilename: audio.mp3
AudioLeadIn: 0
PreviewTime: 106885
Countdown: 1
SampleSet: Soft
StackLeniency: 0.5
Mode: 0
LetterboxInBreaks: 0
WidescreenStoryboard: 1

[Editor]
Bookmarks: 5439,7322,27977,28052,47492,51737,107763
DistanceSpacing: 1.6
BeatDivisor: 2
GridSize: 32
TimelineZoom: 2.5

[Metadata]
Title:FREEDOM DiVE
TitleUnicode:FREEDOM DiVE
Artist:xi
ArtistUnicode:xi
Creator:Anxient
Version:Normal
Source:BMS
Tags:Cytus Chapter 10 X Happy Hardcore Deathstreams Short version
BeatmapID:1160521
BeatmapSetID:517462

[Difficulty]
HPDrainRate:3
CircleSize:3
OverallDifficulty:3
ApproachRate:4.5
SliderMultiplier:0.65
SliderTickRate:1

[Events]
//Background and Video events
0,0,"10-1.png",0,0
//Break Periods
2,30337,35357
2,84337,89357
//Storyboard Layer 0 (Background)
//Storyboard Layer 1 (Fail)
//Storyboard Layer 2 (Pass)
//Storyboard Layer 3 (Foreground)
//Storyboard Sound Samples

[TimingPoints]
977,270.002700027,4,2,2,30,1,0
1247,-100,4,2,2,20,0,0
2057,-100,4,2,2,70,0,0
10697,-100,4,2,1,70,0,0
16907,-100,4,2,2,70,0,0
17177,-100,4,2,1,70,0,0
18257,-100,4,2,2,70,0,0
19337,-100,4,2,1,70,0,0
27167,-100,4,2,2,70,0,0
27977,-100,4,2,1,70,0,0
41882,-100,4,2,2,70,0,0
42017,-100,4,2,1,70,0,0
45257,-100,4,2,2,70,0,0
47417,-100,4,2,1,70,0,0
62537,-100,4,2,2,70,0,0
64697,-100,4,2,1,75,0,1
74417,-100,4,2,2,65,0,1
74687,-100,4,2,1,75,0,1
80897,-100,4,2,2,70,0,1
81977,-100,4,2,2,70,0,0
90752,-100,4,2,2,70,0,0
97367,-100,4,2,2,70,0,0
98177,-100,4,2,1,70,0,0
103038,-100,4,2,1,70,0,0
104118,-100,4,2,2,70,0,0
107560,-100,4,2,1,5,0,0
107628,-100,4,2,1,70,0,0
107898,-100,4,2,1,75,0,1
117618,-100,4,2,2,65,0,1
117888,-100,4,2,1,75,0,1
134898,-100,4,2,2,65,0,1
135168,-100,4,2,1,75,0,1
145968,-100,4,2,2,70,0,1
146778,-100,4,2,2,70,0,0
148938,-100,4,2,2,30,0,0

[Colours]
Combo1 : 255,255,0
Combo2 : 142,244,201
Combo3 : 255,170,85
Combo4 : 176,225,249

[HitObjects]
85,38,2057,6,0,L|217:31,1,130,4|0,0:0|0:0,0:0:0:0:
299,91,2867,1,2,0:0:0:0:
379,24,3137,2,0,P|398:55|380:155,1,130,2|2,0:0|0:0,0:0:0:0:
180,158,4217,6,0,L|50:164,1,130,4|0,0:0|0:0,0:0:0:0:
44,268,5027,1,2,0:0:0:0:
39,372,5297,2,0,L|116:367,2,65,2|2|0,0:0|0:0|0:0,0:0:0:0:
246,361,6377,6,0,L|376:355,1,130,4|0,0:0|0:0,0:0:0:0:
445,277,7187,1,2,0:0:0:0:
376,199,7457,2,0,L|305:195,2,65,2|2|8,0:0|0:0|0:0,0:0:0:0:
168,189,8537,6,0,L|162:319,2,130,4|4|4,0:0|0:0|0:0,0:0:0:0:
155,84,9887,2,0,P|187:85|217:96,2,65,4|6|6,0:0|0:0|0:0,0:0:0:0:
168,189,10697,6,0,P|230:201|290:172,1,130,4|0,0:0|0:0,0:0:0:0:
320,76,11507,1,8,0:0:0:0:
398,143,11777,2,0,L|392:273,1,130,0|0,0:0|0:0,0:0:0:0:
184,263,12857,6,0,L|54:257,2,130,4|0|0,0:0|0:0|0:0,0:0:0:0:
288,268,14207,1,4,0:0:0:0:
392,272,14477,2,0,L|388:337,1,65,4|0,0:0|0:0,0:0:0:0:
493,340,15017,6,0,L|499:210,1,130,4|0,0:0|0:0,0:0:0:0:
502,106,15827,2,0,L|503:73,1,32.5,12|4,0:0|0:0,0:0:0:0:
399,71,16232,2,0,L|397:103,1,32.5,0|8,0:0|0:0,0:0:0:0:
293,99,16637,2,0,L|215:95,1,65,0|2,0:0|0:0,0:0:0:0:
124,92,17177,6,0,L|118:222,2,130,4|4|6,0:0|0:0|0:0,0:0:0:0:
228,96,18527,2,0,L|293:99,2,65,6|6|6,0:0|0:0|0:0,0:0:0:0:
225,199,19337,6,0,L|219:329,1,130,4|0,0:0|0:0,0:0:0:0:
315,368,20147,1,8,0:0:0:0:
411,329,20417,2,0,L|405:199,1,130,0|0,0:0|0:0,0:0:0:0:
265,44,21497,6,0,L|395:38,1,130,4|0,0:0|0:0,0:0:0:0:
465,114,22307,1,8,0:0:0:0:
405,199,22577,2,0,L|411:329,2,130,0|4|4,0:0|0:0|0:0,0:0:0:0:
315,145,23927,6,0,L|185:139,1,130,8|12,0:0|0:0,0:0:0:0:
142,168,24602,1,12,0:0:0:0:
92,315,25007,2,0,P|134:325|222:302,1,130,12|12,0:0|0:0,0:0:0:0:
304,249,25817,6,0,P|346:239|434:262,2,130,2|10|8,0:0|0:0|0:0,0:0:0:0:
216,305,27167,1,2,0:0:0:0:
148,227,27437,2,0,P|128:165|138:102,1,130,2|4,0:0|0:0,0:0:0:0:
256,192,28247,12,2,30137,0:0:0:0:
256,192,36617,12,4,40937,0:0:0:0:
216,93,42017,6,0,L|346:87,2,130,4|4|4,0:0|0:0|0:0,0:0:0:0:
128,36,43367,1,0,0:0:0:0:
54,110,43637,2,0,P|43:146|99:225,1,130,4|2,0:0|0:0,0:0:0:0:
139,310,44447,2,0,L|136:375,2,65,2|2|2,0:0|0:0|0:0,0:0:0:0:
192,220,45257,6,0,L|322:214,2,130,2|2|4,0:0|0:0|0:0,0:0:0:0:
137,131,46607,1,4,0:0:0:0:
168,31,46877,2,0,P|197:43|221:65,1,65,6|6,0:0|0:0,0:0:0:0:
308,121,47417,6,0,L|438:115,1,130,4|0,0:0|0:0,0:0:0:0:
487,206,48227,1,8,0:0:0:0:
419,285,48497,2,0,L|416:350,2,65,0|8|0,0:0|0:0|0:0,0:0:0:0:
335,223,49307,1,8,0:0:0:0:
252,286,49577,6,0,L|122:280,1,130,0|0,0:0|0:0,0:0:0:0:
57,198,50387,1,8,0:0:0:0:
111,109,50657,2,0,P|122:79|117:39,2,65,0|8|0,0:0|0:0|0:0,0:0:0:0:
57,198,51467,1,8,0:0:0:0:
122,280,51737,6,0,L|252:286,1,130,0|0,0:0|0:0,0:0:0:0:
333,219,52547,1,8,0:0:0:0:
422,273,52817,2,0,P|433:303|428:343,2,65,0|8|8,0:0|0:0|0:0,0:0:0:0:
333,219,53627,1,8,0:0:0:0:
378,125,53897,6,0,L|508:131,2,130,0|0|2,0:0|0:0|0:0,0:0:0:0:
333,219,55247,2,0,L|268:222,2,65,4|4|4,0:0|0:0|0:0,0:0:0:0:
378,125,56057,6,0,P|386:86|316:28,1,130,4|0,0:0|0:0,0:0:0:0:
242,89,56867,1,8,0:0:0:0:
147,45,57137,2,0,P|136:75|141:115,2,65,0|8|0,0:0|0:0|0:0,0:0:0:0:
242,89,57947,1,8,0:0:0:0:
208,187,58217,6,0,L|202:317,2,130,0|0|0,0:0|0:0|0:0,0:0:0:0:
242,89,59567,1,8,0:0:0:0:
314,164,59837,2,0,P|344:175|384:170,1,65,0|8,0:0|0:0,0:0:0:0:
465,118,60377,6,0,P|477:85|424:2,2,130,0|0|0,0:0|0:0|0:0,0:0:0:0:
376,172,61727,2,0,P|365:202|370:242,1,65,8|0,0:0|0:0,0:0:0:0:
443,305,62267,1,8,0:0:0:0:
343,335,62537,6,0,L|213:341,1,130,2|2,0:0|0:0,0:0:0:0:
32,238,63617,2,0,L|162:244,1,130,2|6,0:0|0:0,0:0:0:0:
239,175,64427,1,6,0:0:0:0:
168,97,64697,6,0,P|226:70|289:82,2,130,4|0|0,0:0|0:0|0:0,0:0:0:0:
239,175,66047,1,8,0:0:0:0:
160,243,66317,2,0,L|158:308,1,65,0|8,0:0|0:0,0:0:0:0:
240,371,66857,6,0,P|302:383|360:356,1,130,0|0,0:0|0:0,0:0:0:0:
421,272,67667,1,8,0:0:0:0:
336,211,67937,2,0,P|309:153|322:91,2,130,0|8|0,0:0|0:0|0:0,0:0:0:0:
421,272,69287,6,0,P|439:245|444:211,2,65,8|0|8,0:0|0:0|0:0,0:0:0:0:
336,211,70097,2,0,L|206:205,1,130,0|0,0:0|0:0,0:0:0:0:
137,126,70907,1,8,0:0:0:0:
79,213,71177,6,0,P|84:245|103:272,2,65,0|8|0,0:0|0:0|0:0,0:0:0:0:
137,126,71987,1,8,0:0:0:0:
61,54,72257,2,0,P|97:29|187:33,2,130,0|4|4,0:0|0:0|0:0,0:0:0:0:
137,126,73607,5,8,0:0:0:0:
206,205,73877,2,0,L|336:211,1,130,0|2,0:0|0:0,0:0:0:0:
417,147,74687,1,8,0:0:0:0:
353,64,74957,2,0,L|355:-1,2,65,0|8|0,0:0|0:0|0:0,0:0:0:0:
417,147,75767,6,0,L|482:149,2,65,8|0|8,0:0|0:0|0:0,0:0:0:0:
335,210,76577,2,0,L|270:208,2,65,0|8|0,0:0|0:0|0:0,0:0:0:0:
417,273,77387,1,8,0:0:0:0:
335,336,77657,6,0,L|205:330,1,130,0|0,0:0|0:0,0:0:0:0:
133,254,78467,1,0,0:0:0:0:
52,320,78737,2,0,P|26:262|41:200,1,130,0|0,0:0|0:0,0:0:0:0:
130,147,79547,1,0,0:0:0:0:
186,61,79817,6,0,P|248:46|306:72,2,130,4|4|6,0:0|0:0|0:0,0:0:0:0:
130,147,81167,1,6,0:0:0:0:
186,233,81437,2,0,P|248:247|306:221,1,130,6|6,0:0|0:0,0:0:0:0:
256,192,82112,12,0,84137,0:0:0:0:
128,81,90617,5,0,0:0:0:0:
154,125,90752,2,0,L|150:203,1,65,8|8,0:0|0:0,0:0:0:0:
72,257,91292,2,0,L|75:335,1,65,8|8,0:0|0:0,0:0:0:0:
110,359,91697,6,0,L|174:361,1,65,0|0,0:0|0:0,0:0:0:0:
255,296,92237,2,0,L|319:293,1,65,0|0,0:0|0:0,0:0:0:0:
404,354,92777,5,4,0:0:0:0:
430,310,92912,2,0,L|426:232,1,65,8|8,0:0|0:0,0:0:0:0:
363,162,93452,1,8,0:0:0:0:
431,84,93722,2,0,P|466:88|502:105,2,65,8|8|8,0:0|0:0|0:0,0:0:0:0:
395,46,94397,2,0,L|317:42,1,65,0|0,0:0|0:0,0:0:0:0:
238,92,94937,6,0,L|97:85,1,130,4|0,0:0|0:0,0:0:0:0:
45,168,95747,1,0,0:0:0:0:
103,253,96017,2,0,P|114:290|65:361,2,130,4|4|6,0:0|0:0|0:0,0:0:0:0:
179,182,97367,2,0,L|243:184,2,65,2|2|0,0:0|0:0|0:0,0:0:0:0:
103,253,98177,6,0,P|59:298|66:360,2,130,4|0|2,0:0|0:0|0:0,0:0:0:0:
169,332,99527,1,0,0:0:0:0:
269,306,99797,2,0,L|275:165,1,130,0|2,0:0|0:0,0:0:0:0:
283,72,100607,6,0,L|423:78,1,130,0|0,0:0|0:0,0:0:0:0:
479,158,101418,2,0,P|491:190|453:281,1,130,2|0,0:0|0:0,0:0:0:0:
385,203,102228,1,0,0:0:0:0:
281,217,102498,6,0,L|275:346,2,130,2|0|0,0:0|0:0|0:0,0:0:0:0:
217,134,103848,1,0,0:0:0:0:
136,199,104118,2,0,L|58:195,1,65,2|2,0:0|0:0,0:0:0:0:
29,100,104658,6,0,P|24:65|96:10,2,130,2|0|2,0:0|0:0|0:0,0:0:0:0:
71,196,106008,2,0,L|135:198,2,65,2|2|2,0:0|0:0|0:0,0:0:0:0:
10,280,106818,1,6,0:0:0:0:
261,117,107628,5,10,0:0:0:0:
200,201,107898,2,0,L|70:195,2,130,4|0|0,0:0|0:0|0:0,0:0:0:0:
285,262,109248,2,0,P|296:295|289:331,2,65,8|0|8,0:0|0:0|0:0,0:0:0:0:
346,178,110058,6,0,L|482:184,2,130,2|0|2,0:0|0:0|0:0,0:0:0:0:
261,117,111408,1,8,0:0:0:0:
313,27,111678,2,0,P|338:46|355:74,1,65,2|10,0:0|0:0,0:0:0:0:
346,178,112218,6,0,L|339:314,2,130,2|0|0,0:0|0:0|0:0,0:0:0:0:
261,117,113568,2,0,L|192:113,2,65,8|0|8,0:0|0:0|0:0,0:0:0:0:
346,178,114378,2,0,L|410:175,2,65,0|8|0,0:0|0:0|0:0,0:0:0:0:
250,219,115188,1,8,0:0:0:0:
152,183,115458,6,0,L|145:46,2,130,0|4|4,0:0|0:0|0:0,0:0:0:0:
250,219,116808,2,0,L|247:283,1,65,8|0,0:0|0:0,0:0:0:0:
334,340,117348,1,8,0:0:0:0:
420,283,117618,2,0,L|417:218,1,65,2|8,0:0|0:0,0:0:0:0:
333,158,118158,2,0,L|335:93,1,65,0|8,0:0|0:0,0:0:0:0:
410,20,118698,6,0,P|475:31|496:93,2,130,0|0|0,0:0|0:0|0:0,0:0:0:0:
335,93,120048,2,0,L|205:98,1,130,8|8,0:0|0:0,0:0:0:0:
101,105,120858,6,0,P|44:130|35:192,1,130,0|0,0:0|0:0,0:0:0:0:
120,251,121668,1,12,0:0:0:0:
136,353,121938,2,0,L|6:358,2,130,0|0|6,0:0|0:0|0:0,0:0:0:0:
120,251,123288,2,0,L|249:256,1,130,8|8,0:0|0:0,0:0:0:0:
353,261,124098,6,0,L|356:337,2,65,4|4|4,0:0|0:0|0:0,0:0:0:0:
305,168,124908,1,4,0:0:0:0:
398,120,125178,6,0,P|368:86|276:68,2,130,4|0|0,0:0|0:0|0:0,0:0:0:0:
305,168,126528,1,8,0:0:0:0:
206,135,126798,2,0,P|183:101|177:64,1,65,0|8,0:0|0:0,0:0:0:0:
83,120,127338,6,0,L|78:249,1,130,0|0,0:0|0:0,0:0:0:0:
152,322,128148,1,8,0:0:0:0:
242,269,128418,2,0,L|306:266,1,65,0|10,0:0|0:0,0:0:0:0:
391,327,128958,2,0,L|455:329,1,65,6|14,0:0|0:0,0:0:0:0:
504,237,129498,6,0,L|499:108,2,130,6|0|0,0:0|0:0|0:0,0:0:0:0:
455,329,130848,2,0,L|326:324,1,130,8|8,0:0|0:0,0:0:0:0:
241,262,131658,6,0,P|223:231|250:137,1,130,0|0,0:0|0:0,0:0:0:0:
322,77,132468,1,8,0:0:0:0:
226,36,132738,2,0,L|97:31,1,130,0|4,0:0|0:0,0:0:0:0:
35,115,133548,1,12,0:0:0:0:
90,203,133818,6,0,P|93:231|45:319,2,130,4|0|2,0:0|0:0|0:0,0:0:0:0:
177,146,135168,2,0,L|241:143,2,65,8|0|8,0:0|0:0|0:0,0:0:0:0:
183,249,135978,6,0,L|312:244,1,130,0|0,0:0|0:0,0:0:0:0:
398,302,136788,1,8,0:0:0:0:
481,239,137058,2,0,L|486:110,1,130,0|0,0:0|0:0,0:0:0:0:
403,46,137868,1,8,0:0:0:0:
310,93,138138,6,0,P|307:121|355:209,2,130,2|0|0,0:0|0:0|0:0,0:0:0:0:
226,31,139488,1,8,0:0:0:0:
144,95,139758,2,0,L|141:159,1,65,0|8,0:0|0:0,0:0:0:0:
195,252,140298,6,0,P|133:269|74:247,2,130,4|0|4,0:0|0:0|0:0,0:0:0:0:
272,183,141648,2,0,L|274:118,2,65,4|4|4,0:0|0:0|0:0,0:0:0:0:
295,284,142458,6,0,L|424:289,2,130,4|2|0,0:0|0:0|0:0,0:0:0:0:
272,183,143808,2,0,L|277:54,1,130,8|8,0:0|0:0,0:0:0:0:
372,10,144618,2,0,P|413:16|426:113,2,130,0|0|0,0:0|0:0|0:0,0:0:0:0:
276,53,145968,2,0,L|147:48,1,130,6|6,0:0|0:0,0:0:0:0:
65,114,146778,5,6,0:0:0:0:
256,192,147048,12,0,148938,0:0:0:0:
