osu file format v14

[General]
AudioFilename: audio.mp3
AudioLeadIn: 0
PreviewTime: 106885
Countdown: 1
SampleSet: Soft
StackLeniency: 0.5
Mode: 0
LetterboxInBreaks: 0
WidescreenStoryboard: 1

[Editor]
Bookmarks: 5439,27977,28052,47492
DistanceSpacing: 1
BeatDivisor: 4
GridSize: 32
TimelineZoom: 2.5

[Metadata]
Title:FREEDOM DiVE
TitleUnicode:FREEDOM DiVE
Artist:xi
ArtistUnicode:xi
Creator:Anxient
Version:Another
Source:BMS
Tags:Cytus Chapter 10 X Happy Hardcore Deathstreams Short version
BeatmapID:1099473
BeatmapSetID:517462

[Difficulty]
HPDrainRate:6
CircleSize:4.3
OverallDifficulty:8
ApproachRate:9.3
SliderMultiplier:1.7
SliderTickRate:1

[Events]
//Background and Video events
0,0,"10-1.png",0,0
//Break Periods
2,82177,90063
//Storyboard Layer 0 (Background)
//Storyboard Layer 1 (Fail)
//Storyboard Layer 2 (Pass)
//Storyboard Layer 3 (Foreground)
//Storyboard Sound Samples

[TimingPoints]
977,270.002700027,4,2,2,30,1,0
1247,-133.333333333333,4,2,2,20,0,0
2057,-100,4,2,2,70,0,0
10697,-100,4,2,1,70,0,0
16907,-100,4,2,2,70,0,0
17177,-100,4,2,1,70,0,0
18257,-100,4,2,2,70,0,0
19337,-100,4,2,1,70,0,0
27167,-100,4,2,2,70,0,0
27977,-100,4,2,1,70,0,0
41882,-100,4,2,2,70,0,0
42017,-100,4,2,1,70,0,0
45257,-100,4,2,2,70,0,0
47417,-100,4,2,1,70,0,0
62537,-100,4,2,2,70,0,0
64697,-100,4,2,1,75,0,1
74417,-100,4,2,2,65,0,1
74687,-100,4,2,1,75,0,1
80897,-100,4,2,2,70,0,1
81977,-100,4,2,2,70,0,0
90752,-133.333333333333,4,2,2,70,0,0
97367,-117.647058823529,4,2,2,70,0,0
98177,-117.647058823529,4,2,1,70,0,0
103038,-105.263157894737,4,2,1,70,0,0
104118,-105.263157894737,4,2,2,70,0,0
107560,-105.263157894737,4,2,1,5,0,0
107628,-105.263157894737,4,2,1,70,0,0
107898,-100,4,2,1,75,0,1
117618,-100,4,2,2,65,0,1
117888,-100,4,2,1,75,0,1
134898,-100,4,2,2,65,0,1
135168,-100,4,2,1,75,0,1
145968,-100,4,2,2,70,0,1
146778,-100,4,2,2,70,0,0
148938,-100,4,2,2,30,0,0

[Colours]
Combo1 : 255,255,0
Combo2 : 142,244,201
Combo3 : 255,170,85
Combo4 : 176,225,249

[HitObjects]
208,48,1247,6,0,P|178:21|208:118,1,350.625013375283,0|0,2:0|2:0,0:0:0:0:
149,83,2057,6,0,L|328:88,1,170,4|2,0:0|0:0,0:0:0:0:
479,180,2462,2,0,L|484:1,1,170,2|0,0:0|0:0,0:0:0:0:
376,175,2867,2,0,L|378:264,1,85,2|0,0:0|0:0,0:0:0:0:
399,280,3069,1,2,0:0:0:0:
419,301,3137,1,2,0:0:0:0:
325,335,3272,6,0,B|280:355|242:336|242:336|197:313|151:340,1,170,2|8,0:0|0:0,0:0:0:0:
94,282,3677,2,0,P|83:241|93:188,1,85,2|0,0:0|0:0,0:0:0:0:
208,48,3947,1,2,0:0:0:0:
208,67,4014,1,0,0:0:0:0:
207,85,4082,1,2,0:0:0:0:
206,103,4149,1,0,0:0:0:0:
205,121,4217,1,4,0:0:0:0:
280,274,4352,6,0,L|278:189,1,85,10|2,0:0|0:0,0:0:0:0:
455,259,4622,2,0,L|453:343,1,85,0|0,0:0|0:0,0:0:0:0:
453,343,4892,1,10,0:0:0:0:
377,207,5027,2,0,L|375:122,1,85,2|2,0:0|0:0,0:0:0:0:
387,104,5229,1,2,0:0:0:0:
399,86,5297,2,0,L|483:84,1,85,2|2,0:0|0:0,0:0:0:0:
292,49,5567,2,0,L|207:47,1,85,2|8,0:0|0:0,0:0:0:0:
96,91,5837,6,0,L|53:91,3,42.5,0|0|8|0,0:0|0:0|0:0|0:0,0:0:0:0:
127,113,6107,2,0,L|128:197,1,85,8|8,0:0|0:0,0:0:0:0:
135,375,6377,5,4,0:0:0:0:
53,263,6512,2,0,P|33:232|27:202,2,42.5,2|0|2,0:0|0:0|0:0,0:0:0:0:
197,296,6782,2,0,L|376:301,1,170,0|0,0:0|0:0,0:0:0:0:
467,236,7187,2,0,L|529:234,2,42.5,2|2|2,0:0|0:0|0:0,0:0:0:0:
362,179,7457,6,0,P|349:128|346:81,1,85,2|0,0:0|0:0,0:0:0:0:
361,81,7659,1,0,0:0:0:0:
376,66,7727,2,0,P|416:77|459:81,1,85,2|0,0:0|0:0,0:0:0:0:
268,152,7997,2,0,L|225:153,2,42.5,8|0|8,0:0|0:0|0:0,0:0:0:0:
366,300,8267,2,0,L|367:384,1,85,0|0,0:0|0:0,0:0:0:0:
286,239,8537,6,0,L|116:243,1,170,4|2,0:0|0:0,0:0:0:0:
116,243,8942,1,2,0:0:0:0:
40,84,9077,6,0,B|32:40|32:40|71:71|71:71|48:111|56:162,1,170,4|2,0:0|0:0,0:0:0:0:
54,143,9482,1,2,0:0:0:0:
188,50,9617,6,0,L|272:49,1,85,4|0,0:0|0:0,0:0:0:0:
361,141,9887,2,0,L|445:140,1,85,4|0,0:0|0:0,0:0:0:0:
286,239,10157,5,6,0:0:0:0:
286,260,10224,1,0,0:0:0:0:
286,281,10292,1,0,0:0:0:0:
286,302,10359,1,0,0:0:0:0:
287,323,10427,2,0,L|329:321,2,42.5,6|0|0,0:0|0:0|0:0,0:0:0:0:
106,329,10697,6,0,P|118:285|107:194,1,127.5,4|0,0:0|0:0,0:0:0:0:
124,172,10967,2,0,L|208:171,1,85,8|0,0:0|0:0,0:0:0:0:
287,322,11237,2,0,L|371:321,1,85,0|0,0:0|0:0,0:0:0:0:
469,209,11507,2,0,P|475:161|462:117,1,85,8|0,0:0|0:0,0:0:0:0:
455,132,11709,1,0,0:0:0:0:
445,139,11777,6,0,L|343:141,1,85,0|0,0:0|0:0,0:0:0:0:
167,89,12047,2,0,P|157:47|164:5,1,85,8|0,0:0|0:0,0:0:0:0:
256,155,12317,2,0,P|262:196|253:238,1,85,0|0,0:0|0:0,0:0:0:0:
226,258,12519,1,0,0:0:0:0:
199,279,12587,2,0,P|192:320|201:362,1,85,8|0,0:0|0:0,0:0:0:0:
371,320,12857,5,4,0:0:0:0:
199,279,12992,2,0,L|114:280,1,85,2|8,0:0|0:0,0:0:0:0:
82,87,13262,2,0,L|166:88,1,85,2|0,0:0|0:0,0:0:0:0:
198,250,13532,2,0,L|113:251,2,85,2|8|0,0:0|0:0|0:0,0:0:0:0:
254,47,13937,6,0,L|338:46,1,85,0|0,0:0|0:0,0:0:0:0:
496,48,14207,1,4,0:0:0:0:
496,48,14342,1,0,0:0:0:0:
415,233,14477,6,0,P|406:191|413:150,1,85,4|0,0:0|0:0,0:0:0:0:
490,192,14679,2,0,P|498:233|491:274,1,85,4|0,0:0|0:0,0:0:0:0:
413,319,14882,1,4,0:0:0:0:
282,249,15017,6,0,L|198:250,1,85,4|0,0:0|0:0,0:0:0:0:
84,169,15287,2,0,P|75:127|82:86,2,85,8|0|0,0:0|0:0|0:0,0:0:0:0:
101,187,15624,1,0,0:0:0:0:
118,205,15692,1,0,0:0:0:0:
236,49,15827,5,12,0:0:0:0:
236,49,15962,2,0,B|257:98|239:133|239:133|221:173|242:220,1,170,4|0,0:0|0:0,0:0:0:0:
260,231,16299,1,0,0:0:0:0:
282,249,16367,2,0,L|283:333,1,85,8|0,0:0|0:0,0:0:0:0:
416,287,16637,1,0,0:0:0:0:
416,287,16772,1,0,0:0:0:0:
251,350,16907,2,0,L|167:351,1,85,2|2,0:0|0:0,0:0:0:0:
149,331,17109,1,2,0:0:0:0:
131,312,17177,6,0,P|88:334|35:226,1,170,4|8,0:0|0:0,0:0:0:0:
19,256,17582,1,0,0:0:0:0:
75,138,17717,2,0,P|118:116|171:224,1,170,4|8,0:0|0:0,0:0:0:0:
186,193,18122,1,0,0:0:0:0:
331,288,18257,6,0,L|415:287,1,85,6|0,0:0|0:0,0:0:0:0:
472,116,18527,2,0,L|388:115,1,85,6|0,0:0|0:0,0:0:0:0:
318,190,18797,1,6,0:0:0:0:
297,165,18864,1,0,0:0:0:0:
285,136,18932,1,0,0:0:0:0:
281,104,18999,1,0,0:0:0:0:
285,73,19067,2,0,P|294:51|312:33,2,42.5,6|0|0,0:0|0:0|0:0,0:0:0:0:
472,116,19337,6,0,L|468:286,1,170,4|8,0:0|0:0,0:0:0:0:
468,285,19742,1,0,0:0:0:0:
331,288,19877,2,0,L|247:287,1,85,0|0,0:0|0:0,0:0:0:0:
234,309,20079,1,0,0:0:0:0:
222,332,20147,2,0,L|138:331,1,85,8|0,0:0|0:0,0:0:0:0:
74,221,20417,6,0,P|68:172|77:129,1,85,0|0,0:0|0:0,0:0:0:0:
153,44,20687,1,8,0:0:0:0:
153,44,20822,1,0,0:0:0:0:
250,186,20957,2,0,L|166:185,1,85,0|0,0:0|0:0,0:0:0:0:
285,73,21227,2,0,L|369:74,1,85,8|0,0:0|0:0,0:0:0:0:
389,90,21429,1,0,0:0:0:0:
408,106,21497,1,4,0:0:0:0:
251,270,21632,6,0,L|250:186,1,85,2|8,0:0|0:0,0:0:0:0:
400,315,21902,2,0,L|401:231,1,85,2|0,0:0|0:0,0:0:0:0:
222,303,22172,2,0,L|221:219,1,85,2|8,0:0|0:0,0:0:0:0:
220,218,22442,1,0,0:0:0:0:
315,354,22577,6,0,L|485:358,1,170,0|4,0:0|0:0,0:0:0:0:
484,357,22982,1,0,0:0:0:0:
491,233,23117,2,0,L|492:149,1,85,4|0,0:0|0:0,0:0:0:0:
492,76,23319,2,0,L|408:77,1,85,4|0,0:0|0:0,0:0:0:0:
407,77,23522,1,6,0:0:0:0:
334,188,23657,6,0,L|164:184,1,170,4|8,0:0|0:0,0:0:0:0:
164,184,24062,1,0,0:0:0:0:
42,105,24197,2,0,P|32:54|39:13,1,85,0|0,0:0|0:0,0:0:0:0:
153,63,24467,1,12,0:0:0:0:
56,227,24602,5,12,0:0:0:0:
56,227,24872,2,0,L|55:269,1,42.5,0|0,0:0|0:0,0:0:0:0:
220,365,25007,2,0,L|221:281,1,85,12|0,0:0|0:0,0:0:0:0:
279,112,25277,2,0,L|278:28,1,85,0|0,0:0|0:0,0:0:0:0:
300,38,25479,1,0,0:0:0:0:
322,49,25547,2,0,L|406:48,1,85,12|0,0:0|0:0,0:0:0:0:
361,211,25817,6,0,L|191:207,1,170,2|2,0:0|0:0,0:0:0:0:
191,207,26222,1,2,0:0:0:0:
55,269,26357,2,0,L|54:353,1,85,10|8,0:0|0:0,0:0:0:0:
95,144,26627,2,0,L|94:60,1,85,8|10,0:0|0:0,0:0:0:0:
112,41,26829,1,0,0:0:0:0:
130,23,26897,6,0,P|173:12|219:31,1,85,8|0,0:0|0:0,0:0:0:0:
279,112,27167,2,0,L|275:282,1,170,2|2,0:0|0:0,0:0:0:0:
275,281,27572,1,2,0:0:0:0:
396,199,27707,2,0,L|480:200,1,85,2|2,0:0|0:0,0:0:0:0:
444,19,27977,6,0,L|316:21,2,127.5,4|0|0,0:0|0:0|0:0,0:0:0:0:
482,115,28517,2,0,L|481:199,1,85,0|0,0:0|0:0,0:0:0:0:
481,284,28787,1,2,0:0:0:0:
481,284,28922,1,0,0:0:0:0:
364,349,29057,6,0,P|347:288|360:226,2,127.5,0|2|0,0:0|0:0|0:0,0:0:0:0:
271,353,29597,2,0,L|143:355,1,127.5,0|0,0:0|0:0,0:0:0:0:
109,330,29867,2,0,L|7:332,1,85,2|0,0:0|0:0,0:0:0:0:
208,271,30137,6,0,P|224:210|211:148,2,127.5,0|0|0,0:0|0:0|0:0,0:0:0:0:
109,330,30677,2,0,L|7:332,1,85,0|0,0:0|0:0,0:0:0:0:
67,255,30947,1,2,0:0:0:0:
67,255,31082,1,0,0:0:0:0:
130,98,31217,6,0,L|2:100,2,127.5,0|0|0,0:0|0:0|0:0,0:0:0:0:
210,148,31757,2,0,P|226:109|222:67,1,85,0|0,0:0|0:0,0:0:0:0:
149,1,32027,1,2,0:0:0:0:
149,1,32162,1,0,0:0:0:0:
322,69,32297,6,0,L|449:71,2,127.5,0|2|0,0:0|0:0|0:0,0:0:0:0:
222,67,32837,2,0,P|225:109|210:148,1,85,0|0,0:0|0:0,0:0:0:0:
64,99,33107,2,0,P|48:60|51:18,1,85,2|0,0:0|0:0,0:0:0:0:
111,202,33377,6,0,L|108:379,1,170,0|2,0:0|0:0,0:0:0:0:
108,371,33782,1,0,0:0:0:0:
7,289,33917,2,0,L|8:204,1,85,0|0,0:0|0:0,0:0:0:0:
57,118,34187,2,0,P|100:99|166:114,1,85,2|0,0:0|0:0,0:0:0:0:
208,271,34457,6,0,L|377:268,2,170,0|2|0,0:0|0:0|0:0,0:0:0:0:
208,271,35132,1,0,0:0:0:0:
286,178,35267,2,0,L|287:93,1,85,2|0,0:0|0:0,0:0:0:0:
425,140,35537,6,0,L|422:292,2,127.5,0|0|0,0:0|0:0|0:0,0:0:0:0:
352,73,36077,2,0,L|199:70,2,127.5,0|0|0,0:0|0:0|0:0,0:0:0:0:
372,58,36549,1,0,0:0:0:0:
395,47,36617,6,0,P|464:51|518:139,1,170,4|2,0:0|0:0,0:0:0:0:
512,128,37022,1,0,0:0:0:0:
422,267,37157,2,0,L|314:269,1,85,0|0,0:0|0:0,0:0:0:0:
208,271,37427,2,0,L|210:163,1,85,2|0,0:0|0:0,0:0:0:0:
137,101,37697,6,0,L|135:44,2,56.6666666666667,0|0|0,0:0|0:0|0:0,0:0:0:0:
112,132,37967,2,0,P|57:148|16:57,2,170,2|0|2,0:0|0:0|0:0,0:0:0:0:
112,132,38642,1,0,0:0:0:0:
208,271,38777,6,0,L|377:268,2,170,4|2|0,0:0|0:0|0:0,0:0:0:0:
208,271,39452,1,0,0:0:0:0:
123,277,39587,2,0,P|111:324|116:361,1,85,2|0,0:0|0:0,0:0:0:0:
209,186,39857,6,0,L|378:183,1,170,0|2,0:0|0:0,0:0:0:0:
378,183,40262,1,0,0:0:0:0:
460,303,40397,2,0,P|464:261|453:221,1,85,0|0,0:0|0:0,0:0:0:0:
382,103,40667,2,0,P|377:60|389:20,1,85,2|0,0:0|0:0,0:0:0:0:
230,62,40937,6,0,L|61:65,1,170,4|0,0:0|0:0,0:0:0:0:
60,65,41342,1,0,0:0:0:0:
101,149,41477,2,0,P|112:189|107:231,1,85,0|0,0:0|0:0,0:0:0:0:
46,302,41747,2,0,P|40:343|52:384,1,85,2|2,0:0|0:0,0:0:0:0:
89,361,41949,1,2,0:0:0:0:
124,338,42017,6,0,L|293:335,1,170,4|0,0:0|0:0,0:0:0:0:
293,334,42422,1,0,0:0:0:0:
465,333,42557,2,0,P|478:285|458:188,2,127.5,4|0|0,0:0|0:0|0:0,0:0:0:0:
363,256,43097,6,0,P|351:217|355:187,3,42.5,4|0|0|0,0:0|0:0|0:0|0:0,0:0:0:0:
368,176,43367,2,0,P|377:123|369:80,1,85,0|0,0:0|0:0,0:0:0:0:
218,21,43637,2,0,P|230:60|226:90,3,42.5,4|0|0|0,0:0|0:0|0:0|0:0,0:0:0:0:
213,101,43907,1,0,0:0:0:0:
207,121,43974,1,0,0:0:0:0:
204,142,44042,1,0,0:0:0:0:
204,163,44109,1,0,0:0:0:0:
208,184,44177,5,2,0:0:0:0:
60,65,44312,1,0,0:0:0:0:
31,253,44447,2,0,P|51:292|86:323,1,85,2|0,0:0|0:0,0:0:0:0:
208,184,44717,2,0,P|168:198|136:225,1,85,2|0,0:0|0:0,0:0:0:0:
223,373,44987,2,0,L|224:288,1,85,2|0,0:0|0:0,0:0:0:0:
249,281,45189,1,0,0:0:0:0:
270,266,45257,6,0,P|305:213|306:174,1,85,2|0,0:0|0:0,0:0:0:0:
465,248,45527,2,0,L|464:333,1,85,2|2,0:0|0:0,0:0:0:0:
441,344,45729,1,2,0:0:0:0:
418,355,45797,5,2,0:0:0:0:
373,263,45932,1,0,0:0:0:0:
401,164,46067,1,2,0:0:0:0:
401,142,46134,1,0,0:0:0:0:
401,121,46202,1,0,0:0:0:0:
401,100,46269,1,0,0:0:0:0:
401,79,46337,6,0,L|316:78,1,85,4|0,0:0|0:0,0:0:0:0:
123,184,46607,2,0,L|208:183,1,85,4|0,0:0|0:0,0:0:0:0:
218,21,46877,2,0,L|133:22,1,85,6|2,0:0|0:0,0:0:0:0:
103,21,47079,1,0,0:0:0:0:
73,26,47146,1,6,0:0:0:0:
46,38,47214,1,0,0:0:0:0:
24,58,47281,1,2,0:0:0:0:
8,82,47349,1,0,0:0:0:0:
0,111,47417,6,0,L|3:280,1,170,4|8,0:0|0:0,0:0:0:0:
3,280,47822,1,0,0:0:0:0:
112,346,47957,2,0,L|197:345,1,85,0|0,0:0|0:0,0:0:0:0:
208,183,48227,2,0,L|123:184,1,85,8|0,0:0|0:0,0:0:0:0:
373,263,48497,6,0,P|395:209|396:161,1,85,0|0,0:0|0:0,0:0:0:0:
303,109,48767,2,0,P|284:70|278:28,1,85,8|0,0:0|0:0,0:0:0:0:
433,29,49037,1,0,0:0:0:0:
318,198,49172,2,0,P|270:192|245:175,1,42.5,0|0,0:0|0:0,0:0:0:0:
477,119,49307,2,0,P|499:173|500:221,1,85,8|0,0:0|0:0,0:0:0:0:
418,355,49577,6,0,L|333:356,1,85,0|0,0:0|0:0,0:0:0:0:
200,267,49847,2,0,L|115:266,1,85,8|0,0:0|0:0,0:0:0:0:
95,106,50117,1,0,0:0:0:0:
95,106,50252,1,0,0:0:0:0:
31,230,50387,2,0,L|30:315,1,85,8|0,0:0|0:0,0:0:0:0:
49,336,50589,1,0,0:0:0:0:
75,351,50657,6,0,L|160:352,1,85,0|0,0:0|0:0,0:0:0:0:
247,185,50927,2,0,L|162:184,1,85,8|0,0:0|0:0,0:0:0:0:
273,295,51197,2,0,L|443:297,1,170,0|8,0:0|0:0,0:0:0:0:
485,370,51602,1,0,0:0:0:0:
501,199,51737,6,0,P|495:157|477:119,1,85,0|0,0:0|0:0,0:0:0:0:
290,116,52007,2,0,L|375:117,1,85,8|0,0:0|0:0,0:0:0:0:
388,100,52210,1,0,0:0:0:0:
399,82,52277,2,0,P|392:40|374:1,1,85,0|0,0:0|0:0,0:0:0:0:
252,0,52547,1,8,0:0:0:0:
252,0,52682,1,0,0:0:0:0:
197,148,52817,6,0,L|282:149,1,85,0|0,0:0|0:0,0:0:0:0:
132,55,53087,2,0,L|47:56,1,85,8|0,0:0|0:0,0:0:0:0:
3,230,53357,2,0,L|173:232,1,170,8|8,0:0|0:0,0:0:0:0:
246,330,53762,1,0,0:0:0:0:
264,319,53829,1,0,0:0:0:0:
283,308,53897,6,0,P|307:228|281:148,1,170,0|8,0:0|0:0,0:0:0:0:
281,148,54302,1,0,0:0:0:0:
436,12,54437,2,0,L|437:97,1,85,0|0,0:0|0:0,0:0:0:0:
420,110,54640,1,0,0:0:0:0:
403,122,54707,2,0,L|404:207,1,85,8|0,0:0|0:0,0:0:0:0:
326,45,54977,5,2,0:0:0:0:
304,44,55044,1,0,0:0:0:0:
283,44,55112,1,2,0:0:0:0:
262,44,55179,1,0,0:0:0:0:
241,44,55247,2,0,L|242:129,1,85,4|0,0:0|0:0,0:0:0:0:
90,156,55517,2,0,L|91:71,1,85,4|0,0:0|0:0,0:0:0:0:
172,231,55787,1,4,0:0:0:0:
182,271,55854,1,0,0:0:0:0:
171,312,55922,1,0,0:0:0:0:
142,342,55989,1,0,0:0:0:0:
102,354,56057,6,0,L|272:356,1,170,4|10,0:0|0:0,0:0:0:0:
271,355,56462,1,0,0:0:0:0:
404,291,56597,2,0,L|403:206,1,85,0|2,0:0|0:0,0:0:0:0:
241,128,56867,2,0,L|242:213,1,85,8|2,0:0|0:0,0:0:0:0:
347,104,57137,6,0,P|356:51|339:-1,1,85,0|2,0:0|0:0,0:0:0:0:
165,58,57407,2,0,L|166:143,1,85,8|2,0:0|0:0,0:0:0:0:
318,283,57677,2,0,L|317:198,1,85,0|2,0:0|0:0,0:0:0:0:
464,107,57947,1,8,0:0:0:0:
464,107,58082,1,2,0:0:0:0:
351,21,58217,6,0,L|266:22,1,85,0|2,0:0|0:0,0:0:0:0:
80,58,58487,2,0,L|165:57,1,85,8|2,0:0|0:0,0:0:0:0:
241,212,58757,2,0,P|247:253|238:294,1,85,0|2,0:0|0:0,0:0:0:0:
91,249,59027,2,0,P|81:207|88:166,1,85,8|2,0:0|0:0,0:0:0:0:
105,152,59230,1,0,0:0:0:0:
121,139,59297,6,0,L|206:138,1,85,0|2,0:0|0:0,0:0:0:0:
148,333,59567,2,0,L|63:334,1,85,8|2,0:0|0:0,0:0:0:0:
271,254,59837,2,0,L|356:253,1,85,0|2,0:0|0:0,0:0:0:0:
370,268,60040,1,0,0:0:0:0:
383,283,60107,1,8,0:0:0:0:
464,373,60242,1,0,0:0:0:0:
512,182,60377,6,0,L|427:183,1,85,0|2,0:0|0:0,0:0:0:0:
367,20,60647,2,0,L|452:19,1,85,8|2,0:0|0:0,0:0:0:0:
332,123,60917,2,0,L|247:124,1,85,0|2,0:0|0:0,0:0:0:0:
230,110,61120,1,0,0:0:0:0:
213,96,61187,2,0,L|128:97,1,85,8|0,0:0|0:0,0:0:0:0:
51,237,61457,6,0,P|44:196|55:155,1,85,0|2,0:0|0:0,0:0:0:0:
199,256,61727,2,0,P|209:297|202:338,1,85,8|2,0:0|0:0,0:0:0:0:
213,96,61997,1,0,0:0:0:0:
130,199,62132,1,0,0:0:0:0:
298,283,62267,2,0,L|383:282,1,85,8|0,0:0|0:0,0:0:0:0:
126,381,62537,5,2,0:0:0:0:
199,256,62672,1,0,0:0:0:0:
46,297,62807,5,2,0:0:0:0:
199,256,62942,1,0,0:0:0:0:
213,96,63077,2,0,P|206:40|192:0,1,85,2|0,0:0|0:0,0:0:0:0:
130,199,63347,1,2,0:0:0:0:
109,78,63482,1,0,0:0:0:0:
271,182,63617,6,0,L|356:181,1,85,2|0,0:0|0:0,0:0:0:0:
452,19,63887,2,0,L|367:20,1,85,6|0,0:0|0:0,0:0:0:0:
495,139,64157,1,6,0:0:0:0:
500,153,64224,1,2,0:0:0:0:
503,169,64292,1,2,0:0:0:0:
505,185,64359,1,2,0:0:0:0:
504,201,64427,1,6,0:0:0:0:
500,216,64494,1,2,0:0:0:0:
495,231,64562,1,2,0:0:0:0:
488,245,64629,1,2,0:0:0:0:
478,258,64697,6,0,L|308:259,1,170,4|8,0:0|0:0,0:0:0:0:
308,259,65102,1,2,0:0:0:0:
214,267,65237,2,0,P|202:307|198:350,1,85,0|2,0:0|0:0,0:0:0:0:
66,299,65507,2,0,P|62:256|50:215,1,85,8|2,0:0|0:0,0:0:0:0:
151,154,65777,6,0,L|152:52,1,85,0|0,0:0|0:0,0:0:0:0:
165,46,65980,1,2,0:0:0:0:
187,31,66047,2,0,P|228:17|279:31,1,85,8|2,0:0|0:0,0:0:0:0:
271,182,66317,2,0,L|372:180,1,85,0|2,0:0|0:0,0:0:0:0:
379,167,66520,1,0,0:0:0:0:
394,146,66587,2,0,P|408:105|394:54,1,85,8|2,0:0|0:0,0:0:0:0:
512,257,66857,6,0,L|427:257,1,85,0|0,0:0|0:0,0:0:0:0:
418,282,67060,1,2,0:0:0:0:
409,305,67127,2,0,L|324:305,1,85,8|2,0:0|0:0,0:0:0:0:
195,227,67397,2,0,P|181:186|195:135,1,85,0|2,0:0|0:0,0:0:0:0:
215,326,67667,1,8,0:0:0:0:
215,326,67802,1,2,0:0:0:0:
271,182,67937,6,0,L|372:180,1,85,0|0,0:0|0:0,0:0:0:0:
374,162,68140,1,0,0:0:0:0:
394,146,68207,2,0,L|495:144,1,85,8|2,0:0|0:0,0:0:0:0:
322,37,68477,5,8,0:0:0:0:
227,74,68612,1,8,0:0:0:0:
132,37,68747,1,8,0:0:0:0:
38,78,68882,1,8,0:0:0:0:
0,173,69017,6,0,L|1:342,1,170,0|8,0:0|0:0,0:0:0:0:
1,342,69422,1,2,0:0:0:0:
148,345,69557,2,0,L|232:344,1,85,0|2,0:0|0:0,0:0:0:0:
271,182,69827,2,0,L|186:182,1,85,8|2,0:0|0:0,0:0:0:0:
174,210,70030,1,0,0:0:0:0:
163,237,70097,5,0,0:0:0:0:
232,344,70232,1,2,0:0:0:0:
354,224,70367,2,0,P|363:178|351:135,1,85,8|2,0:0|0:0,0:0:0:0:
336,333,70637,5,0,0:0:0:0:
271,182,70772,1,2,0:0:0:0:
458,189,70907,2,0,L|457:273,1,85,8|2,0:0|0:0,0:0:0:0:
458,34,71177,6,0,L|374:33,1,85,0|2,0:0|0:0,0:0:0:0:
189,73,71447,2,0,L|273:72,1,85,8|2,0:0|0:0,0:0:0:0:
354,224,71717,2,0,P|363:178|351:135,1,85,0|2,0:0|0:0,0:0:0:0:
231,261,71987,2,0,P|222:302|231:343,1,85,8|2,0:0|0:0,0:0:0:0:
258,355,72190,1,0,0:0:0:0:
284,367,72257,6,0,L|368:366,1,85,0|0,0:0|0:0,0:0:0:0:
271,182,72527,5,4,0:0:0:0:
249,182,72594,1,0,0:0:0:0:
228,182,72662,1,0,0:0:0:0:
207,182,72729,1,0,0:0:0:0:
186,182,72797,1,4,0:0:0:0:
147,165,72864,1,0,0:0:0:0:
125,130,72932,1,0,0:0:0:0:
126,88,72999,1,0,0:0:0:0:
150,54,73067,2,0,P|207:49|240:101,1,85,4|0,0:0|0:0,0:0:0:0:
20,106,73337,6,0,L|21:190,1,85,4|2,0:0|0:0,0:0:0:0:
80,274,73607,2,0,L|79:358,2,85,8|2|0,0:0|0:0|0:0,0:0:0:0:
80,274,74012,1,2,0:0:0:0:
186,182,74147,2,0,L|270:181,1,85,8|2,0:0|0:0,0:0:0:0:
287,342,74417,6,0,L|230:342,2,56.6666666666667,2|2|2,0:0|0:0|0:0,0:0:0:0:
352,297,74687,2,0,L|436:296,1,85,8|2,0:0|0:0,0:0:0:0:
383,140,74957,2,0,L|299:141,1,85,0|2,0:0|0:0,0:0:0:0:
280,122,75160,1,0,0:0:0:0:
262,103,75227,2,0,P|247:58|253:19,1,85,8|2,0:0|0:0,0:0:0:0:
467,107,75497,6,0,P|471:148|457:188,1,85,0|2,0:0|0:0,0:0:0:0:
352,297,75767,1,8,0:0:0:0:
352,297,75902,1,2,0:0:0:0:
299,141,76037,2,0,L|383:140,1,85,0|2,0:0|0:0,0:0:0:0:
253,261,76307,5,8,0:0:0:0:
434,212,76442,1,2,0:0:0:0:
216,181,76577,6,0,P|178:217|165:271,1,85,0|2,0:0|0:0,0:0:0:0:
17,306,76847,2,0,L|16:222,1,85,8|2,0:0|0:0,0:0:0:0:
38,207,77050,1,0,0:0:0:0:
59,194,77117,2,0,L|58:110,1,85,0|2,0:0|0:0,0:0:0:0:
59,24,77387,1,8,0:0:0:0:
59,24,77522,1,2,0:0:0:0:
233,57,77657,6,0,L|387:55,1,127.5,0|8,0:0|0:0,0:0:0:0:
388,22,77927,1,8,0:0:0:0:
512,22,78062,1,2,0:0:0:0:
450,129,78197,2,0,P|446:174|451:219,1,85,0|2,0:0|0:0,0:0:0:0:
497,294,78467,1,4,0:0:0:0:
354,377,78602,5,6,0:0:0:0:
354,377,78737,2,0,L|353:293,1,85,0|2,0:0|0:0,0:0:0:0:
209,255,79007,2,0,L|210:339,1,85,8|2,0:0|0:0,0:0:0:0:
204,141,79277,2,0,L|76:142,1,127.5,0|8,0:0|0:0,0:0:0:0:
53,178,79547,2,0,L|54:262,1,85,0|2,0:0|0:0,0:0:0:0:
52,39,79817,6,0,L|237:36,1,170,4|8,0:0|0:0,0:0:0:0:
221,36,80222,1,2,0:0:0:0:
325,95,80357,2,0,P|335:141|332:164,3,42.5,0|0|2|0,0:0|0:0|0:0|0:0,0:0:0:0:
195,180,80627,2,0,P|197:158|204:138,1,42.5,8|0,0:0|0:0,0:0:0:0:
291,231,80762,2,0,P|298:250|300:272,1,42.5,2|0,0:0|0:0,0:0:0:0:
210,339,80897,6,0,L|95:340,1,85,6|2,0:0|0:0,0:0:0:0:
305,383,81167,2,0,L|389:384,1,85,6|2,0:0|0:0,0:0:0:0:
415,367,81370,1,2,0:0:0:0:
438,349,81437,2,0,P|456:302|453:258,1,85,6|2,0:0|0:0,0:0:0:0:
431,116,81707,6,0,P|413:197|456:269,1,170,6|6,0:0|0:0,0:0:0:0:
406,122,90617,5,0,0:0:0:0:
334,68,90752,2,0,L|333:-12,2,63.7500024318696,8|0|8,0:0|0:0|0:0,0:0:0:0:
321,156,91157,2,0,L|241:157,1,63.7500024318696,0|8,0:0|0:0,0:0:0:0:
168,159,91427,2,0,L|167:79,1,63.7500024318696,0|8,0:0|0:0,0:0:0:0:
38,59,91697,6,0,L|37:139,1,63.7500024318696,0|8,0:0|0:0,0:0:0:0:
83,198,91967,1,0,0:0:0:0:
83,198,92102,1,8,0:0:0:0:
34,335,92237,6,0,L|33:271,1,63.7500024318696,0|8,0:0|0:0,0:0:0:0:
164,309,92507,2,0,L|163:372,1,63.7500024318696,0|8,0:0|0:0,0:0:0:0:
294,272,92777,6,0,L|357:271,1,63.7500024318696,4|8,0:0|0:0,0:0:0:0:
423,331,93047,2,0,L|486:331,1,63.7500024318696,0|8,0:0|0:0,0:0:0:0:
488,242,93317,2,0,L|488:178,1,63.7500024318696,0|8,0:0|0:0,0:0:0:0:
328,126,93587,2,0,L|327:189,1,63.7500024318696,0|8,0:0|0:0,0:0:0:0:
435,96,93857,5,0,0:0:0:0:
366,38,93992,1,8,0:0:0:0:
276,45,94127,1,0,0:0:0:0:
217,114,94262,1,8,0:0:0:0:
136,74,94397,2,0,P|131:34|137:5,1,63.7500024318696,0|8,0:0|0:0,0:0:0:0:
138,164,94667,2,0,L|75:165,1,63.7500024318696,0|8,0:0|0:0,0:0:0:0:
217,114,94937,5,4,0:0:0:0:
224,203,95072,1,8,0:0:0:0:
293,262,95207,1,0,0:0:0:0:
383,255,95342,1,8,0:0:0:0:
441,186,95477,2,0,P|471:230|473:262,1,63.7500024318696,0|8,0:0|0:0,0:0:0:0:
419,338,95747,2,0,P|365:341|337:327,1,63.7500024318696,0|8,0:0|0:0,0:0:0:0:
224,203,96017,6,0,L|161:204,1,63.7500024318696,4|8,0:0|0:0,0:0:0:0:
163,293,96287,2,0,L|164:356,1,63.7500024318696,0|8,0:0|0:0,0:0:0:0:
29,247,96557,6,0,L|30:184,1,63.7500024318696,4|8,0:0|0:0,0:0:0:0:
87,115,96827,2,0,L|86:52,1,63.7500024318696,0|10,0:0|0:0,0:0:0:0:
107,31,97030,1,2,0:0:0:0:
128,12,97097,6,0,L|191:11,1,63.7500024318696,6|0,0:0|0:0,0:0:0:0:
217,114,97367,2,0,L|317:112,1,72.2500013780594,2|8,0:0|0:0,0:0:0:0:
420,109,97637,2,0,L|421:8,1,72.2500013780594,2|0,0:0|0:0,0:0:0:0:
357,186,97907,2,0,L|356:236,3,36.1250006890297,0|0|0|0,0:0|0:0|0:0|0:0,0:0:0:0:
383,255,98177,6,0,L|219:257,1,144.500002756119,4|0,0:0|0:0,0:0:0:0:
168,206,98582,2,0,P|150:254|208:340,1,144.500002756119,2|2,0:0|0:0,0:0:0:0:
277,332,98987,2,0,L|349:330,1,72.2500013780594,0|2,0:0|0:0,0:0:0:0:
504,329,99257,6,0,L|501:165,1,144.500002756119,2|0,0:0|0:0,0:0:0:0:
501,184,99662,1,2,0:0:0:0:
420,109,99797,2,0,L|421:8,1,72.2500013780594,0|2,0:0|0:0,0:0:0:0:
289,112,100067,1,0,0:0:0:0:
289,130,100134,1,0,0:0:0:0:
289,148,100202,1,2,0:0:0:0:
289,166,100269,1,0,0:0:0:0:
289,184,100337,6,0,L|125:186,1,144.500002756119,2|0,0:0|0:0,0:0:0:0:
57,186,100742,2,0,P|14:129|30:61,1,144.500002756119,2|2,0:0|0:0,0:0:0:0:
116,60,101148,2,0,L|217:61,1,72.2500013780594,0|2,0:0|0:0,0:0:0:0:
144,186,101418,6,0,L|146:330,1,144.500002756119,2|0,0:0|0:0,0:0:0:0:
288,256,101823,2,0,L|289:155,1,72.2500013780594,2|0,0:0|0:0,0:0:0:0:
288,183,102093,1,2,0:0:0:0:
293,351,102228,1,0,0:0:0:0:
311,351,102295,1,0,0:0:0:0:
329,351,102363,1,2,0:0:0:0:
347,351,102430,1,0,0:0:0:0:
365,351,102498,6,0,L|509:349,1,144.500002756119,2|0,0:0|0:0,0:0:0:0:
424,268,102903,1,2,0:0:0:0:
424,268,103038,2,0,L|425:187,1,80.7499978437424,0|2,0:0|0:0,0:0:0:0:
451,164,103240,1,0,0:0:0:0:
472,145,103308,2,0,P|485:105|475:59,1,80.7499978437424,0|2,0:0|0:0,0:0:0:0:
334,23,103578,6,0,L|333:103,1,80.7499978437424,0|2,0:0|0:0,0:0:0:0:
188,60,103848,1,0,0:0:0:0:
188,60,103983,1,2,0:0:0:0:
247,136,104118,2,0,P|200:156|151:149,1,80.7499978437424,2|0,0:0|0:0,0:0:0:0:
146,142,104320,1,0,0:0:0:0:
120,129,104388,2,0,P|79:130|44:148,1,80.7499978437424,2|0,0:0|0:0,0:0:0:0:
41,277,104658,6,0,L|40:357,1,80.7499978437424,2|2,0:0|0:0,0:0:0:0:
40,357,104860,1,2,0:0:0:0:
40,357,104928,2,0,L|120:357,1,80.7499978437424,2|0,0:0|0:0,0:0:0:0:
142,339,105130,1,0,0:0:0:0:
163,320,105198,2,0,L|243:320,1,80.7499978437424,0|0,0:0|0:0,0:0:0:0:
445,351,105468,2,0,L|365:351,1,80.7499978437424,2|0,0:0|0:0,0:0:0:0:
322,259,105738,5,2,0:0:0:0:
308,221,105805,1,0,0:0:0:0:
319,183,105873,1,0,0:0:0:0:
350,157,105940,1,0,0:0:0:0:
389,154,106008,2,0,P|424:181|430:207,3,40.3749989218712,2|0|0|0,0:0|0:0|0:0|0:0,0:0:0:0:
479,120,106278,5,2,0:0:0:0:
448,94,106345,1,0,0:0:0:0:
411,76,106413,1,0,0:0:0:0:
372,69,106480,1,0,0:0:0:0:
332,73,106548,2,0,P|290:95|278:113,3,40.3749989218712,2|0|0|0,0:0|0:0|0:0|0:0,0:0:0:0:
244,150,106818,6,0,P|81:107|239:39,1,444.124988140583,6|0,0:0|0:0,0:0:0:0:
170,98,107628,1,10,0:0:0:0:
162,320,107898,6,0,L|331:317,1,170,4|8,0:0|0:0,0:0:0:0:
332,317,108303,1,2,0:0:0:0:
485,317,108438,2,0,L|486:196,1,85,0|2,0:0|0:0,0:0:0:0:
487,130,108708,2,0,L|402:131,1,85,8|2,0:0|0:0,0:0:0:0:
215,236,108978,6,0,L|355:234,1,127.5,0|2,0:0|0:0,0:0:0:0:
325,199,109248,2,0,P|301:154|297:117,1,85,8|2,0:0|0:0,0:0:0:0:
430,52,109518,2,0,P|423:93|401:130,1,85,0|2,0:0|0:0,0:0:0:0:
336,11,109788,2,0,L|251:12,1,85,8|2,0:0|0:0,0:0:0:0:
96,14,110058,6,0,L|97:98,1,85,2|0,0:0|0:0,0:0:0:0:
120,123,110260,1,2,0:0:0:0:
143,148,110328,2,0,P|152:191|131:246,1,85,8|2,0:0|0:0,0:0:0:0:
14,273,110598,2,0,P|4:231|15:191,1,85,0|2,0:0|0:0,0:0:0:0:
106,343,110868,1,8,0:0:0:0:
106,343,111003,1,2,0:0:0:0:
247,318,111138,6,0,L|332:317,1,85,2|0,0:0|0:0,0:0:0:0:
354,292,111340,1,2,0:0:0:0:
377,267,111408,2,0,P|386:224|365:169,1,85,8|2,0:0|0:0,0:0:0:0:
212,80,111678,5,2,0:0:0:0:
296,120,111813,1,2,0:0:0:0:
383,88,111948,1,10,0:0:0:0:
423,4,112083,1,2,0:0:0:0:
470,122,112218,6,0,L|471:207,1,85,2|0,0:0|0:0,0:0:0:0:
485,237,112420,1,2,0:0:0:0:
500,267,112488,2,0,L|501:352,1,85,8|2,0:0|0:0,0:0:0:0:
332,317,112758,2,0,L|247:318,1,85,0|2,0:0|0:0,0:0:0:0:
169,255,113028,2,0,P|156:213|169:157,2,85,8|2|0,0:0|0:0|0:0,0:0:0:0:
169,255,113433,5,2,0:0:0:0:
296,204,113568,2,0,L|295:119,1,85,8|2,0:0|0:0,0:0:0:0:
232,49,113838,1,0,0:0:0:0:
232,49,113973,1,2,0:0:0:0:
382,3,114108,2,0,L|383:88,1,85,8|2,0:0|0:0,0:0:0:0:
208,131,114378,6,0,P|163:103|166:-8,1,170,0|8,0:0|0:0,0:0:0:0:
232,49,114783,1,2,0:0:0:0:
87,140,114918,2,0,L|2:141,1,85,0|2,0:0|0:0,0:0:0:0:
169,255,115188,2,0,L|254:256,1,85,8|2,0:0|0:0,0:0:0:0:
273,278,115390,1,0,0:0:0:0:
292,300,115458,6,0,L|461:297,2,170,0|4|4,0:0|0:0|0:0,0:0:0:0:
230,381,116133,1,0,0:0:0:0:
102,305,116268,1,4,0:0:0:0:
91,286,116335,1,0,0:0:0:0:
86,265,116403,1,0,0:0:0:0:
85,244,116470,1,0,0:0:0:0:
90,223,116538,6,0,P|118:168|77:71,1,170,4|8,0:0|0:0,0:0:0:0:
79,73,116943,1,2,0:0:0:0:
162,0,117078,2,0,L|247:1,1,85,0|2,0:0|0:0,0:0:0:0:
295,119,117348,2,0,L|296:204,1,85,8|2,0:0|0:0,0:0:0:0:
376,20,117618,6,0,L|432:19,2,56.6666666666667,2|2|2,0:0|0:0|0:0,0:0:0:0:
407,99,117888,2,0,L|408:184,1,85,8|2,0:0|0:0,0:0:0:0:
267,233,118158,2,0,L|266:148,1,85,0|2,0:0|0:0,0:0:0:0:
365,285,118428,2,0,P|374:336|360:376,1,85,8|2,0:0|0:0,0:0:0:0:
343,368,118630,1,0,0:0:0:0:
321,369,118698,6,0,L|236:368,1,85,0|2,0:0|0:0,0:0:0:0:
163,255,118968,1,8,0:0:0:0:
163,255,119103,1,2,0:0:0:0:
35,303,119238,2,0,P|52:342|85:369,1,85,0|2,0:0|0:0,0:0:0:0:
163,255,119508,2,0,L|164:170,1,85,8|2,0:0|0:0,0:0:0:0:
148,155,119710,1,0,0:0:0:0:
132,140,119778,6,0,L|133:55,1,85,0|2,0:0|0:0,0:0:0:0:
295,119,120048,2,0,L|296:204,1,85,8|2,0:0|0:0,0:0:0:0:
234,26,120318,2,0,P|287:3|326:9,1,85,0|2,0:0|0:0,0:0:0:0:
491,98,120588,2,0,L|406:99,1,85,8|2,0:0|0:0,0:0:0:0:
395,117,120790,1,0,0:0:0:0:
384,135,120858,6,0,L|385:220,1,85,0|2,0:0|0:0,0:0:0:0:
451,285,121128,1,8,0:0:0:0:
451,285,121263,1,2,0:0:0:0:
313,332,121398,2,0,P|350:352|392:358,1,85,0|2,0:0|0:0,0:0:0:0:
392,357,121668,1,12,0:0:0:0:
295,203,121803,6,0,L|125:205,1,170,4|2,0:0|0:0,0:0:0:0:
52,264,122208,2,0,P|37:322|51:365,1,85,8|2,0:0|0:0,0:0:0:0:
125,205,122478,2,0,P|129:163|114:123,1,85,0|2,0:0|0:0,0:0:0:0:
96,113,122680,1,0,0:0:0:0:
77,102,122748,2,0,P|72:60|87:20,1,85,8|2,0:0|0:0,0:0:0:0:
234,26,123018,6,0,L|336:24,1,85,6|0,0:0|0:0,0:0:0:0:
334,39,123220,1,2,0:0:0:0:
349,54,123288,2,0,P|358:93|351:122,2,42.5,8|0|2,0:0|0:0|0:0,0:0:0:0:
491,98,123558,6,0,L|492:200,1,85,4|2,0:0|0:0,0:0:0:0:
481,201,123760,1,0,0:0:0:0:
471,219,123828,2,0,L|420:219,1,42.5,8|0,0:0|0:0,0:0:0:0:
470,363,123963,2,0,L|512:362,1,42.5,2|0,0:0|0:0,0:0:0:0:
387,304,124098,5,4,0:0:0:0:
359,288,124165,1,0,0:0:0:0:
338,264,124233,1,2,0:0:0:0:
327,234,124300,1,0,0:0:0:0:
327,203,124368,1,4,0:0:0:0:
311,175,124435,1,0,0:0:0:0:
287,154,124503,1,0,0:0:0:0:
257,143,124570,1,0,0:0:0:0:
226,143,124638,6,0,P|185:174|176:237,1,85,4|2,0:0|0:0,0:0:0:0:
229,337,124908,1,4,0:0:0:0:
207,337,124975,1,0,0:0:0:0:
186,337,125043,1,2,0:0:0:0:
165,338,125110,1,0,0:0:0:0:
143,338,125178,6,0,P|81:303|48:206,1,170,4|8,0:0|0:0,0:0:0:0:
47,213,125583,1,2,0:0:0:0:
109,131,125718,2,0,L|108:46,1,85,0|2,0:0|0:0,0:0:0:0:
257,143,125988,2,0,L|256:227,1,85,8|2,0:0|0:0,0:0:0:0:
257,42,126258,6,0,L|341:42,1,85,0|2,0:0|0:0,0:0:0:0:
420,107,126528,1,8,0:0:0:0:
420,107,126663,1,2,0:0:0:0:
286,238,126798,2,0,L|286:153,1,85,0|2,0:0|0:0,0:0:0:0:
428,219,127068,2,0,L|427:303,1,85,8|2,0:0|0:0,0:0:0:0:
312,336,127338,6,0,L|142:338,1,170,0|8,0:0|0:0,0:0:0:0:
82,255,127743,1,2,0:0:0:0:
143,173,127878,2,0,P|161:124|162:83,1,85,0|2,0:0|0:0,0:0:0:0:
29,16,128148,2,0,P|32:58|48:97,1,85,8|2,0:0|0:0,0:0:0:0:
209,3,128418,6,0,L|124:3,1,85,0|2,0:0|0:0,0:0:0:0:
263,72,128688,2,0,L|348:72,1,85,10|2,0:0|0:0,0:0:0:0:
451,69,128958,5,2,0:0:0:0:
485,164,129093,1,2,0:0:0:0:
441,255,129228,1,10,0:0:0:0:
346,289,129363,1,2,0:0:0:0:
255,245,129498,6,0,P|244:306|319:388,2,170,2|8|0,0:0|0:0|0:0,0:0:0:0:
255,245,130173,1,2,0:0:0:0:
145,168,130308,2,0,L|60:168,2,85,8|2|0,0:0|0:0|0:0,0:0:0:0:
145,168,130713,1,2,0:0:0:0:
264,103,130848,2,0,P|275:51|265:2,1,85,8|2,0:0|0:0,0:0:0:0:
167,58,131118,5,0,0:0:0:0:
167,58,131253,1,2,0:0:0:0:
248,201,131388,2,0,P|301:197|345:174,1,85,8|2,0:0|0:0,0:0:0:0:
346,155,131590,1,0,0:0:0:0:
363,125,131658,6,0,L|448:125,1,85,0|2,0:0|0:0,0:0:0:0:
494,279,131928,2,0,L|409:279,1,85,8|2,0:0|0:0,0:0:0:0:
248,201,132198,2,0,P|301:197|345:174,1,85,0|2,0:0|0:0,0:0:0:0:
273,351,132468,2,0,P|233:335|191:334,1,85,8|2,0:0|0:0,0:0:0:0:
163,345,132670,1,0,0:0:0:0:
135,357,132738,5,0,0:0:0:0:
44,293,132873,1,2,0:0:0:0:
145,168,133008,2,0,L|145:253,1,85,12|2,0:0|0:0,0:0:0:0:
0,198,133278,2,0,L|0:113,1,85,4|2,0:0|0:0,0:0:0:0:
22,94,133480,1,0,0:0:0:0:
45,74,133548,1,12,0:0:0:0:
66,74,133615,1,0,0:0:0:0:
87,74,133683,1,2,0:0:0:0:
108,74,133750,1,0,0:0:0:0:
130,74,133818,6,0,L|300:76,2,170,4|8|0,0:0|0:0|0:0,0:0:0:0:
130,74,134493,1,2,0:0:0:0:
0,113,134628,2,0,L|0:198,1,85,8|2,0:0|0:0,0:0:0:0:
145,253,134898,6,0,L|145:168,2,56.6666666666667,2|2|2,0:0|0:0|0:0,0:0:0:0:
167,292,135168,2,0,L|252:292,1,85,8|2,0:0|0:0,0:0:0:0:
346,155,135438,2,0,L|261:155,1,85,0|2,0:0|0:0,0:0:0:0:
355,253,135708,2,0,P|364:308|344:357,1,85,8|2,0:0|0:0,0:0:0:0:
472,198,135978,6,0,L|474:28,1,170,0|8,0:0|0:0,0:0:0:0:
473,28,136383,1,2,0:0:0:0:
346,70,136518,2,0,L|346:155,1,85,0|2,0:0|0:0,0:0:0:0:
182,104,136788,2,0,L|182:19,1,85,8|2,0:0|0:0,0:0:0:0:
249,181,137058,5,0,0:0:0:0:
255,201,137125,1,0,0:0:0:0:
257,222,137193,1,2,0:0:0:0:
257,243,137260,1,0,0:0:0:0:
252,264,137328,2,0,L|167:264,1,85,8|2,0:0|0:0,0:0:0:0:
188,384,137598,6,0,L|247:384,2,42.5,0|0|2,0:0|0:0|0:0,0:0:0:0:
75,345,137868,2,0,L|32:345,2,42.5,8|0|2,0:0|0:0|0:0,0:0:0:0:
55,172,138138,6,0,P|35:108|61:38,1,127.5,2|2,0:0|0:0,0:0:0:0:
93,52,138408,2,0,L|178:52,1,85,8|2,0:0|0:0,0:0:0:0:
249,181,138678,2,0,L|164:181,1,85,0|2,0:0|0:0,0:0:0:0:
164,181,138948,1,12,0:0:0:0:
325,112,139083,6,0,P|352:162|304:272,1,170,6|2,0:0|0:0,0:0:0:0:
472,283,139488,2,0,L|472:198,1,85,8|2,0:0|0:0,0:0:0:0:
472,374,139758,2,0,L|387:374,1,85,0|2,0:0|0:0,0:0:0:0:
373,358,139960,1,0,0:0:0:0:
358,341,140028,2,0,L|273:341,1,85,8|2,0:0|0:0,0:0:0:0:
82,264,140298,6,0,L|167:264,1,85,4|2,0:0|0:0,0:0:0:0:
167,264,140568,1,8,0:0:0:0:
213,114,140703,2,0,L|128:114,2,85,2|0|2,0:0|0:0|0:0,0:0:0:0:
292,177,141108,2,0,P|321:220|325:274,1,85,8|2,0:0|0:0,0:0:0:0:
423,132,141378,5,4,0:0:0:0:
423,110,141445,1,0,0:0:0:0:
423,89,141513,1,2,0:0:0:0:
423,68,141580,1,0,0:0:0:0:
423,47,141648,2,0,L|338:47,1,85,4|2,0:0|0:0,0:0:0:0:
128,114,141918,6,0,L|213:114,1,85,4|2,0:0|0:0,0:0:0:0:
292,177,142188,1,4,0:0:0:0:
306,192,142255,1,0,0:0:0:0:
317,210,142323,1,2,0:0:0:0:
324,230,142390,1,0,0:0:0:0:
326,251,142458,6,0,P|309:300|206:353,1,170,4|8,0:0|0:0,0:0:0:0:
211,353,142863,1,2,0:0:0:0:
128,234,142998,2,0,L|213:234,1,85,2|2,0:0|0:0,0:0:0:0:
127,353,143268,2,0,L|42:353,1,85,10|2,0:0|0:0,0:0:0:0:
47,177,143538,6,0,P|83:144|123:136,1,85,0|2,0:0|0:0,0:0:0:0:
168,0,143808,2,0,L|83:0,1,85,8|2,0:0|0:0,0:0:0:0:
213,114,144078,2,0,L|298:114,1,85,0|2,0:0|0:0,0:0:0:0:
313,94,144280,1,0,0:0:0:0:
329,74,144348,2,0,P|347:29|347:-19,1,85,8|2,0:0|0:0,0:0:0:0:
463,114,144618,6,0,P|466:156|482:195,1,85,0|2,0:0|0:0,0:0:0:0:
470,217,144820,1,0,0:0:0:0:
457,239,144888,1,8,0:0:0:0:
496,342,145023,1,2,0:0:0:0:
366,280,145158,2,0,P|356:225|372:183,1,85,0|2,0:0|0:0,0:0:0:0:
388,377,145428,2,0,L|303:377,1,85,8|2,0:0|0:0,0:0:0:0:
213,234,145698,6,0,L|289:234,2,42.5,0|0|2,0:0|0:0|0:0,0:0:0:0:
184,360,145968,2,0,L|141:360,2,42.5,6|0|0,0:0|0:0|0:0,0:0:0:0:
58,200,146238,1,6,0:0:0:0:
58,221,146305,1,0,0:0:0:0:
58,242,146373,1,2,0:0:0:0:
58,263,146440,1,0,0:0:0:0:
58,285,146508,2,0,L|134:285,1,42.5,6|0,0:0|0:0,0:0:0:0:
148,161,146643,2,0,L|148:118,1,42.5,2|0,0:0|0:0,0:0:0:0:
276,134,146778,5,6,0:0:0:0:
256,192,146845,12,4,148938,0:0:0:0:
