osu file format v14

[General]
AudioFilename: audio.mp3
AudioLeadIn: 0
PreviewTime: 63630
Countdown: 0
SampleSet: Drum
StackLeniency: 0.7
Mode: 0
LetterboxInBreaks: 0
WidescreenStoryboard: 1

[Editor]
DistanceSpacing: 1.1
BeatDivisor: 2
GridSize: 16
TimelineZoom: 2.7

[Metadata]
Title:FREEDOM DiVE
TitleUnicode:FREEDOM DiVE↓
Artist:xi
ArtistUnicode:xi
Creator:Aistre
Version:iNTERMEDiATE
Source:MAXBEAT
Tags:VOEZ cytus ii CHUNITHM PLUS BMS parousia video rhythm game happy hardcore electronic featured artist mpg mappers mapper's guild alphabet venax deviouspanda paradogi lukas seolv [_l_u_k_a_s_] xi baddies uberfazz instrumental SOUND VOLTEX IV HEAVENLY HAVEN 太鼓の達人 セッションでドドンがドン! Taiko no Tatsujin Drum Session! CHUNITHM PLUS WACCA Muse Dash fd
BeatmapID:3417572
BeatmapSetID:1667560

[Difficulty]
HPDrainRate:4
CircleSize:3.5
OverallDifficulty:4.5
ApproachRate:6
SliderMultiplier:0.800000005960464
SliderTickRate:1

[Events]
//Background and Video events
0,0,"EykD9SkXIAA7R16.jpg",0,0
//Break Periods
2,27178,34493
2,81178,87413
//Storyboard Layer 0 (Background)
//Storyboard Layer 1 (Fail)
//Storyboard Layer 2 (Pass)
//Storyboard Layer 3 (Foreground)
//Storyboard Layer 4 (Overlay)
//Storyboard Sound Samples

[TimingPoints]
1058,270.000000027,4,3,0,65,1,0
5378,-100,4,3,0,65,0,0
26978,-100,4,2,0,65,0,0
41018,-100,4,2,0,65,0,0
44258,-100,4,3,0,70,0,0
63698,-100,4,3,0,75,0,0
76658,-100,4,3,0,75,0,0
88538,-100,4,3,0,65,0,0
98258,-100,4,3,0,80,0,1
130658,-100,4,3,0,75,0,1
131738,-100,4,3,0,70,0,0
132818,-100,4,3,0,70,0,0
139298,-100,4,3,0,40,0,0

[Colours]
Combo1 : 191,116,220
Combo2 : 210,200,196
Combo3 : 211,188,173
Combo4 : 241,67,128
Combo5 : 236,177,113
Combo6 : 228,235,101
Combo7 : 159,235,126
Combo8 : 128,198,236

[HitObjects]
55,23,1058,6,0,P|107:18|137:91,1,120.00000089407,4|0,1:2|1:0,0:0:0:0:
102,148,1733,1,0,1:0:0:0:
39,264,2138,2,0,P|84:268|129:288,1,80.0000005960464,0|0,1:0|0:0,0:0:0:0:
194,320,2678,2,0,P|196:339|202:362,2,40.0000002980232,0|0|0,1:0|1:0|1:0,0:0:0:0:
260,262,3218,6,0,P|283:218|371:225,1,120.00000089407,4|0,1:1|1:0,0:0:0:0:
424,253,3893,1,0,1:0:0:0:
502,146,4298,2,0,P|501:107|508:66,1,80.0000005960464,0|0,1:0|0:0,0:0:0:0:
420,79,4838,2,0,P|416:109|412:124,2,40.0000002980232,0|0|0,1:0|1:0|1:0,0:0:0:0:
347,29,5378,102,0,P|280:10|242:54,1,120.00000089407,4|0,1:1|1:0,0:0:0:0:
191,108,6053,1,0,1:0:0:0:
65,149,6458,2,0,P|63:193|56:249,1,80.0000005960464,0|0,1:0|0:0,0:0:0:0:
73,315,6998,2,0,P|71:338|69:366,2,40.0000002980232,0|0|0,1:0|1:0|1:0,0:0:0:0:
153,280,7538,5,4,1:1:0:0:
317,342,8078,1,4,0:2:0:0:
447,223,8618,2,0,P|448:178|420:151,1,80.0000005960464,4|4,1:1|1:1,0:0:0:0:
337,150,9158,1,4,1:1:0:0:
325,62,9428,1,4,1:1:0:0:
246,22,9698,102,0,P|189:24|166:120,1,160.000001192093,4|0,1:2|1:0,0:0:0:0:
197,190,10508,1,8,0:2:0:0:
141,258,10778,2,0,P|106:266|53:277,1,80.0000005960464,0|8,1:0|0:2,0:0:0:0:
4,341,11318,2,0,P|-3:362|-6:383,2,40.0000002980232,0|0|8,1:0|0:0|0:2,0:0:0:0:
89,362,11858,6,0,B|131:389|164:364|166:360|169:356|207:327|252:354,1,160.000001192093,4|0,1:1|1:0,0:0:0:0:
323,318,12668,1,8,0:2:0:0:
406,345,12938,2,0,P|436:314|449:267,1,80.0000005960464,0|12,1:0|0:2,0:0:0:0:
395,208,13478,2,0,P|374:186|360:145,2,60.0000004470348,4|4|4,1:1|1:1|1:1,0:0:0:0:
395,208,14018,101,4,1:2:0:0:
145,27,14963,2,0,P|152:88|142:169,1,120.00000089407,4|4,1:1|1:1,0:0:0:0:
200,216,15638,1,0,1:2:0:0:
277,173,15908,1,4,1:2:0:0:
361,198,16178,5,4,1:2:0:0:
456,345,16718,1,4,1:2:0:0:
278,353,17258,2,0,P|243:354|191:362,1,80.0000005960464,4|4,1:2|1:1,0:0:0:0:
145,289,17798,1,4,1:2:0:0:
57,297,18068,1,4,1:2:0:0:
8,223,18338,101,4,1:2:0:0:
256,192,18473,12,4,23603,1:1:0:0:
66,45,24818,6,0,P|114:55|147:75,1,80.0000005960464,4|2,1:2|0:2,0:0:0:0:
218,28,25358,2,0,P|266:18|299:-2,1,80.0000005960464,6|2,0:2|0:2,0:0:0:0:
368,47,25898,1,6,0:2:0:0:
452,22,26168,1,2,0:2:0:0:
497,97,26438,1,6,0:2:0:0:
442,167,26708,1,2,0:2:0:0:
442,167,26843,1,2,0:2:0:0:
442,167,26978,5,6,2:2:0:0:
365,278,35618,85,6,2:2:0:0:
285,138,36158,1,2,2:2:0:0:
128,173,36698,2,0,P|79:168|36:158,2,80.0000005960464,2|2|2,2:2|2:2|2:2,0:0:0:0:
187,321,37778,5,6,2:2:0:0:
305,213,38318,1,2,2:2:0:0:
428,314,38858,2,0,P|456:322|505:348,2,80.0000005960464,2|2|2,2:2|2:2|2:2,0:0:0:0:
350,294,39668,1,2,2:2:0:0:
299,356,39938,101,2,1:2:0:0:
4,279,41018,1,2,1:2:0:0:
144,202,41558,1,2,1:2:0:0:
35,84,42098,6,0,P|106:67|170:-8,1,160.000001192093,2|2,1:2|1:2,0:0:0:0:
235,58,42908,1,2,1:2:0:0:
320,37,43178,2,0,P|343:86|347:136,2,80.0000005960464,2|6|6,2:2|1:2|1:2,0:0:0:0:
404,11,43988,1,6,1:2:0:0:
475,62,44258,102,0,P|465:123|464:162,1,80.0000005960464,2|2,1:2|1:2,0:0:0:0:
437,176,44663,1,0,0:0:0:0:
437,176,44798,2,0,P|376:166|337:165,1,80.0000005960464,6|2,1:2|1:2,0:0:0:0:
289,220,45338,2,0,L|276:305,2,80.0000005960464,6|6|6,1:2|1:2|1:2,0:0:0:0:
191,72,46418,6,0,P|112:83|95:159,1,160.000001192093,4|2,1:1|1:2,0:0:0:0:
48,227,47228,1,10,0:2:0:0:
98,299,47498,2,0,P|108:343|103:388,2,80.0000005960464,2|10|2,1:2|0:2|1:2,0:0:0:0:
267,251,48578,2,0,P|258:206|255:157,1,80.0000005960464,2|10,1:2|0:2,0:0:0:0:
302,97,49118,2,0,P|293:52|290:3,1,80.0000005960464,2|10,1:2|0:2,0:0:0:0:
202,10,49658,2,0,P|146:21|103:37,2,80.0000005960464,2|10|2,1:2|0:2|1:2,0:0:0:0:
377,31,50738,101,2,1:2:0:0:
405,114,51008,1,10,0:2:0:0:
355,186,51278,1,2,1:2:0:0:
240,319,51818,1,2,1:2:0:0:
166,270,52088,1,10,0:2:0:0:
78,278,52358,1,2,1:2:0:0:
10,115,52898,6,0,P|1:67|32:28,1,80.0000005960464,2|10,1:2|0:2,0:0:0:0:
100,21,53438,2,0,P|150:27|186:31,1,80.0000005960464,2|10,1:2|0:2,0:0:0:0:
200,69,53843,1,0,1:0:0:0:
200,69,53978,1,0,1:2:0:0:
273,117,54248,1,14,0:2:0:0:
332,52,54518,1,4,1:1:0:0:
505,20,55058,102,0,B|537:88|482:98|511:180,1,160.000001192093,4|2,1:1|1:2,0:0:0:0:
473,257,55868,1,10,0:2:0:0:
398,302,56138,2,0,P|365:323|341:358,2,80.0000005960464,2|10|2,1:2|0:2|1:2,0:0:0:0:
265,185,57218,2,0,P|255:229|245:269,1,80.0000005960464,2|10,1:2|0:2,0:0:0:0:
214,293,57623,1,0,1:0:0:0:
214,293,57758,2,0,P|175:283|136:274,1,80.0000005960464,2|10,1:2|0:2,0:0:0:0:
48,280,58298,2,0,P|38:318|29:357,2,80.0000005960464,2|10|2,1:2|0:2|1:2,0:0:0:0:
25,105,59378,5,2,1:2:0:0:
92,49,59648,1,10,0:2:0:0:
178,62,59918,1,2,1:2:0:0:
299,189,60458,1,2,1:2:0:0:
386,195,60728,1,10,0:2:0:0:
443,127,60998,1,2,1:2:0:0:
510,289,61538,102,0,B|452:262|401:329|401:329|341:359|281:296,1,240.000001788139,2|2,1:2|1:2,0:0:0:0:
209,301,62618,2,0,P|180:329|166:371,2,80.0000005960464,0|6|6,1:0|1:2|1:2,0:0:0:0:
183,227,63428,1,6,1:2:0:0:
183,227,63563,1,2,1:2:0:0:
183,227,63698,22,0,P|130:216|103:178,1,80.0000005960464,4|8,1:2|0:2,0:0:0:0:
81,116,64238,2,0,P|123:89|152:47,1,80.0000005960464,2|8,1:2|0:2,0:0:0:0:
227,38,64778,2,0,P|263:26|313:20,1,80.0000005960464,2|8,1:2|0:2,0:0:0:0:
377,69,65318,1,2,1:2:0:0:
511,183,65858,6,0,P|455:186|401:279,1,160.000001192093,2|2,1:2|1:2,0:0:0:0:
312,272,66668,1,10,0:2:0:0:
257,202,66938,2,0,P|253:150|265:118,1,80.0000005960464,2|8,1:2|0:2,0:0:0:0:
231,41,67478,2,0,P|222:16|220:-5,2,40.0000002980232,6|2|6,1:2|1:2|1:2,0:0:0:0:
150,76,68018,6,0,B|128:91|110:95|110:95|124:151|126:222,1,160.000001192093,6|2,1:2|1:2,0:0:0:0:
68,275,68828,1,8,0:2:0:0:
138,328,69098,2,0,P|181:344|225:380,1,80.0000005960464,2|10,1:2|0:2,0:0:0:0:
252,367,69503,1,0,0:0:0:0:
289,343,69638,2,0,P|305:300|341:256,1,80.0000005960464,2|10,1:2|0:2,0:0:0:0:
404,235,70178,2,0,P|446:244|489:254,2,80.0000005960464,2|10|2,1:2|0:2|1:2,0:0:0:0:
346,168,70988,1,10,0:2:0:0:
393,94,71258,1,2,1:2:0:0:
47,27,72338,6,0,P|53:93|53:130,1,80.0000005960464,6|10,0:2|0:2,0:0:0:0:
103,179,72878,2,0,P|97:245|97:282,1,80.0000005960464,2|10,1:2|0:2,0:0:0:0:
53,335,73418,2,0,P|32:345|14:354,2,40.0000002980232,2|0|10,1:2|0:0|0:2,0:0:0:0:
127,382,73958,1,2,1:2:0:0:
292,322,74498,6,0,P|297:268|288:147,1,160.000001192093,2|2,1:2|1:2,0:0:0:0:
274,85,75308,1,10,0:2:0:0:
274,85,75443,1,0,0:0:0:0:
274,85,75578,2,0,P|337:65|359:50,1,80.0000005960464,2|10,1:2|0:2,0:0:0:0:
436,56,76118,2,0,P|456:119|471:141,1,80.0000005960464,6|14,1:2|0:2,0:0:0:0:
425,210,76658,5,4,1:1:0:0:
191,333,77468,1,10,0:2:0:0:
130,269,77738,2,0,P|114:221|96:184,1,80.0000005960464,2|10,1:2|0:2,0:0:0:0:
38,132,78278,1,2,1:2:0:0:
88,59,78548,1,8,0:2:0:0:
171,32,78818,38,0,B|213:5|242:26|247:31|254:38|292:61|334:36,1,160.000001192093,2|2,1:2|1:2,0:0:0:0:
392,94,79628,1,2,1:2:0:0:
374,180,79898,2,0,P|354:226|345:269,1,80.0000005960464,6|6,1:2|1:2,0:0:0:0:
261,277,80438,1,6,1:2:0:0:
201,341,80708,1,6,1:2:0:0:
113,335,80978,5,4,1:1:0:0:
194,350,88538,70,0,P|206:263|94:170,1,240.000001788139,2|0,1:1|1:2,0:0:0:0:
80,92,89618,1,2,1:1:0:0:
318,350,90698,2,0,P|306:263|418:170,1,240.000001788139,2|0,1:1|1:2,0:0:0:0:
432,92,91778,1,2,1:1:0:0:
151,246,92858,6,0,P|164:289|165:334,2,80.0000005960464,2|0|0,1:1|1:2|1:2,0:0:0:0:
77,103,93938,2,0,P|34:116|-11:117,2,80.0000005960464,2|0|0,1:1|1:2|1:2,0:0:0:0:
234,77,95018,2,0,P|221:34|220:-11,2,80.0000005960464,2|0|0,1:1|1:2|1:2,0:0:0:0:
302,132,95828,1,0,1:0:0:0:
308,220,96098,2,0,P|351:207|396:206,2,80.0000005960464,2|0|2,1:1|1:2|1:1,0:0:0:0:
254,290,96908,1,0,1:2:0:0:
292,369,97178,101,6,1:1:0:0:
465,169,97988,1,2,0:2:0:0:
465,169,98123,1,2,0:2:0:0:
465,169,98258,22,0,P|420:152|401:114,1,80.0000005960464,4|8,1:2|0:2,0:0:0:0:
324,88,98798,2,0,P|267:73|217:54,1,80.0000005960464,2|8,1:2|0:2,0:0:0:0:
162,92,99338,2,0,P|106:106|75:120,1,80.0000005960464,2|8,1:2|0:2,0:0:0:0:
40,190,99878,1,2,1:2:0:0:
190,280,100418,6,0,B|211:268|232:266|232:266|297:276|311:353,1,160.000001192093,2|2,1:2|1:2,0:0:0:0:
395,356,101228,1,10,0:2:0:0:
463,300,101498,2,0,P|474:271|491:218,1,80.0000005960464,2|8,1:2|0:2,0:0:0:0:
444,148,102038,2,0,P|448:122|456:94,2,40.0000002980232,6|2|6,1:2|1:2|1:2,0:0:0:0:
356,149,102578,6,0,B|317:143|297:108|297:108|247:83|197:133,1,160.000001192093,6|2,1:2|1:2,0:0:0:0:
129,102,103388,1,8,0:2:0:0:
53,146,103658,2,0,P|37:193|27:229,1,80.0000005960464,2|10,1:2|0:2,0:0:0:0:
26,266,104063,1,0,0:0:0:0:
46,304,104198,2,0,P|93:320|129:330,1,80.0000005960464,2|10,1:2|0:2,0:0:0:0:
204,295,104738,2,0,P|251:279|287:269,2,80.0000005960464,2|10|2,1:2|0:2|1:2,0:0:0:0:
161,217,105548,1,10,0:2:0:0:
201,139,105818,1,2,1:2:0:0:
464,42,106898,6,0,B|443:62|443:62|454:117,1,80.0000005960464,6|10,0:2|0:2,0:0:0:0:
492,190,107438,2,0,B|513:210|513:210|502:265,1,80.0000005960464,2|10,1:2|0:2,0:0:0:0:
438,320,107978,2,0,P|441:351|442:367,2,40.0000002980232,2|0|10,1:2|0:0|0:2,0:0:0:0:
353,295,108518,1,2,1:2:0:0:
253,150,109058,6,0,P|182:151|103:227,1,160.000001192093,2|2,1:2|1:2,0:0:0:0:
87,287,109868,1,10,0:2:0:0:
158,337,110138,2,0,P|199:350|236:369,1,80.0000005960464,2|10,1:2|0:2,0:0:0:0:
271,347,110543,1,2,0:2:0:0:
298,312,110678,2,0,P|289:264|287:229,1,80.0000005960464,6|14,1:2|0:2,0:0:0:0:
333,155,111218,5,4,1:1:0:0:
106,20,112028,1,10,0:2:0:0:
34,71,112298,2,0,P|19:124|17:163,1,80.0000005960464,2|10,1:2|0:2,0:0:0:0:
43,232,112838,1,2,1:2:0:0:
119,275,113108,1,8,0:2:0:0:
171,345,113378,38,0,B|258:362|246:297|335:317,1,160.000001192093,2|2,1:2|1:2,0:0:0:0:
496,283,114458,2,0,B|505:234|487:245|495:202,1,80.0000005960464,6|6,1:2|1:2,0:0:0:0:
411,173,114998,1,6,1:2:0:0:
330,136,115268,1,6,1:2:0:0:
252,178,115538,6,0,P|197:164|177:123,1,80.0000005960464,4|8,1:2|0:2,0:0:0:0:
172,59,116078,2,0,P|127:24|77:32,1,80.0000005960464,2|8,1:2|0:2,0:0:0:0:
38,79,116618,2,0,P|18:112|11:159,1,80.0000005960464,2|8,1:2|0:2,0:0:0:0:
38,236,117158,1,2,1:2:0:0:
140,384,117698,6,0,B|158:368|165:357|165:357|168:293|187:226,1,160.000001192093,2|2,1:2|1:2,0:0:0:0:
161,150,118508,1,10,0:2:0:0:
211,77,118778,2,0,P|230:41|271:29,1,80.0000005960464,2|8,1:2|0:2,0:0:0:0:
353,31,119318,2,0,P|374:19|403:7,2,40.0000002980232,6|2|6,1:2|1:2|1:2,0:0:0:0:
331,116,119858,6,0,B|321:140|316:150|316:150|329:183|336:238,1,120.00000089407,6|2,1:2|0:2,0:0:0:0:
366,260,120398,2,0,P|413:268|449:281,1,80.0000005960464,2|8,1:2|0:2,0:0:0:0:
460,319,120803,1,2,0:2:0:0:
452,362,120938,2,0,P|404:373|365:379,1,80.0000005960464,2|10,1:2|0:2,0:0:0:0:
290,347,121478,1,2,1:2:0:0:
204,365,121748,1,10,0:2:0:0:
121,333,122018,6,0,P|89:339|49:371,2,80.0000005960464,2|10|2,1:2|0:2|1:2,0:0:0:0:
154,251,122828,1,10,0:2:0:0:
98,182,123098,1,2,1:2:0:0:
226,20,124178,6,0,B|273:24|254:44|310:45,1,80.0000005960464,6|10,0:2|0:2,0:0:0:0:
341,122,124718,2,0,B|388:118|369:98|425:97,1,80.0000005960464,2|10,1:2|0:2,0:0:0:0:
482,154,125258,2,0,P|506:152|532:152,2,40.0000002980232,2|0|10,1:2|0:0|0:2,0:0:0:0:
448,235,125798,1,2,1:2:0:0:
332,368,126338,38,0,P|316:324|244:311,1,120.00000089407,2|2,1:2|0:2,0:0:0:0:
211,330,126878,2,0,P|156:323|120:323,1,80.0000005960464,2|10,1:2|0:2,0:0:0:0:
73,256,127418,1,2,1:2:0:0:
84,168,127688,1,10,0:2:0:0:
156,117,127958,2,0,P|192:100|231:92,1,80.0000005960464,6|14,1:2|0:2,0:0:0:0:
293,30,128498,5,4,1:1:0:0:
430,255,129308,1,10,0:2:0:0:
366,315,129578,2,0,P|320:308|296:282,1,80.0000005960464,2|10,1:2|0:2,0:0:0:0:
283,198,130118,1,2,1:2:0:0:
352,144,130388,1,8,0:2:0:0:
361,56,130658,6,0,P|307:19|211:32,1,160.000001192093,2|2,1:2|1:2,0:0:0:0:
63,115,131738,2,0,P|52:153|35:200,1,80.0000005960464,6|6,1:2|1:2,0:0:0:0:
51,233,132143,1,2,1:2:0:0:
63,275,132278,2,0,P|49:312|38:351,1,80.0000005960464,6|6,1:2|1:2,0:0:0:0:
125,365,132818,5,6,1:1:0:0:
212,357,133088,1,2,1:1:0:0:
299,346,133358,1,6,1:1:0:0:
425,220,133898,2,0,P|454:231|509:239,2,80.0000005960464,6|2|6,1:1|1:1|1:1,0:0:0:0:
307,90,134978,5,6,1:1:0:0:
222,115,135248,1,2,1:1:0:0:
207,201,135518,1,6,1:1:0:0:
61,300,136058,2,0,P|66:331|67:381,2,80.0000005960464,6|2|2,1:1|1:1|1:1,0:0:0:0:
24,231,136868,1,2,1:1:0:0:
24,231,137003,1,2,1:2:0:0:
24,231,137138,5,6,1:2:0:0:
256,192,137273,12,4,139298,0:1:0:0:
