osu file format v14

[General]
AudioFilename: audio.mp3
AudioLeadIn: 0
PreviewTime: 63630
Countdown: 0
SampleSet: Drum
StackLeniency: 0.7
Mode: 0
LetterboxInBreaks: 0
WidescreenStoryboard: 1

[Editor]
Bookmarks: 26978,35483,80978,88403
DistanceSpacing: 0.7
BeatDivisor: 4
GridSize: 16
TimelineZoom: 2.7

[Metadata]
Title:FREEDOM DiVE
TitleUnicode:FREEDOM DiVE↓
Artist:xi
ArtistUnicode:xi
Creator:Aistre
Version:Seolv's iNFiNiTE
Source:MAXBEAT
Tags:VOEZ cytus ii CHUNITHM PLUS BMS parousia video rhythm game happy hardcore electronic featured artist mpg mappers mapper's guild alphabet venax deviouspanda paradogi lukas seolv [_l_u_k_a_s_] xi baddies uberfazz instrumental SOUND VOLTEX IV HEAVENLY HAVEN 太鼓の達人 セッションでドドンがドン! Taiko no Tatsujin Drum Session! CHUNITHM PLUS WACCA Muse Dash fd
BeatmapID:3417573
BeatmapSetID:1667560

[Difficulty]
HPDrainRate:5.3
CircleSize:4
OverallDifficulty:8
ApproachRate:9
SliderMultiplier:1.40000000596046
SliderTickRate:1

[Events]
//Background and Video events
0,0,"EykD9SkXIAA7R16.jpg",0,0
//Break Periods
2,27178,34883
2,81178,87803
//Storyboard Layer 0 (Background)
//Storyboard Layer 1 (Fail)
//Storyboard Layer 2 (Pass)
//Storyboard Layer 3 (Foreground)
//Storyboard Layer 4 (Overlay)
//Storyboard Sound Samples

[TimingPoints]
1058,270.000000027,4,3,0,65,1,0
26978,-100,4,2,0,65,0,0
44258,-100,4,3,0,70,0,0
46418,-90.9090909090909,4,3,0,70,0,0
63698,-83.3333333333333,4,3,0,75,0,0
88538,-125,4,3,0,65,0,0
90698,-111.111111111111,4,3,0,65,0,0
92858,-100,4,3,0,65,0,0
98258,-83.3333333333333,4,3,0,80,0,1
114458,-83.3333333333333,4,3,0,80,0,0
115538,-83.3333333333333,4,3,0,80,0,1
130658,-83.3333333333333,4,3,0,75,0,1
131738,-83.3333333333333,4,3,0,70,0,1
132818,-76.9230769230769,4,3,0,70,0,0
139298,-76.9230769230769,4,3,0,40,0,0

[Colours]
Combo1 : 191,116,220
Combo2 : 210,200,196
Combo3 : 211,188,173
Combo4 : 241,67,128
Combo5 : 236,177,113
Combo6 : 228,235,101
Combo7 : 159,235,126
Combo8 : 128,198,236

[HitObjects]
347,273,1058,6,0,B|401:254|401:254|402:251|402:251|444:237,2,105.000000447035,4|0|0,1:2|1:0|1:0,0:0:0:0:
347,273,1733,2,0,B|338:262|338:262|348:207,1,70.000000298023,0|0,1:0|1:0,0:0:0:0:
414,160,2003,1,2,0:3:0:0:
351,283,2138,6,0,B|405:264|405:264|406:261|406:261|448:247,2,105.000000447035,0|0|0,1:0|1:0|1:0,0:0:0:0:
298,341,2678,1,0,1:0:0:0:
227,365,2813,2,0,L|192:360,2,35.0000001490115,0|0|0,1:0|0:0|1:0,0:0:0:0:
227,365,3083,1,0,0:0:0:0:
267,259,3218,102,0,P|272:207|282:156,2,105.000000447035,4|0|0,1:1|1:0|1:0,0:0:0:0:
179,134,3893,2,0,P|197:104|229:93,1,70.000000298023,0|0,1:0|1:0,0:0:0:0:
308,78,4163,1,2,0:3:0:0:
272,161,4298,6,0,P|262:212|257:265,2,105.000000447035,0|0|0,1:0|1:0|1:0,0:0:0:0:
308,78,4838,1,0,1:0:0:0:
318,69,4905,1,0,1:0:0:0:
331,69,4973,2,0,L|347:73,4,17.5000000745058,0|0|0|0|0,1:0|0:0|0:0|0:0|1:0,0:0:0:0:
431,60,5243,1,2,0:3:0:0:
382,150,5378,102,0,P|337:170|285:152,2,105.000000447035,4|0|0,1:1|1:0|1:0,0:0:0:0:
468,274,6053,1,0,1:0:0:0:
406,326,6188,2,0,P|391:294|392:259,1,70.000000298023,0|2,1:0|0:3,0:0:0:0:
383,158,6458,6,0,P|338:178|286:160,2,105.000000447035,0|0|0,1:0|1:0|1:0,0:0:0:0:
441,102,6998,1,0,1:0:0:0:
372,48,7133,2,0,P|370:30|367:13,2,35.0000001490115,0|0|0,1:0|0:0|1:0,0:0:0:0:
372,48,7403,1,0,0:0:0:0:
305,165,7538,102,0,B|328:210|328:210|309:262,2,105.000000447035,4|0|0,1:2|1:0|1:0,0:0:0:0:
206,165,8078,2,0,B|184:210|184:210|203:262,2,105.000000447035,4|0|2,0:2|0:0|0:3,0:0:0:0:
206,165,8618,1,4,1:2:0:0:
255,66,8753,6,0,L|260:31,1,35.0000001490115,0|0,0:2|0:0,0:0:0:0:
245,23,8888,1,4,1:1:0:0:
144,72,9023,2,0,L|149:37,1,35.0000001490115
132,34,9158,2,0,L|137:0,3,35.0000001490115,4|2|2|2,1:2|0:2|0:2|0:2,0:0:0:0:
62,59,9428,2,0,L|27:64,3,35.0000001490115,4|2|2|2,1:2|0:2|0:2|0:2,0:0:0:0:
122,112,9698,102,0,P|157:115|191:125,1,70.000000298023,4|0,1:2|0:0,0:0:0:0:
306,213,9968,2,0,B|230:228|260:264|181:277,1,140.000000596046,8|0,0:2|1:0,0:0:0:0:
102,272,10373,2,0,P|96:255|90:238,1,35.0000001490115
130,195,10508,2,0,P|116:227|108:261,1,70.000000298023,8|0,0:2|0:0,0:0:0:0:
136,343,10778,1,0,1:0:0:0:
266,281,10913,5,0,0:0:0:0:
266,281,10980,1,0,0:0:0:0:
266,281,11048,2,0,P|279:190|294:133,1,140.000000596046,8|0,0:2|1:0,0:0:0:0:
242,77,11453,2,0,P|239:59|235:42,4,35.0000001490115,0|0|8|0|0,0:0|0:0|0:2|0:0|1:0,0:0:0:0:
408,10,11858,101,4,1:1:0:0:
484,46,11993,2,0,L|475:91,1,35.0000001490115
477,80,12128,2,0,B|478:113|478:113|362:79,1,140.000000596046,8|0,0:2|1:0,0:0:0:0:
233,38,12533,2,0,L|198:43,2,35.0000001490115,0|0|8,0:0|0:0|0:2,0:0:0:0:
311,21,12803,1,0,1:0:0:0:
311,21,12938,2,0,B|303:56|303:56|304:58|304:58|297:89,1,70.000000298023,0|0,1:0|0:0,0:0:0:0:
304,259,13208,6,0,P|274:243|239:239,1,70.000000298023,12|0,0:2|0:0,0:0:0:0:
120,127,13478,101,4,1:1:0:0:
151,304,13680,5,4,1:1:0:0:
292,190,13883,101,4,1:1:0:0:
235,246,14018,6,0,P|302:228|372:221,1,140.000000596046,4|8,1:2|0:2,0:0:0:0:
432,165,14423,2,0,L|439:127,4,35.0000001490115,0|0|0|0|0,0:0|0:0|1:0|0:0|0:0,0:0:0:0:
355,128,14828,101,4,1:2:0:0:
447,251,14963,2,0,P|426:313|360:315,1,140.000000596046,4|0,1:1|0:0,0:0:0:0:
352,307,15300,1,0,1:0:0:0:
348,296,15368,2,0,P|318:277|284:273,1,70.000000298023,4|0,1:2|1:0,0:0:0:0:
181,334,15638,1,0,1:0:0:0:
128,280,15773,2,0,P|121:259|113:240,1,35.0000001490115,0|0,1:0|1:0,0:0:0:0:
109,236,15908,2,0,P|138:254|172:258,1,70.000000298023,4|0,1:2|1:0,0:0:0:0:
242,148,16178,5,4,1:2:0:0:
287,89,16313,2,0,P|287:72|283:55,4,35.0000001490115,0|0|8|0|0,0:0|0:0|0:2|0:0|0:0,0:0:0:0:
358,190,16718,101,4,1:2:0:0:
403,248,16853,2,0,P|403:265|399:282,4,35.0000001490115
484,116,17258,6,0,P|450:125|415:129,1,70.000000298023,4|0,1:2|1:0,0:0:0:0:
329,257,17528,2,0,P|295:247|260:243,1,70.000000298023,4|0,1:2|1:0,0:0:0:0:
162,142,17798,102,0,L|169:107,3,35.0000001490115,4|2|2|2,1:1|0:2|0:2|0:2,0:0:0:0:
147,73,18068,2,0,L|154:38,3,35.0000001490115,4|2|2|2,1:1|0:2|0:2|0:2,0:0:0:0:
189,19,18338,6,0,P|222:8|257:8,1,70.000000298023,4|0,1:2|0:0,0:0:0:0:
357,1,18608,2,0,P|342:69|340:121,1,105.000000447034,8|0,0:2|0:0,0:0:0:0:
344,113,18878,2,0,P|377:102|412:102,1,70.000000298023,0|0,1:0|0:0,0:0:0:0:
512,94,19148,2,0,P|497:163|492:233,1,140.000000596046,8|0,0:2|1:0,0:0:0:0:
493,240,19688,102,0,P|466:261|432:258,1,70.000000298023,8|0,0:2|0:0,0:0:0:0:
370,359,19958,2,0,P|338:346|323:315,1,70.000000298023,0|0,1:0|0:0,0:0:0:0:
326,198,20228,1,8,0:2:0:0:
326,198,20363,1,0,1:0:0:0:
221,157,20498,6,0,P|187:167|152:171,1,70.000000298023,4|0,1:1|0:0,0:0:0:0:
138,284,20768,2,0,P|205:265|274:257,1,140.000000596046,8|0,0:2|1:0,0:0:0:0:
326,198,21173,2,0,P|330:170|339:148,1,35.0000001490115
337,157,21308,1,8,0:2:0:0:
319,81,21443,1,0,1:0:0:0:
242,85,21578,1,0,1:0:0:0:
349,282,21848,102,0,P|381:294|390:327,1,70.000000298023,12|0,0:2|0:0,0:0:0:0:
336,375,22118,1,4,1:1:0:0:
480,280,22320,5,4,1:1:0:0:
326,198,22523,101,4,1:1:0:0:
386,149,22658,6,0,L|397:79,1,70.000000298023,4|0,1:2|0:0,0:0:0:0:
248,8,22928,2,0,B|230:26|230:26|242:104,1,105.000000447034,8|0,0:2|0:0,0:0:0:0:
239,112,23198,2,0,L|308:123,1,70.000000298023,0|0,1:0|0:0,0:0:0:0:
385,162,23468,101,4,1:2:0:0:
315,37,23603,1,4,1:1:0:0:
315,37,23873,2,0,L|349:31,2,35.0000001490115,0|0|4,0:0|1:0|1:2,0:0:0:0:
174,175,24278,6,0,L|91:188,1,70.000000298023,0|0,1:0|1:0,0:0:0:0:
92,197,24480,1,0,1:0:0:0:
80,209,24548,2,0,L|-3:222,1,70.000000298023,4|0,1:2|1:0,0:0:0:0:
39,125,24818,101,4,1:2:0:0:
39,125,24953,1,0,1:0:0:0:
112,92,25088,1,2,0:2:0:0:
112,92,25223,1,0,1:0:0:0:
231,227,25358,5,6,0:2:0:0:
231,227,25493,1,0,1:0:0:0:
309,255,25628,1,2,0:2:0:0:
309,255,25763,1,0,1:0:0:0:
339,83,25898,102,0,L|417:65,1,70.000000298023,6|0,0:2|1:0,0:0:0:0:
512,175,26168,2,0,L|443:159,1,70.000000298023,2|0,0:2|1:0,0:0:0:0:
501,81,26438,1,6,0:2:0:0:
351,173,26573,5,0,1:0:0:0:
351,173,26640,1,0,1:0:0:0:
351,173,26708,2,0,P|388:208|394:260,1,105.000000447034,2|2,0:2|1:2,0:0:0:0:
389,270,26978,1,6,2:2:0:0:
161,255,35483,102,0,L|195:249,1,35.0000001490115,0|0,1:0|1:0,0:0:0:0:
327,230,35618,1,6,2:2:0:0:
108,85,37778,5,6,2:2:0:0:
108,85,39938,1,2,1:2:0:0:
160,144,40883,102,0,P|156:161|154:178,1,35.0000001490115,2|0,1:2|1:0,0:0:0:0:
151,257,41018,2,0,P|228:191|326:217,1,210.000000894069,2|2,1:2|2:2,0:0:0:0:
344,296,41558,2,0,P|266:361|168:335,1,210.000000894069,2|2,1:2|2:2,0:0:0:0:
77,213,42098,5,2,1:2:0:0:
81,202,42638,1,2,1:2:0:0:
154,177,42908,1,2,1:2:0:0:
220,220,43043,1,2,2:2:0:0:
231,222,43110,1,2,0:0:0:0:
238,230,43178,1,2,2:2:0:0:
82,119,43448,101,6,1:2:0:0:
149,254,43718,1,6,1:2:0:0:
238,129,43988,1,6,1:2:0:0:
295,76,44123,5,0,1:0:0:0:
295,76,44190,1,0,1:0:0:0:
295,76,44258,2,0,L|451:51,1,140.000000596046,2|2,1:2|1:2,0:0:0:0:
454,136,44663,1,0,0:0:0:0:
454,136,44730,1,0,0:0:0:0:
454,136,44798,2,0,L|298:161,1,140.000000596046,6|2,1:2|1:2,0:0:0:0:
274,248,45203,102,0,L|267:282,1,35.0000001490115
265,293,45338,2,0,L|187:305,1,70.000000298023,6|0,1:2|1:0,0:0:0:0:
225,170,45608,2,0,L|147:182,1,70.000000298023,6|0,1:2|1:0,0:0:0:0:
87,130,45878,1,6,1:2:0:0:
161,86,46013,1,0,1:0:0:0:
161,86,46080,1,0,1:0:0:0:
161,86,46148,2,0,L|171:16,1,70.000000298023,6|0,1:2|1:0,0:0:0:0:
267,93,46418,6,0,P|275:169|267:245,1,154.000005355358,4|10,1:1|0:2,0:0:0:0:
115,287,46958,2,0,P|96:258|44:250,1,77.0000026776789,2|0,1:2|0:0,0:0:0:0:
95,368,47228,2,0,P|131:356|169:350,1,77.0000026776789,10|0,0:2|0:0,0:0:0:0:
267,245,47498,102,0,P|341:265|417:269,2,154.000005355358,2|10|2,1:2|0:2|1:2,0:0:0:0:
267,245,48308,1,10,0:2:0:0:
408,345,48578,6,0,P|409:306|417:268,1,77.0000026776789,2|0,1:2|0:0,0:0:0:0:
349,189,48848,2,0,P|350:150|358:112,1,77.0000026776789,10|0,0:2|0:0,0:0:0:0:
505,154,49118,102,0,P|467:148|438:171,1,77.0000026776789,2|0,1:2|0:0,0:0:0:0:
333,262,49388,2,0,P|295:267|266:244,1,77.0000026776789,10|0,0:2|0:0,0:0:0:0:
218,319,49658,2,0,B|246:239|188:240|220:167,2,154.000005355358,2|10|2,1:2|0:2|1:2,0:0:0:0:
218,319,50468,1,10,0:2:0:0:
158,370,50603,1,0,1:2:0:0:
44,278,50738,6,0,P|40:239|31:202,1,77.0000026776789,2|0,1:2|0:0,0:0:0:0:
53,133,51008,2,0,P|80:106|118:103,1,77.0000026776789,10|0,0:2|0:0,0:0:0:0:
264,13,51278,102,0,P|260:51|251:88,1,77.0000026776789,2|0,1:2|0:0,0:0:0:0:
170,209,51548,2,0,P|196:235|234:238,1,77.0000026776789,10|0,0:2|0:0,0:0:0:0:
261,166,51818,6,0,P|234:139|196:136,1,77.0000026776789,2|0,1:2|0:0,0:0:0:0:
174,313,52088,2,0,P|246:287|321:270,2,154.000005355358,10|2|10,0:2|1:2|0:2,0:0:0:0:
377,326,52898,102,0,P|397:294|397:256,1,77.0000026776789,2|0,1:2|0:0,0:0:0:0:
450,200,53168,2,0,P|418:179|380:179,1,77.0000026776789,10|0,0:2|0:0,0:0:0:0:
324,123,53438,2,0,P|303:154|303:192,1,77.0000026776789,2|0,1:2|0:0,0:0:0:0:
251,249,53708,2,0,P|282:269|320:269,1,77.0000026776789,10|0,0:2|1:2,0:0:0:0:
397,256,53978,1,0,1:2:0:0:
373,62,54248,6,0,P|316:66|260:79,1,115.500004016518,14|0,0:2|1:0,0:0:0:0:
254,75,54518,1,4,1:1:0:0:
161,24,54653,1,0,1:0:0:0:
161,24,54720,1,0,1:0:0:0:
161,24,54788,2,0,P|124:35|102:65,1,77.0000026776789,14|0,0:2|1:0,0:0:0:0:
28,91,55058,102,0,B|116:79|100:147|167:138,1,154.000005355358,4|10,1:1|0:2,0:0:0:0:
272,287,55598,2,0,P|237:255|181:260,1,77.0000026776789,2|0,1:2|0:0,0:0:0:0:
154,310,55868,2,0,P|115:315|79:328,1,77.0000026776789,10|0,0:2|0:0,0:0:0:0:
193,375,56138,6,0,P|183:299|138:238,2,154.000005355358,2|10|2,1:2|0:2|1:2,0:0:0:0:
193,375,56948,1,10,0:2:0:0:
411,355,57218,102,0,P|432:314|420:278,1,77.0000026776789,2|0,1:2|0:0,0:0:0:0:
349,133,57488,2,0,P|341:170|340:209,1,77.0000026776789,10|0,0:2|0:0,0:0:0:0:
485,237,57758,6,0,P|450:206|412:208,1,77.0000026776789,2|0,1:2|0:0,0:0:0:0:
340,291,58028,2,0,P|301:290|264:283,1,77.0000026776789,10|0,0:2|0:0,0:0:0:0:
244,143,58298,2,0,P|315:140|340:208,2,154.000005355358,2|10|2,1:2|0:2|1:2,0:0:0:0:
244,143,59108,1,10,0:2:0:0:
176,107,59243,1,0,1:2:0:0:
99,198,59378,102,0,P|136:188|174:185,1,77.0000026776789,2|0,1:2|0:0,0:0:0:0:
275,73,59648,2,0,P|307:91|322:126,1,77.0000026776789,10|0,0:2|0:0,0:0:0:0:
108,91,59918,6,0,P|145:100|183:103,1,77.0000026776789,2|0,1:2|0:0,0:0:0:0:
268,255,60188,2,0,P|300:236|315:201,1,77.0000026776789,10|0,0:2|0:0,0:0:0:0:
171,193,60458,102,0,P|183:229|188:267,1,77.0000026776789,2|0,1:2|0:0,0:0:0:0:
286,354,60728,2,0,P|358:328|433:311,2,154.000005355358,10|2|10,0:2|1:2|0:2,0:0:0:0:
293,356,61538,6,0,P|306:298|341:281,1,77.0000026776789,2|2,1:2|1:2,0:0:0:0:
371,235,61808,1,2,1:2:0:0:
371,235,61943,1,2,1:2:0:0:
224,232,62078,102,0,P|280:214|312:236,1,77.0000026776789,2|2,1:2|1:2,0:0:0:0:
396,311,62348,1,2,1:2:0:0:
396,311,62483,1,0,1:0:0:0:
470,208,62618,6,0,P|478:171|489:134,1,77.0000026776789,0|2,1:0|1:2,0:0:0:0:
395,10,62888,1,6,1:2:0:0:
395,10,62955,1,0,1:0:0:0:
395,10,63023,2,0,L|403:47,1,38.5000013388394,2|0,1:2|1:0,0:0:0:0:
512,52,63158,2,0,P|474:60|437:71,1,77.0000026776789,6|2,1:2|1:2,0:0:0:0:
300,125,63428,2,0,P|262:116|225:105,1,77.0000026776789,6|2,1:2|1:2,0:0:0:0:
193,79,63630,1,0,1:0:0:0:
193,79,63698,6,0,P|135:96|125:155,2,125.999996691227,4|2|2,1:2|0:2|0:2,0:0:0:0:
312,201,64238,2,0,L|306:255,1,41.9999988970756,2|2,1:2|0:2,0:0:0:0:
228,298,64440,1,0,0:0:0:0:
228,298,64508,2,0,L|218:381,1,83.9999977941511,10|0,0:2|1:2,0:0:0:0:
66,222,64778,6,0,B|125:208|125:208|127:213|127:213|185:199,2,125.999996691227,2|2|2,1:2|0:2|0:2,0:0:0:0:
91,99,65318,1,2,1:2:0:0:
90,99,65385,2,0,P|130:96|158:126,1,83.9999977941511,2|0,0:2|0:0,0:0:0:0:
173,121,65588,2,0,P|195:154|183:194,1,83.9999977941511,10|2,0:2|1:2,0:0:0:0:
307,242,65858,6,0,P|368:227|430:219,2,125.999996691227,2|2|2,1:2|0:2|0:2,0:0:0:0:
206,350,66398,2,0,P|211:329|214:308,1,41.9999988970756,2|2,1:2|0:2,0:0:0:0:
293,241,66600,2,0,P|297:220|300:199,1,41.9999988970756,0|10,0:0|0:2,0:0:0:0:
300,199,66803,1,2,0:2:0:0:
384,109,66938,6,0,P|441:132|458:191,2,125.999996691227,2|2|2,1:2|1:2|1:2,0:0:0:0:
294,75,67478,2,0,P|252:83|211:88,1,83.9999977941511,6|2,1:2|1:2,0:0:0:0:
300,199,67748,2,0,P|341:190|382:185,1,83.9999977941511,6|2,1:2|1:2,0:0:0:0:
198,298,68018,6,0,B|208:239|208:239|211:238|211:238|221:175,2,125.999996691227,6|2|2,1:2|0:2|0:2,0:0:0:0:
97,376,68558,2,0,P|39:354|30:281,1,125.999996691227,2|0,1:2|0:0,0:0:0:0:
0,296,68828,2,0,P|0:255|28:226,1,83.9999977941511,8|2,0:2|1:2,0:0:0:0:
221,175,69098,6,0,L|261:165,2,41.9999988970756,2|0|2,1:2|0:0|0:2,0:0:0:0:
145,194,69368,2,0,L|104:203,2,41.9999988970756,10|0|2,0:2|0:0|0:2,0:0:0:0:
211,258,69638,2,0,L|220:174,1,83.9999977941511,2|2,1:2|1:2,0:0:0:0:
175,32,69908,2,0,L|165:115,1,83.9999977941511,10|2,0:2|0:2,0:0:0:0:
293,233,70178,38,0,P|329:212|370:214,1,83.9999977941511,2|2,1:2|0:2,0:0:0:0:
439,260,70448,1,10,0:2:0:0:
439,260,70583,1,2,0:2:0:0:
380,115,70718,6,0,P|415:136|435:173,1,83.9999977941511,2|2,1:2|0:2,0:0:0:0:
369,299,70988,1,10,0:2:0:0:
369,299,71123,1,2,1:2:0:0:
293,233,71258,6,0,P|231:217|169:207,1,125.999996691227,2|2,1:2|0:2,0:0:0:0:
158,214,71528,2,0,P|127:176|138:132,1,83.9999977941511,4|2,0:1|0:2,0:0:0:0:
232,99,71798,1,6,1:2:0:0:
232,99,71865,1,0,1:0:0:0:
232,99,71933,1,0,1:0:0:0:
232,99,72000,1,0,1:0:0:0:
232,99,72068,2,0,P|263:137|252:181,1,83.9999977941511,6|2,1:2|1:2,0:0:0:0:
186,300,72338,6,0,P|144:290|103:284,1,83.9999977941511,6|2,0:2|0:2,0:0:0:0:
259,169,72608,2,0,P|249:210|243:251,1,83.9999977941511,10|2,0:2|0:2,0:0:0:0:
136,87,72878,2,0,P|177:96|218:102,1,83.9999977941511,2|2,1:2|0:2,0:0:0:0:
63,218,73148,2,0,P|72:176|78:135,1,83.9999977941511,10|2,0:2|0:2,0:0:0:0:
178,207,73418,6,0,P|161:195|173:214,3,55.9999985294341,2|2|2|10,1:2|0:2|0:2|0:2,0:0:0:0:
178,207,73958,2,0,P|238:186|300:179,2,125.999996691227,2|2|0,1:2|0:2|1:2,0:0:0:0:
108,350,74498,6,0,P|38:319|37:308,1,83.9999977941511,2|2,1:2|0:2,0:0:0:0:
41,251,74768,2,0,P|32:174|41:168,1,83.9999977941511,10|2,0:2|0:2,0:0:0:0:
96,132,75038,2,0,P|157:86|167:91,2,83.9999977941511,2|2|10,1:2|0:2|0:2,0:0:0:0:
249,339,75578,37,2,1:2:0:0:
350,304,75713,1,2,0:2:0:0:
402,242,75848,1,10,0:2:0:0:
512,320,75983,1,2,0:2:0:0:
437,361,76118,2,0,L|427:320,2,41.9999988970756,6|2|2,1:2|0:2|1:2,0:0:0:0:
493,209,76388,2,0,L|511:127,1,83.9999977941511,14|2,0:2|0:2,0:0:0:0:
379,33,76658,6,0,P|318:31|299:95,2,125.999996691227,4|2|2,1:1|0:2|0:2,0:0:0:0:
461,44,77198,2,0,P|456:23|452:2,4,41.9999988970756,2|2|2|0|10,1:2|0:2|1:2|0:0|0:2,0:0:0:0:
364,160,77603,1,2,0:2:0:0:
305,212,77738,6,0,P|315:252|320:294,1,83.9999977941511,2|2,1:2|0:2,0:0:0:0:
447,384,78008,2,0,P|452:342|462:301,1,83.9999977941511,10|2,0:2|0:2,0:0:0:0:
272,366,78278,2,0,P|204:363|182:306,2,125.999996691227,2|2|2,1:2|0:2|0:2,0:0:0:0:
397,266,78818,6,0,P|436:257|457:221,1,83.9999977941511,2|2,1:2|1:2,0:0:0:0:
476,209,79020,1,2,1:2:0:0:
476,209,79088,2,0,P|488:170|467:134,1,83.9999977941511,8|2,0:2|1:2,0:0:0:0:
362,68,79358,2,0,L|316:75,2,41.9999988970756,2|2|0,1:2|0:2|1:2,0:0:0:0:
394,138,79628,2,0,L|302:152,1,83.9999977941511,2|2,1:2|1:2,0:0:0:0:
203,39,79898,6,0,P|194:81|188:122,1,83.9999977941511,6|2,1:2|1:2,0:0:0:0:
97,256,80168,2,0,P|91:214|82:173,1,83.9999977941511,6|2,1:2|1:2,0:0:0:0:
214,238,80438,2,0,L|265:229,3,41.9999988970756,6|2|2|2,1:2|1:2|1:2|1:2,0:0:0:0:
292,258,80708,1,6,1:2:0:0:
321,262,80775,1,2,1:2:0:0:
350,267,80843,1,2,1:2:0:0:
379,271,80910,1,2,1:2:0:0:
408,276,80978,1,4,1:1:0:0:
30,71,88403,21,0,1:2:0:0:
30,71,88470,1,0,1:2:0:0:
30,71,88538,2,0,P|43:128|48:197,1,112.000000476837,2|0,1:1|1:2,0:0:0:0:
185,271,89078,2,0,P|190:215|202:160,1,112.000000476837,0|0,1:2|1:2,0:0:0:0:
390,34,89618,6,0,P|335:44|317:100,1,112.000000476837,2|0,1:1|1:2,0:0:0:0:
415,209,90158,2,0,P|467:217|488:224,1,56.0000002384184,0|0,1:2|0:0,0:0:0:0:
411,201,90428,2,0,P|463:209|484:216,1,56.0000002384184,0|0,1:2|0:0,0:0:0:0:
404,312,90698,102,0,P|377:297|368:267,1,62.9999983456133,2|0,1:1|0:0,0:0:0:0:
302,224,90968,2,0,P|301:193|322:170,1,62.9999983456133,0|0,1:2|0:0,0:0:0:0:
314,91,91238,2,0,P|315:75|318:59,4,31.4999991728067,0|0|0|0|0,1:2|0:0|0:0|0:0|1:2,0:0:0:0:
179,44,91643,5,0,0:0:0:0:
179,44,91710,1,0,0:0:0:0:
179,44,91778,2,0,P|148:53|117:58,1,62.9999983456133,2|0,1:1|0:0,0:0:0:0:
83,128,92048,2,0,P|105:149|125:174,1,62.9999983456133,0|0,1:2|0:0,0:0:0:0:
204,168,92318,2,0,P|211:137|222:108,1,62.9999983456133,0|0,1:2|0:0,0:0:0:0:
222,107,92588,1,0,1:2:0:0:
174,249,92723,101,0,1:2:0:0:
174,249,92790,1,0,0:0:0:0:
174,249,92858,1,2,1:1:0:0:
327,200,92993,6,0,L|316:247,2,35.0000001490115,0|0|0,0:0|0:0|1:2,0:0:0:0:
406,218,93263,2,0,L|453:229,2,35.0000001490115,0|0|0,0:0|0:0|1:2,0:0:0:0:
421,133,93533,2,0,L|432:86,2,35.0000001490115,0|0|0,0:0|0:0|1:2,0:0:0:0:
342,115,93803,2,0,L|295:104,1,35.0000001490115
302,108,93938,1,2,1:1:0:0:
247,32,94073,102,0,P|229:33|214:42,2,35.0000001490115,0|0|0,0:0|0:0|1:2,0:0:0:0:
121,51,94343,2,0,P|113:66|113:84,2,35.0000001490115,0|0|0,0:0|0:0|1:2,0:0:0:0:
58,9,94613,1,0,0:0:0:0:
0,56,94748,1,0,1:2:0:0:
44,123,94883,5,0,0:0:0:0:
44,123,94950,1,0,0:0:0:0:
44,123,95018,2,0,L|51:171,3,35.0000001490115,2|0|0|0,1:1|0:0|1:2|1:2,0:0:0:0:
87,183,95288,2,0,L|94:231,3,35.0000001490115,0|0|0|0,1:2|0:0|1:2|0:0,0:0:0:0:
125,249,95558,2,0,L|132:297,3,35.0000001490115,0|0|0|0,1:2|0:0|1:2|0:0,0:0:0:0:
168,309,95828,2,0,L|175:357,3,35.0000001490115,0|0|0|0,1:2|0:0|1:2|0:0,0:0:0:0:
212,361,96098,101,2,1:1:0:0:
277,324,96233,1,0,1:2:0:0:
352,357,96368,1,0,1:2:0:0:
426,316,96503,1,0,1:2:0:0:
512,355,96638,1,2,1:1:0:0:
512,355,96773,6,0,P|508:337|501:322,1,35.0000001490115,0|0,1:2|0:0,0:0:0:0:
491,248,96908,1,0,1:2:0:0:
458,238,96975,1,0,0:0:0:0:
427,252,97043,1,0,1:2:0:0:
414,284,97110,1,0,0:0:0:0:
426,316,97178,1,6,1:1:0:0:
426,316,97988,1,2,0:2:0:0:
182,337,98258,6,0,P|124:320|114:261,2,125.999996691227,4|2|2,1:2|0:2|0:2,0:0:0:0:
265,375,98798,2,0,L|269:333,1,41.9999988970756,2|2,1:2|0:2,0:0:0:0:
210,177,99000,1,0,0:0:0:0:
210,177,99068,2,0,L|220:260,1,83.9999977941511,10|0,0:2|1:2,0:0:0:0:
373,357,99338,6,0,P|434:341|497:335,2,125.999996691227,2|2|2,1:2|0:2|0:2,0:0:0:0:
226,265,99878,1,2,1:2:0:0:
225,265,99945,2,0,P|265:262|297:231,1,83.9999977941511,2|0,0:2|0:0,0:0:0:0:
296,220,100148,2,0,P|336:223|368:254,1,83.9999977941511,10|2,0:2|1:2,0:0:0:0:
437,164,100418,6,0,B|446:157|446:157|427:40,2,125.999996691227,2|2|2,1:2|0:2|0:2,0:0:0:0:
322,85,100958,2,0,L|280:77,1,41.9999988970756,2|2,1:2|0:2,0:0:0:0:
217,179,101160,2,0,L|175:171,1,41.9999988970756,0|10,0:0|0:2,0:0:0:0:
175,171,101363,1,2,0:2:0:0:
38,74,101498,6,0,B|97:60|97:60|99:62|99:62|160:49,2,125.999996691227,2|2|2,1:2|1:2|1:2,0:0:0:0:
93,192,102038,2,0,L|105:108,1,83.9999977941511,6|2,1:2|1:2,0:0:0:0:
250,93,102308,2,0,L|262:9,1,83.9999977941511,6|2,1:2|1:2,0:0:0:0:
110,13,102578,6,0,P|51:15|37:73,2,125.999996691227,6|2|2,1:2|0:2|0:2,0:0:0:0:
253,99,103118,2,0,P|306:95|352:26,1,125.999996691227,2|0,1:2|0:0,0:0:0:0:
371,20,103388,2,0,P|424:24|454:58,1,83.9999977941511,8|2,0:2|1:2,0:0:0:0:
375,173,103658,6,0,L|385:213,2,41.9999988970756,2|0|2,1:2|0:0|0:2,0:0:0:0:
483,296,103928,2,0,L|474:337,2,41.9999988970756,10|0|2,0:2|0:0|0:2,0:0:0:0:
489,107,104198,2,0,L|480:191,1,83.9999977941511,2|2,1:2|1:2,0:0:0:0:
371,292,104468,2,0,L|361:375,1,83.9999977941511,10|2,0:2|0:2,0:0:0:0:
227,263,104738,38,0,P|263:242|304:244,1,83.9999977941511,2|2,1:2|0:2,0:0:0:0:
371,292,105008,1,10,0:2:0:0:
371,292,105143,1,2,0:2:0:0:
361,376,105278,6,0,P|324:355|306:318,1,83.9999977941511,2|2,1:2|0:2,0:0:0:0:
376,208,105548,1,10,0:2:0:0:
376,208,105683,1,2,1:2:0:0:
227,263,105818,6,0,B|172:244|160:297|95:280,1,125.999996691227,2|2,1:2|0:2,0:0:0:0:
97,288,106088,2,0,P|66:250|77:206,1,83.9999977941511,4|2,0:1|0:2,0:0:0:0:
93,102,106358,1,6,1:2:0:0:
93,102,106425,1,0,1:0:0:0:
93,102,106493,1,0,1:0:0:0:
93,102,106560,1,0,1:0:0:0:
93,102,106628,2,0,P|110:56|154:43,1,83.9999977941511,6|2,1:2|1:2,0:0:0:0:
295,149,106898,6,0,P|253:139|212:133,1,83.9999977941511,6|2,0:2|0:2,0:0:0:0:
342,22,107168,2,0,P|300:32|259:38,1,83.9999977941511,10|2,0:2|0:2,0:0:0:0:
433,222,107438,2,0,P|391:212|350:206,1,83.9999977941511,2|2,1:2|0:2,0:0:0:0:
490,72,107708,2,0,P|448:82|407:88,1,83.9999977941511,10|2,0:2|0:2,0:0:0:0:
259,37,107978,6,0,P|238:41|219:68,3,55.9999985294341,2|2|2|10,1:2|0:2|0:2|0:2,0:0:0:0:
259,37,108518,2,0,P|238:97|231:159,2,125.999996691227,2|2|0,1:2|0:2|1:2,0:0:0:0:
421,45,109058,6,0,P|491:76|492:87,1,83.9999977941511,2|2,1:2|0:2,0:0:0:0:
488,144,109328,2,0,P|497:221|488:227,1,83.9999977941511,10|2,0:2|0:2,0:0:0:0:
433,263,109598,2,0,P|372:309|362:304,2,83.9999977941511,2|2|10,1:2|0:2|0:2,0:0:0:0:
198,366,110138,37,2,1:2:0:0:
184,293,110273,1,2,0:2:0:0:
318,255,110408,1,10,0:2:0:0:
300,328,110543,1,2,0:2:0:0:
124,337,110678,2,0,L|83:347,2,41.9999988970756,6|2|2,1:2|0:2|1:2,0:0:0:0:
236,237,110948,2,0,P|262:240|318:255,1,83.9999977941511,14|2,0:2|0:2,0:0:0:0:
274,101,111218,6,0,P|213:99|194:163,2,125.999996691227,4|2|2,1:1|0:2|0:2,0:0:0:0:
374,49,111758,2,0,P|369:28|365:7,4,41.9999988970756,2|2|2|0|10,1:2|0:2|1:2|0:0|0:2,0:0:0:0:
447,87,112163,1,2,0:2:0:0:
375,176,112298,6,0,P|385:216|390:258,1,83.9999977941511,2|2,1:2|0:2,0:0:0:0:
506,293,112568,2,0,P|496:333|491:375,1,83.9999977941511,10|2,0:2|0:2,0:0:0:0:
348,364,112838,2,0,P|280:361|258:304,2,125.999996691227,2|2|2,1:2|0:2|0:2,0:0:0:0:
506,293,113378,6,0,L|423:275,1,83.9999977941511,2|2,1:2|1:2,0:0:0:0:
390,258,113580,1,2,1:2:0:0:
390,258,113648,2,0,L|307:240,1,83.9999977941511,8|2,0:2|1:2,0:0:0:0:
214,135,113918,2,0,P|208:116|207:95,2,41.9999988970756,2|2|0,1:2|0:2|1:2,0:0:0:0:
242,211,114188,2,0,P|255:250|257:292,1,83.9999977941511,2|2,1:2|1:2,0:0:0:0:
122,368,114458,6,0,P|80:359|39:353,1,83.9999977941511,6|2,1:2|1:2,0:0:0:0:
169,231,114728,2,0,P|211:225|252:216,1,83.9999977941511,6|2,1:2|1:2,0:0:0:0:
71,171,114998,2,0,L|80:222,3,41.9999988970756,6|2|2|2,1:2|1:2|1:2|1:2,0:0:0:0:
108,173,115268,1,6,1:2:0:0:
112,144,115335,1,2,1:2:0:0:
117,115,115403,1,2,1:2:0:0:
121,86,115470,1,2,1:2:0:0:
131,53,115538,6,0,P|148:111|207:121,2,125.999996691227,4|2|2,1:2|0:2|0:2,0:0:0:0:
231,16,116078,2,0,L|272:20,1,41.9999988970756,2|2,1:2|0:2,0:0:0:0:
392,129,116280,1,0,0:0:0:0:
392,129,116348,2,0,L|309:119,1,83.9999977941511,10|0,0:2|1:2,0:0:0:0:
259,213,116618,38,0,B|273:272|273:272|268:274|268:274|282:332,2,125.999996691227,2|2|2,1:2|0:2|0:2,0:0:0:0:
392,129,117158,1,2,1:2:0:0:
391,129,117225,2,0,P|431:126|459:156,1,83.9999977941511,2|0,0:2|0:0,0:0:0:0:
471,155,117428,2,0,P|493:188|481:228,1,83.9999977941511,10|2,0:2|1:2,0:0:0:0:
405,309,117698,6,0,P|342:317|281:332,2,125.999996691227,2|2|2,1:2|0:2|0:2,0:0:0:0:
497,375,118238,2,0,P|502:354|505:333,1,41.9999988970756,2|2,1:2|0:2,0:0:0:0:
481,227,118440,2,0,P|485:206|488:185,1,41.9999988970756,0|10,0:0|0:2,0:0:0:0:
487,185,118643,1,2,0:2:0:0:
391,129,118778,6,0,P|373:187|299:166,2,125.999996691227,2|2|2,1:2|1:2|1:2,0:0:0:0:
364,25,119318,2,0,P|322:33|281:38,1,83.9999977941511,6|2,1:2|1:2,0:0:0:0:
391,129,119588,2,0,P|432:120|473:115,1,83.9999977941511,6|2,1:2|1:2,0:0:0:0:
260,239,119858,6,0,B|270:180|270:180|273:179|273:179|283:116,2,125.999996691227,6|2|2,1:2|0:2|0:2,0:0:0:0:
232,356,120398,2,0,P|151:346|124:377,1,125.999996691227,2|0,1:2|0:0,0:0:0:0:
107,366,120668,2,0,P|69:381|31:366,1,83.9999977941511,8|2,0:2|1:2,0:0:0:0:
61,223,120938,6,0,L|71:263,2,41.9999988970756,2|0|2,1:2|0:0|0:2,0:0:0:0:
158,205,121208,2,0,L|168:245,2,41.9999988970756,10|0|2,0:2|0:0|0:2,0:0:0:0:
10,114,121478,2,0,L|19:30,1,83.9999977941511,2|2,1:2|1:2,0:0:0:0:
91,117,121748,2,0,L|101:34,1,83.9999977941511,10|2,0:2|0:2,0:0:0:0:
158,205,122018,6,0,P|194:184|235:186,1,83.9999977941511,2|2,1:2|0:2,0:0:0:0:
340,249,122288,1,10,0:2:0:0:
340,249,122423,1,2,0:2:0:0:
341,138,122558,38,0,P|377:158|395:195,1,83.9999977941511,2|2,1:2|0:2,0:0:0:0:
393,317,122828,1,10,0:2:0:0:
393,317,122963,1,2,1:2:0:0:
278,363,123098,6,0,B|265:355|265:355|154:337,1,125.999996691227,2|2,1:2|0:2,0:0:0:0:
150,347,123368,2,0,B|140:352|140:352|68:364,1,83.9999977941511,4|2,0:1|0:2,0:0:0:0:
43,266,123638,1,6,1:2:0:0:
43,266,123705,1,0,1:0:0:0:
43,266,123773,1,0,1:0:0:0:
43,266,123840,1,0,1:0:0:0:
43,266,123908,2,0,B|52:260|52:260|124:248,1,83.9999977941511,6|2,1:2|1:2,0:0:0:0:
278,363,124178,6,0,P|319:363|351:337,1,83.9999977941511,6|2,0:2|0:2,0:0:0:0:
264,214,124448,2,0,P|263:255|289:287,1,83.9999977941511,10|2,0:2|0:2,0:0:0:0:
417,199,124718,2,0,P|375:198|343:224,1,83.9999977941511,2|2,1:2|0:2,0:0:0:0:
431,348,124988,2,0,P|431:306|405:274,1,83.9999977941511,10|2,0:2|0:2,0:0:0:0:
264,214,125258,6,0,P|247:202|259:221,3,55.9999985294341,2|2|2|10,1:2|0:2|0:2|0:2,0:0:0:0:
264,214,125798,2,0,P|323:193|326:123,2,125.999996691227,2|2|0,1:2|0:2|1:2,0:0:0:0:
120,131,126338,6,0,P|114:89|104:48,1,83.9999977941511,2|2,1:2|0:2,0:0:0:0:
204,156,126608,2,0,P|193:196|188:238,1,83.9999977941511,10|2,0:2|0:2,0:0:0:0:
101,310,126878,2,0,P|62:300|47:263,2,83.9999977941511,2|2|10,1:2|0:2|0:2,0:0:0:0:
268,364,127418,5,2,1:2:0:0:
385,328,127553,1,2,0:2:0:0:
461,342,127688,1,10,0:2:0:0:
509,283,127823,1,2,0:2:0:0:
424,163,127958,2,0,L|414:122,2,41.9999988970756,6|2|2,1:2|0:2|1:2,0:0:0:0:
488,209,128228,2,0,L|506:127,1,83.9999977941511,14|2,0:2|0:2,0:0:0:0:
343,82,128498,38,0,P|282:84|263:20,2,125.999996691227,4|2|2,1:1|0:2|0:2,0:0:0:0:
408,41,129038,2,0,P|401:19|397:-2,4,41.9999988970756,2|2|2|0|10,1:2|0:2|1:2|0:0|0:2,0:0:0:0:
414,122,129443,1,2,0:2:0:0:
305,200,129578,6,0,P|265:190|223:185,1,83.9999977941511,2|2,1:2|0:2,0:0:0:0:
108,98,129848,2,0,P|149:93|190:82,1,83.9999977941511,10|2,0:2|0:2,0:0:0:0:
144,236,130118,2,0,P|76:233|54:176,2,125.999996691227,2|2|2,1:2|0:2|0:2,0:0:0:0:
221,359,130658,6,0,P|260:350|321:340,1,83.9999977941511,2|2,1:2|1:2,0:0:0:0:
330,360,130860,1,2,1:2:0:0:
330,360,130928,2,0,P|342:321|321:285,1,83.9999977941511,8|2,0:2|1:2,0:0:0:0:
410,162,131198,2,0,L|403:116,2,41.9999988970756,2|2|0,1:2|0:2|1:2,0:0:0:0:
442,233,131468,2,0,P|401:221|350:219,1,83.9999977941511,2|2,1:2|1:2,0:0:0:0:
262,121,131738,6,0,P|271:163|277:204,1,83.9999977941511,6|2,1:2|1:2,0:0:0:0:
402,119,132008,2,0,P|396:78|388:37,1,83.9999977941511,6|2,1:2|1:2,0:0:0:0:
215,19,132278,2,0,L|173:26,3,41.9999988970756,6|2|2|2,1:2|1:2|1:2|1:2,0:0:0:0:
153,60,132548,1,6,1:2:0:0:
126,56,132616,1,2,1:2:0:0:
97,52,132683,1,2,1:2:0:0:
68,47,132751,1,2,1:2:0:0:
38,42,132818,6,0,P|51:86|57:131,1,90.9999962217807,6|0,1:1|1:0,0:0:0:0:
131,251,133088,2,0,P|136:205|149:162,1,90.9999962217807,2|0,1:1|1:0,0:0:0:0:
32,44,133358,6,0,P|44:87|50:132,1,90.9999962217807,6|0,1:1|1:0,0:0:0:0:
141,252,133628,2,0,P|146:206|159:163,1,90.9999962217807,2|0,1:1|1:0,0:0:0:0:
232,62,133898,38,0,P|263:32|308:35,1,90.9999962217807,6|0,1:1|1:0,0:0:0:0:
349,138,134168,2,0,P|318:169|274:167,1,90.9999962217807,2|0,1:1|1:0,0:0:0:0:
230,54,134438,6,0,P|262:23|306:28,1,90.9999962217807,6|0,1:1|1:0,0:0:0:0:
353,145,134708,2,0,P|322:176|278:174,1,90.9999962217807,2|0,1:1|1:0,0:0:0:0:
273,166,134910,1,0,1:0:0:0:
266,162,134978,1,6,1:1:0:0:
180,157,135113,6,0,L|171:112,2,45.4999981108903,0|0|2,1:0|0:0|1:1,0:0:0:0:
94,213,135383,1,0,1:0:0:0:
94,213,135450,1,0,0:0:0:0:
94,213,135518,2,0,L|110:302,1,90.9999962217807,6|0,1:1|1:0,0:0:0:0:
223,359,135788,2,0,L|206:269,1,90.9999962217807,2|0,1:1|1:0,0:0:0:0:
210,260,135990,1,0,0:0:0:0:
216,251,136058,6,0,L|272:242,3,45.4999981108903,6|0|0|0,1:1|0:0|1:0|1:0,0:0:0:0:
274,233,136328,2,0,L|330:224,3,45.4999981108903,2|0|0|0,1:1|1:0|1:0|1:0,0:0:0:0:
331,208,136598,2,0,L|387:199,3,45.4999981108903,2|0|0|0,1:1|1:0|1:0|1:0,0:0:0:0:
406,181,136868,1,2,1:1:0:0:
413,136,136935,1,0,1:0:0:0:
420,91,137003,1,0,1:0:0:0:
427,46,137070,1,0,1:0:0:0:
434,1,137138,1,6,1:2:0:0:
256,192,137205,12,4,139298,0:1:0:0:
