osu file format v14

[General]
AudioFilename: audio.mp3
AudioLeadIn: 0
PreviewTime: 63630
Countdown: 0
SampleSet: Drum
StackLeniency: 0.3
Mode: 0
LetterboxInBreaks: 0
WidescreenStoryboard: 1

[Editor]
Bookmarks: 97178,137138,139298
DistanceSpacing: 0.7
BeatDivisor: 4
GridSize: 16
TimelineZoom: 2.7

[Metadata]
Title:FREEDOM DiVE
TitleUnicode:FREEDOM DiVE↓
Artist:xi
ArtistUnicode:xi
Creator:Aistre
Version:PaRaDogi's GRAViTY
Source:MAXBEAT
Tags:VOEZ cytus ii CHUNITHM PLUS BMS parousia video rhythm game happy hardcore electronic featured artist mpg mappers mapper's guild alphabet venax deviouspanda paradogi lukas seolv [_l_u_k_a_s_] xi baddies uberfazz instrumental SOUND VOLTEX IV HEAVENLY HAVEN 太鼓の達人 セッションでドドンがドン! Taiko no Tatsujin Drum Session! CHUNITHM PLUS WACCA Muse Dash fd
BeatmapID:3407178
BeatmapSetID:1667560

[Difficulty]
HPDrainRate:5
CircleSize:4
OverallDifficulty:8.5
ApproachRate:9.2
SliderMultiplier:1.6
SliderTickRate:1

[Events]
//Background and Video events
0,0,"EykD9SkXIAA7R16.jpg",0,0
//Break Periods
2,81178,87819
//Storyboard Layer 0 (Background)
//Storyboard Layer 1 (Fail)
//Storyboard Layer 2 (Pass)
//Storyboard Layer 3 (Foreground)
//Storyboard Layer 4 (Overlay)
//Storyboard Sound Samples

[TimingPoints]
1058,270.000000027,4,3,0,65,1,0
26978,-117.647058823529,4,2,0,65,0,0
44258,-117.647058823529,4,3,0,70,0,0
46418,-83.3333333333333,4,3,0,70,0,0
63698,-71.4285714285714,4,3,0,75,0,0
88538,-181.818181818181,4,3,0,65,0,0
89618,-133.333333333333,4,3,0,65,0,0
90698,-105.263157894737,4,3,0,65,0,0
91778,-86.9565217391303,4,3,0,65,0,0
92858,-74.0740740740741,4,3,0,65,0,0
93938,-64.5161290322581,4,3,0,65,0,0
98258,-66.6666666666667,4,3,0,80,0,0
130658,-66.6666666666667,4,3,0,75,0,0
131738,-66.6666666666667,4,3,0,70,0,0
132818,-83.3333333333333,4,3,0,70,0,0
139298,-83.3333333333333,4,3,0,40,0,0

[Colours]
Combo1 : 191,116,220
Combo2 : 210,200,196
Combo3 : 211,188,173
Combo4 : 241,67,128
Combo5 : 236,177,113
Combo6 : 228,235,101
Combo7 : 159,235,126
Combo8 : 128,198,236

[HitObjects]
54,121,1058,6,0,P|73:63|19:23,2,120,4|0|0,1:2|1:0|1:0,0:0:0:0:
161,248,1733,1,0,1:0:0:0:
161,248,1868,2,0,P|142:288|168:332,1,80,0|2,1:0|0:3,0:0:0:0:
270,383,2138,2,0,P|280:346|215:289,2,120,0|0|0,1:0|1:0|1:0,0:0:0:0:
334,267,2678,2,0,P|346:212|381:201,1,80,0|0,1:0|1:0,0:0:0:0:
421,267,2948,2,0,P|450:292|450:331,1,80,0|0,1:0|0:0,0:0:0:0:
270,383,3218,6,0,B|361:358|361:358|383:323,2,120,4|0|0,1:1|1:0|1:0,0:0:0:0:
161,248,3893,1,0,1:0:0:0:
161,248,4028,2,0,P|193:200|185:172,1,80,0|2,1:0|0:3,0:0:0:0:
107,89,4298,2,0,P|78:140|117:183,2,120,0|0|0,1:0|1:0|1:0,0:0:0:0:
208,3,4838,1,0,1:0:0:0:
266,58,4973,2,0,L|296:48,3,20,0|0|0|0,1:0|0:0|0:0|0:0,0:0:0:0:
304,38,5108,2,0,L|390:58,1,80,0|2,1:0|0:3,0:0:0:0:
454,155,5378,102,0,B|470:101|470:101|469:96|469:96|491:24,2,120,4|0|0,1:1|1:0|1:0,0:0:0:0:
338,271,6053,1,0,1:0:0:0:
338,271,6188,2,0,P|331:231|294:215,1,80,0|2,1:0|0:3,0:0:0:0:
412,337,6458,2,0,P|432:274|493:245,2,120,0|0|0,1:0|1:0|1:0,0:0:0:0:
258,286,6998,2,0,L|172:270,1,80,0|0,1:0|1:0,0:0:0:0:
74,368,7268,2,0,L|159:350,1,80,0|0,1:0|0:0,0:0:0:0:
126,168,7538,6,0,L|92:303,2,120,4|0|0,1:2|1:0|1:0,0:0:0:0:
74,48,8078,1,4,0:2:0:0:
74,48,8213,1,0,1:0:0:0:
138,3,8348,2,0,P|194:15|201:41,1,80,0|2,1:0|0:3,0:0:0:0:
265,135,8618,102,0,P|306:153|355:102,1,120,4|0,1:2|0:0,0:0:0:0:
369,70,8888,2,0,P|401:43|443:59,1,80,4|0,1:1|0:0,0:0:0:0:
511,155,9158,2,0,L|504:194,3,40,4|2|2|2,1:2|0:2|0:2|0:2,0:0:0:0:
474,224,9428,2,0,L|480:263,3,40,4|2|2|2,1:2|0:2|0:2|0:2,0:0:0:0:
470,306,9698,6,0,P|429:338|372:289,1,120,4|0,1:2|0:0,0:0:0:0:
364,280,9968,2,0,P|330:259|281:279,1,80,8|0,0:2|0:0,0:0:0:0:
199,366,10238,1,0,1:0:0:0:
199,366,10373,1,0,0:0:0:0:
160,226,10508,2,0,P|200:245|210:278,1,80,8|0,0:2|0:0,0:0:0:0:
56,359,10778,102,0,P|67:316|139:312,1,120,0|0,1:0|0:0,0:0:0:0:
75,260,11048,2,0,L|52:174,1,80,8|0,0:2|0:0,0:0:0:0:
111,69,11318,1,0,1:0:0:0:
111,69,11453,1,0,0:0:0:0:
175,118,11588,2,0,P|225:102|223:65,1,80,8|0,0:2|1:0,0:0:0:0:
332,3,11858,6,0,P|373:24|351:92,1,120,4|0,1:1|0:0,0:0:0:0:
336,102,12128,2,0,P|302:129|322:178,1,80,8|0,0:2|0:0,0:0:0:0:
390,260,12398,1,0,1:0:0:0:
390,260,12533,1,0,0:0:0:0:
508,196,12668,2,0,L|389:174,1,120,8|0,0:2|0:0,0:0:0:0:
380,178,12938,101,0,1:0:0:0:
312,297,13073,1,0,0:0:0:0:
351,366,13208,2,0,L|444:375,1,80,12|0,0:2|0:0,0:0:0:0:
193,317,13478,2,0,L|316:296,2,120,4|4|4,1:1|1:1|1:1,0:0:0:0:
111,272,14018,6,0,P|89:227|137:178,1,120,4|0,1:2|0:0,0:0:0:0:
160,166,14288,2,0,P|194:140|184:91,1,80,8|0,0:2|0:0,0:0:0:0:
48,0,14558,1,0,1:0:0:0:
48,0,14693,1,0,0:0:0:0:
112,48,14828,1,4,1:2:0:0:
0,132,14963,102,0,L|79:122,1,80,4|0,1:1|0:0,0:0:0:0:
197,15,15233,1,0,0:0:0:0:
207,19,15300,1,0,1:0:0:0:
219,22,15368,2,0,L|305:39,1,80,4|0,1:1|1:0,0:0:0:0:
387,128,15638,1,0,1:0:0:0:
490,9,15773,1,0,1:0:0:0:
483,24,15840,1,0,1:0:0:0:
476,38,15908,1,4,1:2:0:0:
387,128,16043,1,0,1:0:0:0:
394,143,16110,1,0,1:0:0:0:
405,162,16178,6,0,L|391:249,1,80,4|0,1:1|0:0,0:0:0:0:
448,355,16448,2,0,P|495:372|532:357,1,80,8|0,0:2|0:0,0:0:0:0:
355,317,16718,2,0,L|230:344,1,120,4|0,1:2|0:0,0:0:0:0:
218,348,16988,1,8,0:2:0:0:
118,265,17123,1,0,1:0:0:0:
123,252,17190,1,0,1:0:0:0:
130,236,17258,102,0,L|161:144,1,80,4|0,1:1|1:0,0:0:0:0:
0,325,17528,2,0,L|31:233,1,80,4|0,1:1|1:0,0:0:0:0:
67,84,17798,2,0,L|45:149,3,40,4|2|2|2,1:1|0:2|0:2|0:2,0:0:0:0:
66,140,18068,2,0,L|44:205,3,40,4|2|2|2,1:1|0:2|0:2|0:2,0:0:0:0:
55,215,18338,6,0,L|19:343,1,120,4|0,1:2|0:0,0:0:0:0:
35,353,18608,2,0,P|79:377|128:361,1,80,8|0,0:2|0:0,0:0:0:0:
214,299,18878,1,0,1:0:0:0:
214,299,19013,1,0,0:0:0:0:
270,377,19148,2,0,P|300:327|283:279,1,80,8|0,0:2|0:0,0:0:0:0:
286,151,19418,102,0,P|246:182|280:238,1,120,0|0,1:0|0:0,0:0:0:0:
304,238,19688,2,0,L|410:229,1,80,8|0,0:2|0:0,0:0:0:0:
486,314,19958,1,0,1:0:0:0:
486,314,20093,1,0,0:0:0:0:
512,171,20228,2,0,P|469:228|481:245,1,80,8|0,0:2|1:0,0:0:0:0:
413,30,20498,6,0,P|462:70|424:113,1,120,4|0,1:1|0:0,0:0:0:0:
421,123,20768,2,0,L|338:103,1,80,8|0,0:2|0:0,0:0:0:0:
254,13,21038,1,0,1:0:0:0:
254,13,21173,1,0,0:0:0:0:
187,120,21308,2,0,L|166:19,1,80,8|0,0:2|1:0,0:0:0:0:
258,237,21578,102,0,L|275:138,1,80,0|0,1:0|0:0,0:0:0:0:
179,344,21848,2,0,L|157:228,1,80,12|0,0:2|0:0,0:0:0:0:
25,193,22118,2,0,P|81:217|129:173,2,120,4|4|4,1:1|1:1|1:1,0:0:0:0:
97,106,22658,5,4,1:2:0:0:
97,106,22793,1,0,0:0:0:0:
4,1,22928,2,0,L|21:98,1,80,8|0,0:2|0:0,0:0:0:0:
187,120,23198,2,0,P|234:125|266:52,1,120,0|0,1:0|0:0,0:0:0:0:
276,48,23468,1,4,1:2:0:0:
430,16,23603,102,0,L|334:0,1,80,4|0,1:1|0:0,0:0:0:0:
473,117,23873,1,0,0:0:0:0:
479,102,23940,1,0,1:0:0:0:
487,83,24008,2,0,L|514:-1,1,80,4|0,1:1|1:0,0:0:0:0:
394,176,24278,2,0,L|383:122,3,40,0|0|0|0,1:0|0:0|1:0|1:0,0:0:0:0:
360,111,24548,2,0,L|348:224,1,80,4|0,1:2|1:0,0:0:0:0:
412,283,24818,6,0,P|458:260|496:277,1,80,4|0,1:2|1:0,0:0:0:0:
359,354,25088,2,0,P|320:359|287:338,1,80,2|0,0:2|1:0,0:0:0:0:
194,239,25358,102,0,L|177:151,1,80,6|0,0:2|1:0,0:0:0:0:
302,259,25628,2,0,L|286:337,1,80,2|0,0:2|1:0,0:0:0:0:
112,115,25898,6,0,P|151:84|192:86,1,80,6|0,0:2|1:0,0:0:0:0:
351,190,26168,2,0,P|311:184|283:157,1,80,2|0,0:2|1:0,0:0:0:0:
284,10,26438,2,0,L|276:58,3,40,6|0|0|0,0:2|1:0|1:0|1:0,0:0:0:0:
272,70,26708,2,0,L|356:47,1,80,2|2,0:2|1:2,0:0:0:0:
457,121,26978,102,0,L|488:-3,2,102.000001945496,6|2|2,2:2|2:2|2:2,0:0:0:0:
388,220,27518,2,0,L|371:135,1,68.0000012969971,2|0,2:2|0:0,0:0:0:0:
475,264,27788,1,2,2:2:0:0:
475,264,27923,1,2,2:2:0:0:
381,362,28058,6,0,P|421:342|472:371,2,102.000001945496,2|2|2,2:2|2:2|2:2,0:0:0:0:
252,320,28598,2,0,P|300:309|316:282,1,68.0000012969971,2|0,2:2|0:0,0:0:0:0:
184,377,28868,1,2,2:2:0:0:
184,377,29003,1,2,2:2:0:0:
126,232,29138,102,0,P|176:256|164:291,2,102.000001945496,2|2|2,2:2|2:2|2:2,0:0:0:0:
76,375,29678,2,0,L|87:297,1,68.0000012969971,2|0,2:2|0:0,0:0:0:0:
55,189,29948,1,2,2:2:0:0:
55,189,30083,1,2,2:2:0:0:
5,302,30218,6,0,P|3:257|-20:233,1,68.0000012969971,2|0,2:2|0:0,0:0:0:0:
126,232,30488,2,0,P|149:188|183:174,1,68.0000012969971,0|2,0:0|2:2,0:0:0:0:
14,119,30758,2,0,P|9:80|-20:58,1,68.0000012969971,2|2,2:2|2:2,0:0:0:0:
106,8,31028,1,2,2:2:0:0:
106,8,31163,1,2,2:2:0:0:
220,99,31298,102,0,B|192:81|192:81|224:14,1,102.000001945496,2|2,2:2|2:2,0:0:0:0:
253,20,31568,2,0,L|323:9,1,68.0000012969971,0|2,0:0|2:2,0:0:0:0:
413,7,31838,2,0,P|432:39|418:71,1,68.0000012969971,2|0,2:2|0:0,0:0:0:0:
294,157,32108,1,2,2:2:0:0:
294,157,32243,1,2,2:2:0:0:
383,214,32378,6,0,L|389:145,1,68.0000012969971,2|0,2:2|0:0,0:0:0:0:
303,308,32648,2,0,L|297:239,1,68.0000012969971,2|0,2:2|0:0,0:0:0:0:
438,328,32918,2,0,P|397:299|375:306,1,68.0000012969971,2|0,2:2|0:0,0:0:0:0:
234,357,33188,2,0,P|213:382|180:384,1,68.0000012969971,2|0,2:2|0:0,0:0:0:0:
165,234,33458,102,0,B|192:208|192:208|174:309,2,136.000002593994,2|2|2,2:2|2:2|2:2,0:0:0:0:
106,352,34133,1,0,0:0:0:0:
23,289,34268,2,0,L|106:269,1,68.0000012969971,2|0,2:2|0:0,0:0:0:0:
6,199,34538,6,0,L|112:174,2,102.000001945496,2|2|2,2:2|2:2|2:2,0:0:0:0:
90,92,35078,2,0,P|132:72|168:140,1,136.000002593994,2|2,2:2|2:2,0:0:0:0:
239,46,35483,1,0,1:0:0:0:
245,33,35551,1,0,1:0:0:0:
255,16,35618,102,0,L|329:29,1,68.0000012969971,6|0,2:2|0:0,0:0:0:0:
409,102,35888,2,0,L|342:113,1,68.0000012969971,2|0,2:2|0:0,0:0:0:0:
477,51,36158,2,0,P|497:85|489:125,1,68.0000012969971,2|0,2:2|0:0,0:0:0:0:
391,163,36428,2,0,P|390:129|408:101,1,68.0000012969971,2|0,2:2|0:0,0:0:0:0:
469,235,36698,6,0,L|477:182,2,45.3333341979981,2|2|2,2:2|2:2|2:2,0:0:0:0:
495,311,36968,2,0,P|447:315|422:297,1,68.0000012969971,2|0,2:2|0:0,0:0:0:0:
324,268,37238,2,0,P|362:243|386:243,1,68.0000012969971,2|2,2:2|2:2,0:0:0:0:
360,346,37508,1,0,0:0:0:0:
360,346,37643,1,2,2:2:0:0:
250,375,37778,102,0,P|274:352|261:312,1,68.0000012969971,6|0,2:2|0:0,0:0:0:0:
122,271,38048,2,0,P|117:303|141:325,1,68.0000012969971,2|0,2:2|0:0,0:0:0:0:
282,199,38318,2,0,L|271:115,1,68.0000012969971,2|0,2:2|0:0,0:0:0:0:
77,2,38588,2,0,L|68:69,1,68.0000012969971,2|0,2:2|0:0,0:0:0:0:
89,185,38858,6,0,L|163:170,1,68.0000012969971,2|2,2:2|2:2,0:0:0:0:
321,60,39128,2,0,L|247:45,1,68.0000012969971,2|2,2:2|2:2,0:0:0:0:
77,2,39398,2,0,P|105:29|106:65,1,68.0000012969971,2|2,2:2|2:2,0:0:0:0:
6,185,39668,2,0,P|6:147|32:125,1,68.0000012969971,2|2,2:2|2:2,0:0:0:0:
89,185,39938,102,0,L|116:314,2,102.000001945496,2|2|2,1:2|2:2|2:2,0:0:0:0:
15,332,40478,2,0,L|25:251,1,68.0000012969971,2|2,2:2|2:2,0:0:0:0:
92,369,40748,1,2,2:2:0:0:
186,287,40883,1,2,1:2:0:0:
197,289,40950,1,0,1:0:0:0:
206,290,41018,6,0,B|250:294|250:294|255:300|255:300|319:305,1,102.000001945496,2|2,1:2|2:2,0:0:0:0:
329,330,41288,2,0,L|399:320,1,68.0000012969971,2|2,2:2|2:2,0:0:0:0:
485,262,41558,2,0,B|475:310|475:310|478:315|478:315|465:385,2,102.000001945496,2|2|2,1:2|2:2|2:2,0:0:0:0:
405,189,42098,102,0,P|449:191|478:138,2,102.000001945496,2|2|2,1:2|2:2|2:2,0:0:0:0:
476,0,42638,2,0,L|487:86,1,68.0000012969971,2|0,1:2|0:0,0:0:0:0:
335,222,42908,2,0,P|327:174|351:140,1,68.0000012969971,2|2,1:2|2:2,0:0:0:0:
399,57,43178,6,0,L|308:45,1,68.0000012969971,2|0,2:2|0:0,0:0:0:0:
187,175,43448,2,0,L|278:163,1,68.0000012969971,6|0,1:2|0:0,0:0:0:0:
234,28,43718,2,0,P|255:65|246:99,1,68.0000012969971,6|0,1:2|0:0,0:0:0:0:
103,184,43988,2,0,P|101:150|120:123,1,68.0000012969971,6|0,1:2|1:0,0:0:0:0:
25,25,44258,102,0,L|43:98,1,68.0000012969971,2|0,1:2|0:0,0:0:0:0:
170,241,44528,2,0,L|186:174,1,68.0000012969971,2|0,1:2|0:0,0:0:0:0:
41,307,44798,6,0,P|94:272|116:280,1,68.0000012969971,6|0,1:2|0:0,0:0:0:0:
167,383,45068,2,0,P|134:374|114:347,1,68.0000012969971,2|0,1:2|0:0,0:0:0:0:
276,296,45338,102,0,L|203:314,1,68.0000012969971,6|0,1:2|1:0,0:0:0:0:
36,167,45608,2,0,L|102:183,1,68.0000012969971,6|0,1:2|1:0,0:0:0:0:
340,157,45878,6,0,P|288:170|279:224,1,102.000001945496,6|0,1:2|1:0,0:0:0:0:
285,220,46148,1,6,1:2:0:0:
352,336,46283,1,0,1:0:0:0:
346,353,46350,1,0,1:0:0:0:
339,373,46418,102,0,L|441:357,1,95.9999970703126,4|0,1:1|0:0,0:0:0:0:
512,255,46688,2,0,L|410:239,1,95.9999970703126,10|0,0:2|0:0,0:0:0:0:
340,157,46958,2,0,P|312:96|341:60,1,95.9999970703126,2|0,1:2|0:0,0:0:0:0:
502,85,47228,2,0,P|512:130|484:167,1,95.9999970703126,10|0,0:2|0:0,0:0:0:0:
212,18,47498,6,0,L|321:1,1,95.9999970703126,2|0,1:2|0:0,0:0:0:0:
126,142,47768,2,0,L|31:127,1,95.9999970703126,10|0,0:2|0:0,0:0:0:0:
205,248,48038,2,0,L|228:102,1,143.999995605469,2|0,1:2|0:0,0:0:0:0:
222,97,48308,1,10,0:2:0:0:
77,223,48443,1,0,1:0:0:0:
80,236,48510,1,0,0:0:0:0:
84,246,48578,102,0,L|110:346,1,95.9999970703126,2|0,1:2|0:0,0:0:0:0:
281,293,48848,2,0,L|297:195,1,95.9999970703126,10|0,0:2|0:0,0:0:0:0:
212,18,49118,2,0,P|269:43|295:22,1,95.9999970703126,2|0,1:2|0:0,0:0:0:0:
439,97,49388,2,0,P|396:79|359:106,1,95.9999970703126,10|0,0:2|0:0,0:0:0:0:
473,308,49658,6,0,L|502:162,1,143.999995605469,2|0,1:2|0:0,0:0:0:0:
505,157,49928,1,10,0:2:0:0:
359,254,50063,1,0,0:0:0:0:
360,267,50130,1,0,0:0:0:0:
363,283,50198,2,0,L|372:382,1,95.9999970703126,2|0,1:2|0:0,0:0:0:0:
274,272,50468,1,10,0:2:0:0:
296,198,50603,1,0,1:2:0:0:
291,26,50738,102,0,P|245:-4|201:10,1,95.9999970703126,2|0,1:2|0:0,0:0:0:0:
20,136,51008,2,0,P|66:143|116:62,1,143.999995605469,10|0,0:2|0:0,0:0:0:0:
110,58,51278,1,2,1:2:0:0:
184,173,51413,1,0,0:0:0:0:
180,188,51480,1,0,0:0:0:0:
175,206,51548,2,0,L|151:309,1,95.9999970703126,10|0,0:2|0:0,0:0:0:0:
255,122,51818,6,0,P|303:97|343:115,1,95.9999970703126,2|0,1:2|0:0,0:0:0:0:
447,293,52088,2,0,P|402:306|362:282,1,95.9999970703126,10|0,0:2|0:0,0:0:0:0:
392,51,52358,2,0,P|419:95|412:144,1,95.9999970703126,2|0,1:2|0:0,0:0:0:0:
287,306,52628,2,0,P|284:258|309:219,1,95.9999970703126,10|0,0:2|0:0,0:0:0:0:
315,19,52898,102,0,L|160:-2,1,143.999995605469,2|0,1:2|0:0,0:0:0:0:
155,5,53168,1,10,0:2:0:0:
16,82,53303,1,0,0:0:0:0:
19,98,53370,1,0,0:0:0:0:
22,116,53438,2,0,L|40:219,1,95.9999970703126,2|0,1:2|0:0,0:0:0:0:
119,355,53708,1,10,0:2:0:0:
143,279,53843,1,0,1:2:0:0:
216,163,53978,6,0,P|166:130|125:149,1,95.9999970703126,0|0,1:2|0:0,0:0:0:0:
1,303,54248,2,0,L|166:274,1,143.999995605469,14|0,0:2|1:0,0:0:0:0:
161,276,54518,1,4,1:1:0:0:
255,375,54653,1,0,1:0:0:0:
322,305,54788,2,0,L|330:256,3,47.9999985351563,14|0|0|0,0:2|1:0|1:0|1:0,0:0:0:0:
367,238,55058,102,0,L|357:131,1,95.9999970703126,4|0,1:1|0:0,0:0:0:0:
247,12,55328,2,0,L|238:107,1,95.9999970703126,10|0,0:2|0:0,0:0:0:0:
425,100,55598,2,0,P|373:62|329:68,1,95.9999970703126,2|0,1:2|0:0,0:0:0:0:
169,146,55868,2,0,P|215:184|273:171,1,95.9999970703126,10|0,0:2|0:0,0:0:0:0:
481,177,56138,6,0,L|447:331,1,143.999995605469,2|0,1:2|0:0,0:0:0:0:
448,332,56408,1,10,0:2:0:0:
294,371,56543,1,0,0:0:0:0:
290,354,56610,1,0,0:0:0:0:
286,336,56678,2,0,P|370:313|381:328,1,95.9999970703126,2|0,1:2|0:0,0:0:0:0:
203,277,56948,2,0,P|157:282|125:248,1,95.9999970703126,10|0,0:2|1:0,0:0:0:0:
25,70,57218,102,0,L|38:173,1,95.9999970703126,2|0,1:2|0:0,0:0:0:0:
113,344,57488,2,0,L|125:248,1,95.9999970703126,10|0,0:2|0:0,0:0:0:0:
207,125,57758,2,0,P|142:102|113:129,1,95.9999970703126,2|0,1:2|0:0,0:0:0:0:
42,260,58028,2,0,P|86:274|124:248,1,95.9999970703126,10|0,0:2|0:0,0:0:0:0:
266,180,58298,6,0,P|290:111|220:47,1,143.999995605469,2|0,1:2|0:0,0:0:0:0:
245,44,58568,1,10,0:2:0:0:
401,0,58703,1,0,0:0:0:0:
406,11,58770,1,0,0:0:0:0:
412,25,58838,2,0,L|512:11,1,95.9999970703126,2|0,1:2|0:0,0:0:0:0:
361,193,59108,2,0,L|265:179,1,95.9999970703126,10|0,0:2|1:2,0:0:0:0:
468,106,59378,102,0,P|495:151|475:193,1,95.9999970703126,2|0,1:2|0:0,0:0:0:0:
350,275,59648,2,0,P|335:230|362:192,1,95.9999970703126,10|0,0:2|0:0,0:0:0:0:
455,369,59918,1,2,1:2:0:0:
434,291,60053,1,0,0:0:0:0:
297,340,60188,2,0,L|190:322,1,95.9999970703126,10|0,0:2|0:0,0:0:0:0:
24,371,60458,6,0,P|56:320|32:282,1,95.9999970703126,2|0,1:2|0:0,0:0:0:0:
116,164,60728,2,0,P|104:208|135:243,1,95.9999970703126,10|0,0:2|0:0,0:0:0:0:
297,200,60998,2,0,L|186:186,1,95.9999970703126,2|0,1:2|0:0,0:0:0:0:
0,98,61268,2,0,L|95:85,1,95.9999970703126,10|0,0:2|0:0,0:0:0:0:
225,6,61538,101,2,1:2:0:0:
225,6,61673,1,2,1:2:0:0:
288,101,61808,2,0,L|182:84,1,95.9999970703126,2|2,1:2|1:2,0:0:0:0:
225,176,62078,5,2,1:2:0:0:
225,176,62213,1,2,1:2:0:0:
162,271,62348,2,0,L|268:254,1,95.9999970703126,2|0,1:2|1:0,0:0:0:0:
392,369,62618,101,0,1:0:0:0:
423,357,62685,1,0,1:0:0:0:
437,326,62753,1,2,1:2:0:0:
431,293,62820,1,0,1:0:0:0:
403,272,62888,1,6,1:2:0:0:
376,252,62955,1,0,1:0:0:0:
370,218,63023,1,2,1:2:0:0:
380,186,63090,1,0,1:0:0:0:
410,171,63158,2,0,L|399:106,3,47.9999985351563,6|0|2|0,1:2|1:0|1:2|1:0,0:0:0:0:
327,77,63428,2,0,L|316:142,3,47.9999985351563,6|0|2|0,1:2|1:0|1:2|1:0,0:0:0:0:
250,169,63698,22,0,L|125:196,1,111.999996582031,4|2,1:2|0:2,0:0:0:0:
76,146,63900,1,2,0:2:0:0:
66,131,63968,2,0,P|65:67|118:49,1,111.999996582031,8|2,0:2|0:2,0:0:0:0:
211,259,64238,2,0,L|196:390,1,111.999996582031,2|0,1:2|0:0,0:0:0:0:
330,200,64508,1,10,0:2:0:0:
347,274,64643,1,0,1:2:0:0:
444,186,64778,6,0,L|473:63,1,111.999996582031,2|2,1:2|0:2,0:0:0:0:
427,13,64980,1,2,0:2:0:0:
417,3,65048,2,0,P|348:-1|319:34,1,111.999996582031,8|2,0:2|0:2,0:0:0:0:
181,98,65318,2,0,L|299:113,1,111.999996582031,2|0,1:2|0:0,0:0:0:0:
129,23,65588,1,10,0:2:0:0:
88,103,65723,1,2,1:2:0:0:
147,268,65858,6,0,P|168:207|121:178,1,111.999996582031,2|2,1:2|0:2,0:0:0:0:
72,230,66060,1,2,0:2:0:0:
63,241,66128,2,0,L|85:357,1,111.999996582031,8|2,0:2|0:2,0:0:0:0:
254,258,66398,2,0,L|267:194,3,55.9999982910157,2|2|0|0,1:2|0:2|0:0|0:0,0:0:0:0:
270,188,66668,1,10,0:2:0:0:
318,311,66803,1,2,0:2:0:0:
268,377,66938,6,0,L|434:341,1,167.999994873047,2|2,1:2|1:2,0:0:0:0:
496,306,67208,2,0,P|514:253|480:209,1,111.999996582031,8|2,0:2|1:2,0:0:0:0:
377,85,67478,2,0,P|346:129|364:180,1,111.999996582031,6|2,1:2|1:2,0:0:0:0:
489,26,67748,2,0,L|365:0,1,111.999996582031,6|2,1:2|1:2,0:0:0:0:
258,80,68018,6,0,L|97:108,1,111.999996582031,6|2,1:2|0:2,0:0:0:0:
87,153,68220,1,2,0:2:0:0:
81,164,68288,2,0,P|44:115|68:68,1,111.999996582031,8|2,0:2|0:2,0:0:0:0:
219,165,68558,2,0,L|203:285,1,111.999996582031,2|2,1:2|0:2,0:0:0:0:
55,369,68828,1,8,0:2:0:0:
33,293,68963,1,2,1:2:0:0:
184,350,69098,6,0,P|252:339|274:296,1,111.999996582031,2|2,1:2|0:2,0:0:0:0:
300,145,69368,2,0,P|258:87|204:85,1,111.999996582031,10|2,0:2|0:2,0:0:0:0:
341,234,69638,1,2,1:2:0:0:
357,315,69773,1,2,1:2:0:0:
392,161,69908,2,0,P|442:122|488:140,1,111.999996582031,10|2,0:2|0:2,0:0:0:0:
512,363,70178,38,0,L|338:334,1,167.999994873047,2|0,1:2|0:0,0:0:0:0:
280,375,70448,1,10,0:2:0:0:
229,314,70583,1,2,0:2:0:0:
217,150,70718,2,0,P|259:201|243:258,1,111.999996582031,2|2,1:2|0:2,0:0:0:0:
114,384,70988,2,0,P|111:329|150:291,1,111.999996582031,10|2,0:2|1:2,0:0:0:0:
109,91,71258,6,0,L|133:217,1,111.999996582031,2|2,1:2|1:2,0:0:0:0:
68,257,71460,1,2,0:2:0:0:
52,265,71528,2,0,P|-6:228|14:181,1,111.999996582031,4|2,0:1|0:2,0:0:0:0:
87,13,71798,1,6,1:2:0:0:
119,7,71865,1,0,1:0:0:0:
152,12,71933,1,0,1:0:0:0:
174,36,72000,1,0,1:0:0:0:
186,67,72068,1,6,1:2:0:0:
210,89,72135,1,0,1:0:0:0:
243,95,72203,1,2,1:2:0:0:
276,90,72270,1,0,1:0:0:0:
305,66,72338,6,0,P|309:8|260:-7,1,111.999996582031,6|2,0:2|0:2,0:0:0:0:
256,183,72608,2,0,P|208:205|216:257,1,111.999996582031,10|2,0:2|0:2,0:0:0:0:
378,158,72878,2,0,P|433:176|463:129,1,111.999996582031,2|2,1:2|0:2,0:0:0:0:
509,4,73148,1,10,0:2:0:0:
445,58,73283,1,2,0:2:0:0:
506,219,73418,5,2,1:2:0:0:
492,274,73508,5,2,0:2:0:0:
476,327,73598,5,2,0:2:0:0:
463,375,73688,38,0,L|341:352,1,111.999996582031,10|0,0:2|0:0,0:0:0:0:
164,310,73958,2,0,L|281:285,1,111.999996582031,2|2,1:2|0:2,0:0:0:0:
330,231,74160,1,2,0:2:0:0:
337,220,74228,2,0,P|337:154|277:124,1,111.999996582031,8|0,0:2|1:2,0:0:0:0:
171,52,74498,6,0,L|314:29,1,111.999996582031,2|2,1:2|0:2,0:0:0:0:
110,184,74768,2,0,L|0:166,1,111.999996582031,10|2,0:2|0:2,0:0:0:0:
369,64,75038,2,0,P|401:122|378:177,1,111.999996582031,2|2,1:2|0:2,0:0:0:0:
206,228,75308,2,0,P|196:174|226:128,1,111.999996582031,10|0,0:2|1:0,0:0:0:0:
431,246,75578,5,2,1:2:0:0:
398,251,75645,1,2,0:2:0:0:
364,255,75713,1,2,0:2:0:0:
330,259,75780,1,2,0:2:0:0:
296,264,75848,2,0,L|285:325,3,55.9999982910157,10|2|2|2,0:2|0:2|0:2|0:2,0:0:0:0:
204,373,76118,2,0,L|193:312,3,55.9999982910157,6|2|2|2,1:2|0:2|1:2|0:2,0:0:0:0:
115,265,76388,2,0,L|104:326,3,55.9999982910157,14|2|2|2,0:2|0:2|0:2|0:2,0:0:0:0:
23,367,76658,6,0,L|-3:215,1,111.999996582031,4|2,1:1|0:2,0:0:0:0:
29,184,76860,1,2,0:2:0:0:
35,167,76928,2,0,P|91:139|134:183,1,111.999996582031,8|2,0:2|0:2,0:0:0:0:
249,184,77198,2,0,P|201:133|226:94,1,111.999996582031,2|2,1:2|1:2,0:0:0:0:
315,35,77468,1,10,0:2:0:0:
297,110,77603,1,2,0:2:0:0:
485,112,77738,6,0,P|506:57|466:24,1,111.999996582031,2|2,1:2|0:2,0:0:0:0:
394,154,78008,2,0,L|433:330,1,167.999994873047,10|0,0:2|0:0,0:0:0:0:
379,378,78278,2,0,P|316:362|314:318,1,111.999996582031,2|2,1:2|1:2,0:0:0:0:
297,110,78548,2,0,L|272:245,1,111.999996582031,8|2,0:2|0:2,0:0:0:0:
200,308,78818,6,0,P|135:300|112:248,1,111.999996582031,2|2,1:2|1:2,0:0:0:0:
68,195,79020,1,2,1:2:0:0:
57,186,79088,2,0,L|85:66,1,111.999996582031,8|2,0:2|1:2,0:0:0:0:
200,308,79358,2,0,L|181:178,1,111.999996582031,2|0,1:2|1:2,0:0:0:0:
226,71,79628,1,2,1:2:0:0:
297,110,79763,1,2,1:2:0:0:
457,18,79898,37,6,1:2:0:0:
461,51,79965,1,2,1:2:0:0:
468,84,80033,1,2,1:2:0:0:
474,116,80100,1,2,1:2:0:0:
479,149,80168,2,0,L|490:206,3,55.9999982910157,6|2|2|2,1:2|1:2|1:2|1:2,0:0:0:0:
408,196,80438,2,0,L|419:253,3,55.9999982910157,6|2|2|2,1:2|1:2|1:2|1:2,0:0:0:0:
336,241,80708,2,0,L|347:298,3,55.9999982910157,6|2|2|2,1:2|1:2|1:2|1:2,0:0:0:0:
353,323,80978,5,4,1:1:0:0:
0,0,88403,69,0,1:2:0:0:
5,21,88470,1,0,1:2:0:0:
11,40,88538,2,0,L|23:80,15,22.0000006713867,2|0|0|0|0|0|0|0|0|0|0|0|0|0|0|0,1:1|0:0|0:0|0:0|1:2|0:0|0:0|0:0|1:2|0:0|0:0|0:0|1:2|0:0|0:0|0:0,0:0:0:0:
94,78,89618,6,0,L|99:42,15,30.0000011444092,2|0|0|0|0|0|0|0|0|0|0|0|0|0|0|0,1:1|0:0|0:0|0:0|1:2|0:0|0:0|0:0|1:2|0:0|0:0|0:0|1:2|0:0|0:0|0:0,0:0:0:0:
172,78,90698,102,0,L|182:126,15,37.9999989852906,2|0|0|0|0|0|0|0|0|0|0|0|0|0|0|0,1:1|0:0|0:0|0:0|1:2|0:0|0:0|0:0|1:2|0:0|0:0|0:0|1:2|0:0|0:0|0:0,0:0:0:0:
250,155,91778,6,0,L|261:100,15,46.0000008773804,2|0|0|0|0|0|0|0|0|0|0|0|0|0|0|0,1:1|0:0|0:0|0:0|1:2|0:0|0:0|0:0|1:2|0:0|0:0|0:0|1:2|0:0|1:2|0:0,0:0:0:0:
326,167,92858,102,0,L|334:225,15,54.0000002059937,2|0|0|0|0|0|0|0|0|0|0|0|0|0|0|0,1:1|0:0|0:0|0:0|1:2|0:0|0:0|0:0|1:2|0:0|0:0|0:0|1:2|0:0|0:0|0:0,0:0:0:0:
408,187,93938,6,0,L|422:105,15,62.0000004730225,2|0|0|0|0|0|0|0|0|0|0|0|0|0|0|0,1:1|0:0|0:0|0:0|1:2|0:0|0:0|0:0|1:2|0:0|0:0|0:0|1:2|0:0|0:0|0:0,0:0:0:0:
496,182,95018,102,0,L|508:253,3,62.0000004730225,2|0|0|0,1:1|0:0|1:2|1:2,0:0:0:0:
426,263,95288,2,0,L|414:334,3,62.0000004730225,0|0|0|0,1:2|0:0|1:2|0:0,0:0:0:0:
332,221,95558,2,0,L|344:292,3,62.0000004730225,0|0|0|0,1:2|0:0|1:2|0:0,0:0:0:0:
258,264,95828,2,0,L|246:335,3,62.0000004730225,0|0|0|0,1:2|0:0|1:2|0:0,0:0:0:0:
167,223,96098,2,0,L|179:294,3,62.0000004730225,2|0|0|0,1:1|0:0|1:2|0:0,0:0:0:0:
92,271,96368,2,0,L|80:342,3,62.0000004730225,0|0|0|0,1:2|0:0|1:2|0:0,0:0:0:0:
0,230,96638,2,0,L|10:305,3,62.0000004730225,2|0|0|0,1:1|0:0|1:2|0:0,0:0:0:0:
52,152,96908,5,0,1:2:0:0:
68,112,96975,1,0,1:0:0:0:
102,85,97043,1,0,1:2:0:0:
144,79,97110,1,0,1:0:0:0:
186,89,97178,1,6,1:1:0:0:
10,15,97988,101,2,0:2:0:0:
12,33,98055,1,2,0:2:0:0:
15,52,98123,1,2,0:2:0:0:
18,70,98190,1,2,0:2:0:0:
22,89,98258,22,0,L|57:278,1,180.000006866455,4|2,1:2|0:2,0:0:0:0:
115,317,98528,2,0,P|175:333|225:290,1,120.000004577637,8|2,0:2|0:2,0:0:0:0:
366,165,98798,2,0,P|317:133|261:149,1,120.000004577637,2|0,1:2|0:0,0:0:0:0:
183,33,99068,1,10,0:2:0:0:
119,157,99203,1,0,1:2:0:0:
197,207,99338,6,0,P|236:244|203:311,1,120.000004577637,2|2,1:2|0:2,0:0:0:0:
187,373,99540,1,2,0:2:0:0:
172,378,99608,2,0,L|44:360,1,120.000004577637,8|2,0:2|0:2,0:0:0:0:
196,113,99878,2,0,B|279:97|279:97|291:104|291:104|396:85,1,180.000006866455,2|0,1:2|0:0,0:0:0:0:
421,32,100148,1,10,0:2:0:0:
492,151,100283,1,2,1:2:0:0:
415,273,100418,6,0,P|375:214|409:170,1,120.000004577637,2|2,1:2|0:2,0:0:0:0:
497,238,100620,1,2,0:2:0:0:
506,246,100688,2,0,L|481:371,1,120.000004577637,8|2,0:2|0:2,0:0:0:0:
307,314,100958,2,0,L|284:186,1,120.000004577637,2|0,1:2|0:0,0:0:0:0:
339,20,101228,1,10,0:2:0:0:
270,62,101363,1,2,0:2:0:0:
146,9,101498,6,0,P|85:26|74:78,1,120.000004577637,2|2,1:2|1:2,0:0:0:0:
16,128,101700,1,2,1:2:0:0:
4,135,101768,2,0,L|34:268,1,120.000004577637,8|2,0:2|1:2,0:0:0:0:
155,375,102038,1,6,1:2:0:0:
217,320,102173,1,2,1:2:0:0:
145,194,102308,1,6,1:2:0:0:
134,275,102443,1,2,1:2:0:0:
285,376,102578,6,0,L|434:345,1,120.000004577637,6|2,1:2|0:2,0:0:0:0:
448,289,102780,1,2,0:2:0:0:
459,275,102848,2,0,P|474:210|433:175,1,120.000004577637,8|2,0:2|0:2,0:0:0:0:
292,6,103118,2,0,P|254:49|272:104,1,120.000004577637,2|2,1:2|0:2,0:0:0:0:
290,263,103388,1,8,0:2:0:0:
330,188,103523,1,2,1:2:0:0:
260,343,103658,6,0,L|228:222,1,120.000004577637,2|2,1:2|0:2,0:0:0:0:
470,61,103928,2,0,L|439:177,1,120.000004577637,10|2,0:2|0:2,0:0:0:0:
402,351,104198,1,2,1:2:0:0:
476,323,104333,1,2,1:2:0:0:
330,188,104468,2,0,L|138:160,1,180.000006866455,10|0,0:2|0:0,0:0:0:0:
80,188,104738,38,0,P|41:243|70:288,1,120.000004577637,2|2,1:2|0:2,0:0:0:0:
266,95,105008,2,0,P|286:41|248:0,1,120.000004577637,10|2,0:2|0:2,0:0:0:0:
66,29,105278,1,2,1:2:0:0:
26,97,105413,1,2,0:2:0:0:
232,171,105548,2,0,L|249:313,1,120.000004577637,10|2,0:2|1:2,0:0:0:0:
435,366,105818,6,0,L|449:246,1,120.000004577637,2|2,1:2|1:2,0:0:0:0:
500,84,106088,1,4,0:1:0:0:
482,46,106155,1,2,3:2:0:0:
442,30,106223,1,2,3:2:0:0:
401,39,106290,1,0,3:0:0:0:
377,74,106358,1,6,1:2:0:0:
358,111,106425,1,0,1:0:0:0:
317,124,106493,1,0,1:0:0:0:
276,116,106560,1,0,1:0:0:0:
253,80,106628,2,0,P|257:43|283:24,3,60.0000022888184,6|0|2|0,1:2|1:0|1:2|1:0,0:0:0:0:
135,61,106898,6,0,P|175:111|168:169,1,120.000004577637,6|2,0:2|0:2,0:0:0:0:
0,268,107168,2,0,P|-2:209|35:165,1,120.000004577637,10|2,0:2|0:2,0:0:0:0:
140,321,107438,1,2,1:2:0:0:
51,348,107573,1,2,0:2:0:0:
202,244,107708,1,10,0:2:0:0:
276,286,107843,1,2,0:2:0:0:
396,197,107978,5,2,1:2:0:0:
443,149,108068,5,2,0:2:0:0:
439,84,108158,5,2,0:2:0:0:
391,45,108248,38,0,L|242:23,1,120.000004577637,10|0,0:2|0:0,0:0:0:0:
170,163,108518,2,0,L|288:145,1,120.000004577637,2|2,1:2|0:2,0:0:0:0:
370,276,108788,1,8,0:2:0:0:
327,360,108923,1,0,1:2:0:0:
327,360,108990,1,0,0:0:0:0:
327,360,109058,6,0,L|459:375,1,120.000004577637,2|2,1:2|0:2,0:0:0:0:
146,255,109328,2,0,L|278:240,1,120.000004577637,10|2,0:2|0:2,0:0:0:0:
0,360,109598,2,0,L|132:375,1,120.000004577637,2|2,1:2|0:2,0:0:0:0:
370,276,109868,1,10,0:2:0:0:
348,166,110003,1,0,1:0:0:0:
473,54,110138,5,2,1:2:0:0:
431,47,110205,1,2,0:2:0:0:
389,38,110273,1,2,0:2:0:0:
348,29,110340,1,2,0:2:0:0:
306,20,110408,2,0,L|239:9,3,60.0000022888184,10|2|2|2,0:2|0:2|0:2|0:2,0:0:0:0:
205,76,110678,2,0,L|58:96,1,120.000004577637,6|2,1:2|1:2,0:0:0:0:
348,166,110948,2,0,L|495:186,1,120.000004577637,14|2,0:2|0:2,0:0:0:0:
166,329,111218,6,0,P|214:261|195:220,1,120.000004577637,4|2,1:1|0:2,0:0:0:0:
154,166,111420,1,2,0:2:0:0:
141,157,111488,2,0,L|0:177,1,120.000004577637,8|2,0:2|0:2,0:0:0:0:
168,0,111758,2,0,P|212:51|198:109,1,120.000004577637,2|2,1:2|1:2,0:0:0:0:
314,245,112028,1,10,0:2:0:0:
348,166,112163,1,2,0:2:0:0:
423,356,112298,6,0,L|407:226,1,120.000004577637,2|2,1:2|0:2,0:0:0:0:
507,15,112568,2,0,L|479:148,1,120.000004577637,10|2,0:2|0:2,0:0:0:0:
314,245,112838,2,0,P|270:199|269:137,1,120.000004577637,2|2,1:2|1:2,0:0:0:0:
310,75,113040,1,2,0:2:0:0:
302,59,113108,2,0,B|241:52|241:52|238:48|238:48|169:40,1,120.000004577637,8|2,0:2|0:2,0:0:0:0:
46,96,113378,5,2,1:2:0:0:
157,181,113513,1,2,1:2:0:0:
157,181,113580,1,2,1:2:0:0:
157,181,113648,2,0,L|141:309,1,120.000004577637,8|2,0:2|1:2,0:0:0:0:
247,384,113918,1,2,1:2:0:0:
277,257,114053,1,0,1:2:0:0:
277,257,114120,1,2,1:2:0:0:
277,257,114188,2,0,P|339:229|383:255,1,120.000004577637,2|2,1:2|1:2,0:0:0:0:
490,366,114458,37,6,1:2:0:0:
465,331,114525,1,2,1:2:0:0:
456,289,114593,1,2,1:2:0:0:
470,250,114660,1,2,1:2:0:0:
500,220,114728,1,6,1:2:0:0:
512,180,114795,1,2,1:2:0:0:
499,139,114863,1,2,1:2:0:0:
467,112,114930,1,2,1:2:0:0:
424,113,114998,2,0,L|354:121,3,60.0000022888184,6|2|2|2,1:2|1:2|1:2|1:2,0:0:0:0:
302,77,115268,2,0,L|206:61,3,60.0000022888184,6|2|2|2,1:2|1:2|1:2|1:2,0:0:0:0:
165,13,115538,6,0,L|135:154,1,120.000004577637,4|2,1:2|0:2,0:0:0:0:
71,177,115740,1,2,0:2:0:0:
61,185,115808,2,0,L|85:309,1,120.000004577637,8|2,0:2|0:2,0:0:0:0:
252,378,116078,2,0,P|312:351|317:291,1,120.000004577637,2|0,1:2|0:0,0:0:0:0:
228,161,116348,1,10,0:2:0:0:
178,231,116483,1,0,1:2:0:0:
339,224,116618,6,0,L|461:246,1,120.000004577637,2|2,1:2|0:2,0:0:0:0:
510,189,116820,1,2,0:2:0:0:
503,175,116888,2,0,L|528:41,1,120.000004577637,8|2,0:2|0:2,0:0:0:0:
339,224,117158,2,0,L|360:352,1,120.000004577637,2|0,1:2|0:0,0:0:0:0:
413,122,117428,1,10,0:2:0:0:
326,38,117563,1,2,1:2:0:0:
247,135,117698,6,0,L|110:110,1,120.000004577637,2|2,1:2|0:2,0:0:0:0:
54,144,117900,1,2,0:2:0:0:
37,150,117968,2,0,P|3:216|26:253,1,120.000004577637,8|2,0:2|0:2,0:0:0:0:
192,331,118238,2,0,P|211:276|177:230,1,120.000004577637,2|0,1:2|0:0,0:0:0:0:
13,359,118508,2,0,L|152:380,1,120.000004577637,10|2,0:2|0:2,0:0:0:0:
288,280,118778,5,2,1:2:0:0:
358,366,118913,1,2,1:2:0:0:
358,366,118980,1,2,1:2:0:0:
358,366,119048,2,0,P|391:317|364:267,1,120.000004577637,8|2,0:2|1:2,0:0:0:0:
256,99,119318,2,0,P|230:150|263:197,1,120.000004577637,6|2,1:2|1:2,0:0:0:0:
430,206,119588,1,6,1:2:0:0:
467,79,119723,1,2,1:2:0:0:
357,11,119858,6,0,L|192:-2,1,120.000004577637,6|2,1:2|0:2,0:0:0:0:
170,60,120060,1,2,0:2:0:0:
157,64,120128,2,0,P|132:136|157:169,1,120.000004577637,8|2,0:2|0:2,0:0:0:0:
266,299,120398,2,0,P|290:246|262:196,1,120.000004577637,2|2,1:2|0:2,0:0:0:0:
181,362,120668,1,8,0:2:0:0:
103,306,120803,1,2,1:2:0:0:
262,196,120938,38,0,L|436:228,1,120.000004577637,2|2,1:2|0:2,0:0:0:0:
157,64,121208,2,0,L|-17:96,1,120.000004577637,10|2,0:2|0:2,0:0:0:0:
279,91,121478,1,2,1:2:0:0:
153,166,121613,1,2,1:2:0:0:
238,313,121748,2,0,L|263:186,1,120.000004577637,10|2,0:2|0:2,0:0:0:0:
359,38,122018,6,0,P|426:29|475:73,1,120.000004577637,2|2,1:2|0:2,0:0:0:0:
487,197,122288,2,0,P|437:228|379:216,1,120.000004577637,10|2,0:2|0:2,0:0:0:0:
242,76,122558,2,0,L|262:203,1,120.000004577637,2|2,1:2|0:2,0:0:0:0:
201,336,122828,1,10,0:2:0:0:
93,256,122963,1,2,1:2:0:0:
93,256,123030,1,0,1:0:0:0:
93,256,123098,6,0,P|157:239|227:281,1,120.000004577637,2|2,1:2|1:2,0:0:0:0:
329,362,123368,2,0,P|408:358|448:314,1,120.000004577637,4|2,0:1|0:2,0:0:0:0:
499,186,123638,2,0,L|493:117,3,60.0000022888184,6|0|0|0,1:2|1:0|1:0|1:0,0:0:0:0:
424,191,123908,2,0,L|418:122,3,60.0000022888184,6|0|2|0,1:2|1:0|1:2|1:0,0:0:0:0:
372,67,124178,6,0,P|317:31|263:53,1,120.000004577637,6|2,0:2|0:2,0:0:0:0:
154,128,124448,1,10,0:2:0:0:
135,46,124583,1,2,0:2:0:0:
247,130,124718,2,0,L|233:249,1,120.000004577637,2|2,1:2|0:2,0:0:0:0:
96,366,124988,2,0,L|82:247,1,120.000004577637,10|2,0:2|0:2,0:0:0:0:
18,97,125258,5,2,1:2:0:0:
15,30,125348,5,2,0:2:0:0:
78,4,125438,37,2,0:2:0:0:
135,46,125528,6,0,P|159:97|122:155,1,120.000004577637,10|0,0:2|0:0,0:0:0:0:
0,264,125798,2,0,L|131:237,1,120.000004577637,2|2,1:2|0:2,0:0:0:0:
217,325,126068,1,8,0:2:0:0:
96,366,126203,1,0,1:2:0:0:
228,220,126338,6,0,L|254:84,1,120.000004577637,2|2,1:2|0:2,0:0:0:0:
361,362,126608,2,0,L|353:232,1,120.000004577637,10|2,0:2|0:2,0:0:0:0:
475,242,126878,2,0,L|501:108,1,120.000004577637,2|2,1:2|0:2,0:0:0:0:
419,3,127148,1,10,0:2:0:0:
331,88,127283,1,0,1:0:0:0:
190,5,127418,6,0,L|184:80,3,60.0000022888184,2|2|2|2,1:2|0:2|0:2|0:2,0:0:0:0:
128,116,127688,2,0,L|134:191,3,60.0000022888184,10|2|2|2,0:2|0:2|0:2|0:2,0:0:0:0:
189,229,127958,2,0,L|178:353,1,120.000004577637,6|2,1:2|1:2,0:0:0:0:
34,209,128228,2,0,L|25:85,1,120.000004577637,14|2,0:2|0:2,0:0:0:0:
190,5,128498,6,0,P|261:0|293:56,1,120.000004577637,4|2,1:1|0:2,0:0:0:0:
315,108,128700,1,2,0:2:0:0:
321,119,128768,2,0,P|380:157|435:139,1,120.000004577637,8|2,0:2|0:2,0:0:0:0:
506,18,129038,1,2,1:2:0:0:
389,68,129173,1,2,1:2:0:0:
484,202,129308,2,0,L|464:345,1,120.000004577637,10|2,0:2|0:2,0:0:0:0:
329,369,129578,6,0,L|318:306,3,60.0000022888184,2|2|2|2,1:2|0:2|0:2|0:2,0:0:0:0:
260,261,129848,2,0,P|196:254|155:317,1,120.000004577637,10|2,0:2|0:2,0:0:0:0:
4,371,130118,2,0,L|-15:243,1,120.000004577637,2|2,1:2|1:2,0:0:0:0:
23,180,130320,1,2,0:2:0:0:
35,168,130388,2,0,L|56:42,1,120.000004577637,8|2,0:2|0:2,0:0:0:0:
177,31,130658,38,0,P|227:84|214:132,1,120.000004577637,2|2,1:2|1:2,0:0:0:0:
168,182,130860,1,2,1:2:0:0:
157,192,130928,2,0,P|131:256|168:294,1,120.000004577637,8|2,0:2|1:2,0:0:0:0:
272,365,131198,2,0,L|394:348,1,120.000004577637,2|0,1:2|1:2,0:0:0:0:
491,231,131468,1,2,1:2:0:0:
415,200,131603,1,2,1:2:0:0:
347,68,131738,5,6,1:2:0:0:
410,17,131873,2,0,L|469:5,2,60.0000022888184,2|2|6,1:2|1:2|1:2,0:0:0:0:
280,146,132143,2,0,L|339:158,2,60.0000022888184,2|2|6,1:2|1:2|1:2,0:0:0:0:
209,25,132413,2,0,L|268:13,2,60.0000022888184,2|2|6,1:2|1:2|1:2,0:0:0:0:
120,118,132683,1,2,1:2:0:0:
56,169,132818,6,0,L|39:284,1,95.9999970703126,6|0,1:1|1:0,0:0:0:0:
151,214,133088,2,0,L|168:329,1,95.9999970703126,2|0,1:1|1:0,0:0:0:0:
263,146,133358,2,0,L|246:261,1,95.9999970703126,6|0,1:1|1:0,0:0:0:0:
348,203,133628,2,0,L|365:318,1,95.9999970703126,2|0,1:1|1:0,0:0:0:0:
457,218,133898,6,0,L|470:115,1,95.9999970703126,6|0,1:1|1:0,0:0:0:0:
362,297,134168,2,0,L|349:194,1,95.9999970703126,2|0,1:1|1:0,0:0:0:0:
250,241,134438,2,0,L|263:138,1,95.9999970703126,6|0,1:1|1:0,0:0:0:0:
165,308,134708,2,0,L|152:205,1,95.9999970703126,2|0,1:1|1:0,0:0:0:0:
60,282,134978,6,0,L|68:218,3,47.9999985351563,6|0|0|0,1:1|0:0|1:0|0:0,0:0:0:0:
165,308,135248,2,0,L|157:244,3,47.9999985351563,2|0|0|0,1:1|0:0|1:0|0:0,0:0:0:0:
250,241,135518,2,0,L|258:177,3,47.9999985351563,6|0|0|0,1:1|0:0|1:0|0:0,0:0:0:0:
362,297,135788,2,0,L|354:233,3,47.9999985351563,2|0|0|0,1:1|0:0|1:0|0:0,0:0:0:0:
446,266,136058,5,6,1:1:0:0:
466,239,136125,1,0,1:0:0:0:
476,206,136193,1,0,1:0:0:0:
468,173,136260,1,0,1:0:0:0:
440,153,136328,1,2,1:1:0:0:
417,128,136395,1,0,1:0:0:0:
406,95,136463,1,0,1:0:0:0:
410,62,136530,1,0,1:0:0:0:
430,34,136598,2,0,L|483:26,3,47.9999985351563,2|0|0|0,1:1|1:0|1:0|1:0,0:0:0:0:
281,87,136868,2,0,L|334:95,3,47.9999985351563,2|0|0|0,1:1|1:0|1:0|1:0,0:0:0:0:
218,22,137138,37,6,1:2:0:0:
256,192,137205,12,4,139298,0:1:0:0:
